osu file format v14

[General]
AudioFilename: audio.mp3
AudioLeadIn: 0
PreviewTime: 79277
Countdown: 0
SampleSet: Soft
StackLeniency: 0.5
Mode: 0
LetterboxInBreaks: 0
WidescreenStoryboard: 1

[Editor]
Bookmarks: 771,6149,6582,17744,25676,26215,28469,28642,28816,28989,45035,47826,50616,53407,56198,58989,61779,64570,81370,82067,84160,84858,87649,90439,91835,93230,94625,96021,101602,104393,107183,109974,112765,115381,115556,118172,118346,121137,126733,129531,140693,142437
DistanceSpacing: 1.2
BeatDivisor: 4
GridSize: 32
TimelineZoom: 2.1

[Metadata]
Title:Alice in Misanthrope -Ensei Alice-
TitleUnicode:Alice in Misanthrope -厭世アリス-
Artist:LeaF
ArtistUnicode:LeaF
Creator:Murasaki Nova
Version:Hard
Source:BMS
Tags:BOFU2016 - Legendary Again 想起 GOTHIC CHOIR セシル◇タイト Fouriose 孤高クローバー
BeatmapID:1400765
BeatmapSetID:588475

[Difficulty]
HPDrainRate:5
CircleSize:4
OverallDifficulty:6
ApproachRate:8
SliderMultiplier:1.4
SliderTickRate:1

[Events]
//Background and Video events
0,0,"BG.jpg",0,0
//Break Periods
2,68258,72931
//Storyboard Layer 0 (Background)
//Storyboard Layer 1 (Fail)
//Storyboard Layer 2 (Pass)
//Storyboard Layer 3 (Foreground)
//Storyboard Sound Samples

[TimingPoints]
771,379.746835443038,4,2,0,35,1,0
771,-111.111111111111,4,2,0,35,0,0
3808,346.820809248555,4,2,0,80,1,0
3808,-125,4,2,0,80,0,0
5195,-100,4,2,0,80,0,0
6149,-111.111111111111,4,2,0,80,0,0
6582,348.837209302326,4,2,0,80,1,0
6582,-100,4,2,0,80,0,0
17744,359.281437125748,4,2,0,35,1,0
17744,-111.111111111111,4,2,0,35,0,0
20617,346.820809248555,4,2,0,35,1,0
20617,-111.111111111111,4,2,0,35,0,0
23391,-100,4,2,0,35,0,0
24778,359.281437125748,4,2,0,35,1,0
26215,346.820809248555,4,2,0,60,1,0
28469,-111.111111111111,4,2,0,50,0,0
28989,348.837209302326,4,2,0,80,1,0
68058,359.281437125748,4,2,0,35,1,0
69495,355.029585798817,4,2,0,35,1,0
70915,348.837209302326,4,2,0,35,1,0
72310,342.857142857143,4,2,0,35,1,0
73681,346.820809248555,4,2,0,60,1,0
73681,-111.111111111111,4,2,0,60,0,0
76455,352.941176470588,4,2,0,60,1,0
76455,-111.111111111111,4,2,0,60,0,0
79277,348.837209302326,4,2,0,80,1,1
79277,-100,4,2,0,80,0,1
98986,-100,4,2,0,80,0,0
112765,-100,4,2,0,90,0,1
118346,-100,4,2,0,100,0,1
123927,352.941176470588,4,2,0,80,1,0
125338,348.837209302326,4,2,0,80,1,0
126733,349.854227405248,4,2,0,60,1,0
128832,-100,4,2,0,80,0,0
129531,348.837209302326,4,2,0,80,1,0

[Colours]
Combo1 : 247,136,196
Combo2 : 197,37,235
Combo3 : 128,128,255
Combo4 : 24,184,231

[HitObjects]
182,345,771,5,0,0:0:0:0:
113,215,1150,1,0,0:0:0:0:
182,345,1530,1,0,0:0:0:0:
113,215,1910,1,0,0:0:0:0:
268,295,2289,1,0,0:0:0:0:
268,295,2669,6,0,L|337:329,2,62.9999980773926
233,155,3429,2,0,L|160:116,1,62.9999980773926
192,45,3808,1,4,3:0:0:0:
340,100,4154,1,4,3:0:0:0:
371,114,4328,1,8,3:0:0:0:
402,125,4501,2,0,L|394:194,1,56,4|0,3:0|0:0,0:0:0:0:
328,243,4848,1,4,3:0:0:0:
295,251,5021,1,8,3:0:0:0:
266,256,5195,6,0,L|253:350,1,70,4|0,3:0|0:0,0:0:0:0:
193,276,5542,2,0,L|180:361,1,70,4|0,3:0|0:0,0:0:0:0:
118,297,5888,2,0,L|107:372,1,70,4|0,3:0|0:0,0:0:0:0:
83,129,6582,6,0,P|108:156|158:167,1,70,4|0,3:0|0:0,0:0:0:0:
176,96,6930,2,0,P|210:100|244:91,1,70,4|0,3:0|0:0,0:0:0:0:
280,19,7279,2,0,L|371:37,1,70,4|0,3:0|0:0,0:0:0:0:
428,27,7628,1,8,3:0:0:0:
428,27,7802,1,4,3:0:0:0:
491,75,7977,6,0,P|501:111|493:159,1,70,4|0,3:0|0:0,0:0:0:0:
425,171,8326,2,0,P|411:211|377:238,1,70,4|0,3:0|0:0,0:0:0:0:
344,166,8675,2,0,L|333:335,1,140,4|4,3:0|3:0,0:0:0:0:
288,367,9198,1,8,3:0:0:0:
224,319,9372,6,0,L|145:385,1,70,4|0,3:0|0:0,0:0:0:0:
155,285,9721,2,0,L|101:331,1,70,4|0,3:0|0:0,0:0:0:0:
83,253,10070,2,0,L|26:300,2,70,4|8|4,3:0|3:0|3:0,0:0:0:0:
93,173,10593,1,8,3:0:0:0:
93,173,10680,1,8,3:0:0:0:
93,173,10768,6,0,B|88:139|88:139|59:113,1,70,4|0,3:0|0:0,0:0:0:0:
96,28,11116,2,0,B|107:62|107:62|151:102,1,70,4|0,3:0|0:0,0:0:0:0:
214,97,11465,2,0,L|243:145,4,35,4|4|8|8|4,3:0|3:0|3:0|3:0|3:0,0:0:0:0:
252,29,11988,1,8,3:0:0:0:
325,61,12163,6,0,P|357:83|376:129,1,70,4|0,3:0|0:0,0:0:0:0:
321,173,12512,2,0,P|332:205|320:265,1,70,4|0,3:0|0:0,0:0:0:0:
262,282,12861,2,0,L|314:353,1,70,4|0,3:0|0:0,0:0:0:0:
373,377,13209,1,8,3:0:0:0:
373,377,13384,1,4,3:0:0:0:
425,316,13558,6,0,P|454:290|508:275,1,70,4|0,3:0|0:0,0:0:0:0:
484,198,13907,2,0,P|446:182|408:133,1,70,4|0,3:0|0:0,0:0:0:0:
492,120,14256,2,0,L|338:117,1,140,4|4,3:0|3:0,0:0:0:0:
287,69,14779,1,8,3:0:0:0:
207,80,14954,6,0,P|182:107|175:164,1,70,4|0,3:0|0:0,0:0:0:0:
243,178,15302,2,0,P|250:212|280:250,1,70,4|0,3:0|0:0,0:0:0:0:
325,183,15651,2,0,L|291:330,1,140,4|4,3:0|3:0,0:0:0:0:
366,372,16175,1,8,3:0:0:0:
366,372,16262,1,8,3:0:0:0:
366,372,16349,6,0,B|332:362|332:362|287:318,1,70,4|0,3:0|0:0,0:0:0:0:
225,354,16698,2,0,B|187:315|187:315|121:292,1,105,4|0,3:0|0:0,0:0:0:0:
105,275,17047,2,0,B|157:292|157:292|254:254,1,140,4|4,3:0|1:0,0:0:0:0:
218,122,17744,6,0,P|211:193|254:237,1,125.999996154785,2|2,0:0|3:0,0:0:0:0:
354,323,18462,2,0,P|281:303|227:334,1,125.999996154785,2|2,0:0|3:0,0:0:0:0:
107,368,19181,1,2,0:0:0:0:
185,247,19540,1,2,3:0:0:0:
96,355,19899,1,2,0:0:0:0:
106,211,20258,1,2,3:0:0:0:
106,211,20438,1,2,0:0:0:0:
106,211,20617,1,2,0:0:0:0:
44,100,20963,6,0,P|99:75|170:102,1,125.999996154785,2|2,3:0|0:0,0:0:0:0:
110,5,21657,2,0,P|154:44|157:120,1,125.999996154785,2|2,3:0|0:0,0:0:0:0:
84,237,22351,2,0,L|25:286,2,62.9999980773926,2|2|2,3:0|3:0|3:0,0:0:0:0:
164,239,22871,1,2,0:0:0:0:
233,279,23044,1,2,0:0:0:0:
304,316,23218,1,2,0:0:0:0:
308,222,23391,5,2,3:0:0:0:
319,143,23564,2,0,L|349:163,2,35,2|2|2,0:0|0:0|0:0,0:0:0:0:
287,69,23911,2,0,L|259:51,2,35,2|2|2,3:0|3:0|3:0,0:0:0:0:
361,41,24258,1,2,0:0:0:0:
428,85,24432,1,2,0:0:0:0:
498,123,24605,1,2,0:0:0:0:
424,176,24778,5,2,3:0:0:0:
359,222,24957,2,0,L|330:201,2,35,2|2|2,0:0|0:0|0:0,0:0:0:0:
369,301,25316,2,0,L|398:320,2,35,2|2|2,3:0|3:0|3:0,0:0:0:0:
291,319,25676,1,2,0:0:0:0:
225,273,25855,1,2,0:0:0:0:
160,226,26035,1,2,0:0:0:0:
239,171,26215,6,0,P|191:134|109:144,1,140,4|2,3:0|3:0,0:0:0:0:
195,60,26908,2,0,P|137:82|99:159,1,140,4|2,3:0|3:0,0:0:0:0:
42,303,27602,6,0,L|113:288,1,70,4|0,3:0|0:0,0:0:0:0:
99,364,27949,2,0,L|235:336,1,140,4|2,3:0|3:0,0:0:0:0:
300,299,28469,6,0,L|376:302,2,62.9999980773926,8|4|8,3:0|3:0|3:0,0:0:0:0:
237,261,28989,6,0,P|223:228|223:194,1,70,4|2,3:0|3:0,0:0:0:0:
298,170,29337,2,0,P|311:137|349:97,1,70,2|2,3:0|3:0,0:0:0:0:
332,110,29599,1,2,3:0:0:0:
332,110,29686,1,2,3:0:0:0:
409,91,29861,2,0,P|435:68|467:53,2,70,8|4|8,3:0|3:0|3:0,0:0:0:0:
396,179,30384,6,0,P|391:213|375:248,1,70,4|2,3:0|3:0,0:0:0:0:
296,239,30733,2,0,P|269:262|228:276,1,70,2|2,3:0|3:0,0:0:0:0:
237,274,30994,1,2,3:0:0:0:
237,274,31082,1,2,3:0:0:0:
161,248,31256,2,0,P|128:261|65:259,2,70,4|8|4,3:0|3:0|3:0,0:0:0:0:
186,171,31779,6,0,L|205:102,1,70,4|0,3:0|0:0,0:0:0:0:
266,156,32128,2,0,L|294:61,1,70,2|0,3:0|0:0,0:0:0:0:
372,72,32477,2,0,L|353:138,1,70,4|0,3:0|0:0,0:0:0:0:
432,126,32826,2,0,L|413:192,1,70,2|0,3:0|0:0,0:0:0:0:
491,181,33175,6,0,L|464:273,1,70,4|0,3:0|0:0,0:0:0:0:
396,273,33523,1,4,3:0:0:0:
315,278,33698,1,8,3:0:0:0:
235,279,33872,1,4,3:0:0:0:
155,288,34047,2,0,P|125:308|106:335,2,70,8|4|8,3:0|3:0|3:0,0:0:0:0:
186,214,34570,6,0,P|201:183|246:153,1,70,4|2,3:0|3:0,0:0:0:0:
302,191,34919,2,0,P|333:178|391:179,1,70,2|2,3:0|3:0,0:0:0:0:
368,175,35180,1,2,3:0:0:0:
368,175,35268,1,2,3:0:0:0:
405,246,35442,2,0,P|442:249|477:269,2,70,4|8|4,3:0|3:0|3:0,0:0:0:0:
335,285,35965,6,0,P|303:300|241:298,1,70,4|2,3:0|3:0,0:0:0:0:
233,231,36314,2,0,P|197:226|150:194,1,70,2|2,3:0|3:0,0:0:0:0:
167,210,36576,1,2,3:0:0:0:
167,210,36663,1,2,3:0:0:0:
142,133,36837,2,0,P|113:114|86:65,2,70,8|4|8,3:0|3:0|3:0,0:0:0:0:
221,145,37361,6,0,L|300:94,1,70,4|0,3:0|0:0,0:0:0:0:
295,184,37709,2,0,L|373:132,1,70,2|0,3:0|0:0,0:0:0:0:
428,183,38058,2,0,B|402:208|402:208|390:239,1,70,4|0,3:0|0:0,0:0:0:0:
467,256,38407,2,0,B|454:290|454:290|452:324,1,70,2|0,3:0|0:0,0:0:0:0:
383,365,38756,6,0,B|144:339,1,210,4|2,3:0|3:0,3:0:0:0:
161,321,39366,1,2,3:0:0:0:
149,298,39454,2,0,B|113:289|113:289|72:258,1,70,2|0,3:0|0:0,0:0:0:0:
146,217,39802,2,0,B|118:195|118:195|94:152,1,70,4|0,3:0|0:0,0:0:0:0:
181,144,40151,6,0,P|200:84|150:18,1,140,4|2,3:0|3:0,0:0:0:0:
267,60,40849,2,0,P|222:19|138:16,1,140,4|2,3:0|3:0,0:0:0:0:
289,84,41547,6,0,L|374:47,1,70,4|0,3:0|0:0,0:0:0:0:
355,135,41895,2,0,L|434:97,1,70,2|0,3:0|0:0,0:0:0:0:
415,188,42244,2,0,B|381:207|381:207|355:251,1,70,4|0,3:0|0:0,0:0:0:0:
302,184,42593,2,0,B|284:215|284:215|286:271,1,70,2|0,3:0|0:0,0:0:0:0:
266,341,42942,2,0,P|205:292|211:181,1,140,4|2,3:0|3:0,0:0:0:0:
150,339,43640,6,0,P|151:273|218:211,1,140,4|2,3:0|3:0,0:0:0:0:
355,227,44337,6,0,L|391:138,1,70,4|4,3:0|3:0,0:0:0:0:
301,166,44686,2,0,L|333:84,1,70,4|4,3:0|3:0,0:0:0:0:
277,37,45035,1,4,3:0:0:0:
223,95,45209,2,0,L|162:67,4,35,4|4|8|8|8,3:0|3:0|3:0|3:0|3:0,0:0:0:0:
219,141,45733,6,0,P|229:174|263:204,1,70,4|0,3:0|0:0,0:0:0:0:
198,256,46082,2,0,P|227:273|283:275,1,70,4|0,3:0|0:0,0:0:0:0:
328,235,46430,2,0,P|334:200|327:162,1,70,4|0,3:0|0:0,0:0:0:0:
400,130,46779,2,0,P|376:99|346:84,1,70,4|0,3:0|0:0,0:0:0:0:
270,101,47128,6,0,L|144:39,1,140,4|4,3:0|3:0,0:0:0:0:
60,40,47651,1,0,0:0:0:0:
80,121,47826,1,2,3:0:0:0:
80,121,47913,1,2,3:0:0:0:
80,121,48000,1,2,3:0:0:0:
94,197,48175,2,0,L|48:208,3,35,4|4|4|4,3:0|3:0|3:0|3:0,0:0:0:0:
131,217,48523,6,0,P|165:216|207:236,1,70,4|0,3:0|0:0,0:0:0:0:
182,308,48872,2,0,P|205:334|215:393,1,70,2|0,3:0|0:0,0:0:0:0:
296,361,49221,2,0,P|305:327|326:299,1,70,4|0,3:0|0:0,0:0:0:0:
300,223,49570,2,0,P|333:210|374:214,1,70,2|0,3:0|0:0,0:0:0:0:
439,178,49919,6,0,L|377:110,1,70,4|0,3:0|0:0,0:0:0:0:
311,131,50268,2,0,L|248:62,1,70,4|0,3:0|0:0,0:0:0:0:
184,82,50616,2,0,L|162:123,3,35,2|2|2|2,3:0|3:0|3:0|3:0,3:0:0:0:
177,150,50965,2,0,L|152:203,3,35,4|4|4|4,3:0|3:0|3:0|3:0,3:2:0:0:
174,213,51314,6,0,P|155:242|98:266,1,70,4|0,3:0|0:0,0:0:0:0:
142,340,51663,2,0,P|107:338|59:306,1,70,4|0,3:0|0:0,0:0:0:0:
47,249,52012,2,0,P|60:216|89:190,1,70,4|0,3:0|0:0,0:0:0:0:
52,121,52361,2,0,P|86:115|125:124,1,70,4|0,3:0|0:0,0:0:0:0:
189,82,52709,6,0,L|353:50,1,140,4|4,3:0|3:0,0:0:0:0:
402,16,53233,1,0,0:0:0:0:
404,99,53407,1,2,3:0:0:0:
404,99,53494,1,2,3:0:0:0:
404,99,53582,1,2,3:0:0:0:
401,177,53756,2,0,L|447:167,3,35,4|4|4|4,3:0|3:0|3:0|3:0,0:0:0:0:
373,209,54104,6,0,P|338:210|297:231,1,70,4|0,3:0|0:0,0:0:0:0:
325,302,54453,2,0,P|302:329|294:388,1,70,2|0,3:0|0:0,0:0:0:0:
213,360,54802,2,0,P|202:327|180:300,1,70,4|0,3:0|0:0,0:0:0:0:
202,223,55151,2,0,P|168:212|127:217,1,70,2|0,3:0|0:0,0:0:0:0:
54,217,55500,6,0,L|91:130,1,70,4|0,3:0|0:0,0:0:0:0:
159,136,55849,2,0,L|198:43,1,70,4|0,3:0|0:0,0:0:0:0:
260,41,56198,2,0,L|279:84,3,35,2|2|2|2,3:0|3:0|3:0|3:0,3:0:0:0:
266,109,56547,2,0,L|289:165,3,35,4|4|4|4,3:0|3:0|3:0|3:0,3:2:0:0:
268,178,56896,6,0,P|284:209|341:233,1,70,4|0,3:0|0:0,0:0:0:0:
295,310,57244,2,0,P|329:310|377:279,1,70,4|0,3:0|0:0,0:0:0:0:
392,216,57594,2,0,P|379:184|347:156,1,70,4|0,3:0|0:0,0:0:0:0:
386,81,57943,2,0,P|349:73|309:81,1,70,4|0,3:0|0:0,0:0:0:0:
242,40,58291,6,0,L|117:127,1,140,4|4,3:0|3:0,0:0:0:0:
43,129,58814,1,0,0:0:0:0:
89,199,58989,1,2,3:0:0:0:
89,199,59076,1,2,3:0:0:0:
89,199,59163,1,2,3:0:0:0:
134,262,59337,2,0,L|107:290,3,35,4|4|4|4,3:0|3:0|3:0|3:0,3:2:0:0:
177,257,59686,6,0,P|208:243|254:243,1,70,4|0,3:0|0:0,0:0:0:0:
262,317,60035,2,0,P|294:331|328:379,1,70,2|0,3:0|0:0,0:0:0:0:
387,319,60384,2,0,P|381:285|389:251,1,70,4|0,3:0|0:0,0:0:0:0:
335,191,60733,2,0,P|360:166|399:152,1,70,2|0,3:0|0:0,0:0:0:0:
462,116,61082,6,0,L|409:64,1,70,4|0,3:0|0:0,0:0:0:0:
336,88,61430,2,0,L|286:38,1,70,4|0,3:0|0:0,0:0:0:0:
218,79,61779,2,0,L|169:40,4,35,8|8|8|8|8,3:0|3:0|3:0|3:0|3:0,0:0:0:0:
229,162,62302,1,8,3:0:0:0:
229,162,62390,1,8,3:0:0:0:
229,162,62477,6,0,P|230:196|192:247,1,70,4|0,3:0|0:0,0:0:0:0:
267,293,62826,2,0,P|238:309|180:305,1,70,4|0,3:0|0:0,0:0:0:0:
137,256,63175,2,0,P|133:221|145:184,1,70,4|0,3:0|0:0,0:0:0:0:
74,138,63524,2,0,P|101:112|138:102,1,70,4|0,3:0|0:0,0:0:0:0:
206,138,63872,6,0,L|352:74,1,140,4|4,3:0|3:0,0:0:0:0:
415,89,64395,1,0,0:0:0:0:
461,158,64570,6,0,L|405:176,1,35,4|8,3:0|3:0,0:0:0:0:
457,242,64832,2,0,L|397:261,1,35,4|8,3:0|3:0,0:0:0:0:
451,330,65093,2,0,L|390:352,1,35,4|8,3:0|3:0,0:0:0:0:
383,322,65268,6,0,P|348:323|305:306,1,70,4|4,3:0|3:0,0:0:0:0:
326,232,65617,2,0,P|301:206|287:148,1,70,4|4,3:0|3:0,0:0:0:0:
211,184,65965,2,0,P|202:217|183:246,1,70,4|4,3:0|3:0,0:0:0:0:
211,322,66315,2,0,P|178:335|136:333,1,70,4|4,3:0|3:0,0:0:0:0:
109,265,66663,6,0,L|94:191,1,70,8|8,3:0|3:0,0:0:0:0:
150,138,67012,2,0,L|135:64,1,70,8|8,3:0|3:0,0:0:0:0:
217,90,67361,2,0,P|288:96|356:30,1,140,2|8,3:0|1:0,0:0:0:0:
323,210,68058,5,4,0:0:0:0:
292,82,73681,5,4,3:0:0:0:
292,82,74374,1,4,3:0:0:0:
292,82,75068,1,4,3:0:0:0:
292,82,75761,1,4,3:0:0:0:
370,103,76455,6,0,B|362:140|336:167|282:177|242:147|242:147|232:171|232:171|194:138|144:158,1,251.999992309571,4|4,3:0|3:0,0:0:0:0:
178,231,77337,1,2,3:0:0:0:
241,280,77513,1,2,3:0:0:0:
305,329,77690,1,2,3:0:0:0:
379,299,77866,6,0,L|450:243,1,62.9999980773926,4|0,3:0|0:0,0:0:0:0:
376,207,78219,2,0,L|440:157,1,62.9999980773926,4|0,3:0|0:0,0:0:0:0:
492,123,78572,1,4,3:0:0:0:
437,65,78749,2,0,L|470:16,5,31.4999990386963,4|8|4|8|4|8,3:0|3:0|3:0|3:0|3:0|3:0,0:0:0:0:
402,70,79277,6,0,P|371:88|312:87,1,70,4|0,3:0|0:0,0:0:0:0:
288,30,79625,2,0,P|253:26|198:-5,1,70,4|0,3:0|0:0,0:0:0:0:
171,75,79974,2,0,P|196:100|214:143,1,70,4|0,3:0|0:0,0:0:0:0:
286,158,80323,2,0,P|290:192|281:226,1,70,4|4,3:0|3:0,0:0:0:0:
221,280,80672,6,0,L|368:359,1,140,4|4,3:0|3:0,0:0:0:0:
419,372,81195,1,4,3:0:0:0:
445,297,81370,2,0,L|422:235,3,35,4|0|0|8,3:0|0:0|0:0|3:0,3:0:0:0:
398,243,81718,2,0,L|379:196,3,35,4|0|4|0,3:0|0:0|3:0|0:0,3:2:0:0:
346,196,82067,6,0,P|324:166|274:135,1,70,4|0,3:0|0:0,0:0:0:0:
222,171,82416,2,0,P|187:158|123:160,1,70,4|0,3:0|0:0,0:0:0:0:
104,219,82765,2,0,P|118:251|167:291,1,70,4|0,3:0|0:0,0:0:0:0:
140,356,83114,2,0,P|166:376|202:383,1,70,4|4,3:0|3:0,0:0:0:0:
218,370,83375,1,0,0:0:0:0:
230,357,83463,6,0,P|258:337|301:331,1,70,4|0,3:0|0:0,0:0:0:0:
373,329,83811,1,4,3:0:0:0:
405,256,83986,1,4,3:0:0:0:
430,180,84160,6,0,L|378:164,3,35,4|0|0|8,3:0|0:0|0:0|3:0,3:0:0:0:
360,188,84509,2,0,L|313:173,3,35,4|0|4|0,3:0|0:0|3:0|0:0,3:2:0:0:
291,197,84858,6,0,P|255:193|205:206,1,70,4|0,3:0|0:0,0:0:0:0:
200,276,85207,2,0,P|166:289|128:336,1,70,4|0,3:0|0:0,0:0:0:0:
76,267,85556,2,0,P|88:234|82:175,1,70,4|0,3:0|0:0,0:0:0:0:
154,155,85904,2,0,P|145:120|122:90,1,70,4|4,3:0|3:0,0:0:0:0:
71,33,86253,6,0,L|222:-2,1,140,4|4,3:0|3:0,0:0:0:0:
277,40,86777,1,4,3:0:0:0:
343,83,86951,2,0,L|386:114,3,35,4|0|0|8,3:0|0:0|0:0|3:0,3:0:0:0:
409,95,87300,2,0,L|451:124,3,35,4|0|4|0,3:0|0:0|3:0|0:0,3:2:0:0:
477,108,87649,5,4,3:0:0:0:
438,262,87997,2,0,L|473:301,4,35,2|2|2|2|2,3:0|3:0|3:0|3:0|3:0,3:0:0:0:
357,270,88521,1,8,3:0:0:0:
357,270,88695,1,4,3:0:0:0:
287,310,88870,1,8,3:0:0:0:
217,348,89044,6,0,L|71:320,1,140,4|4,3:0|3:0,0:0:0:0:
12,277,89567,1,8,3:0:0:0:
12,277,89654,1,4,3:0:0:0:
12,277,89742,2,0,P|45:235|44:166,1,105,4|0,3:0|0:0,2:0:0:0:
34,149,90090,2,0,L|3:128,3,35,4|8|4|4,3:0|3:0|3:0|3:0,0:0:0:0:
79,137,90439,6,0,P|108:153|143:158,1,70,4|0,3:0|0:0,0:0:0:0:
193,93,90788,2,0,P|226:84|252:62,1,70,4|0,3:0|0:0,0:0:0:0:
310,119,91137,2,0,P|282:141|265:171,1,70,4|0,3:0|0:0,0:0:0:0:
198,214,91486,2,0,P|189:247|190:282,1,70,4|4,3:0|3:0,0:0:0:0:
237,347,91835,6,0,L|291:347,1,35,4|8,3:0|3:0,0:0:0:0:
280,257,92096,2,0,L|339:258,1,35,4|8,3:0|3:0,0:0:0:0:
318,165,92358,2,0,L|384:167,1,35,4|8,3:0|3:0,0:0:0:0:
361,76,92620,2,0,L|428:77,1,35,4|8,3:0|3:0,0:0:0:0:
462,32,92881,1,8,3:0:0:0:
462,32,93056,1,8,3:0:0:0:
464,111,93230,6,0,P|463:145|452:178,1,70,4|0,3:0|0:0,0:0:0:0:
376,204,93579,2,0,P|363:236|340:262,1,70,4|0,3:0|0:0,0:0:0:0:
266,237,93928,2,0,P|262:202|270:168,1,70,4|8,3:0|3:0,0:0:0:0:
285,153,94189,1,4,3:0:0:0:
298,140,94277,2,0,P|299:105|285:73,1,70,4|8,3:0|3:0,0:0:0:0:
219,29,94625,6,0,L|160:28,1,35,4|8,3:0|3:0,0:0:0:0:
181,128,94887,2,0,L|123:129,1,35,4|8,3:0|3:0,0:0:0:0:
146,226,95149,2,0,L|82:226,1,35,4|8,3:0|3:0,0:0:0:0:
108,322,95410,2,0,L|44:321,1,35,4|8,3:0|3:0,0:0:0:0:
21,260,95672,1,8,3:0:0:0:
21,260,95846,1,8,3:0:0:0:
42,182,96021,6,0,P|65:157|97:143,1,70,4|0,3:0|0:0,0:0:0:0:
156,196,96370,2,0,P|189:195|235:217,1,70,4|0,3:0|0:0,0:0:0:0:
230,288,96718,2,0,P|197:304|153:305,1,70,4|0,3:0|0:0,0:0:0:0:
134,382,97067,2,0,P|96:372|57:346,1,70,4|4,3:0|3:0,0:0:0:0:
26,289,97416,6,0,P|47:199|109:169,1,140,4|4,3:0|3:0,0:0:0:0:
164,204,97939,1,4,3:0:0:0:
139,288,98114,2,0,P|79:217|95:150,1,140,4|4,3:0|3:0,0:0:0:0:
145,126,98637,1,8,3:0:0:0:
223,141,98811,6,0,L|285:77,1,70,4|12,3:0|3:0,0:0:0:0:
256,192,99509,12,0,100904,0:0:0:0:
345,130,101602,6,0,L|380:93,4,35,4|4|4|4|4,3:0|3:0|3:0|3:0|3:0,3:0:0:0:
297,65,102125,2,4,L|319:18,4,35,2|2|2|2|2,3:0|3:0|3:0|3:0|3:0,3:0:0:0:
216,65,102649,2,0,L|194:18,4,35,4|4|4|4|4,3:0|3:0|3:0|3:0|3:0,3:0:0:0:
170,130,103172,2,4,L|125:93,4,35,2|2|2|2|2,3:0|3:0|3:0|3:0|3:0,3:0:0:0:
160,206,103695,1,4,3:0:0:0:
160,206,103870,1,8,3:0:0:0:
107,264,104044,1,4,3:0:0:0:
107,264,104218,1,8,3:0:0:0:
149,332,104393,6,0,L|149:367,4,35,4|4|4|4|4,3:0|3:0|3:0|3:0|3:0,3:0:0:0:
224,303,104917,2,4,L|224:338,4,35,2|2|2|2|2,3:0|3:0|3:0|3:0|3:0,3:0:0:0:
298,274,105440,2,0,L|297:309,4,35,4|4|4|4|4,3:0|3:0|3:0|3:0|3:0,3:0:0:0:
372,243,105963,2,4,L|372:278,4,35,2|2|2|2|2,3:0|3:0|3:0|3:0|3:0,3:0:0:0:
426,183,106486,1,4,3:0:0:0:
426,183,106660,1,8,3:0:0:0:
426,102,106835,1,4,3:0:0:0:
426,102,107009,1,8,3:0:0:0:
355,59,107183,6,0,L|354:23,4,35,4|4|4|4|4,3:0|3:0|3:0|3:0|3:0,3:0:0:0:
275,47,107707,2,4,L|263:13,4,35,2|2|2|2|2,3:0|3:0|3:0|3:0|3:0,3:0:0:0:
217,104,108230,2,0,L|184:91,4,35,4|4|4|4|4,3:0|3:0|3:0|3:0|3:0,3:0:0:0:
231,183,108753,2,4,L|197:186,4,35,2|2|2|2|2,3:0|3:0|3:0|3:0|3:0,3:0:0:0:
292,234,109277,1,4,3:0:0:0:
292,234,109451,1,8,3:0:0:0:
312,310,109625,1,4,3:0:0:0:
312,310,109800,1,8,3:0:0:0:
373,360,109974,6,4,L|410:360,4,35,4|4|4|4|4,3:0|3:0|3:0|3:0|3:0,3:0:0:0:
404,287,110497,2,0,L|440:288,4,35,2|2|2|2|2,3:0|3:0|3:0|3:0|3:0,3:0:0:0:
434,211,111021,2,4,L|472:211,4,35,4|4|4|4|4,3:0|3:0|3:0|3:0|3:0,3:0:0:0:
463,138,111544,2,0,L|502:138,4,35,2|2|2|2|2,3:0|3:0|3:0|3:0|3:0,3:0:0:0:
399,88,112067,1,4,3:0:0:0:
399,88,112242,1,8,3:0:0:0:
319,88,112416,1,4,3:0:0:0:
319,88,112590,1,8,3:0:0:0:
239,79,112765,6,0,P|250:46|273:20,2,70,4|4|4,3:0|3:0|3:0,0:0:0:0:
195,145,113288,1,4,3:0:0:0:
226,218,113463,1,4,3:0:0:0:
271,152,113637,1,4,3:0:0:0:
239,79,113811,6,0,P|206:67|171:69,2,70,4|4|4,3:0|3:0|3:0,0:0:0:0:
317,83,114335,1,4,3:0:0:0:
351,155,114509,1,4,3:0:0:0:
271,152,114683,1,4,3:0:0:0:
317,83,114858,6,0,P|352:73|393:86,1,70,4|0,3:0|0:0,0:0:0:0:
428,146,115207,2,0,P|423:182|403:212,1,70,4|8,3:0|3:0,0:0:0:0:
387,223,115468,1,4,3:0:0:0:
370,234,115556,6,0,P|351:262|343:298,2,70,4|4|4,3:0|3:0|3:0,0:0:0:0:
351,155,116079,1,4,3:0:0:0:
276,126,116254,1,4,3:0:0:0:
292,205,116428,1,4,3:0:0:0:
370,234,116602,6,0,P|401:218|424:192,2,70,4|4|4,3:0|3:0|3:0,0:0:0:0:
310,285,117126,1,4,3:0:0:0:
235,260,117300,1,4,3:0:0:0:
292,205,117474,1,4,3:0:0:0:
310,285,117649,6,0,P|293:314|254:339,1,70,4|0,3:0|0:0,0:0:0:0:
185,323,117997,2,0,P|162:294|155:260,1,70,4|4,3:0|3:0,0:0:0:0:
157,241,118259,1,4,3:0:0:0:
162,222,118346,6,0,L|177:188,4,35,8|8|8|8|8,3:0|3:0|3:0|3:0|3:0,0:0:0:0:
236,252,118870,2,0,L|256:206,4,35,8|8|8|8|8,3:0|3:0|3:0|3:0|3:0,0:0:0:0:
311,279,119393,2,0,L|327:244,4,35,8|8|8|8|8,3:0|3:0|3:0|3:0|3:0,0:0:0:0:
384,311,119916,2,0,L|404:266,4,35,8|8|8|8|8,3:0|3:0|3:0|3:0|3:0,0:0:0:0:
467,243,120439,1,4,3:0:0:0:
397,204,120614,1,8,3:0:0:0:
457,152,120788,1,4,3:0:0:0:
384,119,120963,1,8,3:0:0:0:
440,63,121137,6,0,L|497:25,4,35,8|8|8|8|8,3:0|3:0|3:0|3:0|3:0,0:0:0:0:
372,32,121660,2,0,L|339:52,4,35,8|8|8|8|8,3:0|3:0|3:0|3:0|3:0,0:0:0:0:
256,192,122183,12,0,123927,0:0:0:0:
390,180,125338,6,0,B|363:152|363:152|315:127,1,70,4|0,3:0|0:0,0:0:0:0:
259,162,125686,2,0,B|206:151|206:151|146:102,1,105,4|0,3:0|0:0,0:0:0:0:
129,103,126035,2,0,B|181:148|181:148|190:223,1,140,4|4,3:0|1:0,0:0:0:0:
229,367,126733,6,0,P|246:338|290:311,1,70,4|2,3:0|3:0,0:0:0:0:
296,314,126995,1,2,3:0:0:0:
317,311,127082,2,0,P|339:284|351:236,1,70,2|2,3:0|3:0,0:0:0:0:
418,209,127432,2,0,P|431:174|422:117,1,70,4|2,3:0|3:0,3:0:0:0:
417,126,127695,1,2,3:0:0:0:
402,111,127782,2,0,P|408:75|449:28,1,70,2|2,3:0|3:0,3:0:0:0:
345,40,128132,6,0,L|253:65,1,70,4|2,3:0|3:0,0:0:0:0:
321,125,128482,2,0,L|228:153,1,70,4|0,3:0|0:0,0:0:0:0:
174,133,128832,1,4,3:0:0:0:
174,133,129007,1,4,3:0:0:0:
174,133,129181,1,4,3:0:0:0:
79,288,129531,6,0,P|90:325|136:367,1,70,4|0,3:0|0:0,0:0:0:0:
183,321,129879,2,0,P|209:344|268:353,1,70,4|0,3:0|0:0,0:0:0:0:
305,305,130228,2,0,P|333:323|397:333,1,70,4|0,3:0|0:0,0:0:0:0:
447,348,130577,1,4,3:0:0:0:
447,348,130751,1,4,3:0:0:0:
451,268,130926,6,0,P|438:236|394:204,1,70,4|0,3:0|0:0,0:0:0:0:
337,241,131275,2,0,P|306:218|242:216,1,70,4|0,3:0|0:0,0:0:0:0:
275,291,131624,2,0,L|183:202,1,105,4|4,3:0|3:0,0:0:0:0:
160,212,131972,1,4,3:0:0:0:
121,141,132147,1,8,3:0:0:0:
164,74,132321,6,0,P|190:50|250:38,1,70,4|0,3:0|0:0,0:0:0:0:
281,93,132670,2,0,P|315:94|346:110,1,70,4|0,3:0|0:0,0:0:0:0:
298,174,133019,2,0,B|346:164|346:164|419:189,1,105,4|8,3:0|3:0,0:0:0:0:
414,219,133368,1,4,3:0:0:0:
410,306,133542,1,8,3:0:0:0:
410,306,133629,1,8,3:0:0:0:
410,306,133717,2,0,B|367:322|367:322|287:305,1,105,4|0,3:0|0:0,0:0:0:0:
271,322,134065,1,4,3:0:0:0:
194,344,134240,1,0,0:0:0:0:
116,363,134414,6,0,L|98:297,4,35,4|0|0|8|4,3:0|0:0|0:0|3:0|3:0,3:0:0:0:
98,255,134937,1,8,3:0:0:0:
119,181,135112,6,0,P|137:151|184:126,1,70,4|0,3:0|0:0,0:0:0:0:
233,177,135461,2,0,P|265:164|321:171,1,70,4|0,3:0|0:0,0:0:0:0:
337,236,135810,2,0,P|373:232|427:249,1,70,4|0,3:0|0:0,0:0:0:0:
459,180,136158,1,4,3:0:0:0:
459,180,136333,1,8,3:0:0:0:
434,105,136507,6,0,P|417:76|363:49,1,70,4|0,3:0|0:0,0:0:0:0:
324,102,136856,2,0,P|290:88|257:89,1,70,4|0,3:0|0:0,0:0:0:0:
207,152,137205,2,0,P|174:156|129:189,1,70,4|8,3:0|3:0,0:0:0:0:
142,174,137467,1,4,3:0:0:0:
142,174,137554,1,4,3:0:0:0:
86,231,137728,1,8,3:0:0:0:
119,303,137903,6,0,P|140:329|175:351,1,70,4|0,3:0|0:0,0:0:0:0:
232,300,138251,2,0,P|266:316|299:318,1,70,4|0,3:0|0:0,0:0:0:0:
340,251,138600,2,0,P|376:255|433:230,1,70,4|8,3:0|3:0,0:0:0:0:
408,246,138862,1,4,3:0:0:0:
408,246,138949,1,4,3:0:0:0:
470,196,139124,1,8,3:0:0:0:
470,196,139211,1,8,3:0:0:0:
470,196,139298,1,4,3:0:0:0:
465,45,140519,5,4,3:0:0:0:
425,115,140693,2,0,L|425:149,1,35,4|8,3:0|3:0,0:0:0:0:
344,156,140955,2,0,L|344:190,1,35,4|8,3:0|3:0,0:0:0:0:
264,199,141217,2,0,L|263:233,1,35,4|8,3:0|3:0,0:0:0:0:
184,240,141478,2,0,L|184:276,1,35,4|8,3:0|3:0,0:0:0:0:
136,354,141740,2,0,L|51:342,1,70,8|8,3:0|3:0,0:0:0:0:
40,268,142089,1,8,3:0:0:0:
40,268,142437,6,0,L|10:210,4,35,2|2|2|6|6,3:0|3:0|0:0|3:2|3:2,3:0:0:0:
