osu file format v14

[General]
AudioFilename: audio.mp3
AudioLeadIn: 0
PreviewTime: 79277
Countdown: 0
SampleSet: Soft
StackLeniency: 0.3
Mode: 0
LetterboxInBreaks: 0
WidescreenStoryboard: 1

[Editor]
Bookmarks: 771,6582,17744,26215,28469,28642,28816,28989,45035,47826,50616,53407,56198,58989,61779,64570,81370,82067,84160,84858,87649,90439,91835,93230,94625,96021,101602,104393,107183,109974,112765,115381,115556,118172,118346,121137,126733,129531,140693,142437
DistanceSpacing: 0.8
BeatDivisor: 4
GridSize: 32
TimelineZoom: 1.800006

[Metadata]
Title:Alice in Misanthrope -Ensei Alice-
TitleUnicode:Alice in Misanthrope -厭世アリス-
Artist:LeaF
ArtistUnicode:LeaF
Creator:Murasaki Nova
Version:Collab Insane
Source:BMS
Tags:BOFU2016 - Legendary Again 想起 GOTHIC CHOIR セシル◇タイト Fouriose 孤高クローバー
BeatmapID:1400763
BeatmapSetID:588475

[Difficulty]
HPDrainRate:6
CircleSize:4
OverallDifficulty:7
ApproachRate:8.8
SliderMultiplier:1.7
SliderTickRate:1

[Events]
//Background and Video events
0,0,"BG.jpg",0,0
//Break Periods
2,17744,24891
2,68258,73052
//Storyboard Layer 0 (Background)
//Storyboard Layer 1 (Fail)
//Storyboard Layer 2 (Pass)
//Storyboard Layer 3 (Foreground)
//Storyboard Sound Samples

[TimingPoints]
771,379.746835443038,4,2,0,35,1,0
771,-133.333333333333,4,2,0,35,0,0
3808,346.820809248555,4,2,0,80,1,0
3808,-133.333333333333,4,2,0,80,0,0
5195,-100,4,2,0,80,0,0
6149,-133.333333333333,4,2,0,80,0,0
6582,348.837209302326,4,2,0,80,1,0
6582,-83.3333333333333,4,2,0,80,0,0
16349,-100,4,2,0,80,0,0
17744,359.281437125748,4,2,0,50,1,0
17744,-133.333333333333,4,2,0,50,0,0
20617,346.820809248555,4,2,0,35,1,0
24778,359.281437125748,4,2,0,35,1,0
26215,346.820809248555,4,2,0,65,1,0
26215,-133.333333333333,4,2,0,65,0,0
27602,-100,4,2,0,65,0,0
28989,348.837209302326,4,2,0,80,1,0
28989,-83.3333333333333,4,2,0,80,0,0
37361,-100,4,2,0,80,0,0
38756,-133.333333333333,4,2,0,80,0,0
39454,-100,4,2,0,80,0,0
40151,-133.333333333333,4,2,0,80,0,0
44337,-100,4,2,0,80,0,0
45733,-83.3333333333333,4,2,0,70,0,0
48523,-100,4,2,0,70,0,0
51314,-83.3333333333333,4,2,0,70,0,0
54105,-100,4,2,0,70,0,0
56895,-83.3333333333333,4,2,0,70,0,0
59686,-100,4,2,0,70,0,0
62477,-83.3333333333333,4,2,0,70,0,0
65268,-76.9230769230769,4,2,0,70,0,0
68058,359.281437125748,4,2,0,35,1,0
69495,355.029585798817,4,2,0,35,1,0
70915,348.837209302326,4,2,0,35,1,0
72310,342.857142857143,4,2,0,35,1,0
73681,346.820809248555,4,2,0,60,1,0
73681,-133.333333333333,4,2,0,60,0,0
76455,352.941176470588,4,2,0,60,1,0
76455,-100,4,2,0,60,0,0
77866,-76.9230769230769,4,2,0,80,0,0
79277,348.837209302326,4,2,0,80,1,1
79277,-76.9230769230769,4,2,0,80,0,1
98986,-76.9230769230769,4,2,0,80,0,0
101602,-83.3333333333333,4,2,0,80,0,0
112765,-83.3333333333333,4,2,0,90,0,1
118346,-76.9230769230769,4,2,0,100,0,1
123927,352.941176470588,4,2,0,80,1,0
123927,-76.9230769230769,4,2,0,80,0,0
125338,348.837209302326,4,2,0,80,1,0
125338,-133.333333333333,4,2,0,80,0,0
125686,-100,4,2,0,80,0,0
126733,349.854227405248,4,2,0,60,1,0
128832,-83.3333333333333,4,2,0,80,0,0
129531,348.837209302326,4,2,0,80,1,0
129531,-83.3333333333333,4,2,0,80,0,0

[Colours]
Combo1 : 255,213,83
Combo2 : 253,130,154
Combo3 : 181,106,255
Combo4 : 146,167,239

[HitObjects]
90,289,771,5,0,0:0:0:0:
66,196,960,1,0,0:0:0:0:
158,171,1150,1,0,0:0:0:0:
289,330,1530,2,0,L|169:257,1,127.500004863739
179,74,2289,1,0,0:0:0:0:
203,169,2669,5,0,0:0:0:0:
179,74,2859,1,0,0:0:0:0:
271,51,3049,1,0,0:0:0:0:
385,204,3429,2,0,L|314:157,1,63.7500024318696
242,108,3808,6,0,L|220:58,7,31.8750012159348,4|0|0|0|0|0|0|8,3:0|0:0|0:0|0:0|0:0|0:0|0:0|3:0,0:0:0:0:
220,183,4501,2,0,L|239:223,6,31.8750012159348,4|0|8|0|4|8|0,3:0|0:0|3:0|0:0|3:0|3:0|0:0,0:0:0:0:
112,189,5195,6,0,P|112:143|144:108,1,85,4|0,3:0|0:0,0:0:0:0:
162,39,5542,2,0,P|160:84|127:118,1,85,4|0,3:0|0:0,0:0:0:0:
45,37,5888,5,4,3:0:0:0:
80,263,6149,2,0,P|131:268|172:241,1,95.6250036478044
288,352,6582,6,0,L|311:224,1,101.999996887207,4|0,3:0|0:0,0:0:0:0:
273,113,6930,1,4,3:0:0:0:
397,225,7105,1,0,0:0:0:0:
237,182,7279,2,0,P|196:126|201:85,1,101.999996887207,4|0,3:0|0:0,0:0:0:0:
109,196,7628,1,8,3:0:0:0:
109,196,7802,1,4,3:0:0:0:
273,113,7977,6,0,P|317:129|390:98,1,101.999996887207,4|0,3:0|0:0,0:0:0:0:
342,244,8326,2,0,P|339:292|394:356,1,101.999996887207,4|0,3:0|0:0,0:0:0:0:
437,272,8675,1,4,3:0:0:0:
246,227,8849,1,8,3:0:0:0:
246,227,8936,1,4,3:0:0:0:
246,227,9023,1,4,3:0:0:0:
437,272,9198,1,8,3:0:0:0:
293,156,9372,6,0,P|235:139|190:157,1,101.999996887207,4|0,3:0|0:0,0:0:0:0:
200,299,9721,1,4,3:0:0:0:
81,175,9895,1,0,0:0:0:0:
246,227,10070,2,0,L|349:258,1,101.999996887207,4|8,3:0|3:0,0:0:0:0:
343,256,10332,1,4,3:0:0:0:
343,256,10419,1,4,3:0:0:0:
162,213,10593,1,8,3:0:0:0:
162,213,10680,1,8,3:0:0:0:
162,213,10768,6,0,P|167:266|207:302,1,101.999996887207,4|0,3:0|0:0,0:0:0:0:
62,224,11116,2,0,L|104:114,1,101.999996887207,4|0,3:0|0:0,0:0:0:0:
222,51,11465,2,0,L|240:3,4,50.9999984436036,4|4|8|8|4,3:0|3:0|3:0|3:0|3:0,0:0:0:0:
269,209,11988,1,8,3:0:0:0:
305,72,12163,6,0,P|270:119|205:131,1,101.999996887207,4|0,3:0|0:0,0:0:0:0:
102,241,12512,1,4,3:0:0:0:
222,51,12686,1,0,0:0:0:0:
149,145,12861,2,0,P|173:195|216:214,1,101.999996887207,4|0,3:0|0:0,0:0:0:0:
106,245,13209,1,8,3:0:0:0:
106,245,13384,1,4,3:0:0:0:
227,138,13558,6,0,L|332:54,1,101.999996887207,4|0,3:0|0:0,0:0:0:0:
431,144,13907,1,4,3:0:0:0:
383,9,14082,1,0,0:0:0:0:
499,104,14256,2,0,P|508:158|485:201,1,101.999996887207,4|8,3:0|3:0,0:0:0:0:
487,198,14518,1,8,3:0:0:0:
487,198,14605,1,4,3:0:0:0:
349,301,14779,1,8,3:0:0:0:
503,288,14954,6,0,P|452:280|417:245,1,101.999996887207,4|0,3:0|0:0,0:0:0:0:
445,82,15302,1,4,3:0:0:0:
333,184,15477,1,0,0:0:0:0:
412,10,15651,2,0,P|461:4|503:30,1,101.999996887207,4|8,3:0|3:0,0:0:0:0:
503,31,15913,1,4,3:0:0:0:
503,31,16000,1,4,3:0:0:0:
347,92,16175,5,8,3:0:0:0:
347,92,16262,1,8,3:0:0:0:
347,92,16349,2,0,B|287:68|287:68|206:96,1,127.5,4|0,3:0|0:0,0:0:0:0:
164,192,16698,2,0,L|287:149,1,127.5,4|0,3:0|0:0,0:0:0:0:
404,161,17047,2,0,B|362:175|362:175|343:209|343:209|301:225,1,127.5,4|0,3:0|0:0,0:0:0:0:
286,255,17395,5,4,1:0:0:0:
220,41,26215,6,0,B|204:76|204:76|209:116|209:116|179:186,1,127.500004863739,4|2,3:0|3:0,0:0:0:0:
101,110,26908,2,0,B|85:145|85:145|90:185|90:185|60:255,1,127.500004863739,4|2,3:0|3:0,0:0:0:0:
197,283,27602,2,0,B|216:244|216:244|279:211,1,85,4|0,3:0|0:0,0:0:0:0:
282,302,27949,2,0,B|318:284|318:284|391:304,1,85,4|0,3:0|0:0,0:0:0:0:
327,372,28295,1,4,3:0:0:0:
406,121,28989,6,0,P|422:172|382:232,1,101.999996887207,4|2,3:0|3:0,0:0:0:0:
324,293,29337,1,2,3:0:0:0:
348,168,29512,1,2,3:0:0:0:
348,168,29599,1,2,3:0:0:0:
348,168,29686,1,2,3:0:0:0:
218,329,29861,1,8,3:0:0:0:
134,177,30035,1,4,3:0:0:0:
218,329,30209,1,8,3:0:0:0:
83,236,30384,6,0,P|56:191|76:124,1,101.999996887207,4|2,3:0|3:0,0:0:0:0:
123,54,30733,1,2,3:0:0:0:
142,184,30907,1,2,3:0:0:0:
142,184,30994,1,2,3:0:0:0:
142,184,31082,1,2,3:0:0:0:
236,36,31256,1,8,3:0:0:0:
304,196,31430,1,4,3:0:0:0:
236,36,31605,1,8,3:0:0:0:
375,165,31779,6,0,P|373:232|260:262,1,152.999995330811,4|0,3:0|0:0,0:0:0:0:
318,111,32128,2,0,P|388:88|454:172,1,152.999995330811,2|0,3:0|0:0,0:0:0:0:
304,196,32477,2,0,L|267:31,1,152.999995330811,4|0,3:0|0:0,0:0:0:0:
375,165,32826,2,0,L|259:276,1,152.999995330811,2|0,3:0|0:0,0:0:0:0:
426,225,33175,2,0,P|452:180|438:118,1,101.999996887207,4|0,3:0|0:0,0:0:0:0:
443,343,33523,1,4,3:0:0:0:
491,190,33698,1,8,3:0:0:0:
321,339,33872,1,4,3:0:0:0:
321,339,34047,5,8,3:0:0:0:
331,144,34221,1,4,3:0:0:0:
321,339,34395,1,8,3:0:0:0:
394,189,34570,6,0,P|407:131|369:77,1,101.999996887207,4|2,3:0|3:0,0:0:0:0:
308,23,34919,1,2,3:0:0:0:
339,151,35093,1,2,3:0:0:0:
339,151,35180,1,2,3:0:0:0:
339,151,35268,1,2,3:0:0:0:
209,31,35442,1,8,3:0:0:0:
184,200,35616,1,4,3:0:0:0:
209,31,35791,1,8,3:0:0:0:
113,164,35965,6,0,P|106:221|137:262,1,101.999996887207,4|2,3:0|3:0,0:0:0:0:
229,307,36314,1,2,3:0:0:0:
191,207,36489,1,2,3:0:0:0:
191,207,36576,1,2,3:0:0:0:
191,207,36663,1,2,3:0:0:0:
329,296,36837,1,12,3:0:0:0:
317,130,37012,1,4,3:0:0:0:
329,296,37186,1,12,3:0:0:0:
226,106,37361,6,0,P|290:39|375:55,1,170,4|2,3:0|3:0,0:0:0:0:
469,301,38058,2,0,P|403:366|320:371,1,170,4|2,3:0|3:0,0:0:0:0:
327,168,38756,6,0,P|398:214|285:235,1,255.000009727478,0|2,3:0|3:0,0:0:0:0:
151,18,39802,1,4,3:0:0:0:
59,198,40151,6,0,L|23:270,1,63.7500024318696,4|0,3:0|0:0,0:0:0:0:
195,179,40500,2,0,L|124:214,1,63.7500024318696,2|0,3:0|0:0,0:0:0:0:
295,252,40849,1,4,3:0:0:0:
108,122,41198,1,2,3:0:0:0:
305,159,41547,6,0,L|304:77,1,63.7500024318696,4|0,3:0|0:0,0:0:0:0:
185,243,41895,2,0,L|238:175,1,63.7500024318696,2|0,3:0|0:0,0:0:0:0:
66,225,42244,1,4,3:0:0:0:
295,252,42593,1,2,3:0:0:0:
176,71,42942,6,0,P|151:50|133:24,1,63.7500024318696,4|0,3:0|0:0,0:0:0:0:
174,156,43291,2,0,P|143:147|116:130,1,63.7500024318696,4|0,3:0|0:0,0:0:0:0:
139,237,43640,2,0,B|177:246|177:246|219:277,1,63.7500024318696,4|0,3:0|0:0,0:0:0:0:
137,320,43989,2,0,B|168:342|168:342|196:387,1,63.7500024318696,4|0,3:0|0:0,0:0:0:0:
252,320,44337,6,0,L|348:297,1,85,4|4,3:0|3:0,0:0:0:0:
372,186,44686,2,0,L|269:210,1,85,4|4,3:0|3:0,0:0:0:0:
201,124,45035,2,0,L|308:99,1,85,4|8,3:0|3:0,0:0:0:0:
300,101,45297,1,4,3:0:0:0:
316,97,45384,1,8,3:0:0:0:
332,94,45471,1,8,3:0:0:0:
348,91,45558,1,8,3:0:0:0:
364,88,45645,1,4,3:0:0:0:
384,84,45733,6,0,P|359:126|380:190,1,101.999996887207,4|0,3:0|0:0,0:0:0:0:
408,313,46082,2,0,P|367:275|277:268,1,101.999996887207,4|0,3:0|0:0,0:0:0:0:
137,287,46430,2,0,P|145:240|106:167,1,101.999996887207,4|0,3:0|0:0,0:0:0:0:
165,51,46779,2,0,P|187:100|270:134,1,101.999996887207,4|0,3:0|0:0,0:0:0:0:
254,267,47128,5,4,3:0:0:0:
392,299,47302,1,0,0:0:0:0:
339,165,47477,1,4,3:0:0:0:
408,289,47651,1,0,0:0:0:0:
469,160,47826,1,2,3:0:0:0:
469,160,47913,1,2,3:0:0:0:
469,160,48000,1,2,3:0:0:0:
469,160,48087,1,2,3:0:0:0:
469,160,48175,2,8,L|385:122,3,50.9999984436036,4|4|4|4,3:0|3:0|3:0|3:0,3:0:0:0:
413,102,48523,6,0,P|382:71|374:16,1,85,4|0,3:0|0:0,0:0:0:0:
319,139,48872,2,0,P|289:177|240:198,1,85,2|0,3:0|0:0,0:0:0:0:
46,225,49221,2,0,P|73:195|72:131,1,85,4|0,3:0|0:0,0:0:0:0:
125,261,49570,2,0,P|142:298|202:328,1,85,2|0,3:0|0:0,0:0:0:0:
280,263,49919,6,0,L|395:234,1,85,4|0,3:0|0:0,0:0:0:0:
397,128,50268,2,0,L|293:153,1,85,4|0,3:0|0:0,0:0:0:0:
202,107,50616,1,2,3:0:0:0:
189,118,50704,1,2,3:0:0:0:
176,129,50791,1,2,3:0:0:0:
162,139,50878,1,2,3:0:0:0:
148,149,50965,2,8,L|85:194,3,42.5,4|4|4|4,3:0|3:0|3:0|3:0,3:0:0:0:
109,209,51314,6,0,P|77:253|76:308,1,101.999996887207,4|0,3:0|0:0,0:0:0:0:
197,227,51663,2,0,P|194:174|163:133,1,101.999996887207,4|0,3:0|0:0,0:0:0:0:
370,283,52012,2,0,P|418:306|473:298,1,101.999996887207,4|0,3:0|0:0,0:0:0:0:
375,189,52361,2,0,P|323:200|288:238,1,101.999996887207,4|0,3:0|0:0,0:0:0:0:
180,326,52709,5,4,3:0:0:0:
39,294,52884,1,0,0:0:0:0:
146,200,53058,1,4,3:0:0:0:
54,308,53233,1,0,0:0:0:0:
37,165,53407,1,2,3:0:0:0:
37,165,53494,1,2,3:0:0:0:
37,165,53582,1,2,3:0:0:0:
37,165,53669,1,2,3:0:0:0:
37,165,53756,2,8,L|89:97,3,50.9999984436036,4|4|4|4,3:0|3:0|3:0|3:0,3:0:0:0:
99,126,54105,6,0,P|133:102|175:97,1,85,4|0,3:0|0:0,0:0:0:0:
311,25,54454,2,0,P|268:34|209:12,1,85,2|0,3:0|0:0,0:0:0:0:
312,162,54802,2,0,P|330:201|316:258,1,85,4|0,3:0|0:0,0:0:0:0:
388,363,55151,2,0,P|392:320|434:262,1,85,2|0,3:0|0:0,0:0:0:0:
470,183,55500,6,0,L|485:91,1,85,4|0,3:0|0:0,0:0:0:0:
408,6,55849,2,0,L|391:118,1,85,4|0,3:0|0:0,0:0:0:0:
370,206,56198,1,2,3:0:0:0:
361,220,56285,1,2,3:0:0:0:
352,234,56372,1,2,3:0:0:0:
344,249,56459,1,2,3:0:0:0:
336,264,56547,2,8,L|296:330,3,42.5,4|4|4|4,3:0|3:0|3:0|3:0,3:0:0:0:
278,303,56895,6,0,P|234:335|179:337,1,101.999996887207,4|0,3:0|0:0,0:0:0:0:
257,214,57244,2,0,P|312:217|363:287,1,101.999996887207,4|0,3:0|0:0,0:0:0:0:
258,51,57593,2,0,P|217:23|157:24,1,101.999996887207,4|0,3:0|0:0,0:0:0:0:
249,137,57942,2,0,P|296:127|343:52,1,101.999996887207,4|0,3:0|0:0,0:0:0:0:
465,34,58291,5,4,3:0:0:0:
397,159,58465,1,0,0:0:0:0:
377,17,58640,1,4,3:0:0:0:
420,153,58814,1,0,0:0:0:0:
286,104,58989,1,2,3:0:0:0:
286,104,59076,1,2,3:0:0:0:
286,104,59163,1,2,3:0:0:0:
286,104,59250,1,2,3:0:0:0:
286,104,59337,2,8,L|252:141,3,50.9999984436036,4|4|4|4,3:0|3:0|3:0|3:0,3:0:0:0:
216,138,59686,6,0,P|177:164|108:161,1,85,4|0,3:0|0:0,0:0:0:0:
247,221,60035,2,0,P|282:244|306:314,1,85,2|0,3:0|0:0,0:0:0:0:
375,112,60384,2,0,P|400:77|401:20,1,85,4|0,3:0|0:0,0:0:0:0:
450,146,60733,2,0,P|471:182|528:207,1,85,2|0,3:0|0:0,0:0:0:0:
421,287,61082,6,0,L|340:380,1,85,4|0,3:0|0:0,0:0:0:0:
246,341,61430,2,0,L|316:263,1,85,4|0,3:0|0:0,0:0:0:0:
291,158,61779,1,8,3:0:0:0:
287,141,61866,1,8,3:0:0:0:
283,124,61954,1,8,3:0:0:0:
279,107,62041,1,8,3:0:0:0:
274,90,62128,1,8,3:0:0:0:
180,17,62302,1,8,3:0:0:0:
180,17,62390,1,8,3:0:0:0:
180,17,62477,6,0,P|190:66|161:132,1,101.999996887207,4|0,3:0|0:0,0:0:0:0:
40,159,62826,2,0,P|33:105|75:34,1,101.999996887207,4|0,3:0|0:0,0:0:0:0:
266,25,63175,2,0,P|307:32|365:107,1,101.999996887207,4|0,3:0|0:0,0:0:0:0:
344,213,63523,2,0,P|294:209|247:157,1,101.999996887207,4|0,3:0|0:0,0:0:0:0:
156,73,63872,6,0,L|176:191,1,101.999996887207,4|0,3:0|0:0,0:0:0:0:
61,264,64221,2,0,L|40:149,1,101.999996887207,4|0,3:0|0:0,0:0:0:0:
55,53,64570,1,4,3:0:0:0:
55,53,64657,1,8,3:0:0:0:
162,48,64832,1,4,3:0:0:0:
162,48,64919,1,8,3:0:0:0:
115,140,65093,1,4,3:0:0:0:
115,140,65180,1,8,3:0:0:0:
115,140,65268,6,0,L|140:263,1,110.499994941712,4|4,3:0|3:0,0:0:0:0:
284,320,65616,1,4,3:0:0:0:
131,346,65791,1,4,3:0:0:0:
232,230,65965,1,4,3:0:0:0:
235,383,66140,1,4,3:0:0:0:
137,248,66314,1,4,3:0:0:0:
310,244,66489,1,4,3:0:0:0:
307,92,66663,5,8,3:0:0:0:
232,230,66837,1,8,3:0:0:0:
272,81,67012,1,8,3:0:0:0:
265,235,67186,1,8,3:0:0:0:
344,104,67361,6,0,P|336:39|209:41,1,165.749992412568,2|0,3:0|0:0,0:0:0:0:
220,17,67709,1,8,1:0:0:0:
148,114,67884,1,8,3:0:0:0:
199,223,68058,1,4,0:0:0:0:
175,190,73681,5,4,3:0:0:0:
196,162,74374,5,4,3:0:0:0:
220,129,75068,5,4,3:0:0:0:
238,102,75761,6,0,B|348:61|348:61|396:75|396:75|343:80|316:147,1,255.000009727478,4|4,3:0|3:0,0:0:0:0:
406,159,77160,2,0,P|414:250|491:275,1,170,4|2,3:0|3:0,0:0:0:0:
471,200,77866,6,0,L|436:77,1,110.499994941712,4|0,3:0|0:0,0:0:0:0:
308,13,78219,2,0,L|341:139,1,110.499994941712,4|0,3:0|0:0,0:0:0:0:
284,266,78572,1,4,3:0:0:0:
203,134,78749,1,4,3:0:0:0:
181,126,78837,1,8,3:0:0:0:
161,117,78925,1,4,3:0:0:0:
141,109,79013,1,8,3:0:0:0:
120,100,79102,1,4,3:0:0:0:
99,93,79190,1,8,3:0:0:0:
77,85,79278,6,0,L|196:299,1,220.999989883423,4|4,3:0|3:0,0:0:0:0:
350,307,79800,1,0,0:0:0:0:
202,360,79974,2,0,P|251:329|261:245,1,110.499994941712,4|0,3:0|0:0,0:0:0:0:
304,96,80323,2,0,P|330:143|377:172,1,110.499994941712,4|4,3:0|3:0,0:0:0:0:
432,53,80672,6,0,L|268:201,1,220.999989883423,4|4,3:0|3:0,0:0:0:0:
112,209,81195,1,4,3:0:0:0:
238,296,81370,1,4,3:0:0:0:
259,301,81457,1,0,0:0:0:0:
281,306,81544,1,0,0:0:0:0:
301,310,81631,1,8,3:0:0:0:
322,316,81718,1,4,3:0:0:0:
467,265,81893,1,4,3:0:0:0:
372,88,82067,6,0,L|456:306,1,220.999989883423,4|4,3:0|3:0,0:0:0:0:
309,231,82590,1,0,0:0:0:0:
372,88,82765,2,0,P|415:75|488:152,1,110.499994941712,4|0,3:0|0:0,0:0:0:0:
402,242,83114,1,4,3:0:0:0:
490,133,83288,1,4,3:0:0:0:
355,169,83463,6,0,B|304:207|321:270|321:270|338:341|274:391,1,220.999989883423,4|4,3:0|3:0,0:0:0:0:
402,242,83986,1,4,3:0:0:0:
240,301,84160,1,4,3:0:0:0:
219,296,84247,1,0,0:0:0:0:
197,291,84335,1,0,0:0:0:0:
177,287,84422,1,8,3:0:0:0:
156,281,84509,1,4,3:0:0:0:
47,170,84683,1,4,3:0:0:0:
207,55,84858,6,0,B|33:218,1,220.999989883423,4|4,3:0|3:0,0:0:0:0:
52,51,85381,1,0,0:0:0:0:
207,55,85556,2,0,P|237:103|223:164,1,110.499994941712,4|0,3:0|0:0,0:0:0:0:
263,334,85904,2,0,P|267:283|351:230,1,110.499994941712,4|0,3:0|0:0,0:0:0:0:
401,339,86253,6,0,L|166:231,1,220.999989883423,4|4,3:0|3:0,0:0:0:0:
163,95,86777,1,4,3:0:0:0:
121,250,86951,2,0,P|141:195|219:170,1,110.499994941712,4|8,3:0|3:0,0:0:0:0:
183,169,87213,1,4,3:0:0:0:
183,169,87300,1,4,3:0:0:0:
337,204,87474,1,8,3:0:0:0:
171,66,87649,1,4,3:0:0:0:
171,66,87997,5,2,3:0:0:0:
192,71,88085,1,2,3:0:0:0:
214,76,88172,1,2,3:0:0:0:
234,80,88259,1,2,3:0:0:0:
255,85,88346,2,0,L|157:176,1,110.499994941712,2|4,3:0|3:0,0:0:0:0:
197,313,88695,1,8,3:0:0:0:
77,215,88870,1,4,3:0:0:0:
231,227,89044,6,0,L|363:235,1,110.499994941712,4|8,3:0|3:0,0:0:0:0:
341,233,89306,1,4,3:0:0:0:
341,233,89393,1,4,3:0:0:0:
491,269,89567,1,8,3:0:0:0:
431,126,89742,1,4,3:0:0:0:
471,282,89916,1,8,3:0:0:0:
369,165,90090,1,4,3:0:0:0:
351,151,90178,1,8,3:0:0:0:
335,136,90265,1,4,3:0:0:0:
320,123,90352,1,4,3:0:0:0:
304,108,90439,6,0,L|371:327,1,220.999989883423,4|4,3:0|3:0,0:0:0:0:
440,181,90963,1,0,0:0:0:0:
304,108,91137,2,0,P|246:121|208:183,1,110.499994941712,4|0,3:0|0:0,0:0:0:0:
90,341,91486,2,0,P|124:295|111:213,1,110.499994941712,4|4,3:0|3:0,0:0:0:0:
61,120,91835,5,4,3:0:0:0:
61,120,91922,1,8,3:0:0:0:
115,215,92096,1,4,3:0:0:0:
115,215,92183,1,8,3:0:0:0:
159,113,92358,1,4,3:0:0:0:
159,113,92445,1,8,3:0:0:0:
220,204,92620,1,4,3:0:0:0:
220,204,92707,1,8,3:0:0:0:
251,44,92881,1,8,3:0:0:0:
302,215,93056,1,8,3:0:0:0:
208,34,93230,6,0,L|349:224,1,220.999989883423,4|4,3:0|3:0,0:0:0:0:
379,364,93753,1,0,0:0:0:0:
419,211,93928,2,0,P|401:263|338:288,1,110.499994941712,4|4,3:0|3:0,0:0:0:0:
354,287,94189,1,8,3:0:0:0:
354,287,94277,1,4,3:0:0:0:
217,356,94451,1,8,3:0:0:0:
132,246,94625,5,4,3:0:0:0:
132,246,94713,1,8,3:0:0:0:
178,143,94887,1,4,3:0:0:0:
178,143,94974,1,8,3:0:0:0:
70,147,95149,1,4,3:0:0:0:
70,147,95236,1,8,3:0:0:0:
132,56,95410,1,4,3:0:0:0:
132,56,95497,1,8,3:0:0:0:
134,211,95672,1,8,3:0:0:0:
267,90,95846,1,8,3:0:0:0:
144,248,96021,6,0,L|254:52,1,220.999989883423,4|4,3:0|3:0,0:0:0:0:
115,103,96544,1,0,0:0:0:0:
144,248,96718,2,0,P|207:254|260:206,1,110.499994941712,4|0,3:0|0:0,0:0:0:0:
468,241,97067,2,0,P|415:213|334:254,1,110.499994941712,4|4,3:0|3:0,0:0:0:0:
398,359,97416,6,0,L|432:133,1,220.999989883423,4|4,3:0|3:0,0:0:0:0:
328,9,97939,1,4,3:0:0:0:
473,62,98114,2,0,P|414:53|364:85,1,110.499994941712,4|4,3:0|3:0,0:0:0:0:
371,76,98375,1,8,3:0:0:0:
371,76,98463,1,4,3:0:0:0:
328,215,98637,1,8,3:0:0:0:
244,75,98811,5,4,3:0:0:0:
458,221,98986,1,4,3:0:0:0:
334,358,101602,5,4,3:0:0:0:
316,346,101689,1,4,3:0:0:0:
299,335,101777,1,4,3:0:0:0:
281,324,101864,1,4,3:0:0:0:
262,312,101951,1,4,3:0:0:0:
131,292,102125,2,4,L|80:293,4,50.9999984436036,2|2|2|2|2,3:0|3:0|3:0|3:0|3:0,3:0:0:0:
92,163,102649,2,0,L|18:142,4,50.9999984436036,4|4|4|4|4,3:0|3:0|3:0|3:0|3:0,0:0:0:0:
193,77,103172,2,4,L|131:15,4,50.9999984436036,2|2|2|2|2,3:0|3:0|3:0|3:0|3:0,3:0:0:0:
238,202,103695,6,0,L|365:231,1,101.999996887207,4|8,3:0|3:0,0:0:0:0:
425,125,104044,2,0,L|288:91,1,101.999996887207,4|8,3:0|3:0,0:0:0:0:
193,77,104393,5,4,3:0:0:0:
173,82,104480,1,4,3:0:0:0:
151,86,104567,1,4,3:0:0:0:
131,91,104654,1,4,3:0:0:0:
111,96,104742,1,4,3:0:0:0:
30,201,104916,2,4,L|-18:265,4,50.9999984436036,2|2|2|2|2,3:0|3:0|3:0|3:0|3:0,3:0:0:0:
118,300,105439,2,4,L|94:391,4,50.9999984436036,4|4|4|4|4,3:0|3:0|3:0|3:0|3:0,3:0:0:0:
245,260,105963,2,4,L|271:337,4,50.9999984436036,2|2|2|2|2,3:0|3:0|3:0|3:0|3:0,3:0:0:0:
153,163,106486,6,0,L|209:65,1,101.999996887207,4|8,3:0|3:0,0:0:0:0:
334,49,106835,2,0,L|277:146,1,101.999996887207,4|8,3:0|3:0,0:0:0:0:
245,260,107183,5,4,3:0:0:0:
224,263,107271,1,4,3:0:0:0:
203,266,107358,1,4,3:0:0:0:
183,269,107445,1,4,3:0:0:0:
161,271,107532,1,4,3:0:0:0:
44,206,107707,2,4,L|-45:162,4,50.9999984436036,2|2|2|2|2,3:0|3:0|3:0|3:0|3:0,3:0:0:0:
75,76,108230,2,0,L|27:24,4,50.9999984436036,4|4|4|4|4,3:0|3:0|3:0|3:0|3:0,0:0:0:0:
205,51,108753,2,4,L|180:-6,4,50.9999984436036,2|2|2|2|2,3:0|3:0|3:0|3:0|3:0,3:0:0:0:
190,184,109277,6,0,L|320:210,1,101.999996887207,4|8,3:0|3:0,0:0:0:0:
332,329,109625,2,0,L|216:306,1,101.999996887207,4|8,3:0|3:0,0:0:0:0:
103,273,109974,5,4,3:0:0:0:
89,257,110061,1,4,3:0:0:0:
75,241,110149,1,4,3:0:0:0:
62,226,110236,1,4,3:0:0:0:
49,211,110323,1,4,3:0:0:0:
37,79,110497,2,4,L|27:-20,4,50.9999984436036,2|2|2|2|2,3:0|3:0|3:0|3:0|3:0,3:0:0:0:
169,60,111021,2,0,L|187:-9,4,50.9999984436036,4|4|4|4|4,3:0|3:0|3:0|3:0|3:0,0:0:0:0:
273,142,111544,2,4,L|316:90,4,50.9999984436036,2|2|2|2|2,3:0|3:0|3:0|3:0|3:0,3:0:0:0:
189,245,112067,6,0,L|216:357,1,101.999996887207,4|8,3:0|3:0,0:0:0:0:
345,359,112416,2,0,L|316:239,1,101.999996887207,4|8,3:0|3:0,0:0:0:0:
306,103,112765,6,0,P|355:100|401:140,1,101.999996887207,4|4,3:0|3:0,0:0:0:0:
451,248,113114,1,4,3:0:0:0:
413,122,113288,1,4,3:0:0:0:
432,254,113463,1,4,3:0:0:0:
430,114,113637,1,4,3:0:0:0:
414,259,113811,6,0,P|399:307|326:343,1,101.999996887207,4|4,3:0|3:0,0:0:0:0:
235,368,114160,1,4,3:0:0:0:
367,356,114335,1,4,3:0:0:0:
230,347,114509,1,4,3:0:0:0:
372,373,114683,1,4,3:0:0:0:
225,327,114858,6,0,L|90:294,1,101.999996887207,4|0,3:0|0:0,0:0:0:0:
87,180,115207,2,0,L|209:210,1,101.999996887207,4|4,3:0|3:0,0:0:0:0:
217,195,115468,1,4,3:0:0:0:
248,181,115556,6,0,P|291:150|302:88,1,101.999996887207,4|4,3:0|3:0,0:0:0:0:
180,56,115904,1,4,3:0:0:0:
309,87,116079,1,4,3:0:0:0:
175,79,116253,1,4,3:0:0:0:
314,67,116428,1,4,3:0:0:0:
170,99,116602,6,0,P|131:132|113:189,1,101.999996887207,4|4,3:0|3:0,0:0:0:0:
253,199,116951,1,4,3:0:0:0:
120,200,117125,1,4,3:0:0:0:
253,179,117300,1,4,3:0:0:0:
128,219,117474,1,4,3:0:0:0:
253,160,117649,6,0,L|370:102,1,101.999996887207,4|0,3:0|0:0,0:0:0:0:
454,187,117997,2,0,L|343:242,1,101.999996887207,4|0,3:0|0:0,0:0:0:0:
234,296,118346,5,8,3:0:0:0:
215,287,118433,1,8,3:0:0:0:
196,278,118521,1,8,3:0:0:0:
177,270,118608,1,8,3:0:0:0:
158,260,118695,1,8,3:0:0:0:
43,172,118870,2,0,L|2:90,4,55.2499974708558,8|8|8|8|8,3:0|3:0|3:0|3:0|3:0,0:0:0:0:
186,165,119393,5,8,3:0:0:0:
206,170,119480,1,8,3:0:0:0:
227,175,119567,1,8,3:0:0:0:
247,180,119654,1,8,3:0:0:0:
269,184,119742,1,8,3:0:0:0:
407,148,119916,2,0,L|493:118,4,55.2499974708558,8|8|8|8|8,3:0|3:0|3:0|3:0|3:0,0:0:0:0:
333,272,120439,5,4,3:0:0:0:
239,368,120614,1,8,3:0:0:0:
316,259,120788,1,4,3:0:0:0:
264,380,120963,1,8,3:0:0:0:
160,297,121137,6,0,L|89:223,4,55.2499974708558,8|8|8|8|8,3:0|3:0|3:0|3:0|3:0,0:0:0:0:
236,188,121660,1,8,3:0:0:0:
246,170,121747,1,8,3:0:0:0:
256,151,121835,1,8,3:0:0:0:
267,132,121922,1,8,3:0:0:0:
278,113,122009,1,8,3:0:0:0:
391,65,122183,6,0,L|469:25,11,55.2499974708558,8|8|8|8|8|8|8|8|8|8|8|8,3:0|3:0|3:0|3:0|3:0|3:0|3:0|3:0|3:0|3:0|3:0|3:0,0:0:0:0:
443,119,123230,2,0,L|519:83,8,55.2499974708558,8|8|8|8|8|8|8|8|8,3:0|3:0|3:0|3:0|3:0|3:0|3:0|3:0|3:0,0:0:0:0:
83,241,125338,6,0,P|143:254|166:309,1,95.6250036478044,4|0,3:0|0:0,0:0:0:0:
97,313,125686,2,0,L|229:346,1,127.5,4|0,3:0|0:0,0:0:0:0:
233,271,126035,2,0,B|322:263|322:263|365:225,1,127.5,4|0,3:0|0:0,0:0:0:0:
356,197,126384,1,4,1:0:0:0:
338,40,126733,6,0,P|299:54|251:117,1,85,4|2,3:0|3:0,0:0:0:0:
267,83,126995,1,2,3:0:0:0:
267,83,127082,1,2,3:0:0:0:
361,158,127257,1,2,3:0:0:0:
420,261,127432,2,0,P|377:275|312:266,1,85,4|2,3:0|3:0,0:0:0:0:
336,273,127695,1,2,3:0:0:0:
336,273,127782,1,2,3:0:0:0:
217,257,127957,1,2,3:0:0:0:
80,194,128132,6,0,B|141:192|141:192|186:167,1,85,4|2,3:0|3:0,0:0:0:0:
235,140,128482,2,0,B|177:163|177:163|162:180,1,85,4|2,3:0|3:0,0:0:0:0:
37,304,128832,2,0,L|86:368,1,50.9999984436036,4|0,3:0|0:0,0:0:0:0:
136,293,129007,2,0,L|232:305,1,50.9999984436036,4|0,3:0|0:0,0:0:0:0:
239,228,129181,2,0,B|292:223|312:184|312:184|326:153|395:127,1,152.999995330811,4|0,3:0|0:0,0:0:0:0:
390,133,129530,5,4,3:0:0:0:
235,141,129704,1,0,0:0:0:0:
392,223,129879,2,0,P|410:267|375:335,1,101.999996887207,4|0,3:0|0:0,0:0:0:0:
289,375,130228,1,4,3:0:0:0:
328,272,130402,1,0,0:0:0:0:
463,362,130576,1,4,3:0:0:0:
463,362,130751,1,4,3:0:0:0:
483,229,130926,6,0,L|419:100,1,101.999996887207,4|0,3:0|0:0,0:0:0:0:
307,49,131274,1,4,3:0:0:0:
483,63,131448,1,0,0:0:0:0:
352,122,131623,2,0,P|299:134|228:84,1,101.999996887207,4|8,3:0|3:0,0:0:0:0:
255,117,131885,1,4,3:0:0:0:
255,117,131972,1,4,3:0:0:0:
412,206,132146,1,8,3:0:0:0:
307,49,132321,6,0,P|239:37|187:83,1,101.999996887207,4|0,3:0|0:0,0:0:0:0:
162,198,132670,2,0,L|209:339,1,101.999996887207,4|0,3:0|0:0,0:0:0:0:
315,217,133018,2,0,L|360:103,1,101.999996887207,4|8,3:0|3:0,0:0:0:0:
352,122,133280,1,8,3:0:0:0:
352,122,133367,1,4,3:0:0:0:
286,292,133541,1,8,3:0:0:0:
286,292,133629,1,4,3:0:0:0:
286,292,133716,6,0,P|347:290|390:244,1,101.999996887207,4|4,3:0|3:0,0:0:0:0:
290,377,134065,2,0,L|164:336,1,101.999996887207,4|0,3:0|0:0,0:0:0:0:
55,203,134414,1,4,3:0:0:0:
62,184,134501,1,0,0:0:0:0:
70,164,134588,1,0,0:0:0:0:
78,145,134675,1,8,3:0:0:0:
86,126,134762,1,4,3:0:0:0:
232,168,134937,1,8,3:0:0:0:
264,87,135112,6,0,P|214:80|162:117,1,101.999996887207,4|0,3:0|0:0,0:0:0:0:
146,214,135460,1,4,3:0:0:0:
112,40,135635,1,0,0:0:0:0:
232,168,135809,2,0,P|246:219|195:289,1,101.999996887207,4|0,3:0|0:0,0:0:0:0:
364,224,136158,1,4,3:0:0:0:
364,224,136332,1,8,3:0:0:0:
146,214,136507,6,0,L|-4:201,1,101.999996887207,4|0,3:0|0:0,0:0:0:0:
149,135,136855,1,4,3:0:0:0:
76,296,137030,1,0,0:0:0:0:
186,210,137204,2,0,P|223:179|228:103,1,101.999996887207,4|8,3:0|3:0,0:0:0:0:
234,128,137466,1,4,3:0:0:0:
234,128,137553,1,4,3:0:0:0:
118,22,137728,1,8,3:0:0:0:
278,60,137902,6,0,P|215:52|166:107,1,101.999996887207,4|0,3:0|0:0,0:0:0:0:
236,222,138251,1,4,3:0:0:0:
94,135,138425,1,0,0:0:0:0:
185,283,138600,2,0,P|231:302|294:277,1,101.999996887207,4|8,3:0|3:0,0:0:0:0:
279,289,138861,1,4,3:0:0:0:
279,289,138948,1,4,3:0:0:0:
179,149,139123,1,8,3:0:0:0:
179,149,139210,1,8,3:0:0:0:
179,149,139297,1,4,3:0:0:0:
324,347,140518,5,4,3:0:0:0:
206,310,140693,1,4,3:0:0:0:
206,310,140780,1,8,3:0:0:0:
317,261,140954,1,4,3:0:0:0:
317,261,141042,1,8,3:0:0:0:
199,227,141216,1,4,3:0:0:0:
199,227,141303,1,8,3:0:0:0:
312,181,141478,1,4,3:0:0:0:
312,181,141565,1,8,3:0:0:0:
200,134,141740,5,8,3:0:0:0:
313,90,141914,1,8,3:0:0:0:
158,41,142089,1,8,3:0:0:0:
158,41,142437,6,0,L|89:19,4,50.9999984436036,2|2|2|6|6,3:0|3:0|0:0|3:2|3:2,0:0:0:0:
