osu file format v14

[General]
AudioFilename: audio.mp3
AudioLeadIn: 0
PreviewTime: 79278
Countdown: 0
SampleSet: Soft
StackLeniency: 0.7
Mode: 3
LetterboxInBreaks: 0
SpecialStyle: 0
WidescreenStoryboard: 1

[Editor]
DistanceSpacing: 1.5
BeatDivisor: 4
GridSize: 4
TimelineZoom: 1.4

[Metadata]
Title:Alice in Misanthrope -Ensei Alice-
TitleUnicode:Alice in Misanthrope -厭世アリス-
Artist:LeaF
ArtistUnicode:LeaF
Creator:EYA-
Version:Hyper
Source:BMS
Tags:BOFU2016 - Legendary Again - 想起 セシル◇タイト GOTHIC CHOIR 孤高クローバー
BeatmapID:1168178
BeatmapSetID:551515

[Difficulty]
HPDrainRate:7.5
CircleSize:4
OverallDifficulty:7.5
ApproachRate:5
SliderMultiplier:1.4
SliderTickRate:1

[Events]
//Background and Video events
0,0,"1.png",0,0
Video,0,"Vedio.avi"
//Break Periods
//Storyboard Layer 0 (Background)
//Storyboard Layer 1 (Fail)
//Storyboard Layer 2 (Pass)
//Storyboard Layer 3 (Foreground)
//Storyboard Sound Samples

[TimingPoints]
774,389.61038961039,4,2,1,30,1,0
774,-89.5348837209302,4,2,1,30,0,0
1553,384.615384615385,4,2,1,30,1,0
1553,-90.6976744186046,4,2,1,30,0,0
2322,375,4,2,1,30,1,0
2322,-93.0232558139535,4,2,1,30,0,0
3072,365.853658536585,4,2,1,30,1,0
3072,-95.3488372093024,4,2,1,30,0,0
3803,357.142857142857,4,2,1,30,1,0
3803,-97.6744186046512,4,2,1,30,0,0
4517,348.837209302326,4,2,1,30,1,0
5214,346.820809248555,4,2,1,30,1,0
5214,-100.581395348837,4,2,1,30,0,0
6601,348.837209302326,4,2,1,30,1,0
17763,361.44578313253,4,2,1,30,1,0
17763,-96.5116279069768,4,2,1,30,0,0
18485,357.142857142857,4,2,1,30,1,0
18485,-97.6744186046512,4,2,1,30,0,0
19199,352.941176470588,4,2,1,30,1,0
19199,-98.8372093023256,4,2,1,30,0,0
20610,348.837209302326,4,2,1,30,1,0
22005,344.827586206897,4,2,1,30,1,0
22005,-101.162790697674,4,2,1,30,0,0
23384,348.837209302326,4,2,1,30,1,0
24081,352.941176470588,4,2,1,30,1,0
24081,-98.8372093023256,4,2,1,30,0,0
24786,357.142857142857,4,2,1,30,1,0
24786,-97.6744186046512,4,2,1,30,0,0
25500,359.281437125748,4,2,1,30,1,0
25500,-97.0930232558141,4,2,1,30,0,0
26218,348.837209302326,4,2,1,30,1,0
26915,346.820809248555,4,2,1,30,1,0
26915,-100.581395348837,4,2,1,30,0,0
28302,348.837209302326,4,2,1,30,1,0
28999,348.837209302326,4,2,1,30,1,0
65278,-100,4,2,1,30,0,1
67719,-100,4,2,1,30,0,0
68068,357.142857142857,4,2,1,30,1,0
68068,-97.6744186046512,4,2,1,30,0,0
69496,352.941176470588,4,2,1,30,1,0
69496,-98.8372093023256,4,2,1,30,0,0
70907,348.837209302326,4,2,1,30,1,0
72302,344.827586206897,4,2,1,30,1,0
72302,-101.162790697674,4,2,1,30,0,0
73681,348.837209302326,4,2,1,30,1,0
78564,357.142857142857,4,2,1,30,1,0
78564,-97.6744186046512,4,2,1,30,0,0
79278,348.837209302326,4,2,1,30,1,0
91836,-100,4,2,1,30,0,1
93231,-100,4,2,1,30,0,0
94626,-100,4,2,1,30,0,1
96022,-100,4,2,1,30,0,0
122184,-100,4,2,1,30,0,1
123929,352.941176470588,4,2,1,30,1,0
123929,-98.8372093023256,4,2,1,30,0,0
125340,348.837209302326,4,2,1,30,1,0
129526,-100,4,2,1,30,0,1
139293,-100,4,2,1,30,0,0
140688,-100,4,2,1,30,0,1
142084,359.281437125748,4,2,1,30,1,0
142084,-97.0873786407767,4,2,1,30,0,0

[HitObjects]
448,192,774,5,0,0:0:0:0:
64,192,774,1,0,0:0:0:0:
192,192,968,1,0,0:0:0:0:
448,192,1163,1,0,0:0:0:0:
320,192,1358,1,0,0:0:0:0:
64,192,1553,1,0,0:0:0:0:
192,192,1553,1,0,0:0:0:0:
320,192,1745,1,0,0:0:0:0:
448,192,1937,1,0,0:0:0:0:
64,192,2129,1,0,0:0:0:0:
192,192,2322,1,0,0:0:0:0:
448,192,2322,1,0,0:0:0:0:
320,192,2509,1,0,0:0:0:0:
192,192,2697,1,0,0:0:0:0:
448,192,2697,1,0,0:0:0:0:
320,192,2884,1,0,0:0:0:0:
64,192,2884,1,0,0:0:0:0:
192,192,3072,1,0,0:0:0:0:
448,192,3072,1,0,0:0:0:0:
64,192,3254,1,0,0:0:0:0:
448,192,3437,1,0,0:0:0:0:
192,192,3437,1,0,0:0:0:0:
192,192,3620,1,0,0:0:0:0:
320,192,3620,1,0,0:0:0:0:
64,192,3803,1,0,0:0:0:0:
448,192,3803,1,0,0:0:0:0:
320,192,3981,1,0,0:0:0:0:
192,192,4070,1,0,0:0:0:0:
64,192,4160,1,0,0:0:0:0:
448,192,4160,1,0,0:0:0:0:
320,192,4249,1,0,0:0:0:0:
192,192,4338,1,0,0:0:0:0:
448,192,4428,1,0,0:0:0:0:
320,192,4517,1,0,0:0:0:0:
64,192,4517,1,0,0:0:0:0:
192,192,4604,1,0,0:0:0:0:
448,192,4691,1,0,0:0:0:0:
320,192,4778,1,0,0:0:0:0:
192,192,4865,1,0,0:0:0:0:
64,192,4953,1,0,0:0:0:0:
320,192,5127,1,0,0:0:0:0:
448,192,5214,1,0,0:0:0:0:
192,192,5214,1,0,0:0:0:0:
448,192,5560,1,0,0:0:0:0:
320,192,5560,1,0,0:0:0:0:
192,192,5560,1,0,0:0:0:0:
64,192,5907,1,0,0:0:0:0:
192,192,5907,1,0,0:0:0:0:
448,192,5907,1,0,0:0:0:0:
320,192,5907,1,0,0:0:0:0:
448,192,6167,1,0,0:0:0:0:
192,192,6167,1,0,0:0:0:0:
320,192,6427,1,0,0:0:0:0:
64,192,6427,1,0,0:0:0:0:
192,192,6601,1,0,0:0:0:0:
448,192,6601,128,0,6775:0:0:0:0:
64,192,6775,1,0,0:0:0:0:
192,192,6949,1,0,0:0:0:0:
448,192,6949,1,0,0:0:0:0:
320,192,7124,1,0,0:0:0:0:
64,192,7298,128,0,7473:0:0:0:0:
448,192,7298,1,0,0:0:0:0:
320,192,7473,1,0,0:0:0:0:
192,192,7647,1,0,0:0:0:0:
64,192,7647,1,0,0:0:0:0:
192,192,7821,1,0,0:0:0:0:
320,192,7996,128,0,8170:0:0:0:0:
192,192,7996,1,0,0:0:0:0:
64,192,8170,1,0,0:0:0:0:
320,192,8345,1,0,0:0:0:0:
192,192,8345,1,0,0:0:0:0:
448,192,8519,1,0,0:0:0:0:
192,192,8694,128,0,8868:0:0:0:0:
64,192,8694,1,0,0:0:0:0:
320,192,8868,1,0,0:0:0:0:
448,192,8955,1,0,0:0:0:0:
64,192,9042,1,0,0:0:0:0:
192,192,9042,1,0,0:0:0:0:
64,192,9217,1,0,0:0:0:0:
320,192,9391,128,0,9566:0:0:0:0:
64,192,9391,1,0,0:0:0:0:
448,192,9566,1,0,0:0:0:0:
192,192,9740,1,0,0:0:0:0:
320,192,9740,1,0,0:0:0:0:
448,192,9914,1,0,0:0:0:0:
192,192,10089,1,0,0:0:0:0:
64,192,10089,128,0,10263:0:0:0:0:
448,192,10263,1,0,0:0:0:0:
320,192,10351,1,0,0:0:0:0:
64,192,10438,1,0,0:0:0:0:
192,192,10438,1,0,0:0:0:0:
320,192,10612,1,0,0:0:0:0:
448,192,10699,1,0,0:0:0:0:
192,192,10787,128,0,10961:0:0:0:0:
64,192,10787,1,0,0:0:0:0:
320,192,10961,1,0,0:0:0:0:
448,192,11135,1,0,0:0:0:0:
192,192,11135,1,0,0:0:0:0:
64,192,11310,1,0,0:0:0:0:
448,192,11484,128,0,11659:0:0:0:0:
320,192,11484,1,0,0:0:0:0:
192,192,11659,1,0,0:0:0:0:
320,192,11833,1,0,0:0:0:0:
64,192,11833,1,0,0:0:0:0:
320,192,12007,1,0,0:0:0:0:
64,192,12182,128,0,12356:0:0:0:0:
320,192,12182,1,0,0:0:0:0:
192,192,12356,1,0,0:0:0:0:
320,192,12531,1,0,0:0:0:0:
448,192,12531,1,0,0:0:0:0:
64,192,12705,1,0,0:0:0:0:
192,192,12880,1,0,0:0:0:0:
320,192,12880,128,0,13054:0:0:0:0:
64,192,13054,1,0,0:0:0:0:
448,192,13228,1,0,0:0:0:0:
320,192,13228,1,0,0:0:0:0:
448,192,13403,1,0,0:0:0:0:
448,192,13577,1,0,0:0:0:0:
64,192,13577,128,0,13752:0:0:0:0:
320,192,13752,1,0,0:0:0:0:
192,192,13926,1,0,0:0:0:0:
64,192,13926,1,0,0:0:0:0:
320,192,14101,1,0,0:0:0:0:
448,192,14275,128,0,14449:0:0:0:0:
64,192,14275,1,0,0:0:0:0:
320,192,14449,1,0,0:0:0:0:
192,192,14537,1,0,0:0:0:0:
64,192,14624,1,0,0:0:0:0:
448,192,14624,1,0,0:0:0:0:
64,192,14798,1,0,0:0:0:0:
192,192,14973,128,0,15147:0:0:0:0:
64,192,14973,1,0,0:0:0:0:
320,192,15147,1,0,0:0:0:0:
448,192,15321,1,0,0:0:0:0:
64,192,15321,1,0,0:0:0:0:
320,192,15496,1,0,0:0:0:0:
448,192,15670,128,0,15845:0:0:0:0:
192,192,15670,1,0,0:0:0:0:
320,192,15845,1,0,0:0:0:0:
192,192,15932,1,0,0:0:0:0:
64,192,16019,1,0,0:0:0:0:
448,192,16019,1,0,0:0:0:0:
192,192,16194,1,0,0:0:0:0:
320,192,16281,1,0,0:0:0:0:
448,192,16368,1,0,0:0:0:0:
64,192,16368,1,0,0:0:0:0:
64,192,16717,1,0,0:0:0:0:
320,192,16717,1,0,0:0:0:0:
448,192,16717,1,0,0:0:0:0:
192,192,17066,1,0,0:0:0:0:
64,192,17066,1,0,0:0:0:0:
448,192,17066,1,0,0:0:0:0:
448,192,17414,1,0,0:0:0:0:
64,192,17414,1,0,0:0:0:0:
64,192,17763,1,0,0:0:0:0:
320,192,17763,1,0,0:0:0:0:
192,192,17943,1,0,0:0:0:0:
320,192,18124,1,0,0:0:0:0:
448,192,18124,1,0,0:0:0:0:
448,192,18485,1,0,0:0:0:0:
64,192,18485,1,0,0:0:0:0:
320,192,18663,1,0,0:0:0:0:
192,192,18842,1,0,0:0:0:0:
448,192,18842,1,0,0:0:0:0:
64,192,19020,1,0,0:0:0:0:
320,192,19199,1,0,0:0:0:0:
448,192,19199,1,0,0:0:0:0:
64,192,19375,1,0,0:0:0:0:
192,192,19551,1,0,0:0:0:0:
448,192,19551,1,0,0:0:0:0:
320,192,19728,1,0,0:0:0:0:
448,192,19904,1,0,0:0:0:0:
64,192,19904,1,0,0:0:0:0:
192,192,20081,1,0,0:0:0:0:
448,192,20257,1,0,0:0:0:0:
320,192,20257,1,0,0:0:0:0:
64,192,20434,1,0,0:0:0:0:
192,192,20434,1,0,0:0:0:0:
320,192,20522,1,0,0:0:0:0:
448,192,20610,1,0,0:0:0:0:
64,192,20610,1,0,0:0:0:0:
192,192,20784,1,0,0:0:0:0:
320,192,20958,1,0,0:0:0:0:
448,192,20958,1,0,0:0:0:0:
192,192,21133,1,0,0:0:0:0:
64,192,21307,1,0,0:0:0:0:
448,192,21307,1,0,0:0:0:0:
320,192,21482,1,0,0:0:0:0:
192,192,21656,1,0,0:0:0:0:
64,192,21656,1,0,0:0:0:0:
448,192,21830,1,0,0:0:0:0:
64,192,22005,1,0,0:0:0:0:
192,192,22005,1,0,0:0:0:0:
192,192,22177,1,0,0:0:0:0:
320,192,22177,1,0,0:0:0:0:
448,192,22349,1,0,0:0:0:0:
320,192,22349,1,0,0:0:0:0:
320,192,22522,1,0,0:0:0:0:
192,192,22522,1,0,0:0:0:0:
192,192,22694,1,0,0:0:0:0:
64,192,22694,1,0,0:0:0:0:
64,192,22867,1,0,0:0:0:0:
320,192,22867,1,0,0:0:0:0:
192,192,23039,1,0,0:0:0:0:
448,192,23039,1,0,0:0:0:0:
64,192,23211,1,0,0:0:0:0:
320,192,23211,1,0,0:0:0:0:
192,192,23384,1,0,0:0:0:0:
448,192,23384,1,0,0:0:0:0:
448,192,23645,1,0,0:0:0:0:
64,192,23645,1,0,0:0:0:0:
192,192,23732,1,0,0:0:0:0:
320,192,23732,1,0,0:0:0:0:
64,192,23907,1,0,0:0:0:0:
192,192,23994,1,0,0:0:0:0:
448,192,24081,1,0,0:0:0:0:
320,192,24081,1,0,0:0:0:0:
64,192,24257,1,0,0:0:0:0:
320,192,24257,1,0,0:0:0:0:
192,192,24433,1,0,0:0:0:0:
448,192,24433,1,0,0:0:0:0:
320,192,24610,1,0,0:0:0:0:
64,192,24610,1,0,0:0:0:0:
192,192,24786,1,0,0:0:0:0:
448,192,24786,1,0,0:0:0:0:
320,192,25053,1,0,0:0:0:0:
192,192,25053,1,0,0:0:0:0:
64,192,25143,1,0,0:0:0:0:
448,192,25143,1,0,0:0:0:0:
192,192,25321,1,0,0:0:0:0:
320,192,25411,1,0,0:0:0:0:
448,192,25500,1,0,0:0:0:0:
64,192,25500,1,0,0:0:0:0:
320,192,25679,1,0,0:0:0:0:
64,192,25679,1,0,0:0:0:0:
192,192,25859,1,0,0:0:0:0:
448,192,25859,1,0,0:0:0:0:
320,192,26038,1,0,0:0:0:0:
64,192,26038,1,0,0:0:0:0:
192,192,26218,1,0,0:0:0:0:
448,192,26218,1,0,0:0:0:0:
320,192,26218,1,0,0:0:0:0:
64,192,26392,1,0,0:0:0:0:
192,192,26479,1,0,0:0:0:0:
320,192,26566,1,0,0:0:0:0:
448,192,26566,1,0,0:0:0:0:
64,192,26915,1,0,0:0:0:0:
192,192,26915,1,0,0:0:0:0:
448,192,26915,1,0,0:0:0:0:
320,192,27175,1,0,0:0:0:0:
192,192,27261,1,0,0:0:0:0:
64,192,27348,1,0,0:0:0:0:
448,192,27348,1,0,0:0:0:0:
448,192,27608,1,0,0:0:0:0:
320,192,27608,1,0,0:0:0:0:
192,192,27608,1,0,0:0:0:0:
64,192,27955,1,0,0:0:0:0:
192,192,27955,1,0,0:0:0:0:
320,192,27955,1,0,0:0:0:0:
448,192,28128,1,0,0:0:0:0:
320,192,28215,1,0,0:0:0:0:
192,192,28302,1,0,0:0:0:0:
64,192,28302,1,0,0:0:0:0:
448,192,28999,1,0,0:0:0:0:
192,192,28999,1,0,0:0:0:0:
64,192,28999,1,0,0:0:0:0:
320,192,29173,1,0,0:0:0:0:
192,192,29260,1,0,0:0:0:0:
448,192,29347,1,0,0:0:0:0:
64,192,29347,1,0,0:0:0:0:
192,192,29522,1,0,0:0:0:0:
320,192,29609,1,0,0:0:0:0:
64,192,29696,1,0,0:0:0:0:
448,192,29696,1,0,0:0:0:0:
448,192,29871,1,0,0:0:0:0:
64,192,29871,1,0,0:0:0:0:
320,192,30045,1,0,0:0:0:0:
448,192,30045,1,0,0:0:0:0:
192,192,30219,1,0,0:0:0:0:
320,192,30219,1,0,0:0:0:0:
448,192,30394,1,0,0:0:0:0:
64,192,30394,1,0,0:0:0:0:
320,192,30568,1,0,0:0:0:0:
448,192,30655,1,0,0:0:0:0:
64,192,30743,1,0,0:0:0:0:
192,192,30743,1,0,0:0:0:0:
192,192,30917,1,0,0:0:0:0:
64,192,31004,1,0,0:0:0:0:
320,192,31092,1,0,0:0:0:0:
448,192,31092,1,0,0:0:0:0:
64,192,31266,1,0,0:0:0:0:
320,192,31266,1,0,0:0:0:0:
448,192,31440,1,0,0:0:0:0:
64,192,31440,1,0,0:0:0:0:
448,192,31615,1,0,0:0:0:0:
192,192,31615,1,0,0:0:0:0:
192,192,31789,1,0,0:0:0:0:
320,192,31789,1,0,0:0:0:0:
64,192,31964,1,0,0:0:0:0:
192,192,32051,1,0,0:0:0:0:
320,192,32138,1,0,0:0:0:0:
448,192,32138,1,0,0:0:0:0:
192,192,32312,1,0,0:0:0:0:
192,192,32487,1,0,0:0:0:0:
64,192,32487,1,0,0:0:0:0:
448,192,32661,1,0,0:0:0:0:
320,192,32749,1,0,0:0:0:0:
192,192,32836,1,0,0:0:0:0:
64,192,32836,1,0,0:0:0:0:
64,192,33010,1,0,0:0:0:0:
192,192,33097,1,0,0:0:0:0:
448,192,33185,1,0,0:0:0:0:
320,192,33185,1,0,0:0:0:0:
448,192,33359,1,0,0:0:0:0:
320,192,33446,1,0,0:0:0:0:
192,192,33533,1,0,0:0:0:0:
64,192,33533,1,0,0:0:0:0:
448,192,33708,1,0,0:0:0:0:
320,192,33708,1,0,0:0:0:0:
192,192,33882,1,0,0:0:0:0:
320,192,33882,1,0,0:0:0:0:
64,192,34057,1,0,0:0:0:0:
192,192,34057,1,0,0:0:0:0:
64,192,34231,1,0,0:0:0:0:
448,192,34231,1,0,0:0:0:0:
320,192,34405,1,0,0:0:0:0:
448,192,34405,1,0,0:0:0:0:
64,192,34580,1,0,0:0:0:0:
192,192,34580,1,0,0:0:0:0:
320,192,34754,1,0,0:0:0:0:
448,192,34842,1,0,0:0:0:0:
192,192,34929,1,0,0:0:0:0:
64,192,34929,1,0,0:0:0:0:
192,192,35103,1,0,0:0:0:0:
64,192,35190,1,0,0:0:0:0:
320,192,35278,1,0,0:0:0:0:
448,192,35278,1,0,0:0:0:0:
192,192,35452,1,0,0:0:0:0:
320,192,35452,1,0,0:0:0:0:
64,192,35626,1,0,0:0:0:0:
192,192,35626,1,0,0:0:0:0:
448,192,35801,1,0,0:0:0:0:
64,192,35801,1,0,0:0:0:0:
320,192,35975,1,0,0:0:0:0:
448,192,35975,1,0,0:0:0:0:
192,192,36150,1,0,0:0:0:0:
320,192,36237,1,0,0:0:0:0:
448,192,36324,1,0,0:0:0:0:
64,192,36324,1,0,0:0:0:0:
320,192,36499,1,0,0:0:0:0:
192,192,36586,1,0,0:0:0:0:
64,192,36673,1,0,0:0:0:0:
448,192,36673,1,0,0:0:0:0:
64,192,36847,1,0,0:0:0:0:
192,192,36847,1,0,0:0:0:0:
192,192,37022,1,0,0:0:0:0:
320,192,37022,1,0,0:0:0:0:
320,192,37196,1,0,0:0:0:0:
448,192,37196,1,0,0:0:0:0:
448,192,37371,1,0,0:0:0:0:
64,192,37371,1,0,0:0:0:0:
192,192,37545,1,0,0:0:0:0:
64,192,37719,1,0,0:0:0:0:
320,192,37719,1,0,0:0:0:0:
448,192,37894,1,0,0:0:0:0:
192,192,38068,1,0,0:0:0:0:
64,192,38068,1,0,0:0:0:0:
320,192,38243,1,0,0:0:0:0:
448,192,38417,1,0,0:0:0:0:
192,192,38417,1,0,0:0:0:0:
64,192,38592,1,0,0:0:0:0:
448,192,38766,1,0,0:0:0:0:
320,192,38766,1,0,0:0:0:0:
192,192,38940,1,0,0:0:0:0:
64,192,39115,1,0,0:0:0:0:
448,192,39115,1,0,0:0:0:0:
320,192,39289,1,0,0:0:0:0:
448,192,39376,1,0,0:0:0:0:
192,192,39464,1,0,0:0:0:0:
64,192,39464,1,0,0:0:0:0:
320,192,39638,1,0,0:0:0:0:
448,192,39812,1,0,0:0:0:0:
64,192,39812,1,0,0:0:0:0:
192,192,39987,1,0,0:0:0:0:
64,192,40161,1,0,0:0:0:0:
448,192,40161,128,0,40336:0:0:0:0:
192,192,40336,1,0,0:0:0:0:
320,192,40510,128,0,40685:0:0:0:0:
448,192,40510,1,0,0:0:0:0:
64,192,40685,1,0,0:0:0:0:
192,192,40859,128,0,41033:0:0:0:0:
448,192,40859,1,0,0:0:0:0:
64,192,41033,1,0,0:0:0:0:
320,192,41208,128,0,41382:0:0:0:0:
448,192,41208,1,0,0:0:0:0:
64,192,41382,1,0,0:0:0:0:
192,192,41557,128,0,41731:0:0:0:0:
448,192,41557,1,0,0:0:0:0:
320,192,41731,1,0,0:0:0:0:
64,192,41905,128,0,42080:0:0:0:0:
448,192,41905,1,0,0:0:0:0:
192,192,42080,1,0,0:0:0:0:
320,192,42254,128,0,42429:0:0:0:0:
448,192,42254,1,0,0:0:0:0:
64,192,42429,1,0,0:0:0:0:
192,192,42603,128,0,42778:0:0:0:0:
448,192,42603,1,0,0:0:0:0:
320,192,42778,1,0,0:0:0:0:
64,192,42952,1,0,0:0:0:0:
448,192,42952,1,0,0:0:0:0:
320,192,43126,1,0,0:0:0:0:
448,192,43214,1,0,0:0:0:0:
192,192,43301,1,0,0:0:0:0:
64,192,43301,1,0,0:0:0:0:
320,192,43475,1,0,0:0:0:0:
192,192,43562,1,0,0:0:0:0:
64,192,43650,1,0,0:0:0:0:
448,192,43650,1,0,0:0:0:0:
192,192,43824,1,0,0:0:0:0:
64,192,43911,1,0,0:0:0:0:
320,192,43999,1,0,0:0:0:0:
448,192,43999,1,0,0:0:0:0:
192,192,44173,1,0,0:0:0:0:
320,192,44260,1,0,0:0:0:0:
448,192,44347,1,0,0:0:0:0:
64,192,44347,1,0,0:0:0:0:
320,192,44522,1,0,0:0:0:0:
448,192,44609,1,0,0:0:0:0:
192,192,44696,1,0,0:0:0:0:
64,192,44696,1,0,0:0:0:0:
320,192,44871,1,0,0:0:0:0:
192,192,44958,1,0,0:0:0:0:
64,192,45045,1,0,0:0:0:0:
448,192,45045,1,0,0:0:0:0:
64,192,45219,1,0,0:0:0:0:
192,192,45307,1,0,0:0:0:0:
448,192,45394,1,0,0:0:0:0:
320,192,45437,1,0,0:0:0:0:
64,192,45481,1,0,0:0:0:0:
192,192,45568,1,0,0:0:0:0:
448,192,45655,1,0,0:0:0:0:
320,192,45743,1,0,0:0:0:0:
64,192,45743,1,0,0:0:0:0:
192,192,45917,1,0,0:0:0:0:
448,192,46092,1,0,0:0:0:0:
320,192,46092,1,0,0:0:0:0:
64,192,46266,1,0,0:0:0:0:
192,192,46440,1,0,0:0:0:0:
448,192,46440,1,0,0:0:0:0:
320,192,46615,1,0,0:0:0:0:
448,192,46789,1,0,0:0:0:0:
64,192,46789,1,0,0:0:0:0:
192,192,46964,1,0,0:0:0:0:
448,192,47138,1,0,0:0:0:0:
320,192,47138,1,0,0:0:0:0:
64,192,47312,1,0,0:0:0:0:
448,192,47487,1,0,0:0:0:0:
192,192,47487,1,0,0:0:0:0:
320,192,47661,1,0,0:0:0:0:
64,192,47836,1,0,0:0:0:0:
192,192,47836,1,0,0:0:0:0:
320,192,47923,1,0,0:0:0:0:
448,192,48010,1,0,0:0:0:0:
192,192,48097,1,0,0:0:0:0:
320,192,48185,1,0,0:0:0:0:
64,192,48272,1,0,0:0:0:0:
192,192,48359,1,0,0:0:0:0:
320,192,48446,1,0,0:0:0:0:
448,192,48533,1,0,0:0:0:0:
64,192,48533,128,0,48708:0:0:0:0:
192,192,48708,1,0,0:0:0:0:
320,192,48882,128,0,49057:0:0:0:0:
448,192,48882,1,0,0:0:0:0:
64,192,49057,1,0,0:0:0:0:
192,192,49231,128,0,49405:0:0:0:0:
448,192,49231,1,0,0:0:0:0:
320,192,49405,1,0,0:0:0:0:
448,192,49580,128,0,49754:0:0:0:0:
64,192,49580,1,0,0:0:0:0:
192,192,49754,1,0,0:0:0:0:
64,192,49929,128,0,50103:0:0:0:0:
320,192,49929,1,0,0:0:0:0:
448,192,50103,1,0,0:0:0:0:
192,192,50278,128,0,50452:0:0:0:0:
320,192,50278,1,0,0:0:0:0:
64,192,50452,1,0,0:0:0:0:
448,192,50626,1,0,0:0:0:0:
320,192,50626,1,0,0:0:0:0:
192,192,50714,1,0,0:0:0:0:
64,192,50801,1,0,0:0:0:0:
320,192,50888,1,0,0:0:0:0:
192,192,50975,1,0,0:0:0:0:
448,192,51062,1,0,0:0:0:0:
320,192,51150,1,0,0:0:0:0:
192,192,51237,1,0,0:0:0:0:
64,192,51324,1,0,0:0:0:0:
448,192,51324,1,0,0:0:0:0:
320,192,51499,1,0,0:0:0:0:
192,192,51673,1,0,0:0:0:0:
64,192,51673,1,0,0:0:0:0:
448,192,51847,1,0,0:0:0:0:
320,192,52022,1,0,0:0:0:0:
64,192,52022,1,0,0:0:0:0:
192,192,52196,1,0,0:0:0:0:
64,192,52371,1,0,0:0:0:0:
448,192,52371,1,0,0:0:0:0:
320,192,52545,1,0,0:0:0:0:
192,192,52719,1,0,0:0:0:0:
448,192,52719,1,0,0:0:0:0:
64,192,52894,1,0,0:0:0:0:
192,192,53068,1,0,0:0:0:0:
320,192,53068,1,0,0:0:0:0:
448,192,53243,1,0,0:0:0:0:
64,192,53417,1,0,0:0:0:0:
192,192,53417,1,0,0:0:0:0:
320,192,53504,1,0,0:0:0:0:
448,192,53592,1,0,0:0:0:0:
192,192,53679,1,0,0:0:0:0:
320,192,53766,1,0,0:0:0:0:
64,192,53853,1,0,0:0:0:0:
192,192,53940,1,0,0:0:0:0:
320,192,54028,1,0,0:0:0:0:
448,192,54115,1,0,0:0:0:0:
64,192,54115,128,0,54289:0:0:0:0:
192,192,54289,1,0,0:0:0:0:
448,192,54464,128,0,54638:0:0:0:0:
320,192,54464,1,0,0:0:0:0:
64,192,54638,1,0,0:0:0:0:
192,192,54812,128,0,54987:0:0:0:0:
320,192,54812,1,0,0:0:0:0:
448,192,54987,1,0,0:0:0:0:
320,192,55161,128,0,55336:0:0:0:0:
64,192,55161,1,0,0:0:0:0:
192,192,55336,1,0,0:0:0:0:
64,192,55510,128,0,55685:0:0:0:0:
448,192,55510,1,0,0:0:0:0:
320,192,55685,1,0,0:0:0:0:
448,192,55859,128,0,56033:0:0:0:0:
192,192,55859,1,0,0:0:0:0:
320,192,56033,1,0,0:0:0:0:
192,192,56208,1,0,0:0:0:0:
64,192,56208,1,0,0:0:0:0:
320,192,56295,1,0,0:0:0:0:
448,192,56382,1,0,0:0:0:0:
192,192,56469,1,0,0:0:0:0:
320,192,56557,1,0,0:0:0:0:
64,192,56644,1,0,0:0:0:0:
192,192,56731,1,0,0:0:0:0:
320,192,56818,1,0,0:0:0:0:
448,192,56905,1,0,0:0:0:0:
64,192,56905,1,0,0:0:0:0:
192,192,57080,1,0,0:0:0:0:
320,192,57254,1,0,0:0:0:0:
448,192,57254,1,0,0:0:0:0:
64,192,57429,1,0,0:0:0:0:
192,192,57603,1,0,0:0:0:0:
448,192,57603,1,0,0:0:0:0:
320,192,57778,1,0,0:0:0:0:
192,192,57952,1,0,0:0:0:0:
64,192,57952,1,0,0:0:0:0:
448,192,58126,1,0,0:0:0:0:
320,192,58301,1,0,0:0:0:0:
64,192,58301,1,0,0:0:0:0:
192,192,58475,1,0,0:0:0:0:
320,192,58650,1,0,0:0:0:0:
448,192,58650,1,0,0:0:0:0:
192,192,58824,1,0,0:0:0:0:
64,192,58999,1,0,0:0:0:0:
448,192,58999,1,0,0:0:0:0:
320,192,59173,1,0,0:0:0:0:
64,192,59347,1,0,0:0:0:0:
192,192,59435,1,0,0:0:0:0:
448,192,59522,1,0,0:0:0:0:
320,192,59609,1,0,0:0:0:0:
192,192,59696,1,0,0:0:0:0:
64,192,59696,128,0,59871:0:0:0:0:
448,192,59871,1,0,0:0:0:0:
192,192,60045,128,0,60219:0:0:0:0:
320,192,60045,1,0,0:0:0:0:
64,192,60219,1,0,0:0:0:0:
448,192,60394,128,0,60568:0:0:0:0:
320,192,60394,1,0,0:0:0:0:
192,192,60568,1,0,0:0:0:0:
320,192,60743,128,0,60917:0:0:0:0:
64,192,60743,1,0,0:0:0:0:
448,192,60917,1,0,0:0:0:0:
64,192,61092,128,0,61266:0:0:0:0:
192,192,61092,1,0,0:0:0:0:
320,192,61266,1,0,0:0:0:0:
192,192,61440,128,0,61615:0:0:0:0:
448,192,61440,1,0,0:0:0:0:
64,192,61615,1,0,0:0:0:0:
448,192,61789,1,0,0:0:0:0:
320,192,61876,1,0,0:0:0:0:
192,192,61964,1,0,0:0:0:0:
64,192,62051,1,0,0:0:0:0:
320,192,62138,1,0,0:0:0:0:
448,192,62138,1,0,0:0:0:0:
64,192,62312,1,0,0:0:0:0:
192,192,62400,1,0,0:0:0:0:
320,192,62487,1,0,0:0:0:0:
448,192,62487,1,0,0:0:0:0:
64,192,62661,1,0,0:0:0:0:
192,192,62836,1,0,0:0:0:0:
448,192,62836,1,0,0:0:0:0:
320,192,63010,1,0,0:0:0:0:
192,192,63185,1,0,0:0:0:0:
64,192,63185,1,0,0:0:0:0:
320,192,63359,1,0,0:0:0:0:
448,192,63533,1,0,0:0:0:0:
64,192,63533,1,0,0:0:0:0:
192,192,63708,1,0,0:0:0:0:
320,192,63882,1,0,0:0:0:0:
64,192,63882,1,0,0:0:0:0:
448,192,64057,1,0,0:0:0:0:
320,192,64231,1,0,0:0:0:0:
192,192,64231,1,0,0:0:0:0:
64,192,64405,1,0,0:0:0:0:
320,192,64580,1,0,0:0:0:0:
64,192,64667,1,0,0:0:0:0:
448,192,64667,1,0,0:0:0:0:
192,192,64842,1,0,0:0:0:0:
64,192,64929,1,0,0:0:0:0:
448,192,64929,1,0,0:0:0:0:
320,192,65103,1,0,0:0:0:0:
192,192,65103,1,0,0:0:0:0:
64,192,65278,1,0,0:0:0:0:
448,192,65278,1,0,0:0:0:0:
192,192,65452,1,0,0:0:0:0:
320,192,65452,1,0,0:0:0:0:
64,192,65626,1,0,0:0:0:0:
192,192,65626,1,0,0:0:0:0:
448,192,65801,1,0,0:0:0:0:
320,192,65801,1,0,0:0:0:0:
64,192,65975,1,0,0:0:0:0:
448,192,65975,1,0,0:0:0:0:
192,192,66150,1,0,0:0:0:0:
320,192,66150,1,0,0:0:0:0:
448,192,66324,1,0,0:0:0:0:
192,192,66324,1,0,0:0:0:0:
320,192,66499,1,0,0:0:0:0:
64,192,66499,1,0,0:0:0:0:
192,192,66673,1,0,0:0:0:0:
64,192,66673,1,0,0:0:0:0:
448,192,66847,1,0,0:0:0:0:
320,192,66847,1,0,0:0:0:0:
192,192,67022,1,0,0:0:0:0:
448,192,67022,1,0,0:0:0:0:
64,192,67196,1,0,0:0:0:0:
320,192,67196,1,0,0:0:0:0:
64,192,67371,1,0,0:0:0:0:
192,192,67371,1,0,0:0:0:0:
320,192,67458,1,0,0:0:0:0:
448,192,67545,1,0,0:0:0:0:
192,192,67632,1,0,0:0:0:0:
320,192,67719,1,0,0:0:0:0:
64,192,67807,1,0,0:0:0:0:
192,192,67894,1,0,0:0:0:0:
320,192,67981,1,0,0:0:0:0:
448,192,68068,1,0,0:0:0:0:
64,192,68068,1,0,0:0:0:0:
64,192,68425,1,0,0:0:0:0:
448,192,68425,1,0,0:0:0:0:
64,192,68782,1,0,0:0:0:0:
448,192,68782,1,0,0:0:0:0:
320,192,69139,128,0,69318:0:0:0:0:
192,192,69139,128,0,69318:0:0:0:0:
192,192,69496,128,0,69672:0:0:0:0:
320,192,69496,128,0,69672:0:0:0:0:
64,192,69848,1,0,0:0:0:0:
448,192,69848,1,0,0:0:0:0:
192,192,70025,1,0,0:0:0:0:
320,192,70025,1,0,0:0:0:0:
64,192,70201,128,0,70907:0:0:0:0:
448,192,70201,128,0,70907:0:0:0:0:
192,192,70907,128,0,71081:0:0:0:0:
320,192,70907,128,0,71081:0:0:0:0:
448,192,71255,128,0,71430:0:0:0:0:
64,192,71255,128,0,71430:0:0:0:0:
320,192,71604,128,0,71779:0:0:0:0:
192,192,71604,128,0,71779:0:0:0:0:
64,192,71953,128,0,72127:0:0:0:0:
448,192,71953,128,0,72127:0:0:0:0:
320,192,72127,128,0,72302:0:0:0:0:
192,192,72127,128,0,72302:0:0:0:0:
64,192,72302,128,0,72474:0:0:0:0:
448,192,72302,128,0,72474:0:0:0:0:
192,192,72474,1,0,0:0:0:0:
320,192,72474,1,0,0:0:0:0:
192,192,72646,128,0,72819:0:0:0:0:
448,192,72646,128,0,72819:0:0:0:0:
320,192,72819,128,0,72991:0:0:0:0:
64,192,72819,128,0,72991:0:0:0:0:
192,192,72991,128,0,73508:0:0:0:0:
448,192,72991,128,0,73508:0:0:0:0:
320,192,73681,128,0,74291:0:0:0:0:
64,192,73681,1,0,0:0:0:0:
192,192,73681,1,0,0:0:0:0:
448,192,73681,1,0,0:0:0:0:
448,192,74029,1,0,0:0:0:0:
64,192,74029,1,0,0:0:0:0:
64,192,74378,1,0,0:0:0:0:
448,192,74378,1,0,0:0:0:0:
320,192,74378,1,0,0:0:0:0:
192,192,74378,128,0,74989:0:0:0:0:
64,192,74727,1,0,0:0:0:0:
320,192,74727,1,0,0:0:0:0:
320,192,75076,1,0,0:0:0:0:
192,192,75076,1,0,0:0:0:0:
64,192,75076,1,0,0:0:0:0:
448,192,75076,128,0,75686:0:0:0:0:
64,192,75425,1,0,0:0:0:0:
192,192,75425,1,0,0:0:0:0:
320,192,75599,1,0,0:0:0:0:
192,192,75599,1,0,0:0:0:0:
448,192,75774,1,0,0:0:0:0:
320,192,75774,1,0,0:0:0:0:
192,192,75774,1,0,0:0:0:0:
64,192,75774,128,0,76384:0:0:0:0:
320,192,76122,1,0,0:0:0:0:
64,192,76471,1,0,0:0:0:0:
192,192,76471,1,0,0:0:0:0:
320,192,76471,1,0,0:0:0:0:
448,192,76471,128,0,77082:0:0:0:0:
192,192,76820,1,0,0:0:0:0:
64,192,77169,1,0,0:0:0:0:
192,192,77169,1,0,0:0:0:0:
320,192,77169,1,0,0:0:0:0:
448,192,77169,1,0,0:0:0:0:
448,192,77343,1,0,0:0:0:0:
320,192,77343,1,0,0:0:0:0:
320,192,77518,1,0,0:0:0:0:
192,192,77518,1,0,0:0:0:0:
64,192,77692,1,0,0:0:0:0:
192,192,77692,1,0,0:0:0:0:
448,192,77867,1,0,0:0:0:0:
320,192,77867,1,0,0:0:0:0:
64,192,77867,1,0,0:0:0:0:
64,192,78215,1,0,0:0:0:0:
448,192,78215,1,0,0:0:0:0:
192,192,78390,1,0,0:0:0:0:
320,192,78477,1,0,0:0:0:0:
448,192,78564,1,0,0:0:0:0:
64,192,78564,1,0,0:0:0:0:
192,192,78742,1,0,0:0:0:0:
448,192,78742,1,0,0:0:0:0:
320,192,78831,1,0,0:0:0:0:
192,192,78921,1,0,0:0:0:0:
64,192,78921,1,0,0:0:0:0:
320,192,79010,1,0,0:0:0:0:
448,192,79099,1,0,0:0:0:0:
64,192,79099,1,0,0:0:0:0:
192,192,79189,1,0,0:0:0:0:
320,192,79278,1,0,0:0:0:0:
448,192,79278,128,0,79452:0:0:0:0:
192,192,79452,1,0,0:0:0:0:
64,192,79626,128,0,79801:0:0:0:0:
320,192,79626,1,0,0:0:0:0:
448,192,79801,1,0,0:0:0:0:
192,192,79975,128,0,80150:0:0:0:0:
64,192,79975,1,0,0:0:0:0:
320,192,80150,1,0,0:0:0:0:
448,192,80324,128,0,80498:0:0:0:0:
64,192,80324,1,0,0:0:0:0:
192,192,80498,1,0,0:0:0:0:
320,192,80673,128,0,80847:0:0:0:0:
64,192,80673,1,0,0:0:0:0:
448,192,80847,1,0,0:0:0:0:
192,192,81022,128,0,81196:0:0:0:0:
320,192,81022,1,0,0:0:0:0:
64,192,81196,128,0,81371:0:0:0:0:
448,192,81196,1,0,0:0:0:0:
192,192,81371,1,0,0:0:0:0:
320,192,81458,1,0,0:0:0:0:
448,192,81545,1,0,0:0:0:0:
64,192,81632,1,0,0:0:0:0:
192,192,81632,1,0,0:0:0:0:
320,192,81719,1,0,0:0:0:0:
448,192,81719,1,0,0:0:0:0:
192,192,81807,1,0,0:0:0:0:
64,192,81894,1,0,0:0:0:0:
448,192,81981,1,0,0:0:0:0:
192,192,82068,1,0,0:0:0:0:
320,192,82068,128,0,82243:0:0:0:0:
64,192,82243,1,0,0:0:0:0:
448,192,82417,1,0,0:0:0:0:
192,192,82417,128,0,82591:0:0:0:0:
320,192,82591,1,0,0:0:0:0:
64,192,82766,128,0,82940:0:0:0:0:
448,192,82766,1,0,0:0:0:0:
192,192,82940,1,0,0:0:0:0:
448,192,83115,128,0,83289:0:0:0:0:
320,192,83115,1,0,0:0:0:0:
64,192,83289,1,0,0:0:0:0:
192,192,83464,128,0,83638:0:0:0:0:
320,192,83464,1,0,0:0:0:0:
448,192,83638,1,0,0:0:0:0:
320,192,83812,128,0,83987:0:0:0:0:
64,192,83812,1,0,0:0:0:0:
192,192,83987,1,0,0:0:0:0:
448,192,83987,128,0,84161:0:0:0:0:
320,192,84161,1,0,0:0:0:0:
192,192,84248,1,0,0:0:0:0:
64,192,84336,1,0,0:0:0:0:
448,192,84423,1,0,0:0:0:0:
320,192,84423,1,0,0:0:0:0:
192,192,84510,1,0,0:0:0:0:
64,192,84510,1,0,0:0:0:0:
320,192,84597,1,0,0:0:0:0:
448,192,84684,1,0,0:0:0:0:
64,192,84772,1,0,0:0:0:0:
320,192,84859,1,0,0:0:0:0:
192,192,84859,128,0,85033:0:0:0:0:
448,192,85033,1,0,0:0:0:0:
320,192,85208,1,0,0:0:0:0:
64,192,85208,128,0,85382:0:0:0:0:
192,192,85382,1,0,0:0:0:0:
320,192,85557,1,0,0:0:0:0:
448,192,85557,128,0,85731:0:0:0:0:
64,192,85731,1,0,0:0:0:0:
192,192,85905,128,0,86080:0:0:0:0:
320,192,85905,1,0,0:0:0:0:
448,192,86080,1,0,0:0:0:0:
320,192,86254,128,0,86429:0:0:0:0:
64,192,86254,1,0,0:0:0:0:
448,192,86429,1,0,0:0:0:0:
192,192,86603,128,0,86778:0:0:0:0:
320,192,86603,1,0,0:0:0:0:
64,192,86778,128,0,86952:0:0:0:0:
448,192,86778,1,0,0:0:0:0:
192,192,86952,1,0,0:0:0:0:
320,192,87039,1,0,0:0:0:0:
448,192,87126,1,0,0:0:0:0:
64,192,87214,1,0,0:0:0:0:
192,192,87214,1,0,0:0:0:0:
320,192,87301,1,0,0:0:0:0:
448,192,87301,1,0,0:0:0:0:
192,192,87388,1,0,0:0:0:0:
64,192,87475,1,0,0:0:0:0:
448,192,87562,1,0,0:0:0:0:
320,192,87650,128,0,87824:0:0:0:0:
192,192,87650,1,0,0:0:0:0:
64,192,87824,1,0,0:0:0:0:
448,192,87998,1,0,0:0:0:0:
192,192,87998,1,0,0:0:0:0:
64,192,88086,1,0,0:0:0:0:
320,192,88173,1,0,0:0:0:0:
192,192,88260,1,0,0:0:0:0:
64,192,88347,1,0,0:0:0:0:
448,192,88347,1,0,0:0:0:0:
320,192,88434,1,0,0:0:0:0:
192,192,88522,1,0,0:0:0:0:
64,192,88609,1,0,0:0:0:0:
448,192,88696,1,0,0:0:0:0:
320,192,88696,1,0,0:0:0:0:
192,192,88871,1,0,0:0:0:0:
320,192,88871,1,0,0:0:0:0:
64,192,89045,1,0,0:0:0:0:
192,192,89045,1,0,0:0:0:0:
320,192,89219,1,0,0:0:0:0:
192,192,89307,1,0,0:0:0:0:
448,192,89394,1,0,0:0:0:0:
64,192,89394,1,0,0:0:0:0:
192,192,89568,1,0,0:0:0:0:
320,192,89568,1,0,0:0:0:0:
64,192,89743,1,0,0:0:0:0:
448,192,89743,1,0,0:0:0:0:
320,192,89917,1,0,0:0:0:0:
192,192,89917,1,0,0:0:0:0:
64,192,90091,1,0,0:0:0:0:
192,192,90179,1,0,0:0:0:0:
448,192,90266,1,0,0:0:0:0:
320,192,90353,1,0,0:0:0:0:
192,192,90440,1,0,0:0:0:0:
64,192,90440,128,0,90615:0:0:0:0:
448,192,90615,1,0,0:0:0:0:
320,192,90789,128,0,90964:0:0:0:0:
192,192,90789,1,0,0:0:0:0:
64,192,90964,1,0,0:0:0:0:
192,192,91138,128,0,91312:0:0:0:0:
448,192,91138,1,0,0:0:0:0:
320,192,91312,1,0,0:0:0:0:
64,192,91487,1,0,0:0:0:0:
448,192,91487,128,0,91661:0:0:0:0:
192,192,91661,1,0,0:0:0:0:
320,192,91836,1,0,0:0:0:0:
64,192,91923,1,0,0:0:0:0:
448,192,91923,1,0,0:0:0:0:
192,192,92097,1,0,0:0:0:0:
64,192,92184,1,0,0:0:0:0:
448,192,92184,1,0,0:0:0:0:
320,192,92359,1,0,0:0:0:0:
448,192,92446,1,0,0:0:0:0:
64,192,92446,1,0,0:0:0:0:
192,192,92621,1,0,0:0:0:0:
448,192,92708,1,0,0:0:0:0:
64,192,92708,1,0,0:0:0:0:
64,192,92882,1,0,0:0:0:0:
192,192,92882,1,0,0:0:0:0:
320,192,93057,1,0,0:0:0:0:
192,192,93057,1,0,0:0:0:0:
320,192,93231,1,0,0:0:0:0:
448,192,93231,128,0,93405:0:0:0:0:
64,192,93405,1,0,0:0:0:0:
192,192,93580,128,0,93754:0:0:0:0:
320,192,93580,1,0,0:0:0:0:
448,192,93754,1,0,0:0:0:0:
320,192,93929,128,0,94103:0:0:0:0:
64,192,93929,1,0,0:0:0:0:
192,192,94103,1,0,0:0:0:0:
64,192,94190,1,0,0:0:0:0:
320,192,94278,1,0,0:0:0:0:
448,192,94278,1,0,0:0:0:0:
64,192,94452,1,0,0:0:0:0:
192,192,94452,1,0,0:0:0:0:
320,192,94626,1,0,0:0:0:0:
448,192,94714,1,0,0:0:0:0:
64,192,94714,1,0,0:0:0:0:
192,192,94888,1,0,0:0:0:0:
64,192,94975,1,0,0:0:0:0:
448,192,94975,1,0,0:0:0:0:
320,192,95150,1,0,0:0:0:0:
448,192,95237,1,0,0:0:0:0:
64,192,95237,1,0,0:0:0:0:
192,192,95411,1,0,0:0:0:0:
64,192,95498,1,0,0:0:0:0:
448,192,95498,1,0,0:0:0:0:
320,192,95586,1,0,0:0:0:0:
192,192,95673,1,0,0:0:0:0:
64,192,95760,1,0,0:0:0:0:
448,192,95847,1,0,0:0:0:0:
320,192,95934,1,0,0:0:0:0:
192,192,96022,1,0,0:0:0:0:
64,192,96022,128,0,96196:0:0:0:0:
448,192,96196,1,0,0:0:0:0:
192,192,96371,1,0,0:0:0:0:
320,192,96371,128,0,96545:0:0:0:0:
64,192,96545,1,0,0:0:0:0:
448,192,96719,1,0,0:0:0:0:
192,192,96719,128,0,96894:0:0:0:0:
320,192,96894,1,0,0:0:0:0:
64,192,97068,1,0,0:0:0:0:
448,192,97068,128,0,97243:0:0:0:0:
192,192,97243,1,0,0:0:0:0:
64,192,97417,1,0,0:0:0:0:
320,192,97417,128,0,97591:0:0:0:0:
448,192,97591,1,0,0:0:0:0:
192,192,97766,128,0,97940:0:0:0:0:
320,192,97766,1,0,0:0:0:0:
64,192,97940,128,0,98115:0:0:0:0:
448,192,97940,1,0,0:0:0:0:
192,192,98115,1,0,0:0:0:0:
320,192,98202,1,0,0:0:0:0:
448,192,98289,1,0,0:0:0:0:
192,192,98376,1,0,0:0:0:0:
64,192,98464,1,0,0:0:0:0:
448,192,98464,1,0,0:0:0:0:
320,192,98551,1,0,0:0:0:0:
192,192,98638,1,0,0:0:0:0:
64,192,98638,1,0,0:0:0:0:
448,192,98725,1,0,0:0:0:0:
320,192,98812,1,0,0:0:0:0:
192,192,98812,1,0,0:0:0:0:
64,192,98987,1,0,0:0:0:0:
448,192,98987,1,0,0:0:0:0:
448,192,101603,1,0,0:0:0:0:
320,192,101690,1,0,0:0:0:0:
64,192,101778,1,0,0:0:0:0:
192,192,101865,1,0,0:0:0:0:
448,192,101952,1,0,0:0:0:0:
320,192,101952,1,0,0:0:0:0:
192,192,102126,1,0,0:0:0:0:
64,192,102214,1,0,0:0:0:0:
448,192,102301,1,0,0:0:0:0:
320,192,102388,1,0,0:0:0:0:
192,192,102475,1,0,0:0:0:0:
64,192,102475,1,0,0:0:0:0:
320,192,102650,1,0,0:0:0:0:
448,192,102737,1,0,0:0:0:0:
192,192,102824,1,0,0:0:0:0:
64,192,102911,1,0,0:0:0:0:
320,192,102998,1,0,0:0:0:0:
448,192,102998,1,0,0:0:0:0:
192,192,103173,1,0,0:0:0:0:
64,192,103260,1,0,0:0:0:0:
320,192,103347,1,0,0:0:0:0:
448,192,103434,1,0,0:0:0:0:
192,192,103522,1,0,0:0:0:0:
64,192,103522,1,0,0:0:0:0:
320,192,103696,1,0,0:0:0:0:
192,192,103783,1,0,0:0:0:0:
64,192,103871,1,0,0:0:0:0:
448,192,103871,1,0,0:0:0:0:
192,192,104045,1,0,0:0:0:0:
320,192,104132,1,0,0:0:0:0:
448,192,104219,1,0,0:0:0:0:
64,192,104219,1,0,0:0:0:0:
192,192,104394,1,0,0:0:0:0:
64,192,104481,1,0,0:0:0:0:
448,192,104568,1,0,0:0:0:0:
320,192,104655,1,0,0:0:0:0:
192,192,104743,1,0,0:0:0:0:
64,192,104743,1,0,0:0:0:0:
320,192,104917,1,0,0:0:0:0:
448,192,105004,1,0,0:0:0:0:
192,192,105091,1,0,0:0:0:0:
64,192,105179,1,0,0:0:0:0:
320,192,105266,1,0,0:0:0:0:
448,192,105266,1,0,0:0:0:0:
192,192,105440,1,0,0:0:0:0:
64,192,105528,1,0,0:0:0:0:
320,192,105615,1,0,0:0:0:0:
448,192,105702,1,0,0:0:0:0:
192,192,105789,1,0,0:0:0:0:
64,192,105789,1,0,0:0:0:0:
448,192,105964,1,0,0:0:0:0:
320,192,106051,1,0,0:0:0:0:
64,192,106138,1,0,0:0:0:0:
192,192,106225,1,0,0:0:0:0:
320,192,106312,1,0,0:0:0:0:
448,192,106312,1,0,0:0:0:0:
192,192,106487,1,0,0:0:0:0:
320,192,106574,1,0,0:0:0:0:
448,192,106661,1,0,0:0:0:0:
64,192,106661,1,0,0:0:0:0:
320,192,106836,1,0,0:0:0:0:
192,192,106923,1,0,0:0:0:0:
64,192,107010,1,0,0:0:0:0:
448,192,107010,1,0,0:0:0:0:
192,192,107184,1,0,0:0:0:0:
64,192,107272,1,0,0:0:0:0:
320,192,107359,1,0,0:0:0:0:
448,192,107446,1,0,0:0:0:0:
192,192,107533,1,0,0:0:0:0:
64,192,107533,1,0,0:0:0:0:
320,192,107708,1,0,0:0:0:0:
448,192,107795,1,0,0:0:0:0:
64,192,107882,1,0,0:0:0:0:
192,192,107969,1,0,0:0:0:0:
320,192,108057,1,0,0:0:0:0:
448,192,108057,1,0,0:0:0:0:
64,192,108231,1,0,0:0:0:0:
192,192,108318,1,0,0:0:0:0:
448,192,108405,1,0,0:0:0:0:
320,192,108493,1,0,0:0:0:0:
64,192,108580,1,0,0:0:0:0:
192,192,108580,1,0,0:0:0:0:
320,192,108754,1,0,0:0:0:0:
448,192,108841,1,0,0:0:0:0:
64,192,108929,1,0,0:0:0:0:
192,192,109016,1,0,0:0:0:0:
320,192,109103,1,0,0:0:0:0:
448,192,109103,1,0,0:0:0:0:
192,192,109278,1,0,0:0:0:0:
320,192,109365,1,0,0:0:0:0:
448,192,109452,1,0,0:0:0:0:
64,192,109452,1,0,0:0:0:0:
320,192,109626,1,0,0:0:0:0:
192,192,109714,1,0,0:0:0:0:
64,192,109801,1,0,0:0:0:0:
448,192,109801,1,0,0:0:0:0:
320,192,109975,1,0,0:0:0:0:
448,192,110062,1,0,0:0:0:0:
192,192,110150,1,0,0:0:0:0:
64,192,110237,1,0,0:0:0:0:
320,192,110324,1,0,0:0:0:0:
448,192,110324,1,0,0:0:0:0:
192,192,110498,1,0,0:0:0:0:
64,192,110586,1,0,0:0:0:0:
320,192,110673,1,0,0:0:0:0:
448,192,110760,1,0,0:0:0:0:
192,192,110847,1,0,0:0:0:0:
64,192,110847,1,0,0:0:0:0:
448,192,111022,1,0,0:0:0:0:
320,192,111109,1,0,0:0:0:0:
64,192,111196,1,0,0:0:0:0:
192,192,111283,1,0,0:0:0:0:
320,192,111371,1,0,0:0:0:0:
448,192,111371,1,0,0:0:0:0:
64,192,111545,1,0,0:0:0:0:
192,192,111632,1,0,0:0:0:0:
448,192,111719,1,0,0:0:0:0:
320,192,111807,1,0,0:0:0:0:
192,192,111894,1,0,0:0:0:0:
64,192,111894,1,0,0:0:0:0:
320,192,112068,1,0,0:0:0:0:
192,192,112155,1,0,0:0:0:0:
64,192,112243,1,0,0:0:0:0:
448,192,112243,1,0,0:0:0:0:
192,192,112417,1,0,0:0:0:0:
320,192,112504,1,0,0:0:0:0:
448,192,112591,1,0,0:0:0:0:
64,192,112591,1,0,0:0:0:0:
192,192,112766,1,0,0:0:0:0:
320,192,112766,1,0,0:0:0:0:
64,192,112940,1,0,0:0:0:0:
192,192,112940,1,0,0:0:0:0:
448,192,113115,1,0,0:0:0:0:
64,192,113115,1,0,0:0:0:0:
320,192,113289,1,0,0:0:0:0:
448,192,113289,1,0,0:0:0:0:
320,192,113464,1,0,0:0:0:0:
64,192,113464,1,0,0:0:0:0:
192,192,113638,1,0,0:0:0:0:
64,192,113638,1,0,0:0:0:0:
448,192,113812,1,0,0:0:0:0:
192,192,113812,1,0,0:0:0:0:
320,192,113987,1,0,0:0:0:0:
448,192,113987,1,0,0:0:0:0:
64,192,114161,1,0,0:0:0:0:
320,192,114161,1,0,0:0:0:0:
64,192,114336,1,0,0:0:0:0:
192,192,114336,1,0,0:0:0:0:
448,192,114510,1,0,0:0:0:0:
192,192,114510,1,0,0:0:0:0:
320,192,114684,1,0,0:0:0:0:
448,192,114684,1,0,0:0:0:0:
64,192,114859,1,0,0:0:0:0:
320,192,114859,1,0,0:0:0:0:
64,192,115033,1,0,0:0:0:0:
448,192,115033,1,0,0:0:0:0:
192,192,115208,1,0,0:0:0:0:
448,192,115208,1,0,0:0:0:0:
320,192,115382,1,0,0:0:0:0:
192,192,115469,1,0,0:0:0:0:
64,192,115557,1,0,0:0:0:0:
448,192,115557,1,0,0:0:0:0:
320,192,115731,1,0,0:0:0:0:
448,192,115731,1,0,0:0:0:0:
64,192,115905,1,0,0:0:0:0:
320,192,115905,1,0,0:0:0:0:
192,192,116080,1,0,0:0:0:0:
64,192,116080,1,0,0:0:0:0:
448,192,116254,1,0,0:0:0:0:
192,192,116254,1,0,0:0:0:0:
64,192,116429,1,0,0:0:0:0:
448,192,116429,1,0,0:0:0:0:
320,192,116603,1,0,0:0:0:0:
64,192,116603,1,0,0:0:0:0:
192,192,116778,1,0,0:0:0:0:
320,192,116778,1,0,0:0:0:0:
448,192,116952,1,0,0:0:0:0:
192,192,116952,1,0,0:0:0:0:
64,192,117126,1,0,0:0:0:0:
448,192,117126,1,0,0:0:0:0:
192,192,117301,1,0,0:0:0:0:
64,192,117301,1,0,0:0:0:0:
448,192,117475,1,0,0:0:0:0:
192,192,117475,1,0,0:0:0:0:
320,192,117650,1,0,0:0:0:0:
448,192,117650,1,0,0:0:0:0:
64,192,117824,1,0,0:0:0:0:
320,192,117824,1,0,0:0:0:0:
64,192,117998,1,0,0:0:0:0:
448,192,117998,1,0,0:0:0:0:
192,192,118173,1,0,0:0:0:0:
64,192,118260,1,0,0:0:0:0:
320,192,118347,1,0,0:0:0:0:
448,192,118434,1,0,0:0:0:0:
64,192,118522,1,0,0:0:0:0:
192,192,118609,1,0,0:0:0:0:
320,192,118696,1,0,0:0:0:0:
448,192,118696,1,0,0:0:0:0:
192,192,118871,1,0,0:0:0:0:
64,192,118958,1,0,0:0:0:0:
320,192,119045,1,0,0:0:0:0:
448,192,119132,1,0,0:0:0:0:
192,192,119219,1,0,0:0:0:0:
64,192,119219,1,0,0:0:0:0:
448,192,119394,1,0,0:0:0:0:
320,192,119481,1,0,0:0:0:0:
64,192,119568,1,0,0:0:0:0:
192,192,119655,1,0,0:0:0:0:
320,192,119743,1,0,0:0:0:0:
448,192,119743,1,0,0:0:0:0:
192,192,119917,1,0,0:0:0:0:
64,192,120004,1,0,0:0:0:0:
320,192,120091,1,0,0:0:0:0:
448,192,120179,1,0,0:0:0:0:
192,192,120266,1,0,0:0:0:0:
64,192,120266,1,0,0:0:0:0:
320,192,120440,1,0,0:0:0:0:
192,192,120528,1,0,0:0:0:0:
64,192,120615,1,0,0:0:0:0:
448,192,120615,1,0,0:0:0:0:
192,192,120789,1,0,0:0:0:0:
320,192,120876,1,0,0:0:0:0:
448,192,120964,1,0,0:0:0:0:
64,192,120964,1,0,0:0:0:0:
192,192,121138,1,0,0:0:0:0:
64,192,121225,1,0,0:0:0:0:
320,192,121312,1,0,0:0:0:0:
448,192,121400,1,0,0:0:0:0:
192,192,121487,1,0,0:0:0:0:
64,192,121487,1,0,0:0:0:0:
448,192,121661,1,0,0:0:0:0:
320,192,121748,1,0,0:0:0:0:
64,192,121836,1,0,0:0:0:0:
192,192,121923,1,0,0:0:0:0:
320,192,122010,1,0,0:0:0:0:
448,192,122010,1,0,0:0:0:0:
192,192,122184,1,0,0:0:0:0:
64,192,122272,1,0,0:0:0:0:
320,192,122359,1,0,0:0:0:0:
448,192,122446,1,0,0:0:0:0:
64,192,122533,1,0,0:0:0:0:
192,192,122621,1,0,0:0:0:0:
320,192,122708,1,0,0:0:0:0:
448,192,122795,1,0,0:0:0:0:
192,192,122882,1,0,0:0:0:0:
64,192,122969,1,0,0:0:0:0:
320,192,123057,1,0,0:0:0:0:
448,192,123144,1,0,0:0:0:0:
64,192,123231,1,0,0:0:0:0:
192,192,123318,1,0,0:0:0:0:
320,192,123405,1,0,0:0:0:0:
448,192,123493,1,0,0:0:0:0:
64,192,123580,1,0,0:0:0:0:
192,192,123667,1,0,0:0:0:0:
448,192,123754,1,0,0:0:0:0:
320,192,123841,1,0,0:0:0:0:
192,192,123929,1,0,0:0:0:0:
64,192,123929,1,0,0:0:0:0:
320,192,124017,1,0,0:0:0:0:
448,192,124105,1,0,0:0:0:0:
192,192,124193,1,0,0:0:0:0:
320,192,124281,1,0,0:0:0:0:
64,192,124370,1,0,0:0:0:0:
192,192,124458,1,0,0:0:0:0:
320,192,124546,1,0,0:0:0:0:
448,192,124634,1,0,0:0:0:0:
192,192,124723,1,0,0:0:0:0:
320,192,124811,1,0,0:0:0:0:
64,192,124899,1,0,0:0:0:0:
192,192,124987,1,0,0:0:0:0:
320,192,125076,1,0,0:0:0:0:
448,192,125164,1,0,0:0:0:0:
192,192,125252,1,0,0:0:0:0:
64,192,125340,1,0,0:0:0:0:
320,192,125340,1,0,0:0:0:0:
192,192,125688,1,0,0:0:0:0:
320,192,125688,1,0,0:0:0:0:
64,192,125688,1,0,0:0:0:0:
64,192,126037,1,0,0:0:0:0:
192,192,126037,1,0,0:0:0:0:
320,192,126037,1,0,0:0:0:0:
448,192,126037,1,0,0:0:0:0:
64,192,126386,1,0,0:0:0:0:
448,192,126386,1,0,0:0:0:0:
64,192,126735,1,0,0:0:0:0:
448,192,126735,1,0,0:0:0:0:
320,192,126822,1,0,0:0:0:0:
192,192,126909,1,0,0:0:0:0:
64,192,126996,1,0,0:0:0:0:
320,192,127084,1,0,0:0:0:0:
448,192,127084,1,0,0:0:0:0:
192,192,127258,1,0,0:0:0:0:
64,192,127345,1,0,0:0:0:0:
320,192,127433,1,0,0:0:0:0:
448,192,127433,1,0,0:0:0:0:
192,192,127520,1,0,0:0:0:0:
320,192,127694,1,0,0:0:0:0:
448,192,127781,1,0,0:0:0:0:
64,192,127781,1,0,0:0:0:0:
64,192,127956,1,0,0:0:0:0:
448,192,127956,1,0,0:0:0:0:
320,192,128130,1,0,0:0:0:0:
192,192,128130,1,0,0:0:0:0:
192,192,128305,1,0,0:0:0:0:
320,192,128392,1,0,0:0:0:0:
64,192,128479,1,0,0:0:0:0:
448,192,128479,1,0,0:0:0:0:
192,192,128653,1,0,0:0:0:0:
448,192,128828,1,0,0:0:0:0:
320,192,128828,1,0,0:0:0:0:
192,192,128915,1,0,0:0:0:0:
64,192,129002,1,0,0:0:0:0:
320,192,129090,1,0,0:0:0:0:
192,192,129177,1,0,0:0:0:0:
448,192,129264,1,0,0:0:0:0:
320,192,129351,1,0,0:0:0:0:
192,192,129438,1,0,0:0:0:0:
64,192,129526,1,0,0:0:0:0:
448,192,129526,1,0,0:0:0:0:
320,192,129700,1,0,0:0:0:0:
448,192,129700,1,0,0:0:0:0:
64,192,129874,1,0,0:0:0:0:
320,192,129874,1,0,0:0:0:0:
192,192,130049,1,0,0:0:0:0:
64,192,130049,1,0,0:0:0:0:
448,192,130223,1,0,0:0:0:0:
192,192,130223,1,0,0:0:0:0:
320,192,130398,1,0,0:0:0:0:
192,192,130485,1,0,0:0:0:0:
64,192,130572,1,0,0:0:0:0:
448,192,130572,1,0,0:0:0:0:
320,192,130746,1,0,0:0:0:0:
448,192,130746,1,0,0:0:0:0:
64,192,130921,1,0,0:0:0:0:
320,192,130921,1,0,0:0:0:0:
192,192,131095,1,0,0:0:0:0:
320,192,131183,1,0,0:0:0:0:
448,192,131270,1,0,0:0:0:0:
64,192,131270,1,0,0:0:0:0:
192,192,131444,1,0,0:0:0:0:
320,192,131444,1,0,0:0:0:0:
448,192,131619,1,0,0:0:0:0:
192,192,131619,1,0,0:0:0:0:
320,192,131793,1,0,0:0:0:0:
192,192,131880,1,0,0:0:0:0:
64,192,131967,1,0,0:0:0:0:
448,192,131967,1,0,0:0:0:0:
192,192,132142,1,0,0:0:0:0:
320,192,132142,1,0,0:0:0:0:
64,192,132316,1,0,0:0:0:0:
448,192,132316,1,0,0:0:0:0:
192,192,132491,1,0,0:0:0:0:
448,192,132491,1,0,0:0:0:0:
320,192,132665,1,0,0:0:0:0:
192,192,132665,1,0,0:0:0:0:
64,192,132840,1,0,0:0:0:0:
192,192,132840,1,0,0:0:0:0:
448,192,133014,1,0,0:0:0:0:
64,192,133014,1,0,0:0:0:0:
192,192,133188,1,0,0:0:0:0:
320,192,133276,1,0,0:0:0:0:
448,192,133363,1,0,0:0:0:0:
64,192,133363,1,0,0:0:0:0:
320,192,133537,1,0,0:0:0:0:
448,192,133624,1,0,0:0:0:0:
192,192,133712,1,0,0:0:0:0:
64,192,133712,1,0,0:0:0:0:
320,192,133799,1,0,0:0:0:0:
448,192,133886,1,0,0:0:0:0:
192,192,133973,1,0,0:0:0:0:
320,192,134060,1,0,0:0:0:0:
64,192,134060,1,0,0:0:0:0:
192,192,134235,1,0,0:0:0:0:
448,192,134235,1,0,0:0:0:0:
320,192,134409,1,0,0:0:0:0:
448,192,134496,1,0,0:0:0:0:
64,192,134584,1,0,0:0:0:0:
192,192,134671,1,0,0:0:0:0:
320,192,134758,1,0,0:0:0:0:
448,192,134758,1,0,0:0:0:0:
64,192,134933,1,0,0:0:0:0:
448,192,134933,1,0,0:0:0:0:
320,192,135107,1,0,0:0:0:0:
192,192,135107,1,0,0:0:0:0:
192,192,135281,1,0,0:0:0:0:
64,192,135281,1,0,0:0:0:0:
448,192,135456,1,0,0:0:0:0:
64,192,135456,1,0,0:0:0:0:
320,192,135630,1,0,0:0:0:0:
192,192,135717,1,0,0:0:0:0:
64,192,135805,1,0,0:0:0:0:
448,192,135805,1,0,0:0:0:0:
192,192,135979,1,0,0:0:0:0:
64,192,136066,1,0,0:0:0:0:
320,192,136153,1,0,0:0:0:0:
448,192,136153,1,0,0:0:0:0:
192,192,136241,1,0,0:0:0:0:
64,192,136328,1,0,0:0:0:0:
320,192,136415,1,0,0:0:0:0:
448,192,136502,1,0,0:0:0:0:
192,192,136502,1,0,0:0:0:0:
320,192,136677,1,0,0:0:0:0:
192,192,136764,1,0,0:0:0:0:
64,192,136851,1,0,0:0:0:0:
448,192,136851,1,0,0:0:0:0:
320,192,137026,1,0,0:0:0:0:
448,192,137026,1,0,0:0:0:0:
64,192,137200,1,0,0:0:0:0:
320,192,137200,1,0,0:0:0:0:
192,192,137374,1,0,0:0:0:0:
64,192,137462,1,0,0:0:0:0:
320,192,137549,1,0,0:0:0:0:
448,192,137549,1,0,0:0:0:0:
192,192,137723,1,0,0:0:0:0:
64,192,137723,1,0,0:0:0:0:
448,192,137898,1,0,0:0:0:0:
64,192,137898,1,0,0:0:0:0:
320,192,138072,1,0,0:0:0:0:
448,192,138072,1,0,0:0:0:0:
64,192,138246,1,0,0:0:0:0:
320,192,138246,1,0,0:0:0:0:
192,192,138421,1,0,0:0:0:0:
64,192,138421,1,0,0:0:0:0:
448,192,138595,1,0,0:0:0:0:
192,192,138595,1,0,0:0:0:0:
64,192,138770,1,0,0:0:0:0:
448,192,138770,1,0,0:0:0:0:
320,192,138857,1,0,0:0:0:0:
64,192,138944,1,0,0:0:0:0:
192,192,138944,1,0,0:0:0:0:
320,192,139119,1,0,0:0:0:0:
448,192,139206,1,0,0:0:0:0:
64,192,139293,1,0,0:0:0:0:
192,192,139293,1,0,0:0:0:0:
320,192,139380,1,0,0:0:0:0:
448,192,139467,1,0,0:0:0:0:
192,192,139555,1,0,0:0:0:0:
320,192,139642,1,0,0:0:0:0:
64,192,139729,1,0,0:0:0:0:
192,192,139816,1,0,0:0:0:0:
320,192,139903,1,0,0:0:0:0:
448,192,139991,1,0,0:0:0:0:
192,192,140078,1,0,0:0:0:0:
64,192,140165,1,0,0:0:0:0:
320,192,140252,1,0,0:0:0:0:
192,192,140340,1,0,0:0:0:0:
448,192,140427,1,0,0:0:0:0:
320,192,140514,1,0,0:0:0:0:
64,192,140514,1,0,0:0:0:0:
192,192,140688,1,0,0:0:0:0:
448,192,140776,1,0,0:0:0:0:
64,192,140776,1,0,0:0:0:0:
320,192,140950,1,0,0:0:0:0:
448,192,141037,1,0,0:0:0:0:
64,192,141037,1,0,0:0:0:0:
192,192,141212,1,0,0:0:0:0:
64,192,141299,1,0,0:0:0:0:
448,192,141299,1,0,0:0:0:0:
320,192,141473,1,0,0:0:0:0:
448,192,141560,1,0,0:0:0:0:
64,192,141560,1,0,0:0:0:0:
192,192,141735,1,0,0:0:0:0:
320,192,141735,1,0,0:0:0:0:
64,192,141909,1,0,0:0:0:0:
448,192,141909,1,0,0:0:0:0:
64,192,142084,1,0,0:0:0:0:
448,192,142084,1,0,0:0:0:0:
64,192,142443,1,0,0:0:0:0:
192,192,142533,1,0,0:0:0:0:
448,192,142622,1,0,0:0:0:0:
320,192,142712,1,0,0:0:0:0:
192,192,142802,1,0,0:0:0:0:
64,192,142802,1,0,0:0:0:0:
