osu file format v14

[General]
AudioFilename: audio.mp3
AudioLeadIn: 0
PreviewTime: 79277
Countdown: 0
SampleSet: Soft
StackLeniency: 0.7
Mode: 2
LetterboxInBreaks: 0
WidescreenStoryboard: 0

[Editor]
DistanceSpacing: 0.8
BeatDivisor: 4
GridSize: 16
TimelineZoom: 1.3

[Metadata]
Title:Alice in Misanthrope -Ensei Alice-
TitleUnicode:Alice in Misanthrope -厭世アリス-
Artist:LeaF
ArtistUnicode:LeaF
Creator:Deif
Version:Platter
Source:BMS
Tags:BOFU2016 - Legendary Again 想起 GOTHIC CHOIR セシル◇タイト 孤高クローバー
BeatmapID:1696319
BeatmapSetID:797236

[Difficulty]
HPDrainRate:5
CircleSize:3.5
OverallDifficulty:8
ApproachRate:8
SliderMultiplier:1.6
SliderTickRate:1

[Events]
//Background and Video events
0,0,"BG.jpg",0,0
Video,-32,"Video.avi"
//Break Periods
2,68258,72931
//Storyboard Layer 0 (Background)
//Storyboard Layer 1 (Fail)
//Storyboard Layer 2 (Pass)
//Storyboard Layer 3 (Foreground)
//Storyboard Sound Samples

[TimingPoints]
771,379.746835443038,4,2,0,50,1,0
3808,346.820809248555,4,2,0,65,1,0
6149,-100,4,2,0,80,0,0
6582,348.837209302326,4,3,0,80,1,0
16349,-100,4,2,0,70,0,0
16698,-100,4,2,0,60,0,0
17047,-100,4,2,0,70,0,0
17395,-100,4,1,0,60,0,0
17744,359.281437125748,4,2,0,50,1,0
20617,346.820809248555,4,2,0,50,1,0
24778,359.281437125748,4,2,0,50,1,0
26215,346.820809248555,4,2,0,60,1,0
26908,-100,4,2,0,70,0,0
27602,-100,4,2,0,80,0,0
28469,-100,4,3,0,60,0,0
28642,-100,4,3,0,70,0,0
28816,-100,4,3,0,80,0,0
28989,348.837209302326,4,3,0,80,1,0
40151,-100,4,3,0,60,0,0
40500,-100,4,3,0,70,0,0
40849,-100,4,3,0,80,0,0
41198,-100,4,3,0,70,0,0
41547,-100,4,3,0,80,0,0
41895,-100,4,3,0,70,0,0
42244,-100,4,3,0,80,0,0
42593,-100,4,3,0,70,0,0
42942,-100,4,3,0,60,0,0
43291,-100,4,3,0,50,0,0
43640,-100,4,3,0,60,0,0
43989,-100,4,3,0,70,0,0
44337,-100,4,3,0,60,0,0
44686,-100,4,3,0,70,0,0
45035,-100,4,3,0,80,0,0
48872,-100,4,3,0,60,0,0
49221,-100,4,3,0,80,0,0
49570,-100,4,3,0,60,0,0
49919,-100,4,3,0,80,0,0
50268,-100,4,3,0,60,0,0
50616,-100,4,3,0,70,0,0
51314,-100,4,3,0,80,0,0
54454,-100,4,3,0,60,0,0
54802,-100,4,3,0,80,0,0
55151,-100,4,3,0,60,0,0
55500,-100,4,3,0,80,0,0
55849,-100,4,3,0,60,0,0
56198,-100,4,3,0,70,0,0
59686,-100,4,3,0,80,0,0
60035,-100,4,3,0,60,0,0
60384,-100,4,3,0,80,0,0
60733,-100,4,3,0,60,0,0
61082,-100,4,3,0,80,0,0
61430,-100,4,3,0,60,0,0
61779,-100,4,3,0,90,0,0
62477,-100,4,3,0,80,0,0
64570,-100,4,3,0,90,0,0
65267,-100,4,3,0,80,0,0
65616,-100,4,3,0,60,0,0
65965,-100,4,3,0,80,0,0
66314,-100,4,3,0,60,0,0
66663,-100,4,3,0,80,0,0
67012,-100,4,3,0,60,0,0
67360,-100,4,3,0,70,0,0
67709,-100,4,3,0,60,0,0
68058,359.281437125748,4,2,0,50,1,0
69495,355.029585798817,4,2,0,50,1,0
70915,348.837209302326,4,2,0,50,1,0
72310,342.857142857143,4,2,0,50,1,0
73681,346.820809248555,4,2,0,60,1,0
76455,352.941176470588,4,3,0,70,1,0
79277,348.837209302326,4,3,0,80,1,1
98811,-100,4,2,0,80,0,0
101602,-100,4,3,0,80,0,0
112765,-100,4,2,0,90,0,1
118346,-100,4,3,0,90,0,1
123927,352.941176470588,4,2,0,50,1,0
125338,348.837209302326,4,3,0,80,1,0
125686,-100,4,3,0,60,0,0
126035,-100,4,3,0,80,0,0
126384,-100,4,2,0,50,0,0
126733,349.854227405248,4,2,0,60,1,0
129531,348.837209302326,4,3,0,80,1,0
142437,-100,4,3,0,50,0,0
142612,-100,4,3,0,60,0,0
142786,-100,4,3,0,70,0,0

[Colours]
Combo1 : 192,192,192
Combo2 : 255,128,192
Combo3 : 112,196,193
Combo4 : 191,128,255

[HitObjects]
176,192,771,5,6,0:0:0:0:
272,192,960,1,0,0:0:0:0:
160,192,1150,1,2,0:0:0:0:
352,192,1530,1,2,0:0:0:0:
176,192,1910,1,2,0:0:0:0:
336,192,2289,6,0,P|384:176|416:80,1,160,2|2,0:0|0:0,0:0:0:0:
320,48,2859,1,2,0:0:0:0:
416,80,3049,1,2,0:0:0:0:
192,48,3429,1,2,0:0:0:0:
96,80,3619,1,0,0:0:0:0:
352,48,3808,6,0,P|400:48|432:64,1,80,4|0,0:0|3:0,0:0:0:0:
320,192,4154,2,0,P|368:192|400:176,1,80,0|2,3:0|3:0,0:0:0:0:
160,48,4501,2,0,P|112:48|80:64,1,80,4|0,0:0|0:0,0:0:0:0:
192,192,4848,2,0,P|144:192|112:176,1,80,2|0,3:0|3:0,0:0:0:0:
352,48,5195,6,0,P|416:48|496:96,2,160,2|2|2,3:0|3:0|3:0,0:0:0:0:
192,112,6149,1,8,3:0:0:0:
352,192,6409,1,8,3:0:0:0:
112,112,6582,6,0,P|96:160|96:192,1,80,6|0,2:0|0:0,0:0:0:0:
208,272,6930,2,0,P|224:224|224:192,1,80,8|0,0:0|0:0,0:0:0:0:
95,194,7279,2,0,P|97:234|112:272,1,80,2|0,0:0|0:0,0:0:0:0:
224,194,7628,1,8,0:0:0:0:
112,192,7802,1,8,0:0:0:0:
288,192,7977,6,0,P|336:192|368:176,1,80,6|0,0:0|0:0,0:0:0:0:
224,192,8326,2,0,P|176:192|144:176,1,80,8|0,0:0|0:0,0:0:0:0:
288,192,8675,2,0,P|320:224|320:256,1,80,2|0,0:0|0:0,0:0:0:0:
256,288,8936,1,0,0:0:0:0:
192,256,9023,2,0,P|194:217|224:192,1,80,8|8,0:0|0:0,0:0:0:0:
400,192,9372,6,0,L|416:112,1,80,6|0,0:0|0:0,0:0:0:0:
288,192,9721,2,0,L|304:112,1,80,8|0,0:0|0:0,0:0:0:0:
176,192,10070,2,0,L|192:112,1,80,2|0,0:0|0:0,0:0:0:0:
128,112,10332,1,0,0:0:0:0:
64,192,10419,2,0,L|80:112,1,80,8|8,0:0|0:0,0:0:0:0:
144,64,10680,1,0,0:0:0:0:
208,64,10768,6,0,P|224:112|224:144,1,80,6|0,0:0|0:0,0:0:0:0:
96,224,11116,2,0,P|80:176|80:144,1,80,8|0,0:0|0:0,0:0:0:0:
208,64,11465,1,2,0:0:0:0:
256,96,11552,1,0,0:0:0:0:
288,144,11640,1,0,0:0:0:0:
256,192,11727,1,0,0:0:0:0:
288,240,11814,1,8,0:0:0:0:
160,240,11988,1,8,0:0:0:0:
400,272,12163,6,0,P|416:224|416:192,1,80,6|0,2:0|0:0,0:0:0:0:
304,112,12512,2,0,P|288:160|288:192,1,80,8|0,0:0|0:0,0:0:0:0:
417,190,12861,2,0,P|415:150|400:112,1,80,2|0,0:0|0:0,0:0:0:0:
288,190,13209,1,8,0:0:0:0:
400,192,13384,1,8,0:0:0:0:
224,192,13558,6,0,P|176:192|144:208,1,80,6|0,0:0|0:0,0:0:0:0:
220,232,13820,1,0,0:0:0:0:
288,192,13907,2,0,P|336:192|368:208,1,80,8|0,0:0|0:0,0:0:0:0:
224,192,14256,2,0,P|192:160|192:128,1,80,2|0,0:0|0:0,0:0:0:0:
256,96,14518,1,0,0:0:0:0:
320,128,14605,2,0,P|318:167|288:192,1,80,8|8,0:0|0:0,0:0:0:0:
112,272,14954,6,0,P|96:224|96:192,1,80,6|0,0:0|0:0,0:0:0:0:
208,112,15302,2,0,P|224:160|224:192,1,80,8|0,0:0|0:0,0:0:0:0:
95,190,15651,2,0,P|97:150|112:112,1,80,2|0,0:0|0:0,0:0:0:0:
168,112,15913,1,0,0:0:0:0:
224,190,16000,1,8,0:0:0:0:
336,192,16175,2,0,L|352:240,1,40,8|0,0:0|0:0,0:0:0:0:
224,240,16349,5,6,0:0:0:0:
80,240,16698,1,6,0:0:0:0:
432,240,17047,1,6,0:0:0:0:
288,240,17395,1,8,0:0:0:0:
48,96,17744,6,0,L|32:176,1,80,6|0,0:0|0:0,0:0:0:0:
128,192,18103,1,2,0:0:0:0:
304,288,18462,2,0,L|320:208,1,80,2|0,0:0|0:0,0:0:0:0:
224,192,18821,1,2,0:0:0:0:
400,288,19181,6,0,L|416:208,1,80,2|0,0:0|0:0,0:0:0:0:
320,288,19540,2,0,L|336:208,1,80,2|0,0:0|0:0,0:0:0:0:
240,288,19899,2,0,L|224:208,1,80,2|0,0:0|0:0,0:0:0:0:
320,192,20258,1,2,0:0:0:0:
224,192,20438,1,2,0:0:0:0:
384,288,20618,6,0,L|432:224,1,80,2|0,0:0|0:0,0:0:0:0:
320,192,20963,1,2,0:0:0:0:
128,96,21310,2,0,L|80:160,1,80,2|0,0:0|0:0,0:0:0:0:
192,192,21657,1,2,0:0:0:0:
384,96,22004,6,0,L|432:160,1,80,2|0,0:0|0:0,0:0:0:0:
336,192,22351,1,2,0:0:0:0:
432,192,22524,1,0,0:0:0:0:
272,192,22697,2,0,L|224:256,1,80,2|2,0:0|0:0,0:0:0:0:
320,288,23044,1,2,0:0:0:0:
224,288,23218,1,2,0:0:0:0:
64,80,23391,6,0,P|48:112|48:208,1,120,2|0,0:0|0:0,0:0:0:0:
96,192,23738,1,2,0:0:0:0:
256,192,23911,1,2,0:0:0:0:
224,192,23998,1,0,0:0:0:0:
192,192,24085,1,2,0:0:0:0:
288,192,24258,1,2,0:0:0:0:
192,288,24432,1,2,0:0:0:0:
288,288,24605,1,2,0:0:0:0:
448,80,24778,6,0,P|464:112|448:192,1,120,2|0,0:0|0:0,0:0:0:0:
400,192,25137,1,2,0:0:0:0:
256,192,25316,1,2,0:0:0:0:
288,192,25406,1,0,0:0:0:0:
320,192,25496,1,2,0:0:0:0:
224,192,25676,1,2,0:0:0:0:
320,288,25855,1,2,0:0:0:0:
224,288,26035,1,2,0:0:0:0:
480,48,26215,6,0,P|480:144|448:208,1,160,6|2,0:0|0:0,0:0:0:0:
122,183,26908,2,0,P|92:256|96:336,1,160,6|2,0:0|0:0,0:0:0:0:
416,192,27602,6,0,L|256:192,2,160,6|6|6,0:0|0:0|0:3,0:0:0:0:
336,128,28469,2,0,L|416:128,2,80,2|2|2,0:0|0:0|0:0,0:0:0:0:
80,128,28989,6,0,P|48:192|80:272,1,160,6|2,2:0|0:0,0:0:0:0:
192,192,29512,1,0,0:0:0:0:
240,192,29599,1,0,0:0:0:0:
192,192,29686,1,8,0:0:0:0:
80,192,29861,1,0,0:0:0:0:
192,80,30035,2,0,L|272:80,1,80,2|8,0:0|0:0,0:0:0:0:
432,128,30384,6,0,P|464:192|432:272,1,160,2|2,0:0|0:0,0:0:0:0:
320,192,30907,1,0,0:0:0:0:
272,192,30994,1,0,0:0:0:0:
320,192,31082,1,8,0:0:0:0:
432,192,31256,1,0,0:0:0:0:
320,80,31430,2,0,L|240:80,1,80,2|8,0:0|0:0,0:0:0:0:
80,128,31779,6,0,P|48:192|80:272,1,160,2|2,0:0|0:0,0:0:0:0:
432,128,32477,2,8,P|464:192|432:272,1,160,8|2,0:0|0:0,0:0:0:0:
80,128,33175,6,0,L|240:128,1,160,2|8,0:0|0:0,0:0:0:0:
336,192,33698,1,2,0:0:0:0:
176,192,33872,2,0,L|144:272,1,80,8|8,0:0|0:0,0:0:0:0:
256,304,34221,2,0,L|176:304,1,80,2|8,0:0|0:0,0:0:0:0:
432,256,34570,6,0,P|464:192|432:112,1,160,6|2,2:0|0:0,0:0:0:0:
320,192,35093,1,0,0:0:0:0:
272,192,35180,1,0,0:0:0:0:
320,192,35268,1,8,0:0:0:0:
432,192,35442,1,0,0:0:0:0:
320,304,35616,2,0,L|240:304,1,80,2|8,0:0|0:0,0:0:0:0:
80,256,35965,6,0,P|48:192|80:112,1,160,2|2,0:0|0:0,0:0:0:0:
192,192,36489,1,0,0:0:0:0:
240,192,36576,1,0,0:0:0:0:
192,192,36663,1,8,0:0:0:0:
80,192,36837,1,0,0:0:0:0:
192,304,37012,2,0,L|112:304,1,80,2|8,0:0|0:0,0:0:0:0:
384,256,37361,6,0,P|432:192|432:112,1,160,2|2,0:0|0:0,0:0:0:0:
79,114,38058,2,8,P|80:193|128:256,1,160,8|2,0:0|0:0,0:0:0:0:
433,114,38756,6,0,P|432:192|384:255,1,160,2|8,0:0|0:0,0:0:0:0:
256,272,39279,1,2,0:0:0:0:
127,255,39454,2,0,L|96:176,1,80,8|8,0:0|0:0,0:0:0:0:
224,192,39802,2,0,L|192:112,1,80,2|8,0:0|0:0,0:0:0:0:
432,192,40151,5,12,0:0:0:0:
272,192,40500,1,4,0:0:0:0:
496,192,40849,1,6,0:0:0:0:
320,192,41198,1,4,0:0:0:0:
96,192,41547,6,0,P|80:256|96:352,1,160,6|4,0:0|0:0,0:0:0:0:
416,192,42244,2,0,P|432:256|416:352,1,160,6|4,0:0|0:0,0:0:0:0:
160,192,42942,5,12,0:0:0:0:
352,192,43291,1,12,0:0:0:0:
48,192,43640,2,0,P|48:256|128:304,1,160,12|6,0:0|0:0,0:0:0:0:
432,192,44337,6,0,P|425:115|357:79,1,160,12|6,0:0|0:0,0:0:0:0:
48,192,45035,1,4,0:0:0:0:
54,268,45209,1,8,0:0:0:0:
122,304,45384,1,2,0:0:0:0:
54,268,45558,1,8,0:0:0:0:
352,192,45733,6,0,L|432:192,1,80,6|0,2:0|0:0,0:0:0:0:
320,112,46082,2,0,L|400:112,1,80,8|0,0:0|0:0,0:0:0:0:
240,192,46430,2,0,L|160:192,1,80,2|0,0:0|0:0,0:0:0:0:
272,112,46779,2,0,L|192:112,1,80,8|0,0:0|0:0,0:0:0:0:
352,192,47128,6,0,P|368:240|368:272,1,80,6|0,0:0|0:0,0:0:0:0:
256,192,47477,2,0,P|240:240|240:272,1,80,8|0,0:0|0:0,0:0:0:0:
352,192,47826,2,0,L|432:192,2,80,2|0|8,0:0|0:0|0:0,0:0:0:0:
240,144,48349,1,8,0:0:0:0:
416,96,48523,5,6,0:0:0:0:
240,192,48872,1,12,0:0:0:0:
480,192,49221,1,6,0:0:0:0:
288,192,49570,2,0,L|368:192,1,80,12|8,0:0|0:0,0:0:0:0:
192,96,49919,5,6,0:0:0:0:
368,192,50268,1,12,0:0:0:0:
192,192,50616,2,0,L|240:256,1,80,6|0,0:0|0:0,0:0:0:0:
336,192,50965,2,0,L|416:192,1,80,8|0,0:0|0:0,0:0:0:0:
176,192,51314,6,0,L|96:192,1,80,6|0,2:0|0:0,0:0:0:0:
208,112,51663,2,0,L|128:112,1,80,8|0,0:0|0:0,0:0:0:0:
288,192,52012,2,0,L|368:192,1,80,2|0,0:0|0:0,0:0:0:0:
256,112,52361,2,0,L|336:112,1,80,8|0,0:0|0:0,0:0:0:0:
176,192,52709,6,0,P|160:240|160:272,1,80,6|0,0:0|0:0,0:0:0:0:
272,192,53058,2,0,P|288:240|288:272,1,80,8|0,0:0|0:0,0:0:0:0:
176,192,53407,2,0,L|96:192,2,80,2|0|8,0:0|0:0|0:0,0:0:0:0:
288,144,53930,1,8,0:0:0:0:
112,96,54105,5,6,0:0:0:0:
288,192,54454,1,12,0:0:0:0:
48,192,54802,1,6,0:0:0:0:
240,192,55151,2,0,L|160:192,1,80,12|8,0:0|0:0,0:0:0:0:
336,96,55500,5,6,0:0:0:0:
160,192,55849,1,12,0:0:0:0:
336,192,56198,2,0,L|288:256,1,80,6|0,0:0|0:0,0:0:0:0:
192,192,56547,2,0,L|112:192,1,80,8|0,0:0|0:0,0:0:0:0:
352,192,56895,6,0,P|368:240|368:272,1,80,6|0,2:0|0:0,0:0:0:0:
256,192,57244,2,0,L|336:192,1,80,8|0,0:0|0:0,0:0:0:0:
160,192,57593,2,0,P|144:240|144:272,1,80,2|0,0:0|0:0,0:0:0:0:
256,192,57942,2,0,L|176:192,1,80,8|0,0:0|0:0,0:0:0:0:
352,192,58291,6,0,L|432:192,1,80,6|0,0:0|0:0,0:0:0:0:
320,144,58640,2,0,L|240:144,1,80,8|0,0:0|0:0,0:0:0:0:
352,96,58989,2,0,L|432:96,2,80,2|0|8,0:0|0:0|0:0,0:0:0:0:
448,96,59512,1,8,0:0:0:0:
256,192,59686,5,6,0:0:0:0:
432,192,60035,1,12,0:0:0:0:
112,192,60384,1,6,0:0:0:0:
288,192,60733,2,0,L|304:272,1,80,12|8,0:0|0:0,0:0:0:0:
112,192,61082,5,6,0:0:0:0:
288,192,61430,1,12,0:0:0:0:
464,192,61779,2,0,L|480:144,4,40,14|0|8|0|8,0:0|0:0|0:0|0:0|0:0,0:0:0:0:
400,192,62302,1,8,0:0:0:0:
160,192,62477,6,0,P|144:240|144:272,1,80,6|0,2:0|0:0,0:0:0:0:
256,192,62826,2,0,L|176:192,1,80,8|0,0:0|0:0,0:0:0:0:
352,192,63175,2,0,P|368:240|368:272,1,80,2|0,0:0|0:0,0:0:0:0:
256,192,63523,2,0,L|336:192,1,80,8|0,0:0|0:0,0:0:0:0:
160,192,63872,6,0,L|80:192,1,80,6|0,0:0|0:0,0:0:0:0:
192,144,64221,2,0,L|272:144,1,80,8|0,0:0|0:0,0:0:0:0:
160,96,64570,2,0,L|144:48,1,40,10|0,0:0|0:0,0:0:0:0:
288,96,64832,2,0,L|304:48,1,40,8|0,0:0|0:0,0:0:0:0:
160,96,65093,1,8,0:0:0:0:
448,96,65268,6,0,L|464:176,1,80,6|0,0:0|0:0,0:0:0:0:
352,224,65616,2,0,L|336:144,1,80,12|0,0:0|0:0,0:0:0:0:
160,96,65965,2,0,L|144:176,1,80,6|0,0:0|0:0,0:0:0:0:
256,224,66314,2,0,L|272:144,1,80,12|8,0:0|0:0,0:0:0:0:
448,96,66663,6,0,L|368:96,1,80,6|0,0:0|0:0,0:0:0:0:
208,192,67012,2,0,L|288:192,1,80,12|0,0:0|0:0,0:0:0:0:
128,96,67361,2,0,L|112:176,1,80,6|0,0:0|0:0,0:0:0:0:
144,208,67622,1,0,0:0:0:0:
224,208,67709,1,8,0:0:0:0:
112,176,67884,1,2,0:0:0:0:
224,144,68058,5,6,0:0:0:0:
416,192,73681,6,0,P|448:128|416:48,1,160,4|2,0:0|0:0,0:0:0:0:
96,192,74374,2,0,P|64:128|96:48,1,160,4|2,0:0|0:0,0:0:0:0:
416,192,75068,6,0,L|256:192,1,160,4|2,0:0|0:0,0:0:0:0:
336,192,75588,1,0,0:0:0:0:
176,192,75761,2,0,L|336:192,1,160,4|2,0:0|0:0,0:0:0:0:
16,192,76455,6,0,P|32:272|80:336,1,160,6|2,2:0|0:0,0:0:0:0:
400,192,77160,2,0,L|384:112,1,80,6|2,2:0|0:0,0:0:0:0:
272,112,77513,1,8,0:0:0:0:
384,112,77690,1,2,0:0:0:0:
224,192,77866,5,6,2:0:0:0:
464,192,78219,1,6,2:0:0:0:
224,192,78572,2,0,P|192:224|192:272,1,80,6|8,2:0|0:0,0:0:0:0:
224,288,78837,1,0,0:0:0:0:
272,288,78925,1,2,0:0:0:0:
400,288,79102,1,8,0:0:0:0:
144,288,79278,6,0,P|80:272|32:192,1,160,6|8,2:0|0:0,0:0:0:0:
112,192,79800,1,0,0:0:0:0:
288,192,79974,2,0,P|352:176|400:96,1,160,2|8,0:0|0:0,0:0:0:0:
320,96,80497,1,2,0:0:0:0:
144,96,80672,6,0,P|112:128|112:240,1,160,6|8,0:0|0:0,0:0:0:0:
192,240,81195,1,2,0:0:0:0:
368,240,81370,5,8,0:0:0:0:
391,208,81457,1,0,0:0:0:0:
400,169,81544,1,0,0:0:0:0:
352,128,81631,1,2,0:0:0:0:
288,128,81718,1,8,0:0:0:0:
128,192,81893,1,0,0:0:0:0:
368,288,82067,6,0,P|432:272|480:192,1,160,6|8,0:0|0:0,0:0:0:0:
400,192,82590,1,0,0:0:0:0:
224,192,82765,2,0,P|160:176|112:96,1,160,2|8,0:0|0:0,0:0:0:0:
192,96,83288,1,2,0:0:0:0:
368,96,83463,6,0,P|400:176|368:240,1,160,6|8,0:0|0:0,0:0:0:0:
288,240,83986,1,2,0:0:0:0:
112,240,84160,5,8,0:0:0:0:
88,208,84247,1,0,0:0:0:0:
112,160,84335,1,0,0:0:0:0:
161,119,84422,1,2,0:0:0:0:
225,119,84509,1,8,0:0:0:0:
384,192,84683,1,0,0:0:0:0:
144,96,84858,6,0,P|80:112|32:192,1,160,6|8,0:0|0:0,0:0:0:0:
112,192,85381,1,0,0:0:0:0:
288,192,85556,2,0,P|352:208|400:288,1,160,2|8,0:0|0:0,0:0:0:0:
320,288,86079,1,2,0:0:0:0:
144,288,86253,6,0,P|112:256|112:144,1,160,6|8,0:0|0:0,0:0:0:0:
192,144,86777,1,0,0:0:0:0:
368,288,86951,2,0,P|400:256|400:160,1,120,2|0,0:0|0:0,0:0:0:0:
336,144,87300,2,0,L|416:144,1,80,8|2,0:0|0:0,0:0:0:0:
240,144,87649,6,0,P|176:160|128:240,1,160,6|8,0:0|0:0,0:0:0:0:
160,288,88085,1,0,0:0:0:0:
240,240,88172,1,2,0:0:0:0:
208,288,88259,1,0,0:0:0:0:
128,240,88346,2,0,L|112:160,1,80,8|2,0:0|0:0,0:0:0:0:
224,128,88695,2,0,L|144:128,1,80,8|2,0:0|0:0,0:0:0:0:
320,128,89044,6,0,P|320:192|304:256,1,120,6|6,0:0|0:0,0:0:0:0:
224,256,89393,2,0,L|304:256,1,80,8|8,0:0|0:0,0:0:0:0:
192,192,89742,1,2,0:0:0:0:
304,192,89916,1,8,0:0:0:0:
192,192,90090,1,8,0:0:0:0:
136,192,90178,1,0,0:0:0:0:
104,240,90265,1,2,0:0:0:0:
368,288,90439,6,0,P|432:272|480:192,1,160,6|8,2:0|0:0,0:0:0:0:
400,192,90963,1,0,0:0:0:0:
224,192,91137,2,0,P|160:176|112:96,1,160,2|8,0:0|0:0,0:0:0:0:
192,96,91660,1,2,0:0:0:0:
368,96,91835,6,0,L|384:144,1,40,6|8,2:0|2:0,0:0:0:0:
256,192,92096,2,0,L|240:240,1,40,0|8,0:0|2:0,0:0:0:0:
368,288,92358,2,0,L|384:240,1,40,2|8,0:0|2:0,0:0:0:0:
256,192,92620,2,0,L|240:144,1,40,0|8,0:0|2:0,0:0:0:0:
384,192,92881,2,0,L|400:272,1,80,8|8,2:0|2:0,0:0:0:0:
144,288,93230,6,0,P|80:272|32:192,1,160,6|8,0:0|0:0,0:0:0:0:
112,192,93753,1,0,0:0:0:0:
288,192,93928,2,0,P|352:176|400:96,1,160,2|8,0:0|0:0,0:0:0:0:
320,96,94451,1,2,0:0:0:0:
144,96,94625,6,0,L|128:144,1,40,6|8,2:0|2:0,0:0:0:0:
256,192,94887,2,0,L|272:240,1,40,0|8,0:0|2:0,0:0:0:0:
144,288,95149,2,0,L|128:240,1,40,2|8,0:0|2:0,0:0:0:0:
256,192,95410,2,0,L|272:144,1,40,0|8,0:0|2:0,0:0:0:0:
128,192,95672,2,0,L|112:272,1,80,8|8,2:0|2:0,0:0:0:0:
368,96,96021,6,0,P|432:112|480:192,1,160,6|8,0:0|0:0,0:0:0:0:
400,192,96544,1,0,0:0:0:0:
224,192,96718,2,0,P|160:208|112:288,1,160,2|8,0:0|0:0,0:0:0:0:
192,288,97242,1,2,0:0:0:0:
368,288,97416,6,0,P|400:256|400:144,1,160,6|8,0:0|0:0,0:0:0:0:
320,144,97939,1,0,0:0:0:0:
144,288,98114,2,0,P|112:256|112:160,1,120,2|0,0:0|0:0,0:0:0:0:
176,144,98463,2,0,L|96:144,1,80,8|2,0:0|0:0,0:0:0:0:
336,144,98811,6,0,L|256:144,1,80,6|0,0:0|0:0,0:0:0:0:
256,192,99509,12,0,101253,0:0:0:0:
336,192,101602,5,8,0:0:0:0:
400,192,101689,1,0,0:0:0:0:
448,160,101777,1,2,0:0:0:0:
480,112,101864,1,0,0:0:0:0:
448,64,101951,1,8,0:0:0:0:
288,192,102125,1,8,0:0:0:0:
224,192,102213,1,0,0:0:0:0:
176,224,102300,1,2,0:0:0:0:
144,272,102387,1,0,0:0:0:0:
176,320,102474,1,8,0:0:0:0:
336,192,102649,5,8,0:0:0:0:
400,192,102736,1,0,0:0:0:0:
448,160,102823,1,2,0:0:0:0:
480,112,102910,1,0,0:0:0:0:
448,64,102997,1,8,0:0:0:0:
288,192,103172,1,8,0:0:0:0:
224,192,103259,1,0,0:0:0:0:
176,224,103346,1,2,0:0:0:0:
144,272,103433,1,0,0:0:0:0:
176,320,103521,1,8,0:0:0:0:
336,320,103695,6,0,P|416:304|480:256,1,160,4|4,0:0|0:0,0:0:0:0:
176,192,104393,5,8,0:0:0:0:
112,192,104480,1,0,0:0:0:0:
64,160,104567,1,2,0:0:0:0:
32,112,104654,1,0,0:0:0:0:
64,64,104742,1,8,0:0:0:0:
224,192,104916,1,8,0:0:0:0:
288,192,105003,1,0,0:0:0:0:
336,224,105090,1,2,0:0:0:0:
368,272,105178,1,0,0:0:0:0:
336,320,105265,1,8,0:0:0:0:
176,192,105439,5,8,0:0:0:0:
112,192,105527,1,0,0:0:0:0:
64,160,105614,1,2,0:0:0:0:
32,112,105701,1,0,0:0:0:0:
64,64,105788,1,8,0:0:0:0:
224,192,105963,1,8,0:0:0:0:
288,192,106050,1,0,0:0:0:0:
336,224,106137,1,2,0:0:0:0:
368,272,106224,1,0,0:0:0:0:
336,320,106311,1,8,0:0:0:0:
176,320,106486,6,0,P|96:304|32:256,1,160,4|4,0:0|0:0,0:0:0:0:
368,192,107183,6,0,L|384:144,1,40,8|0,0:0|0:0,0:0:0:0:
440,144,107358,2,0,L|424:96,1,40,2|0,0:0|0:0,0:0:0:0:
368,96,107532,1,8,0:0:0:0:
192,192,107707,2,0,L|176:144,1,40,8|0,0:0|0:0,0:0:0:0:
120,144,107881,2,0,L|136:96,1,40,2|0,0:0|0:0,0:0:0:0:
192,96,108056,1,8,0:0:0:0:
368,192,108230,6,0,L|384:240,1,40,8|0,0:0|0:0,0:0:0:0:
440,240,108404,2,0,L|424:288,1,40,2|0,0:0|0:0,0:0:0:0:
368,288,108579,1,8,0:0:0:0:
192,192,108753,2,0,L|176:240,1,40,8|0,0:0|0:0,0:0:0:0:
120,240,108928,2,0,L|136:288,1,40,2|0,0:0|0:0,0:0:0:0:
192,288,109102,1,8,0:0:0:0:
368,192,109277,6,0,L|288:192,1,80,4|0,0:0|0:0,0:0:0:0:
400,144,109625,2,0,L|320:144,1,80,4|0,0:0|0:0,0:0:0:0:
144,192,109974,6,0,L|128:144,1,40,8|0,0:0|0:0,0:0:0:0:
72,144,110149,2,0,L|88:96,1,40,2|0,0:0|0:0,0:0:0:0:
144,96,110323,1,8,0:0:0:0:
320,192,110497,2,0,L|336:144,1,40,8|0,0:0|0:0,0:0:0:0:
392,144,110672,2,0,L|376:96,1,40,2|0,0:0|0:0,0:0:0:0:
320,96,110846,1,8,0:0:0:0:
144,192,111021,6,0,L|128:240,1,40,8|0,0:0|0:0,0:0:0:0:
72,240,111195,2,0,L|88:288,1,40,2|0,0:0|0:0,0:0:0:0:
144,288,111370,1,8,0:0:0:0:
320,192,111544,2,0,L|336:240,1,40,8|0,0:0|0:0,0:0:0:0:
392,240,111718,2,0,L|376:288,1,40,2|0,0:0|0:0,0:0:0:0:
320,288,111893,1,8,0:0:0:0:
144,192,112067,6,0,L|224:192,1,80,4|0,0:0|0:0,0:0:0:0:
112,144,112416,2,0,L|192:144,1,80,4|0,0:0|0:0,0:0:0:0:
464,144,112765,6,0,L|448:224,1,80,6|0,0:0|3:0,0:0:0:0:
336,224,113114,1,2,3:0:0:0:
448,144,113288,2,0,L|432:224,1,80,8|0,3:0|3:0,0:0:0:0:
320,224,113637,1,2,3:0:0:0:
208,144,113811,6,0,L|224:224,1,80,8|0,3:0|3:0,0:0:0:0:
336,224,114160,1,2,3:0:0:0:
224,144,114335,2,0,L|240:224,1,80,8|0,3:0|3:0,0:0:0:0:
352,224,114683,1,2,3:0:0:0:
464,144,114858,6,0,L|384:144,1,80,8|0,3:0|3:0,0:0:0:0:
272,144,115207,2,0,L|352:144,1,80,2|0,3:0|3:0,0:0:0:0:
48,144,115556,6,0,L|64:224,1,80,6|0,0:0|3:0,0:0:0:0:
176,224,115904,1,2,3:0:0:0:
64,144,116079,2,0,L|80:224,1,80,8|0,3:0|3:0,0:0:0:0:
192,224,116428,1,2,3:0:0:0:
304,144,116602,6,0,L|288:224,1,80,8|0,3:0|3:0,0:0:0:0:
176,224,116951,1,2,3:0:0:0:
288,144,117125,2,0,L|272:224,1,80,8|0,3:0|3:0,0:0:0:0:
160,224,117474,1,2,3:0:0:0:
48,144,117649,6,0,L|128:144,1,80,8|0,3:0|3:0,0:0:0:0:
240,144,117997,2,0,L|160:144,1,80,2|0,3:0|3:0,0:0:0:0:
416,96,118346,5,8,0:0:0:0:
453,141,118433,1,0,0:0:0:0:
462,199,118521,1,2,0:0:0:0:
438,253,118608,1,0,0:0:0:0:
384,288,118695,1,8,0:0:0:0:
192,96,118870,1,8,0:0:0:0:
155,141,118957,1,0,0:0:0:0:
146,199,119044,1,2,0:0:0:0:
170,253,119131,1,0,0:0:0:0:
224,288,119218,1,8,0:0:0:0:
416,96,119393,5,8,0:0:0:0:
453,141,119480,1,0,0:0:0:0:
462,199,119567,1,2,0:0:0:0:
438,253,119654,1,0,0:0:0:0:
384,288,119742,1,8,0:0:0:0:
192,96,119916,1,8,0:0:0:0:
155,141,120003,1,0,0:0:0:0:
146,199,120090,1,2,0:0:0:0:
170,253,120178,1,0,0:0:0:0:
224,288,120265,1,8,0:0:0:0:
416,112,120439,6,0,L|384:192,1,80,4|0,0:0|0:0,0:0:0:0:
256,192,120788,2,0,L|336:192,1,80,4|0,0:0|0:0,0:0:0:0:
80,96,121137,5,8,0:0:0:0:
43,141,121224,1,0,0:0:0:0:
34,199,121311,1,2,0:0:0:0:
58,253,121399,1,0,0:0:0:0:
112,288,121486,1,8,0:0:0:0:
304,96,121660,1,8,0:0:0:0:
341,141,121747,1,0,0:0:0:0:
350,199,121835,1,2,0:0:0:0:
326,253,121922,1,0,0:0:0:0:
272,288,122009,1,8,0:0:0:0:
256,192,122183,12,12,123928,0:0:0:0:
160,192,125338,5,4,0:0:0:0:
352,192,125686,1,4,0:0:0:0:
32,192,126035,2,0,L|192:192,1,160,6|12,0:0|0:0,0:0:0:0:
368,80,126733,6,0,L|288:80,2,80,4|0|2,0:0|0:0|0:0,0:0:0:0:
144,80,127432,2,0,L|224:80,2,80,4|0|2,0:0|0:0|0:0,0:0:0:0:
368,192,128132,5,4,0:0:0:0:
80,192,128482,1,4,3:0:0:0:
368,192,128832,2,0,L|448:192,1,80,4|4,3:0|3:0,0:0:0:0:
336,112,129181,2,0,L|416:112,1,80,4|8,3:0|3:0,0:0:0:0:
112,112,129531,6,0,P|96:160|96:192,1,80,6|0,2:0|0:0,0:0:0:0:
208,272,129879,2,0,P|224:224|224:192,1,80,8|0,0:0|0:0,0:0:0:0:
95,194,130228,2,0,P|97:234|112:272,1,80,2|0,0:0|0:0,0:0:0:0:
224,194,130577,1,8,0:0:0:0:
112,192,130751,1,8,0:0:0:0:
288,192,130926,6,0,P|336:192|368:176,1,80,6|0,0:0|0:0,0:0:0:0:
224,192,131275,2,0,P|176:192|144:176,1,80,8|0,0:0|0:0,0:0:0:0:
288,192,131624,2,0,P|320:224|320:256,1,80,2|0,0:0|0:0,0:0:0:0:
256,288,131885,1,0,0:0:0:0:
192,256,131972,2,0,P|194:217|224:192,1,80,8|8,0:0|0:0,0:0:0:0:
400,272,132321,6,0,P|416:224|416:192,1,80,6|0,0:0|0:0,0:0:0:0:
304,192,132670,2,0,L|224:192,1,80
112,272,133019,2,0,P|97:234|95:194,1,80,2|0,0:0|0:0,0:0:0:0:
144,192,133281,1,0,0:0:0:0:
192,192,133368,1,8,0:0:0:0:
304,112,133542,2,0,L|288:160,1,40
160,112,133717,6,0,P|144:160|144:192,1,80,6|0,0:0|0:0,0:0:0:0:
256,272,134065,2,0,P|272:224|272:192,1,80,8|0,0:0|0:0,0:0:0:0:
144,192,134414,2,0,L|64:192,1,80,2|0,0:0|0:0,0:0:0:0:
240,192,134763,1,8,0:0:0:0:
144,112,134937,1,8,0:0:0:0:
400,112,135112,6,0,P|416:160|416:192,1,80,6|0,2:0|0:0,0:0:0:0:
304,272,135461,2,0,P|288:224|288:192,1,80,8|0,0:0|0:0,0:0:0:0:
417,194,135810,2,0,P|415:234|400:272,1,80,2|0,0:0|0:0,0:0:0:0:
288,194,136158,1,8,0:0:0:0:
400,192,136333,1,8,0:0:0:0:
224,192,136507,6,0,P|176:192|144:176,1,80,6|0,0:0|0:0,0:0:0:0:
288,192,136856,2,0,P|336:192|368:176,1,80,8|0,0:0|0:0,0:0:0:0:
224,192,137205,2,0,P|176:192|144:208,1,80,2|0,0:0|0:0,0:0:0:0:
216,240,137467,1,0,0:0:0:0:
287,192,137554,2,0,P|327:190|364:205,1,80,8|8,0:0|0:0,0:0:0:0:
192,272,137903,6,0,P|176:224|176:192,1,80,6|0,0:0|0:0,0:0:0:0:
288,112,138251,2,0,P|304:160|304:192,1,80,8|0,0:0|0:0,0:0:0:0:
175,190,138600,2,0,P|177:150|192:112,1,80,2|0,0:0|0:0,0:0:0:0:
256,112,138862,1,0,0:0:0:0:
320,192,138949,2,0,P|318:152|303:114,1,80,0|8,0:0|0:0,0:0:0:0:
240,112,139211,1,0,0:0:0:0:
112,112,139298,5,6,2:0:0:0:
464,192,140519,1,0,0:0:0:0:
352,192,140693,6,0,L|368:144,1,40,8|0,0:0|0:0,0:0:0:0:
256,192,140955,2,0,L|272:144,1,40,8|0,0:0|0:0,0:0:0:0:
160,192,141217,2,0,L|176:144,1,40,8|0,0:0|0:0,0:0:0:0:
64,192,141478,2,0,L|80:144,1,40,8|0,0:0|0:0,0:0:0:0:
192,192,141740,1,12,0:0:0:0:
80,192,141914,1,2,0:0:0:0:
320,192,142089,5,6,0:0:0:0:
160,96,142437,1,2,0:0:0:0:
112,112,142525,1,0,0:0:0:0:
80,160,142612,1,2,0:0:0:0:
112,208,142699,1,0,0:0:0:0:
160,224,142786,1,2,0:0:0:0:
