osu file format v14

[General]
AudioFilename: audio.mp3
AudioLeadIn: 0
PreviewTime: 79274
Countdown: 0
SampleSet: Soft
StackLeniency: 0.4
Mode: 0
LetterboxInBreaks: 0
WidescreenStoryboard: 1

[Editor]
Bookmarks: 29001,110495,139309
DistanceSpacing: 0.7
BeatDivisor: 4
GridSize: 32
TimelineZoom: 2.699999

[Metadata]
Title:Alice in Misanthrope -Ensei Alice-
TitleUnicode:Alice in Misanthrope -厭世アリス-
Artist:LeaF
ArtistUnicode:LeaF
Creator:Anxient
Version:Insane
Source:BMS
Tags:of Fighters BOFU2016 - Legendary Again - snownino victorica rohit6
BeatmapID:1181749
BeatmapSetID:526627

[Difficulty]
HPDrainRate:5
CircleSize:4.2
OverallDifficulty:7
ApproachRate:9
SliderMultiplier:1.4
SliderTickRate:1

[Events]
//Background and Video events
0,0,"Alice.(Alice.in.Wonderland).full.1872624.jpg",0,0
//Break Periods
2,68271,73090
//Storyboard Layer 0 (Background)
//Storyboard Layer 1 (Fail)
//Storyboard Layer 2 (Pass)
//Storyboard Layer 3 (Foreground)
//Storyboard Sound Samples

[TimingPoints]
771,379.746835443038,4,2,1,35,1,0
771,-133.333333333333,4,2,1,35,0,0
3808,348.837209302326,4,2,1,80,1,0
6598,-90.9090909090909,4,2,1,80,0,0
10435,-83.3333333333333,4,2,1,80,0,0
16627,-83.3333333333333,4,2,1,5,0,0
16714,-71.4285714285714,4,2,1,80,0,0
16976,-83.3333333333333,4,2,1,5,0,0
17063,-62.5,4,2,3,80,0,0
17761,352.941176470588,4,2,1,50,1,0
23412,346.820809248555,4,2,1,50,1,0
26211,348.837209302326,4,2,1,50,1,0
26908,-83.3333333333333,4,2,1,50,0,0
27606,-76.9230769230769,4,2,1,50,0,0
29001,-83.3333333333333,4,2,1,50,0,0
34583,-80,4,2,1,50,0,0
38071,-74.0740740740741,4,2,1,50,0,0
54815,-68.9655172413793,4,2,1,50,0,0
67373,-80,4,2,1,50,0,0
67548,-86.9565217391304,4,2,1,50,0,0
67722,-100,4,2,3,50,0,0
68063,355.029585798817,4,2,1,80,1,0
70903,352.941176470588,4,2,1,80,1,0
72314,350.877192982456,4,2,1,80,1,0
72664,349.854227405248,4,2,1,80,1,0
73015,348.837209302326,4,2,1,80,1,0
73363,347.826086956522,4,2,1,80,1,0
73690,346.820809248555,4,2,1,80,1,0
76484,348.837209302326,4,2,1,80,1,0
76484,-133.333333333333,4,2,1,80,0,0
77879,-100,4,2,1,80,0,0
78577,-83.3333333333333,4,2,1,80,0,0
79274,-71.4285714285714,4,2,2,80,0,1
82065,-71.4285714285714,4,2,5,80,0,1
84856,-71.4285714285714,4,2,2,80,0,1
87646,-71.4285714285714,4,2,5,80,0,1
89739,-71.4285714285714,4,2,6,80,0,1
90437,-71.4285714285714,4,2,2,80,0,1
93228,-71.4285714285714,4,2,5,80,0,1
96018,-71.4285714285714,4,2,2,80,0,1
98809,-71.4285714285714,4,2,5,80,0,0
98984,-71.4285714285714,4,2,4,80,0,0
101600,-71.4285714285714,4,2,4,80,0,0
112763,-71.4285714285714,4,2,4,90,0,1
118344,-71.4285714285714,4,2,4,100,0,1
123925,-71.4285714285714,4,2,1,80,0,0
125321,355.029585798817,4,2,1,80,1,0
125321,-76.9230769230769,4,2,1,80,0,0
125587,-76.9230769230769,4,2,1,5,0,0
125676,-76.9230769230769,4,2,1,80,0,0
125942,-76.9230769230769,4,2,1,5,0,0
126031,-76.9230769230769,4,2,1,80,0,0
126297,-76.9230769230769,4,2,1,5,0,0
126386,-76.9230769230769,4,2,3,80,0,0
126741,352.941176470588,4,2,1,80,1,0
127446,350.877192982456,4,2,1,80,1,0
128147,348.837209302326,4,2,1,80,1,0
128495,-90.9090909090909,4,2,1,80,0,0
128844,-83.3333333333333,4,2,1,80,0,0
133379,-76.9230769230769,4,2,1,80,0,0
142449,-76.9230769230769,4,2,1,40,0,0
142536,-76.9230769230769,4,2,1,50,0,0
142623,-76.9230769230769,4,2,1,60,0,0
142710,-76.9230769230769,4,2,1,70,0,0
142798,-83.3333333333333,4,2,1,80,0,0

[Colours]
Combo1 : 255,100,177
Combo2 : 240,217,136
Combo3 : 0,218,236

[HitObjects]
269,38,771,6,0,L|399:32,2,105.000004005432,0|0|0,0:0|0:0|0:0,0:0:0:0:
272,142,1910,6,0,L|376:137,1,105.000004005432,0|0,0:0|0:0,0:0:0:0:
379,241,2669,2,0,L|326:243,1,52.5000020027161,0|0,0:0|0:0,0:0:0:0:
274,245,3049,2,0,L|278:349,1,105.000004005432,0|0,0:0|0:0,0:0:0:0:
278,349,3619,1,0,0:0:0:0:
135,305,3808,6,0,L|187:302,7,35,4|0|0|0|0|0|0|0,0:0|3:0|3:0|3:0|3:0|3:0|3:0|3:0,0:0:0:0:
48,309,4505,6,0,L|43:214,1,70,4|0,0:0|3:0,0:0:0:0:
38,69,4767,2,0,L|41:138,1,70,0|0,0:0|3:0,0:0:0:0:
189,29,5203,6,0,L|186:98,1,70,4|0,3:2|0:0,0:0:0:0:
143,225,5552,1,4,3:2:0:0:
42,139,5726,1,0,0:0:0:0:
240,187,5901,6,0,P|247:235|207:308,2,105,4|0|0,3:2|0:0|0:0,0:0:0:0:
396,61,6598,6,0,L|313:64,1,77.0000023498536,6|0,0:0|0:0,0:0:0:0:
240,187,6947,2,0,L|336:182,1,77.0000023498536,2|0,0:0|0:0,0:0:0:0:
463,179,7296,2,0,L|467:275,1,77.0000023498536,2|0,0:0|0:0,0:0:0:0:
444,283,7558,1,0,0:0:0:0:
422,309,7645,2,0,L|345:312,1,77.0000023498536,2|2,0:0|0:0,0:0:0:0:
155,319,7994,5,2,0:0:0:0:
240,187,8168,1,0,0:0:0:0:
246,212,8255,1,0,0:0:0:0:
246,238,8342,1,2,0:0:0:0:
157,361,8517,1,0,0:0:0:0:
4,254,8691,6,0,L|100:258,1,77.0000023498536,2|0,0:0|0:0,0:0:0:0:
108,235,8953,1,2,0:0:0:0:
134,213,9040,1,2,0:0:0:0:
127,13,9214,2,0,L|129:70,1,38.5000011749268,2|0,0:0|0:0,0:0:0:0:
319,64,9389,6,0,L|242:60,1,77.0000023498536,2|0,0:0|0:0,0:0:0:0:
55,136,9738,2,0,L|131:132,1,77.0000023498536,2|0,0:0|0:0,0:0:0:0:
240,262,10087,2,0,P|247:224|240:187,1,77.0000023498536,2|0,0:0|0:0,0:0:0:0:
80,257,10435,2,0,P|73:294|86:346,1,83.9999974365235,2|2,0:0|0:0,0:0:0:0:
119,349,10697,1,2,0:0:0:0:
157,361,10784,6,0,L|240:357,1,83.9999974365235,2|0,0:0|0:0,0:0:0:0:
323,182,11133,2,0,L|240:186,1,83.9999974365235,2|0,0:0|0:0,0:0:0:0:
360,287,11482,1,2,0:0:0:0:
380,285,11569,1,2,0:0:0:0:
401,284,11656,1,2,0:0:0:0:
422,283,11743,1,2,0:0:0:0:
443,282,11831,2,0,L|438:197,1,83.9999974365235,2|2,0:0|0:0,0:0:0:0:
432,2,12180,6,0,L|435:85,1,83.9999974365235,4|0,0:0|0:0,0:0:0:0:
323,182,12528,2,0,L|326:97,1,83.9999974365235,2|0,0:0|0:0,0:0:0:0:
130,92,12877,2,0,L|213:95,1,83.9999974365235,2|0,0:0|0:0,0:0:0:0:
221,81,13139,1,0,0:0:0:0:
233,69,13226,1,2,0:0:0:0:
51,54,13401,1,2,0:0:0:0:
129,220,13575,6,0,L|125:304,1,83.9999974365235,2|0,0:0|0:0,0:0:0:0:
112,320,13837,1,0,0:0:0:0:
99,336,13924,1,2,0:0:0:0:
4,258,14098,1,0,0:0:0:0:
213,214,14273,6,0,L|209:290,1,41.9999987182618,2|0,0:0|0:0,0:0:0:0:
360,287,14447,1,0,0:0:0:0:
360,307,14534,1,2,0:0:0:0:
361,328,14621,1,2,0:0:0:0:
356,149,14796,1,2,0:0:0:0:
501,212,14970,6,0,L|497:296,1,83.9999974365235,2|0,0:0|0:0,0:0:0:0:
356,149,15319,2,0,L|352:65,1,83.9999974365235,2|0,0:0|0:0,0:0:0:0:
360,287,15668,5,2,0:0:0:0:
470,209,15842,2,0,L|471:167,1,41.9999987182618,0|2,0:0|0:0,0:0:0:0:
320,69,16017,2,0,L|324:153,1,83.9999974365235,2|2,0:0|0:0,0:0:0:0:
302,173,16278,1,0,0:0:0:0:
281,193,16366,6,0,L|146:199,1,125.999996154785,2|0,0:0|0:0,0:0:0:0:
146,276,16714,2,0,L|292:269,1,146.999995513916,2|0,0:0|0:0,0:0:0:0:
333,343,17063,2,0,L|109:353,1,224,2|4,0:0|0:0,0:0:0:0:
437,339,17761,6,0,L|443:190,2,140,0|0|0,0:0|0:0|0:0,0:0:0:0:
437,339,18643,1,0,0:0:0:0:
292,268,18819,2,0,L|295:178,1,70,0|0,0:0|0:0,0:0:0:0:
285,2,19172,6,0,L|288:91,1,70,0|0,0:0|0:0,0:0:0:0:
372,77,19525,2,0,L|520:83,2,140,0|0|0,0:0|0:0|0:0,0:0:0:0:
372,77,20408,1,0,0:0:0:0:
222,139,20584,6,0,L|82:145,2,140,0|0|0,0:0|0:0|0:0,0:0:0:0:
222,139,21466,1,0,0:0:0:0:
292,268,21643,2,0,L|288:337,1,70,0|0,0:0|0:0,0:0:0:0:
50,348,21996,6,0,L|190:342,1,140,0|0,0:0|0:0,0:0:0:0:
190,342,22525,1,0,0:0:0:0:
292,268,22702,2,0,L|295:198,1,70,0|2,0:0|0:0,0:0:0:0:
440,269,23055,2,0,L|436:338,1,70,2|2,0:0|0:0,0:0:0:0:
445,173,23412,6,0,L|440:61,1,105,2|0,0:0|0:0,0:0:0:0:
416,42,23758,1,0,0:0:0:0:
296,163,23932,2,0,L|294:197,2,35,0|0|0,0:0|0:0|0:0,0:0:0:0:
229,111,24279,5,2,0:0:0:0:
145,105,24452,1,2,0:0:0:0:
61,100,24625,1,2,0:0:0:0:
50,342,24799,6,0,L|54:237,1,105,2|0,0:0|0:0,0:0:0:0:
79,211,25145,1,0,0:0:0:0:
199,332,25319,2,0,L|200:366,2,35,0|0|0,0:0|0:0|0:0,0:0:0:0:
266,280,25666,5,2,0:0:0:0:
350,274,25839,1,2,0:0:0:0:
434,269,26012,1,2,0:0:0:0:
339,106,26211,6,0,L|234:110,1,105,4|0,0:0|0:0,0:0:0:0:
202,82,26559,2,0,L|198:2,1,70,0|0,3:0|0:0,0:0:0:0:
385,6,26908,6,0,L|521:0,1,125.999996154785,4|0,0:0|3:0,0:0:0:0:
490,38,27257,2,0,L|493:135,1,83.9999974365235,0|0,0:0|3:0,0:0:0:0:
335,196,27606,6,0,L|338:105,1,90.9999958343508,4|0,0:0|0:0,0:0:0:0:
434,269,27955,2,0,L|430:359,1,90.9999958343508,4|0,0:0|0:0,0:0:0:0:
497,157,28304,1,4,3:2:0:0:
266,280,29001,6,0,L|140:285,1,125.999996154785,6|0,0:0|0:0,0:0:0:0:
101,286,29350,2,0,L|105:196,1,83.9999974365235,8|0,0:0|0:0,0:0:0:0:
95,0,29699,6,0,L|98:83,1,83.9999974365235,2|0,0:0|0:0,0:0:0:0:
203,138,30048,1,8,0:0:0:0:
28,147,30222,1,0,0:0:0:0:
233,136,30397,6,0,L|316:132,1,83.9999974365235,2|0,0:0|0:0,0:0:0:0:
510,43,30745,2,0,L|426:39,1,83.9999974365235,8|0,0:0|0:0,0:0:0:0:
420,63,31007,1,0,0:0:0:0:
414,87,31094,6,0,L|417:170,1,83.9999974365235,2|0,0:0|0:0,0:0:0:0:
329,236,31443,1,8,0:0:0:0:
328,256,31530,1,0,0:0:0:0:
327,277,31617,1,0,0:0:0:0:
326,298,31704,1,0,0:0:0:0:
325,319,31792,6,0,L|156:326,2,167.999994873047,10|8|10,0:0|0:0|0:0,0:0:0:0:
325,319,32664,1,0,0:0:0:0:
505,316,32838,2,0,L|502:233,1,83.9999974365235,8|0,0:0|0:0,0:0:0:0:
414,87,33187,6,0,L|417:170,1,83.9999974365235,10|0,0:0|0:0,0:0:0:0:
329,236,33536,1,0,0:0:0:0:
420,357,33711,1,0,0:0:0:0:
301,198,33885,2,0,L|218:201,1,83.9999974365235,10|0,0:0|0:0,0:0:0:0:
157,325,34234,2,0,L|74:328,1,83.9999974365235,8|0,0:0|0:0,0:0:0:0:
80,118,34583,6,0,L|77:206,1,87.5,6|0,0:0|0:0,0:0:0:0:
213,121,34931,2,0,L|210:34,1,87.5,8|0,0:0|0:0,0:0:0:0:
228,27,35193,1,0,0:0:0:0:
244,21,35280,5,2,0:0:0:0:
325,53,35455,1,0,0:0:0:0:
406,21,35629,1,8,0:0:0:0:
487,53,35804,1,0,0:0:0:0:
406,132,35978,6,0,L|402:223,1,87.5,2|0,0:0|0:0,0:0:0:0:
251,293,36327,2,0,L|248:206,1,87.5,8|0,0:0|0:0,0:0:0:0:
266,199,36589,1,0,0:0:0:0:
282,193,36676,5,2,0:0:0:0:
290,374,36850,1,0,0:0:0:0:
444,278,37024,1,8,0:0:0:0:
325,353,37199,1,0,0:0:0:0:
155,255,37373,6,0,L|63:258,1,87.5,4|0,0:0|0:0,0:0:0:0:
282,193,37722,2,0,L|373:189,1,87.5,4|0,0:0|0:0,0:0:0:0:
173,115,38071,1,4,0:0:0:0:
173,115,38245,1,0,0:0:0:0:
293,68,38420,2,0,L|297:163,1,94.5000003604889,4|0,0:0|0:0,0:0:0:0:
154,254,38769,6,0,L|151:349,1,94.5000003604889,4|0,0:0|0:0,0:0:0:0:
419,348,39117,2,0,L|325:352,1,94.5000003604889,0|0,0:0|0:0,0:0:0:0:
318,334,39379,1,0,0:0:0:0:
312,318,39466,5,4,0:0:0:0:
508,309,39641,1,0,0:0:0:0:
304,298,39815,1,0,0:0:0:0:
500,289,39990,1,0,0:0:0:0:
394,124,40164,6,0,L|390:29,1,94.5000003604889,4|0,0:0|0:0,0:0:0:0:
509,79,40513,1,4,0:0:0:0:
509,79,40687,1,0,0:0:0:0:
407,213,40862,2,0,P|353:205|312:89,1,189.000000720978,4|4,0:0|0:0,0:0:0:0:
311,91,41385,1,0,0:0:0:0:
121,86,41559,6,0,L|216:90,1,94.5000003604889,4|0,0:0|0:0,0:0:0:0:
152,232,41908,2,0,L|57:236,1,94.5000003604889,4|0,0:0|0:0,0:0:0:0:
50,218,42170,1,0,0:0:0:0:
42,200,42257,5,4,0:0:0:0:
99,365,42431,1,0,0:0:0:0:
106,348,42519,1,0,0:0:0:0:
114,330,42606,2,0,L|209:326,1,94.5000003604889,4|0,0:0|0:0,0:0:0:0:
455,316,42955,6,0,L|360:320,1,94.5000003604889,4|0,0:0|0:0,0:0:0:0:
345,308,43216,1,0,0:0:0:0:
329,296,43304,1,4,0:0:0:0:
321,143,43478,1,0,0:0:0:0:
474,135,43652,6,0,L|478:230,1,94.5000003604889,4|0,0:0|0:0,0:0:0:0:
458,230,43914,1,0,0:0:0:0:
439,230,44001,1,4,0:0:0:0:
429,42,44176,1,0,0:0:0:0:
241,52,44350,2,0,L|245:147,1,94.5000003604889,4|0,0:0|0:0,0:0:0:0:
56,156,44699,5,4,0:0:0:0:
56,156,44873,1,0,0:0:0:0:
249,173,45048,1,4,0:0:0:0:
249,173,45222,2,0,L|252:258,1,47.2500001802444,0|0,0:0|0:0,0:0:0:0:
119,211,45397,1,0,0:0:0:0:
119,234,45484,1,0,0:0:0:0:
120,258,45571,1,0,3:2:0:0:
121,281,45658,1,0,3:2:0:0:
122,305,45745,6,0,L|217:309,1,94.5000003604889,4|0,3:2|0:0,0:0:0:0:
343,176,46094,2,0,L|248:172,1,94.5000003604889,4|0,0:0|0:0,0:0:0:0:
318,273,46443,2,0,P|324:319|312:365,2,94.5000003604889,4|0|4,0:0|3:2|3:2,0:0:0:0:
318,273,46966,1,0,3:2:0:0:
505,284,47141,5,4,3:2:0:0:
505,284,47315,1,0,3:0:0:0:
420,242,47490,1,4,3:2:0:0:
420,242,47664,1,0,3:2:0:0:
389,152,47839,1,4,3:2:0:0:
389,152,48013,1,0,0:0:0:0:
430,67,48187,5,0,0:0:0:0:
407,59,48274,1,0,0:0:0:0:
384,57,48361,1,0,0:0:0:0:
360,60,48448,1,0,0:0:0:0:
338,68,48536,6,0,P|304:101|292:146,1,94.5000003604889,4|0,0:0|0:0,0:0:0:0:
483,155,48885,2,0,L|388:151,1,94.5000003604889,4|0,0:0|0:0,0:0:0:0:
198,142,49234,2,0,L|293:146,1,94.5000003604889,4|0,0:0|0:0,0:0:0:0:
328,275,49583,1,4,0:0:0:0:
388,151,49757,1,0,3:0:0:0:
310,312,49931,6,0,L|215:308,1,94.5000003604889,4|0,3:2|3:2,0:0:0:0:
25,299,50280,2,0,L|120:303,1,94.5000003604889,4|0,3:2|3:2,0:0:0:0:
328,275,50629,6,0,L|233:271,1,94.5000003604889,0|0,3:2|0:0,0:0:0:0:
78,264,50978,1,0,0:0:0:0:
77,240,51065,1,0,0:0:0:0:
76,216,51152,1,0,0:0:0:0:
75,193,51239,1,0,0:0:0:0:
74,169,51326,5,4,0:0:0:0:
233,271,51501,1,0,0:0:0:0:
240,81,51676,2,0,L|236:176,1,94.5000003604889,4|0,0:0|0:0,0:0:0:0:
261,187,51937,1,0,0:0:0:0:
287,196,52024,2,0,L|382:200,1,94.5000003604889,4|0,0:0|0:0,0:0:0:0:
454,63,52373,2,0,L|359:59,1,94.5000003604889,4|0,0:0|0:0,0:0:0:0:
504,167,52722,6,0,P|506:224|483:278,1,94.5000003604889,4|0,0:0|3:0,0:0:0:0:
504,350,53071,2,0,P|490:305|494:259,1,94.5000003604889,4|0,3:2|3:0,0:0:0:0:
382,200,53420,2,0,L|287:196,1,94.5000003604889,4|0,3:2|0:0,0:0:0:0:
280,210,53681,1,0,0:0:0:0:
276,225,53768,1,0,0:0:0:0:
274,241,53855,1,0,0:0:0:0:
273,256,53942,1,0,0:0:0:0:
274,272,54030,1,0,0:0:0:0:
277,288,54117,6,0,L|372:292,1,94.5000003604889,4|0,0:0|0:0,0:0:0:0:
168,283,54466,2,0,L|73:279,1,94.5000003604889,4|0,0:0|0:0,0:0:0:0:
123,119,54815,5,4,0:0:0:0:
161,263,54990,1,0,0:0:0:0:
192,74,55164,2,0,P|153:41|103:37,1,101.500003097534,4|0,0:0|0:0,0:0:0:0:
207,175,55513,2,0,L|311:179,1,101.500003097534,4|0,0:0|3:0,0:0:0:0:
512,190,55862,2,0,L|410:185,1,101.500003097534,4|0,0:0|3:0,0:0:0:0:
361,363,56211,2,0,P|349:301|370:247,1,101.500003097534,0|0,0:0|0:0,0:0:0:0:
412,87,56559,5,0,0:0:0:0:
420,110,56646,1,0,0:0:0:0:
422,136,56733,1,0,0:0:0:0:
419,161,56820,1,0,0:0:0:0:
410,184,56908,6,0,L|308:179,1,101.500003097534,4|0,0:0|0:0,0:0:0:0:
91,190,57257,2,0,L|193:185,1,101.500003097534,4|0,0:0|0:0,0:0:0:0:
203,167,57519,1,0,0:0:0:0:
214,150,57606,2,0,P|226:88|205:34,1,101.500003097534,4|0,0:0|0:0,0:0:0:0:
6,142,57955,2,0,P|-4:191|7:239,1,101.500003097534,4|0,0:0|0:0,0:0:0:0:
110,100,58304,5,4,0:0:0:0:
110,100,58478,1,0,3:0:0:0:
192,185,58652,2,0,P|202:234|190:282,1,101.500003097534,4|0,3:2|3:0,0:0:0:0:
177,299,58914,1,0,0:0:0:0:
165,315,59001,2,0,P|116:327|67:316,1,101.500003097534,4|0,3:2|0:0,0:0:0:0:
256,350,59350,5,8,0:0:0:0:
281,348,59437,1,8,0:0:0:0:
306,347,59524,1,8,0:0:0:0:
332,346,59611,1,8,0:0:0:0:
357,345,59699,6,0,L|362:243,1,101.500003097534,4|0,0:0|0:0,0:0:0:0:
412,87,60048,1,4,0:0:0:0:
412,87,60222,1,0,0:0:0:0:
473,285,60397,2,0,L|468:183,1,101.500003097534,4|0,0:0|0:0,0:0:0:0:
329,45,60745,1,4,0:0:0:0:
321,69,60832,1,0,0:0:0:0:
319,94,60919,1,0,0:0:0:0:
322,119,61006,1,0,0:0:0:0:
330,143,61094,6,0,L|228:148,1,101.500003097534,4|0,0:0|3:2,0:0:0:0:
16,138,61443,2,0,L|118:143,1,101.500003097534,4|0,3:2|3:2,0:0:0:0:
176,292,61792,6,0,L|172:220,1,50.7500015487671,8|8,3:2|0:0,0:0:0:0:
226,97,61966,2,0,L|228:147,1,50.7500015487671,8|8,3:2|0:0,0:0:0:0:
290,224,62141,1,8,0:0:0:0:
283,376,62228,6,0,L|285:325,1,50.7500015487671,0|0,0:0|0:0,0:0:0:0:
512,287,62490,6,0,L|411:282,1,101.500003097534,4|0,0:0|0:0,0:0:0:0:
431,138,62838,2,0,L|329:143,1,101.500003097534,4|0,0:0|0:0,0:0:0:0:
310,183,63100,1,0,0:0:0:0:
290,224,63187,2,0,L|285:326,1,101.500003097534,4|0,0:0|0:0,0:0:0:0:
411,282,63536,1,4,0:0:0:0:
411,282,63711,1,0,0:0:0:0:
329,142,63885,6,0,L|227:137,1,101.500003097534,4|0,0:0|3:2,0:0:0:0:
171,64,64234,1,4,3:2:0:0:
171,64,64408,1,0,3:2:0:0:
89,197,64583,5,4,3:2:0:0:
88,176,64670,1,8,0:0:0:0:
76,318,64844,5,0,0:0:0:0:
75,338,64931,1,0,0:0:0:0:
187,268,65106,5,0,0:0:0:0:
212,269,65193,1,0,0:0:0:0:
237,270,65280,6,0,L|339:275,1,101.500003097534,4|4,0:0|0:0,0:0:0:0:
409,202,65629,1,0,0:0:0:0:
409,202,65804,1,0,0:0:0:0:
341,30,65978,6,0,L|336:132,1,101.500003097534,0|0,0:0|0:0,0:0:0:0:
409,202,66327,1,4,0:0:0:0:
409,202,66501,2,0,L|459:204,1,50.7500015487671,4|0,0:0|0:0,0:0:0:0:
338,274,66676,6,0,L|333:376,1,101.500003097534,0|0,0:0|0:0,0:0:0:0:
212,269,67024,2,0,L|207:167,1,101.500003097534,0|0,0:0|0:0,0:0:0:0:
200,3,67373,6,0,L|202:46,3,43.75,0|0|0|0,0:0|0:0|0:0|0:0,0:0:0:0:
123,51,67722,2,0,L|88:52,1,35,4|0,0:0|0:0,0:0:0:0:
16,22,67897,2,0,P|10:65|27:99,1,70,0|0,0:0|0:0,0:0:0:0:
76,324,73690,5,4,0:0:0:0:
148,204,74383,1,4,0:0:0:0:
128,331,75077,5,4,0:0:0:0:
95,196,75770,1,4,0:0:0:0:
264,298,76484,6,0,L|376:303,2,105.000004005432,4|0|4,0:0|0:0|0:0,0:0:0:0:
152,303,77356,2,0,L|99:305,2,52.5000020027161,0|0|0,0:0|0:0|0:0,0:0:0:0:
206,213,77879,6,0,P|215:160|208:122,1,70,4|0,0:0|0:0,0:0:0:0:
81,91,78228,2,0,P|80:125|88:159,1,70,4|0,0:0|0:0,0:0:0:0:
181,32,78577,6,0,L|293:37,1,83.9999974365235,4|8,0:0|0:0,0:0:0:0:
470,26,78925,2,0,L|357:31,1,83.9999974365235,8|8,0:0|0:0,0:0:0:0:
333,189,79274,6,0,L|342:390,2,195.999994018555,4|8|2,0:0|0:0|0:0,0:0:0:0:
333,189,80146,1,0,0:0:0:0:
213,144,80321,2,0,L|208:241,1,97.9999970092774,8|0,0:0|0:0,0:0:0:0:
0,252,80670,6,0,L|97:247,1,97.9999970092774,2|0,0:0|0:0,0:0:0:0:
157,324,81018,1,8,0:0:0:0:
157,324,81193,1,0,0:0:0:0:
213,144,81367,6,0,L|208:241,1,97.9999970092774,2|0,0:0|0:0,0:0:0:0:
47,163,81716,2,0,L|42:65,1,97.9999970092774,8|0,0:0|0:0,0:0:0:0:
217,56,82065,6,0,L|412:46,2,195.999994018555,6|8|2,0:0|0:0|0:0,0:0:0:0:
217,56,82937,1,0,0:0:0:0:
208,241,83111,2,0,L|213:144,1,97.9999970092774,8|0,0:0|0:0,0:0:0:0:
42,65,83460,2,0,L|47:163,1,97.9999970092774,2|0,0:0|0:0,0:0:0:0:
66,178,83722,1,0,0:0:0:0:
85,193,83809,2,0,L|80:290,1,97.9999970092774,8|0,0:0|0:0,0:0:0:0:
212,334,84158,6,0,L|215:383,3,48.9999985046387,2|0|0|0,0:0|0:0|0:0|0:0,0:0:0:0:
350,355,84507,6,0,L|398:357,1,48.9999985046387,8|0,0:0|0:0,0:0:0:0:
292,260,84681,2,0,L|294:211,1,48.9999985046387,0|0,0:0|0:0,0:0:0:0:
435,152,84856,6,0,L|439:249,1,97.9999970092774,6|0,0:0|0:0,0:0:0:0:
294,211,85204,2,0,L|298:113,1,97.9999970092774,8|0,0:0|0:0,0:0:0:0:
387,51,85553,1,2,0:0:0:0:
387,51,85728,1,0,0:0:0:0:
217,46,85902,2,0,L|212:143,1,97.9999970092774,8|0,0:0|0:0,0:0:0:0:
221,339,86251,6,0,L|211:143,1,195.999994018555,2|8,0:0|0:0,0:0:0:0:
211,143,86774,1,0,0:0:0:0:
110,104,86949,2,0,P|104:161|132:221,1,97.9999970092774,2|0,0:0|0:0,0:0:0:0:
128,214,87210,1,0,0:0:0:0:
140,229,87297,2,0,P|190:256|256:254,1,97.9999970092774,8|0,0:0|0:0,0:0:0:0:
217,46,87646,6,0,L|212:143,1,97.9999970092774,6|0,0:0|0:0,0:0:0:0:
235,357,87995,2,0,L|230:260,1,97.9999970092774,8|0,0:0|0:0,0:0:0:0:
248,243,88257,1,0,0:0:0:0:
266,227,88344,6,0,L|363:232,1,97.9999970092774,2|0,0:0|0:0,0:0:0:0:
441,379,88693,2,0,L|344:374,1,97.9999970092774,8|0,0:0|0:0,0:0:0:0:
477,192,89042,6,0,L|472:289,1,97.9999970092774,6|0,0:0|0:0,0:0:0:0:
363,232,89390,2,0,L|358:135,1,97.9999970092774,8|0,0:0|0:0,0:0:0:0:
371,113,89652,1,0,0:0:0:0:
384,92,89739,6,0,L|386:43,1,48.9999985046387,6|0,0:0|0:0,0:0:0:0:
479,143,89914,2,0,L|476:191,1,48.9999985046387,0|0,0:0|0:0,0:0:0:0:
363,232,90088,1,0,0:0:0:0:
338,230,90175,1,0,0:0:0:0:
314,229,90262,1,0,0:0:0:0:
289,228,90349,1,0,0:0:0:0:
265,226,90437,6,0,L|168:221,1,97.9999970092774,4|0,0:0|0:0,0:0:0:0:
110,355,90786,2,0,L|207:350,1,97.9999970092774,8|0,0:0|0:0,0:0:0:0:
81,174,91135,6,0,P|68:230|91:282,1,97.9999970092774,2|0,0:0|0:0,0:0:0:0:
222,139,91484,2,0,P|234:92|221:45,1,97.9999970092774,8|0,0:0|0:0,0:0:0:0:
167,220,91832,5,8,0:0:0:0:
179,241,91920,2,0,L|276:236,1,97.9999970092774,8|8,0:0|0:0,0:0:0:0:
374,241,92181,2,0,L|277:236,1,97.9999970092774,8|8,0:0|0:0,0:0:0:0:
271,333,92443,6,0,L|276:236,1,97.9999970092774,8|8,0:0|0:0,0:0:0:0:
376,192,92704,2,0,L|373:240,1,48.9999985046387,8|0,0:0|0:0,0:0:0:0:
470,245,92879,2,0,L|475:148,1,97.9999970092774,0|0,0:0|0:0,0:0:0:0:
385,43,93228,6,0,L|288:48,1,97.9999970092774,6|0,0:0|0:0,0:0:0:0:
75,37,93577,2,0,L|172:42,1,97.9999970092774,8|0,0:0|0:0,0:0:0:0:
222,139,93925,1,2,0:0:0:0:
81,174,94100,2,0,L|83:125,1,48.9999985046387,0|0,0:0|0:0,0:0:0:0:
167,220,94274,2,0,L|172:317,1,97.9999970092774,8|0,0:0|0:0,0:0:0:0:
347,350,94623,5,8,0:0:0:0:
368,338,94711,2,0,L|373:241,1,97.9999970092774,8|8,0:0|0:0,0:0:0:0:
368,143,94972,2,0,L|373:240,1,97.9999970092774,8|8,0:0|0:0,0:0:0:0:
276,235,95234,6,0,L|373:240,1,97.9999970092774,8|8,0:0|0:0,0:0:0:0:
471,245,95495,2,0,L|374:240,1,97.9999970092774,8|0,0:0|0:0,0:0:0:0:
362,45,95844,1,0,0:0:0:0:
364,93,95931,1,0,0:0:0:0:
367,142,96018,6,0,L|270:137,1,97.9999970092774,6|0,0:0|0:0,0:0:0:0:
271,333,96367,2,0,L|368:338,1,97.9999970092774,8|0,0:0|0:0,0:0:0:0:
275,234,96716,6,0,L|178:229,1,97.9999970092774,2|0,0:0|0:0,0:0:0:0:
177,33,97065,2,0,L|274:38,1,97.9999970092774,8|0,0:0|0:0,0:0:0:0:
269,136,97414,6,0,L|45:124,1,195.999994018555,2|8,0:0|0:0,0:0:0:0:
73,125,97937,1,0,0:0:0:0:
172,326,98111,2,0,L|177:229,1,97.9999970092774,2|0,0:0|0:0,0:0:0:0:
152,229,98373,1,0,0:0:0:0:
128,230,98460,2,0,L|31:235,1,97.9999970092774,8|0,0:0|0:0,0:0:0:0:
88,384,98809,5,4,0:0:0:0:
88,384,98984,1,4,0:0:0:0:
256,192,99507,12,0,101251,0:0:0:0:
363,84,101600,6,0,L|460:89,1,97.9999970092774,0|0,0:0|0:0,0:0:0:0:
477,106,101861,1,0,0:0:0:0:
493,124,101949,1,0,0:0:0:0:
406,193,102123,6,0,L|309:198,1,97.9999970092774,0|0,0:0|0:0,0:0:0:0:
292,215,102384,1,0,0:0:0:0:
276,233,102472,1,0,0:0:0:0:
116,225,102646,6,0,L|174:228,1,48.9999985046387,0|0,0:0|0:0,0:0:0:0:
257,322,102821,2,0,L|305:319,2,48.9999985046387,0|0|0,0:0|0:0|0:0,0:0:0:0:
106,256,103170,6,0,L|164:259,1,48.9999985046387,0|0,0:0|0:0,0:0:0:0:
247,353,103345,2,0,L|295:350,2,48.9999985046387,0|0|0,0:0|0:0|0:0,0:0:0:0:
111,353,103693,6,0,L|106:256,1,97.9999970092774,0|0,0:0|0:0,0:0:0:0:
121,127,104042,6,0,L|116:224,1,97.9999970092774,4|0,0:0|0:0,0:0:0:0:
126,29,104390,6,0,L|223:34,1,97.9999970092774,0|0,0:0|0:0,0:0:0:0:
240,52,104652,1,0,0:0:0:0:
256,70,104739,1,0,0:0:0:0:
444,96,104914,6,0,L|347:101,1,97.9999970092774,0|0,0:0|0:0,0:0:0:0:
330,119,105176,1,0,0:0:0:0:
314,137,105263,1,0,0:0:0:0:
275,242,105437,6,0,L|273:291,1,48.9999985046387,0|0,0:0|0:0,0:0:0:0:
426,260,105611,2,0,L|423:211,1,48.9999985046387,0|0,0:0|0:0,0:0:0:0:
403,184,105786,1,0,0:0:0:0:
265,134,105960,6,0,L|313:136,1,48.9999985046387,0|0,0:0|0:0,0:0:0:0:
273,291,106135,2,0,L|224:288,1,48.9999985046387,0|0,0:0|0:0,0:0:0:0:
197,268,106310,1,0,0:0:0:0:
146,80,106484,6,0,L|141:177,1,97.9999970092774,0|0,0:0|0:0,0:0:0:0:
202,365,106832,6,0,L|197:268,1,97.9999970092774,4|0,0:0|0:0,0:0:0:0:
63,332,107181,6,0,L|60:283,1,48.9999985046387,0|0,0:0|0:0,0:0:0:0:
45,175,107356,1,0,0:0:0:0:
46,163,107443,1,0,0:0:0:0:
46,151,107530,1,0,0:0:0:0:
146,80,107704,6,0,L|194:82,1,48.9999985046387,0|0,0:0|0:0,0:0:0:0:
362,138,107879,2,0,L|314:136,1,48.9999985046387,0|0,0:0|0:0,0:0:0:0:
285,156,108053,1,0,0:0:0:0:
464,227,108228,6,0,L|461:178,1,48.9999985046387,0|0,0:0|0:0,0:0:0:0:
446,70,108403,1,0,0:0:0:0:
447,58,108490,1,0,0:0:0:0:
447,46,108577,1,0,0:0:0:0:
362,138,108751,6,0,L|360:186,1,48.9999985046387,0|0,0:0|0:0,0:0:0:0:
304,354,108926,2,0,L|306:306,1,48.9999985046387,0|0,0:0|0:0,0:0:0:0:
286,277,109100,1,0,0:0:0:0:
494,339,109274,6,0,L|397:334,1,97.9999970092774,0|0,0:0|0:0,0:0:0:0:
208,310,109623,6,0,L|305:305,1,97.9999970092774,4|0,0:0|0:0,0:0:0:0:
362,138,109972,6,0,L|360:186,1,48.9999985046387,0|0,0:0|0:0,0:0:0:0:
192,130,110146,2,0,L|194:82,1,48.9999985046387,0|0,0:0|0:0,0:0:0:0:
213,52,110321,1,0,0:0:0:0:
286,277,110495,6,0,L|238:275,1,48.9999985046387,0|0,0:0|0:0,0:0:0:0:
102,272,110670,2,0,L|104:320,1,48.9999985046387,0|0,0:0|0:0,0:0:0:0:
123,350,110845,1,0,0:0:0:0:
115,143,111018,6,0,P|66:148|45:158,2,48.9999985046387,0|0|0,0:0|0:0|0:0,0:0:0:0:
145,158,111280,1,0,0:0:0:0:
175,173,111367,1,0,0:0:0:0:
273,22,111542,6,0,P|322:27|343:37,2,48.9999985046387,0|0|0,0:0|0:0|0:0,0:0:0:0:
243,37,111804,1,0,0:0:0:0:
213,52,111891,1,0,0:0:0:0:
281,229,112065,6,0,L|286:132,1,97.9999970092774,0|0,0:0|0:0,0:0:0:0:
109,45,112414,6,0,L|114:142,1,97.9999970092774,4|0,0:0|0:0,0:0:0:0:
272,22,112763,6,0,P|297:21|321:26,1,48.9999985046387,0|0,0:0|0:0,0:0:0:0:
350,41,112937,1,0,0:0:0:0:
286,131,113111,1,0,0:0:0:0:
483,173,113286,6,0,P|484:198|479:222,1,48.9999985046387,0|0,0:0|0:0,0:0:0:0:
464,251,113460,1,0,0:0:0:0:
374,187,113634,1,0,0:0:0:0:
276,326,113809,6,0,L|281:229,1,97.9999970092774,0|0,0:0|0:0,0:0:0:0:
281,228,114158,1,0,0:0:0:0:
136,172,114332,6,0,L|141:269,1,97.9999970092774,0|0,0:0|0:0,0:0:0:0:
141,269,114681,1,0,0:0:0:0:
109,45,114856,6,0,L|114:142,1,97.9999970092774,0|0,0:0|0:0,0:0:0:0:
27,321,115204,6,0,L|32:224,1,97.9999970092774,4|0,0:0|0:0,0:0:0:0:
27,203,115466,1,0,0:0:0:0:
22,183,115553,6,0,L|19:134,1,48.9999985046387,0|0,0:0|0:0,0:0:0:0:
109,45,115728,2,0,L|114:142,1,97.9999970092774,0|0,0:0|0:0,0:0:0:0:
275,130,116077,6,0,L|280:227,1,97.9999970092774,0|0,0:0|0:0,0:0:0:0:
280,227,116425,1,0,0:0:0:0:
135,366,116600,6,0,L|140:269,1,97.9999970092774,0|0,0:0|0:0,0:0:0:0:
140,268,116949,1,0,0:0:0:0:
240,345,117123,6,0,L|337:340,1,97.9999970092774,0|0,0:0|0:0,0:0:0:0:
352,326,117385,1,0,0:0:0:0:
366,312,117472,1,0,0:0:0:0:
372,124,117646,6,0,L|275:129,1,97.9999970092774,0|0,0:0|0:0,0:0:0:0:
401,220,117995,2,0,L|498:225,1,97.9999970092774,4|0,0:0|0:0,0:0:0:0:
510,62,118344,6,0,L|507:110,3,48.9999985046387,0|0|0|0,0:0|0:0|0:0|0:0,0:0:0:0:
487,125,118693,1,0,0:0:0:0:
403,268,118867,6,0,L|400:219,3,48.9999985046387,0|0|0|0,0:0|0:0|0:0|0:0,0:0:0:0:
380,205,119216,1,0,0:0:0:0:
271,80,119390,6,0,L|273:128,3,48.9999985046387,0|0|0|0,0:0|0:0|0:0|0:0,0:0:0:0:
294,143,119739,1,0,0:0:0:0:
303,335,119914,6,0,L|300:286,3,48.9999985046387,0|0|0|0,0:0|0:0|0:0|0:0,0:0:0:0:
280,272,120263,1,0,0:0:0:0:
84,262,120437,6,0,L|181:267,1,97.9999970092774,0|0,0:0|0:0,0:0:0:0:
15,202,120786,2,0,P|-7:263|6:313,1,97.9999970092774,4|0,0:0|0:0,0:0:0:0:
141,171,121135,6,0,P|144:122|123:78,1,97.9999970092774,0|0,0:0|0:0,0:0:0:0:
103,64,121396,1,0,0:0:0:0:
82,50,121484,1,0,0:0:0:0:
261,24,121658,6,0,L|256:121,1,97.9999970092774,0|0,0:0|0:0,0:0:0:0:
273,139,121920,1,0,0:0:0:0:
290,155,122007,1,0,0:0:0:0:
426,34,122181,6,0,L|429:83,1,48.9999985046387,0|0,0:0|0:0,0:0:0:0:
455,124,122356,2,0,L|452:172,17,48.9999985046387,0|0|0|0|0|0|0|0|0|0|0|0|0|0|0|0|0|0,0:0|0:0|0:0|0:0|0:0|0:0|0:0|0:0|0:0|0:0|0:0|0:0|0:0|0:0|0:0|0:0|0:0|0:0,0:0:0:0:
418,207,123925,5,0,0:0:0:0:
256,192,124013,12,0,124972,0:0:0:0:
106,14,125321,6,0,L|95:209,2,181.999991668702,4|4|4,0:0|0:0|0:0,0:0:0:0:
106,14,126386,1,4,0:0:0:0:
91,294,126741,6,0,P|142:327|204:298,1,105,8|0,0:0|0:0,0:0:0:0:
209,296,127093,2,0,L|212:226,1,70,0|0,0:0|0:0,0:0:0:0:
197,38,127446,6,0,P|146:5|84:34,1,105,8|0,0:0|0:0,0:0:0:0:
79,36,127798,2,0,L|75:105,1,70,4|4,0:0|0:0,0:0:0:0:
263,134,128147,6,0,L|332:137,1,70,8|4,0:0|0:0,0:0:0:0:
116,185,128495,2,0,L|18:190,1,77.0000023498536,8|0,0:0|0:0,0:0:0:0:
212,226,128844,6,0,L|281:229,1,41.9999987182618,8|0,0:0|0:0,0:0:0:0:
398,219,129019,2,0,L|356:221,1,41.9999987182618,0|0,0:0|0:0,0:0:0:0:
314,384,129193,2,0,L|308:286,1,83.9999974365235,0|0,0:0|0:0,0:0:0:0:
337,54,129542,6,0,L|331:151,1,83.9999974365235,4|0,0:0|0:0,0:0:0:0:
509,267,129891,2,0,L|504:183,1,83.9999974365235,2|0,0:0|0:0,0:0:0:0:
398,219,130240,5,2,0:0:0:0:
402,302,130414,2,0,L|404:343,1,41.9999987182618,0|0,0:0|0:0,0:0:0:0:
509,267,130588,5,2,0:0:0:0:
309,300,130763,1,2,0:0:0:0:
398,219,130937,5,2,0:0:0:0:
329,95,131112,2,0,L|332:137,1,41.9999987182618,0|0,0:0|0:0,0:0:0:0:
206,300,131286,2,0,L|210:216,1,83.9999974365235,2|0,0:0|0:0,0:0:0:0:
204,65,131635,6,0,L|206:106,1,41.9999987182618,2|0,0:0|0:0,0:0:0:0:
127,238,131809,5,0,0:0:0:0:
128,217,131896,1,2,0:0:0:0:
129,196,131984,2,0,P|83:180|45:191,1,83.9999974365235,2|2,0:0|0:0,0:0:0:0:
202,384,132333,6,0,L|206:300,1,83.9999974365235,2|0,0:0|0:0,0:0:0:0:
399,260,132681,2,0,L|402:318,1,41.9999987182618,2|0,0:0|3:0,0:0:0:0:
295,216,132943,1,0,3:0:0:0:
297,174,133030,6,0,L|294:132,1,41.9999987182618,2|0,0:0|0:0,0:0:0:0:
438,86,133205,2,0,L|440:44,1,41.9999987182618,0|2,0:0|0:0,0:0:0:0:
260,14,133379,2,0,L|265:110,1,90.9999958343508,2|2,0:0|0:0,0:0:0:0:
225,115,133641,1,2,0:0:0:0:
185,126,133728,6,0,L|182:84,1,41.9999987182618,2|4,0:0|0:0,0:0:0:0:
82,15,133902,2,0,L|84:56,1,41.9999987182618,0|4,0:0|0:0,0:0:0:0:
74,237,134077,2,0,L|79:140,1,90.9999958343508,2|0,0:0|0:0,0:0:0:0:
209,254,134426,6,0,L|206:299,1,45.4999979171754,2|0,0:0|0:0,0:0:0:0:
122,381,134600,1,2,0:0:0:0:
120,358,134687,1,2,0:0:0:0:
119,335,134774,2,0,L|28:340,1,90.9999958343508,2|0,0:0|0:0,0:0:0:0:
292,281,135123,6,0,L|388:286,1,90.9999958343508,4|0,0:0|0:0,0:0:0:0:
164,231,135472,2,0,L|73:236,1,90.9999958343508,2|0,0:0|0:0,0:0:0:0:
262,163,135821,5,2,0:0:0:0:
262,163,135995,2,0,L|319:166,1,45.4999979171754,0|4,0:0|0:0,0:0:0:0:
382,285,136170,2,0,L|473:291,1,90.9999958343508,2|2,0:0|0:0,0:0:0:0:
434,122,136519,5,2,0:0:0:0:
430,267,136693,1,0,3:0:0:0:
382,141,136867,5,2,0:0:0:0:
481,247,137041,1,0,3:0:0:0:
359,192,137216,5,2,0:0:0:0:
504,196,137390,1,0,3:0:0:0:
379,244,137564,5,2,0:0:0:0:
484,144,137738,1,2,3:2:0:0:
385,39,137914,6,0,L|294:33,1,90.9999958343508,2|0,0:0|0:0,0:0:0:0:
171,168,138263,2,0,L|262:162,1,90.9999958343508,2|0,0:0|0:0,0:0:0:0:
106,101,138612,2,0,P|84:133|80:165,3,45.4999979171754,2|0|0|2,0:0|0:0|0:0|3:2,0:0:0:0:
87,244,138960,2,0,L|93:335,1,90.9999958343508,2|2,3:2|0:0,0:0:0:0:
122,349,139222,1,2,0:0:0:0:
151,363,139309,5,4,0:0:0:0:
151,363,140530,5,8,0:0:0:0:
261,162,140705,6,0,L|265:225,1,45.4999979171754,8|8,0:0|0:0,0:0:0:0:
255,355,140966,2,0,L|257:309,1,45.4999979171754,8|8,0:0|0:0,0:0:0:0:
361,126,141228,6,0,L|365:189,1,45.4999979171754,8|8,0:0|0:0,0:0:0:0:
355,319,141489,2,0,L|357:273,1,45.4999979171754,4|4,0:0|0:0,0:0:0:0:
355,35,141751,6,0,L|361:126,1,90.9999958343508,8|8,0:0|0:0,0:0:0:0:
257,309,142100,1,4,0:0:0:0:
257,309,142449,6,0,L|255:355,4,45.4999979171754,0|0|0|0|0,0:0|0:0|0:0|0:0|0:0,0:0:0:0:
