osu file format v14

[General]
AudioFilename: audio.mp3
AudioLeadIn: 0
PreviewTime: 79274
Countdown: 0
SampleSet: Soft
StackLeniency: 0.4
Mode: 0
LetterboxInBreaks: 0
WidescreenStoryboard: 1

[Editor]
Bookmarks: 29001,110495,139309
DistanceSpacing: 0.8
BeatDivisor: 4
GridSize: 32
TimelineZoom: 2.699999

[Metadata]
Title:Alice in Misanthrope -Ensei Alice-
TitleUnicode:Alice in Misanthrope -厭世アリス-
Artist:LeaF
ArtistUnicode:LeaF
Creator:Anxient
Version:Hard
Source:BMS
Tags:of Fighters BOFU2016 - Legendary Again - snownino victorica rohit6
BeatmapID:1186269
BeatmapSetID:526627

[Difficulty]
HPDrainRate:5
CircleSize:4
OverallDifficulty:6
ApproachRate:8
SliderMultiplier:1.4
SliderTickRate:1

[Events]
//Background and Video events
0,0,"Alice.(Alice.in.Wonderland).full.1872624.jpg",0,0
//Break Periods
2,17960,22128
//Storyboard Layer 0 (Background)
//Storyboard Layer 1 (Fail)
//Storyboard Layer 2 (Pass)
//Storyboard Layer 3 (Foreground)
//Storyboard Sound Samples

[TimingPoints]
771,379.746835443038,4,2,1,35,1,0
771,-100,4,2,1,35,0,0
3808,348.837209302326,4,2,1,80,1,0
6598,-90.9090909090909,4,2,1,80,0,0
10435,-90.9090909090909,4,2,1,80,0,0
16627,-90.9090909090909,4,2,1,5,0,0
16714,-90.9090909090909,4,2,1,80,0,0
16976,-90.9090909090909,4,2,1,5,0,0
17063,-90.9090909090909,4,2,3,80,0,0
17761,352.941176470588,4,2,1,50,1,0
23412,346.820809248555,4,2,1,50,1,0
26211,348.837209302326,4,2,1,50,1,0
26908,-90.9090909090909,4,2,1,50,0,0
27606,-90.9090909090909,4,2,1,50,0,0
29001,-90.9090909090909,4,2,1,50,0,0
34583,-90.9090909090909,4,2,1,50,0,0
38071,-90.9090909090909,4,2,1,50,0,0
45745,-83.3333333333333,4,2,1,50,0,0
54815,-83.3333333333333,4,2,1,50,0,0
67373,-83.3333333333333,4,2,1,50,0,0
67548,-83.3333333333333,4,2,1,50,0,0
67722,-83.3333333333333,4,2,3,50,0,0
68063,355.029585798817,4,2,1,80,1,0
70903,352.941176470588,4,2,1,80,1,0
72314,350.877192982456,4,2,1,80,1,0
72664,349.854227405248,4,2,1,80,1,0
73015,348.837209302326,4,2,1,80,1,0
73363,347.826086956522,4,2,1,80,1,0
73690,346.820809248555,4,2,1,80,1,0
76484,348.837209302326,4,2,1,80,1,0
76484,-83.3333333333333,4,2,1,80,0,0
77879,-83.3333333333333,4,2,1,80,0,0
78577,-83.3333333333333,4,2,1,80,0,0
79274,-83.3333333333333,4,2,2,80,0,1
82065,-83.3333333333333,4,2,5,80,0,1
84856,-83.3333333333333,4,2,2,80,0,1
87646,-83.3333333333333,4,2,5,80,0,1
89739,-83.3333333333333,4,2,6,80,0,1
90437,-83.3333333333333,4,2,2,80,0,1
93228,-83.3333333333333,4,2,5,80,0,1
96018,-83.3333333333333,4,2,2,80,0,1
98809,-83.3333333333333,4,2,5,80,0,0
98984,-83.3333333333333,4,2,4,80,0,0
101600,-83.3333333333333,4,2,4,80,0,0
112763,-83.3333333333333,4,2,4,90,0,1
118344,-83.3333333333333,4,2,4,100,0,1
123925,-83.3333333333333,4,2,1,80,0,0
125321,355.029585798817,4,2,1,80,1,0
125321,-83.3333333333333,4,2,1,80,0,0
125587,-83.3333333333333,4,2,1,5,0,0
125676,-83.3333333333333,4,2,1,80,0,0
125942,-83.3333333333333,4,2,1,5,0,0
126031,-83.3333333333333,4,2,1,80,0,0
126297,-83.3333333333333,4,2,1,5,0,0
126386,-83.3333333333333,4,2,3,80,0,0
126741,352.941176470588,4,2,1,80,1,0
127446,350.877192982456,4,2,1,80,1,0
128147,348.837209302326,4,2,1,80,1,0
128495,-83.3333333333333,4,2,1,80,0,0
128844,-83.3333333333333,4,2,1,80,0,0
133379,-83.3333333333333,4,2,1,80,0,0
142449,-83.3333333333333,4,2,1,40,0,0
142536,-83.3333333333333,4,2,1,50,0,0
142623,-83.3333333333333,4,2,1,60,0,0
142710,-83.3333333333333,4,2,1,70,0,0
142798,-83.3333333333333,4,2,1,80,0,0

[Colours]
Combo1 : 255,100,177
Combo2 : 240,217,136
Combo3 : 0,218,236

[HitObjects]
110,89,771,6,0,L|254:76,2,140
35,152,1910,2,0,L|22:291,1,140
16,361,2669,6,0,L|22:291,1,70
58,257,3049,2,0,L|197:244,1,140
197,244,3619,1,0,0:0:0:0:
278,326,3808,6,0,L|417:338,1,140
417,338,4331,1,0,0:0:0:0:
491,274,4505,6,0,L|485:204,1,70
418,131,4854,2,0,L|424:61,1,70
341,22,5203,6,0,L|329:161,1,140
328,161,5726,1,0,0:0:0:0:
197,243,5901,1,0,0:0:0:0:
197,243,6598,6,0,L|120:249,1,77.0000023498536
79,166,6947,1,0,0:0:0:0:
120,83,7121,1,0,0:0:0:0:
161,0,7296,2,0,L|238:6,1,77.0000023498536
309,65,7645,2,0,L|386:71,1,77.0000023498536
458,15,7994,6,0,P|479:60|462:112,1,77.0000023498536
420,159,8342,2,0,P|399:204|416:256,1,77.0000023498536
464,298,8691,5,0,0:0:0:0:
373,317,8866,1,0,0:0:0:0:
282,336,9040,2,0,L|288:259,1,77.0000023498536
197,243,9389,6,0,L|120:249,2,77.0000023498536
256,172,9912,1,0,0:0:0:0:
185,113,10087,6,0,L|178:36,2,77.0000023498536
256,172,10610,1,0,0:0:0:0:
315,101,10784,6,0,L|392:94,1,77.0000023498536
484,86,11133,2,0,L|497:239,1,154.000004699707
482,257,11569,1,0,0:0:0:0:
465,273,11656,1,0,0:0:0:0:
449,290,11744,1,0,0:0:0:0:
434,307,11831,2,0,P|385:317|331:291,1,77.0000023498536
276,268,12180,6,0,P|219:253|147:339,2,154.000004699707
276,268,13052,1,0,0:0:0:0:
354,218,13226,2,0,L|347:141,1,77.0000023498536
281,76,13575,6,0,L|204:82,1,77.0000023498536
132,141,13924,2,0,L|55:134,2,77.0000023498536
132,141,14447,1,0,0:0:0:0:
179,220,14621,2,0,P|190:265|173:312,1,77.0000023498536
156,381,14970,6,0,P|97:334|95:260,2,154.000004699707
246,361,15842,1,0,0:0:0:0:
336,341,16017,2,0,L|413:347,1,77.0000023498536
274,274,16366,6,0,L|260:120,2,154.000004699707
398,193,17412,6,0,L|412:347,1,154.000004699707
391,123,22878,6,0,L|398:200,2,70
320,70,23412,2,0,L|166:56,1,140
180,57,23932,1,0,0:0:0:0:
104,106,24105,6,0,L|111:183,1,70
194,210,24452,2,0,L|187:279,1,70
180,370,24799,6,0,L|33:381,2,140
262,331,25666,5,0,0:0:0:0:
344,292,25839,2,0,L|413:298,1,70
495,259,26211,6,0,L|482:119,1,140
482,119,26908,6,0,L|342:131,1,140
342,131,27606,6,0,L|188:117,2,154.000004699707
388,211,28478,1,0,0:0:0:0:
344,292,28652,2,0,L|267:285,1,77.0000023498536
229,202,29001,6,0,L|75:188,2,154.000004699707
267,285,29873,1,0,0:0:0:0:
305,368,30048,2,0,L|381:374,1,77.0000023498536
473,383,30397,6,0,P|505:316|474:248,1,154.000004699707
388,211,30920,1,0,0:0:0:0:
463,153,31094,6,0,L|456:76,1,77.0000023498536
389,11,31443,2,0,L|312:4,1,77.0000023498536
244,69,31792,6,0,L|90:82,2,154.000004699707
244,69,32664,1,0,0:0:0:0:
259,159,32838,2,0,L|265:235,1,77.0000023498536
197,297,33187,6,0,P|123:305|75:249,1,154.000004699707
75,249,33711,1,0,0:0:0:0:
97,159,33885,2,0,L|90:82,1,77.0000023498536
143,6,34234,2,0,L|219:0,1,77.0000023498536
296,52,34583,6,0,L|302:128,1,77.0000023498536
264,212,34931,2,0,L|277:365,1,154.000004699707
277,365,35455,1,0,0:0:0:0:
359,321,35629,2,0,L|435:314,1,77.0000023498536
478,232,35978,6,0,P|489:194|386:154,1,154.000004699707
407,140,36501,1,0,0:0:0:0:
340,205,36676,2,0,L|263:211,1,77.0000023498536
185,163,37024,2,0,L|108:156,1,77.0000023498536
45,87,37373,6,0,P|19:125|69:241,2,154.000004699707
108,156,38245,1,0,0:0:0:0:
137,243,38420,2,0,L|130:319,1,77.0000023498536
222,312,38769,6,0,L|375:298,1,154.000004699707
375,298,39292,1,0,0:0:0:0:
456,254,39466,2,0,P|474:216|457:158,1,77.0000023498536
399,123,39815,2,0,P|357:126|315:170,1,77.0000023498536
263,211,40164,6,0,L|110:225,2,154.000004699707
263,211,41036,1,0,0:0:0:0:
329,145,41211,2,0,P|349:113|351:75,1,77.0000023498536
282,14,41559,6,0,L|129:28,1,154.000004699707
36,41,42083,1,0,0:0:0:0:
43,70,42170,1,0,0:0:0:0:
50,99,42257,2,0,L|43:175,1,77.0000023498536
117,231,42606,2,0,L|124:307,1,77.0000023498536
149,322,42868,1,0,0:0:0:0:
174,338,42955,6,0,L|250:330,1,77.0000023498536
328,281,43304,2,0,L|481:295,2,154.000004699707
264,213,44176,1,0,0:0:0:0:
331,149,44350,6,0,L|324:73,1,77.0000023498536
390,8,44699,1,0,0:0:0:0:
390,8,44873,1,0,0:0:0:0:
458,70,45048,6,0,L|465:146,1,77.0000023498536
446,171,45309,1,0,0:0:0:0:
427,196,45397,2,0,L|420:272,1,77.0000023498536
328,281,45745,6,0,L|143:297,1,167.999994873047
160,295,46269,1,0,0:0:0:0:
76,257,46443,2,0,P|59:210|72:154,1,83.9999974365235
117,102,46792,2,0,P|78:86|36:88,1,83.9999974365235
153,186,47141,6,0,P|194:188|233:172,1,83.9999974365235
293,101,47490,2,0,P|334:98|373:114,1,83.9999974365235
427,196,47838,5,0,0:0:0:0:
427,196,48013,1,0,0:0:0:0:
495,134,48187,1,0,0:0:0:0:
498,113,48274,1,0,0:0:0:0:
497,92,48361,1,0,0:0:0:0:
491,72,48448,1,0,0:0:0:0:
481,53,48536,6,0,L|394:45,1,83.9999974365235
327,106,48885,2,0,L|243:113,1,83.9999974365235
159,74,49234,2,0,P|152:133|178:182,1,83.9999974365235
238,207,49583,2,0,P|245:266|219:315,1,83.9999974365235
161,340,49931,5,0,0:0:0:0:
161,340,50106,1,0,0:0:0:0:
83,289,50280,2,0,P|73:248|82:207,1,83.9999974365235
159,155,50629,2,0,P|167:114|158:73,1,83.9999974365235
235,21,50978,2,0,L|319:14,1,83.9999974365235
341,32,51240,1,0,0:0:0:0:
363,50,51327,6,0,L|370:134,1,83.9999974365235
293,185,51676,2,0,L|286:269,1,83.9999974365235
309,286,51937,1,0,0:0:0:0:
332,304,52024,6,0,L|416:311,1,83.9999974365235
485,249,52373,2,0,P|499:191|486:147,1,83.9999974365235
449,86,52722,6,0,L|442:2,2,83.9999974365235
369,133,53245,1,0,0:0:0:0:
318,55,53420,2,0,L|234:48,1,83.9999974365235
141,40,53769,1,0,0:0:0:0:
134,59,53856,1,0,0:0:0:0:
132,80,53943,1,0,0:0:0:0:
134,101,54030,1,0,0:0:0:0:
141,121,54117,6,0,P|149:162|140:203,1,83.9999974365235
72,266,54466,1,0,0:0:0:0:
72,266,54641,1,0,0:0:0:0:
103,352,54815,6,0,P|143:360|184:352,1,83.9999974365235
247,284,55164,2,0,P|287:275|328:283,1,83.9999974365235
392,353,55513,1,0,0:0:0:0:
392,353,55688,1,0,0:0:0:0:
478,322,55862,6,0,P|486:282|478:241,1,83.9999974365235
429,161,56211,2,0,L|345:154,1,83.9999974365235
253,146,56559,2,0,L|169:139,1,83.9999974365235
307,70,56908,5,0,0:0:0:0:
307,70,57082,1,0,0:0:0:0:
345,154,57257,2,0,L|338:238,1,83.9999974365235
245,357,57606,6,0,L|238:273,1,83.9999974365235
169,139,57955,2,0,L|162:223,1,83.9999974365235
111,300,58304,6,0,P|80:271|68:231,1,83.9999974365235
76,139,58652,2,0,L|83:55,1,83.9999974365235
166,14,59001,1,0,0:0:0:0:
166,14,59176,1,0,0:0:0:0:
236,73,59350,1,0,0:0:0:0:
256,74,59437,1,0,0:0:0:0:
277,76,59524,1,0,0:0:0:0:
298,78,59611,1,0,0:0:0:0:
319,79,59699,6,0,P|349:107|361:146,1,83.9999974365235
305,220,60048,2,0,P|274:248|262:287,1,83.9999974365235
317,361,60397,2,0,L|401:368,1,83.9999974365235
453,292,60745,1,0,0:0:0:0:
453,292,60920,1,0,0:0:0:0:
404,214,61094,6,0,P|373:185|361:146,1,83.9999974365235
298,78,61443,2,0,L|214:85,1,83.9999974365235
133,129,61792,2,0,L|57:122,3,41.9999987182618
63,144,62141,2,0,L|70:228,1,83.9999974365235
95,248,62402,1,0,0:0:0:0:
121,269,62490,6,0,L|114:353,1,83.9999974365235
