osu file format v14

[General]
AudioFilename: audio.mp3
AudioLeadIn: 0
PreviewTime: 11851
Countdown: 0
SampleSet: None
StackLeniency: 0.2
Mode: 0
LetterboxInBreaks: 0
WidescreenStoryboard: 0

[Editor]
DistanceSpacing: 1.2
BeatDivisor: 4
GridSize: 4
TimelineZoom: 1.7

[Metadata]
Title:Aleph-Zero
TitleUnicode:ℵ0
Artist:LeaF
ArtistUnicode:LeaF
Creator:GiantZarz
Version:Alpha
Source:
Tags:
BeatmapID:1716127
BeatmapSetID:818455

[Difficulty]
HPDrainRate:7
CircleSize:4.4
OverallDifficulty:9
ApproachRate:10
SliderMultiplier:1.8
SliderTickRate:1

[Events]
//Background and Video events
0,0,"machinetop_background.jpg",0,0
//Break Periods
2,28251,40982
2,80309,81280
//Storyboard Layer 0 (Background)
//Storyboard Layer 1 (Fail)
//Storyboard Layer 2 (Pass)
//Storyboard Layer 3 (Foreground)
//Storyboard Sound Samples

[TimingPoints]
9091,240,4,1,0,100,1,0
12451,-200,4,1,0,100,0,0
13171,-50,4,1,0,100,0,0
13291,-50,4,1,0,5,0,0
13411,-100,4,1,0,100,0,0
14371,-400,4,1,0,100,0,0
14551,-400,4,1,0,5,0,0
14611,-100,4,1,0,100,0,0
14851,-50,4,1,0,100,0,0
15331,-100,4,1,0,100,0,0
16291,-200,4,1,0,100,0,0
17251,-100,4,1,0,100,0,0
18211,-400,4,1,0,5,0,0
19171,-83.3333333333333,4,1,0,100,0,0
20131,-200,4,1,0,100,0,0
20731,-100,4,1,0,5,0,0
20851,-50,4,1,0,100,0,0
21091,-100,4,1,0,100,0,0
22051,-400,4,1,0,100,0,0
22231,-400,4,1,0,5,0,0
22291,-100,4,1,0,100,0,0
22531,-50,4,1,0,100,0,0
23011,-100,4,1,0,100,0,0
23971,-200,4,1,0,100,0,0
24691,-50,4,1,0,100,0,0
24931,-100,4,1,0,100,0,0
25891,-400,4,1,0,100,0,0
26311,-400,4,1,0,5,0,0
26371,-50,4,1,0,100,0,0
26611,-50,4,1,0,5,0,0
47071,240,4,1,0,100,1,0
47071,-133.333333333333,4,1,0,100,0,0
47090,239.043824701195,4,1,0,100,1,0
47330,238.095238095238,4,1,0,100,1,0
47569,237.154150197628,4,1,0,100,1,0
47807,236.220472440945,4,1,0,100,1,0
48044,235.294117647059,4,1,0,100,1,0
48280,234.375,4,1,0,100,1,0
48515,233.463035019455,4,1,0,100,1,0
48749,232.558139534884,4,1,0,100,1,0
48982,231.660231660232,4,1,0,100,1,0
49215,230.769230769231,4,1,0,100,1,0
49446,229.885057471264,4,1,0,100,1,0
49677,229.007633587786,4,1,0,100,1,0
49906,228.136882129278,4,1,0,100,1,0
50136,227.272727272727,4,1,0,100,1,0
50363,226.415094339623,4,1,0,100,1,0
50591,225.563909774436,4,1,0,100,1,0
50816,224.719101123595,4,1,0,100,1,0
51043,223.880597014925,4,1,0,100,1,0
51266,223.048327137546,4,1,0,100,1,0
51491,222.222222222222,4,1,0,100,1,0
51713,221.40221402214,4,1,0,100,1,0
51935,220.588235294118,4,1,0,100,1,0
52156,219.78021978022,4,1,0,100,1,0
52377,218.978102189781,4,1,0,100,1,0
52596,218.181818181818,4,1,0,100,1,0
52815,217.391304347826,4,1,0,100,1,0
53033,216.606498194946,4,1,0,100,1,0
53250,215.827338129496,4,1,0,100,1,0
53467,215.05376344086,4,1,0,100,1,0
53682,214.285714285714,4,1,0,100,1,0
53898,213.523131672598,4,1,0,100,1,0
54111,212.765957446809,4,1,0,100,1,0
54326,212.014134275618,4,1,0,100,1,0
54537,211.267605633803,4,1,0,100,1,0
54751,210.526315789474,4,1,0,100,1,0
54960,209.79020979021,4,1,0,100,1,0
55173,209.059233449477,4,1,0,100,1,0
55380,208.333333333333,4,1,0,100,1,0
55592,207.612456747405,4,1,0,100,1,0
55797,206.896551724138,4,1,0,100,1,0
56008,206.185567010309,4,1,0,100,1,0
56211,205.479452054795,4,1,0,100,1,0
56421,204.778156996587,4,1,0,100,1,0
56622,204.081632653061,4,1,0,100,1,0
56831,203.389830508475,4,1,0,100,1,0
57031,202.702702702703,4,1,0,100,1,0
57238,202.020202020202,4,1,0,100,1,0
57437,201.342281879195,4,1,0,100,1,0
57643,200.66889632107,4,1,0,100,1,0
57840,200,4,1,0,100,1,0
58045,199.335548172757,4,1,0,100,1,0
58241,198.675496688742,4,1,0,100,1,0
58444,198.019801980198,4,1,0,100,1,0
58639,197.368421052632,4,1,0,100,1,0
58841,196.72131147541,4,1,0,100,1,0
59034,196.078431372549,4,1,0,100,1,0
59235,195.439739413681,4,1,0,100,1,0
59427,194.805194805195,4,1,0,100,1,0
59626,194.174757281553,4,1,0,100,1,0
59817,193.548387096774,4,1,0,100,1,0
60015,192.926045016077,4,1,0,100,1,0
60205,192.307692307692,4,1,0,100,1,0
60401,191.693290734824,4,1,0,100,1,0
60590,191.082802547771,4,1,0,100,1,0
60785,190.47619047619,4,1,0,100,1,0
60973,189.873417721519,4,1,0,100,1,0
61166,189.274447949527,4,1,0,100,1,0
61353,188.679245283019,4,1,0,100,1,0
61545,188.087774294671,4,1,0,100,1,0
61731,187.5,4,1,0,100,1,0
61921,186.915887850467,4,1,0,100,1,0
62107,186.335403726708,4,1,0,100,1,0
62293,185.758513931889,4,1,0,100,1,0
62478,185.185185185185,4,1,0,100,1,0
62663,184.615384615385,4,1,0,100,1,0
62847,184.049079754601,4,1,0,100,1,0
63031,183.48623853211,4,1,0,100,1,0
63214,182.926829268293,4,1,0,100,1,0
63396,182.370820668693,4,1,0,100,1,0
63578,181.818181818182,4,1,0,100,1,0
63759,181.268882175227,4,1,0,100,1,0
63940,180.722891566265,4,1,0,100,1,0
64120,180.18018018018,4,1,0,100,1,0
64301,179.640718562874,4,1,0,100,1,0
64481,179.10447761194,4,1,0,100,1,0
64660,178.571428571429,4,1,0,100,1,0
64838,178.041543026706,4,1,0,100,1,0
65016,177.514792899408,4,1,0,100,1,0
65193,176.991150442478,4,1,0,100,1,0
65369,176.470588235294,4,1,0,100,1,0
65546,175.953079178886,4,1,0,100,1,0
65722,175.438596491228,4,1,0,100,1,0
65898,174.927113702624,4,1,0,100,1,0
66073,174.418604651163,4,1,0,100,1,0
66248,173.913043478261,4,1,0,100,1,0
66422,173.410404624277,4,1,0,100,1,0
66596,172.910662824207,4,1,0,100,1,0
66769,172.413793103448,4,1,0,100,1,0
66942,171.919770773639,4,1,0,100,1,0
67114,171.428571428571,4,1,0,100,1,0
67286,170.940170940171,4,1,0,100,1,0
67457,170.454545454545,4,1,0,100,1,0
67628,169.971671388102,4,1,0,100,1,0
67798,169.491525423729,4,1,0,100,1,0
67968,169.014084507042,4,1,0,100,1,0
68137,168.539325842697,4,1,0,100,1,0
68307,168.067226890756,4,1,0,100,1,0
68475,167.597765363129,4,1,0,100,1,0
68644,167.130919220056,4,1,0,100,1,0
68811,166.666666666667,4,1,0,100,1,0
68979,166.204986149584,4,1,0,100,1,0
69145,165.745856353591,4,1,0,100,1,0
69312,165.289256198347,4,1,0,100,1,0
69477,164.835164835165,4,1,0,100,1,0
69643,164.383561643836,4,1,0,100,1,0
69808,163.934426229508,4,1,0,100,1,0
69972,163.487738419619,4,1,0,100,1,0
70136,163.04347826087,4,1,0,100,1,0
70299,162.60162601626,4,1,0,100,1,0
70463,162.162162162162,4,1,0,100,1,0
70625,161.725067385445,4,1,0,100,1,0
70788,161.290322580645,4,1,0,100,1,0
70949,160.857908847185,4,1,0,100,1,0
71111,160.427807486631,4,1,0,100,1,0
71271,160,4,1,0,100,1,0
71432,159.574468085106,4,1,0,100,1,0
71592,159.151193633952,4,1,0,100,1,0
71752,158.730158730159,4,1,0,100,1,0
71911,158.311345646438,4,1,0,100,1,0
72070,157.894736842105,4,1,0,100,1,0
72228,157.48031496063,4,1,0,100,1,0
72386,157.068062827225,4,1,0,100,1,0
72543,156.657963446475,4,1,0,100,1,0
72701,156.25,4,1,0,100,1,0
72857,155.844155844156,4,1,0,100,1,0
73014,155.440414507772,4,1,0,100,1,0
73169,155.038759689922,4,1,0,100,1,0
73325,154.639175257732,4,1,0,100,1,0
73480,154.241645244216,4,1,0,100,1,0
73635,153.846153846154,4,1,0,100,1,0
73789,153.452685421995,4,1,0,100,1,0
73942,153.061224489796,4,1,0,100,1,0
74095,152.671755725191,4,1,0,100,1,0
74248,152.284263959391,4,1,0,100,1,0
74401,151.898734177215,4,1,0,100,1,0
74553,151.515151515152,4,1,0,100,1,0
74705,151.133501259446,4,1,0,100,1,0
74857,150.753768844221,4,1,0,100,1,0
75008,150.375939849624,4,1,0,100,1,0
75159,150,4,1,0,100,1,0
75309,300,4,1,0,100,1,0
75309,-400,4,1,0,100,0,0
77709,150,4,1,0,100,1,0
81309,240,4,1,0,100,1,0
81789,960,4,1,0,100,1,0
82029,240,4,1,0,100,1,0
82749,960,4,1,0,100,1,0
83949,240,4,1,0,100,1,0
84669,960,4,1,0,100,1,0
85149,240,4,1,0,100,1,0
86589,960,4,1,0,100,1,0
87789,240,4,1,0,100,1,0
88509,960,4,1,0,100,1,0
88989,240,4,1,0,100,1,0
89709,960,4,1,0,100,1,0
93549,-100,4,1,0,50,0,0
108909,240,4,1,0,100,1,0
108909,-50,4,1,0,100,0,0
110829,960,4,1,0,100,1,0
110829,-66.6666666666667,4,1,0,100,0,0
111789,240,4,1,0,100,1,0
111789,-50,4,1,0,100,0,0
115629,960,4,1,0,100,1,0
115629,-66.6666666666667,4,1,0,100,0,0
116589,240,4,1,0,100,1,0
116589,-50,4,1,0,100,0,0
118509,960,4,1,0,100,1,0
118509,-66.6666666666667,4,1,0,100,0,0
119469,240,4,1,0,100,1,0
119469,-50,4,1,0,100,0,0
123309,960,4,1,0,100,1,0
124269,1920,4,1,0,100,1,0
124269,-68.4931506849315,4,1,0,100,0,0

[Colours]
Combo1 : 169,204,243
Combo2 : 51,148,155
Combo3 : 112,168,55
Combo4 : 40,240,231

[HitObjects]
48,56,9091,6,0,B|112:80|112:80|172:48,1,135
236,88,9331,1,0,0:3:0:0:
257,88,9391,1,0,0:3:0:0:
280,88,9451,1,0,0:3:0:0:
302,88,9511,1,0,0:3:0:0:
324,88,9571,2,0,P|368:80|392:32,1,90
400,168,9811,1,0,0:0:0:0:
264,8,9931,1,0,0:0:0:0:
468,112,10051,6,4,B|512:104|512:104|524:48,1,90,0|0,0:0|0:0,0:0:0:0:
256,32,10291,2,4,B|212:40|212:40|200:96,1,90,0|0,0:0|0:0,0:0:0:0:
180,232,10531,2,0,P|192:148|152:128,1,135
104,256,10771,5,0,0:0:0:0:
106,278,10831,1,0,0:0:0:0:
108,300,10891,1,0,0:0:0:0:
111,323,10951,1,0,0:0:0:0:
112,348,11011,2,0,B|88:356|88:356|16:344,1,90
192,240,11251,2,0,L|296:240,1,90
48,100,11491,6,0,B|12:64|12:64|4:12,1,90
128,24,11731,1,0,0:0:0:0:
168,220,11851,1,0,0:0:0:0:
32,332,11971,2,0,L|20:228,1,90
60,116,12211,1,0,0:0:0:0:
64,120,12451,6,0,B|96:112|96:112|128:116|128:116|172:108,1,90
120,340,12811,2,0,B|88:332|88:332|56:336|56:336|12:328,1,90
24,320,13171,6,0,P|16:236|96:296,1,180
256,352,13411,5,0,0:0:0:0:
104,328,13531,1,0,0:0:0:0:
96,240,13651,1,0,0:0:0:0:
244,344,13771,5,0,0:0:0:0:
96,320,13891,2,0,B|68:288|68:288|92:240,1,90
212,76,14131,1,0,0:0:0:0:
172,276,14251,1,0,0:0:0:0:
28,116,14371,6,0,B|40:136|40:136|36:152,1,33.75
24,224,14611,6,0,L|52:220,7,22.5
140,204,14851,6,0,B|256:184|256:184|368:192|368:192|496:160,1,360
488,148,15331,6,0,B|480:184|480:184|492:236,1,90
256,352,15571,1,0,0:0:0:0:
364,112,15691,1,0,0:0:0:0:
464,328,15811,2,0,B|432:348|432:348|368:336,1,90
196,288,16051,1,0,0:0:0:0:
260,100,16171,1,0,0:0:0:0:
368,336,16291,6,0,B|332:332|332:332|276:344,1,90
92,288,16651,6,0,L|88:304,8,11.25
0,376,17011,6,0,L|48:368,1,45
288,296,17251,5,0,0:0:0:0:
80,280,17371,1,0,0:0:0:0:
240,228,17491,1,0,0:0:0:0:
408,348,17611,1,0,0:0:0:0:
24,360,17731,2,0,B|4:320|4:320|8:264,1,90
396,244,17971,2,0,B|416:284|416:284|412:340,1,90
308,112,18211,6,0,L|288:112,1,11.25
328,128,18331,2,0,B|348:160|348:160|332:196,1,67.5
328,200,19171,6,0,B|264:192|264:192|188:224,1,107.999996704102
48,352,19411,1,0,0:0:0:0:
320,324,19531,1,0,0:0:0:0:
132,132,19651,2,0,B|112:120|112:120|96:88|96:88|40:56,1,107.999996704102
380,132,19891,2,0,B|400:120|400:120|416:88|416:88|472:56,1,107.999996704102
196,56,20131,6,0,B|244:60|244:60|284:36,1,90
116,152,20491,2,0,B|68:148|68:148|36:168|40:204,1,112.5
64,232,20851,6,0,B|78:261|78:261|160:168|160:168|100:157,1,180
48,332,21091,5,0,0:0:0:0:
232,248,21211,1,0,0:0:0:0:
116,152,21331,1,0,0:0:0:0:
256,356,21451,1,0,0:0:0:0:
396,260,21571,2,0,B|404:220|404:220|388:168,1,90
109,64,21811,2,0,B|101:104|101:104|117:156,1,90
252,340,22051,6,0,L|256:304,1,33.75
408,200,22291,6,0,L|404:232,7,22.5
424,80,22531,6,0,B|432:12|432:12|240:116|240:116|328:136,1,360
328,136,23011,6,0,B|336:88|336:88|308:48,1,90
40,20,23251,2,0,B|32:68|32:68|60:108,1,90
268,216,23491,1,0,0:0:0:0:
296,32,23611,1,0,0:0:0:0:
72,224,23731,2,0,L|84:328,1,90
356,136,23971,6,0,B|408:148|408:148|448:180,1,90
80,208,24331,2,0,B|108:185|108:185|160:173,1,90
172,172,24691,6,0,B|268:188|268:188|200:256,1,180
40,108,24931,5,0,0:0:0:0:
336,96,25051,1,0,0:0:0:0:
160,184,25171,1,0,0:0:0:0:
264,52,25291,1,0,0:0:0:0:
296,320,25411,1,0,0:0:0:0:
52,200,25531,1,0,0:0:0:0:
404,232,25651,2,0,P|428:276|428:320,1,90
60,208,25891,6,0,P|84:168|72:136,1,78.75
64,132,26371,6,0,B|24:200|24:200|24:328|108:388|228:348,1,360
256,192,26851,12,0,28051,0:0:0:0:
256,192,41491,12,0,47011,0:0:0:0:
140,108,47090,6,0,P|184:80|304:116,1,180
360,204,47449,1,0,0:0:0:0:
360,204,47568,2,0,P|380:152|420:120,1,90,0|0,0:0|2:0,0:0:0:0:
456,212,47806,2,0,P|472:272|456:320,1,90,0|0,0:0|2:0,0:0:0:0:
48,344,48043,5,0,0:0:0:0:
156,328,48161,1,0,0:0:0:0:
48,324,48279,1,0,0:0:0:0:
152,348,48397,1,0,0:0:0:0:
52,304,48514,2,0,P|72:260|68:200,1,90
48,112,48748,2,0,P|112:124|144:104,1,90
208,32,48981,5,0,0:0:0:0:
208,32,49097,2,0,L|208:136,1,90
316,108,49330,5,0,0:0:0:0:
316,108,49445,2,0,L|386:184,1,90
420,72,49675,2,0,L|523:75,1,90
480,180,49906,5,0,0:0:0:0:
292,268,50134,1,0,0:0:0:0:
480,212,50363,1,0,0:0:0:0:
284,176,50589,1,0,0:0:0:0:
416,120,50816,5,0,0:0:0:0:
416,120,50928,2,0,P|380:80|344:76,1,90
240,104,51154,1,0,0:0:0:0:
240,104,51266,2,0,P|160:124|88:64,1,180
448,40,51713,5,0,0:0:0:0:
448,40,51823,1,0,0:0:0:0:
448,40,51934,1,0,0:0:0:0:
448,40,52045,2,0,L|456:144,1,90
448,276,52375,1,0,0:0:0:0:
192,324,52595,5,0,0:0:0:0:
192,324,52705,2,0,P|232:288|340:336,1,180
436,284,53032,2,0,B|372:224|372:224|360:120,1,180
164,72,53465,5,0,0:0:0:0:
340,124,53682,1,0,0:0:0:0:
172,192,53896,1,0,0:0:0:0:
292,40,54111,1,0,0:0:0:0:
340,232,54323,5,0,0:0:0:0:
340,232,54432,2,0,P|364:284|352:328,1,90
264,268,54642,1,0,0:0:0:0:
264,268,54748,2,0,P|176:272|100:372,1,180
68,116,55169,5,0,0:0:0:0:
68,116,55277,2,0,B|136:80|136:80|248:96,1,180
308,176,55588,2,0,P|360:140|344:32,1,180
88,248,56003,5,0,0:0:0:0:
88,248,56111,2,0,L|80:352,1,90
204,288,56313,1,0,0:0:0:0:
204,288,56416,2,0,P|284:252|384:300,1,180
52,120,56826,5,0,0:0:0:0:
464,248,57031,1,0,0:0:0:0:
48,248,57233,1,0,0:0:0:0:
460,120,57437,1,0,0:0:0:0:
72,68,57638,5,0,0:0:0:0:
72,68,57743,2,0,B|124:60|124:60|192:76,1,90
176,264,57940,1,0,0:0:0:0:
176,264,58040,2,0,P|116:248|104:136,1,180
440,48,58439,5,0,0:0:0:0:
312,72,58543,2,0,L|408:68,1,90
312,344,58737,1,0,0:0:0:0:
452,244,58836,2,0,P|448:304|336:352,1,180
96,88,59230,5,0,0:0:0:0:
64,268,59332,2,0,P|36:224|44:180,1,90
216,340,59524,1,0,0:0:0:0:
216,80,59621,2,0,L|216:280,1,180
472,40,60010,5,0,0:0:0:0:
76,344,60205,1,0,0:0:0:0:
436,344,60397,1,0,0:0:0:0:
180,72,60590,1,0,0:0:0:0:
448,56,60781,5,0,0:0:0:0:
244,188,60880,2,0,P|188:152|128:156,1,90
248,328,61067,1,0,0:0:0:0:
336,112,61162,2,0,P|360:152|360:216,1,90
48,176,61353,1,0,0:0:0:0:
44,184,61541,5,0,0:0:0:0:
136,56,61639,2,0,L|240:48,1,90
40,288,61824,1,0,0:0:0:0:
328,292,61918,2,0,L|224:284,1,90
47,48,62107,2,0,P|115:48|163:72,1,90
416,299,62293,5,0,0:0:0:0:
416,299,62385,2,0,P|348:299|300:275,1,90
64,152,62570,1,0,0:0:0:0:
160,288,62663,2,0,B|104:244|104:244|172:212|160:136,1,180
153,157,63031,6,0,L|63:151,1,90
372,64,63214,2,0,L|461:58,1,90
147,67,63396,2,0,L|152:156,1,90
416,299,63578,2,0,L|421:209,1,90
380,80,63759,5,0,0:0:0:0:
208,248,63849,2,0,L|304:244,1,90
104,148,64030,1,0,0:0:0:0:
304,344,64120,2,0,L|208:340,1,90
332,76,64300,2,0,L|419:55,1,90
164,160,64480,1,0,0:0:0:0:
332,68,64570,1,0,0:0:0:0:
140,280,64660,2,0,P|68:236|48:128,2,180
164,160,65193,5,0,0:0:0:0:
336,80,65281,2,0,L|344:188,1,90
160,44,65457,1,0,0:0:0:0:
72,336,65545,2,0,B|24:264|24:264|64:148,1,180
68,168,65897,6,0,L|176:164,1,90
444,216,66072,2,0,L|354:212,1,90
16,84,66247,2,0,L|124:80,1,90
496,300,66421,2,0,L|406:296,1,90
196,344,66595,5,0,0:0:0:0:
84,343,66682,1,0,0:0:0:0:
30,246,66768,1,0,0:0:0:0:
88,151,66855,1,0,0:0:0:0:
200,156,66941,2,0,B|152:188|152:188|148:260,1,90
361,220,67113,2,0,B|360:188|360:188|311:156,1,90
328,300,67285,5,0,0:0:0:0:
421,360,67371,1,0,0:0:0:0:
512,307,67456,1,0,0:0:0:0:
512,196,67542,1,0,0:0:0:0:
422,142,67627,1,0,0:0:0:0:
324,194,67712,1,0,0:0:0:0:
237,126,67797,1,0,0:0:0:0:
264,18,67882,1,0,0:0:0:0:
373,0,67967,5,0,0:0:0:0:
479,42,68052,2,0,L|492:232,1,180
32,341,68305,2,0,L|20:128,1,180
124,48,68642,6,0,P|116:96|132:144,1,90
400,60,68811,2,0,P|352:52|304:68,1,90
388,336,68977,2,0,P|396:288|380:240,1,90
112,324,69145,2,0,P|160:332|208:316,1,90
384,160,69310,5,0,0:0:0:0:
300,234,69394,1,0,0:0:0:0:
193,202,69477,1,0,0:0:0:0:
166,94,69559,1,0,0:0:0:0:
245,14,69641,1,0,0:0:0:0:
353,40,69725,5,0,0:0:0:0:
455,69,69807,2,0,P|500:48|508:-4,1,90
104,40,69971,5,0,0:0:0:0:
8,102,70053,1,0,0:0:0:0:
284,120,70135,2,0,L|92:116,2,180
412,40,70625,5,0,0:0:0:0:
468,139,70705,1,0,0:0:0:0:
356,144,70786,1,0,0:0:0:0:
304,240,70868,1,0,0:0:0:0:
360,339,70949,2,0,P|432:280|384:184,1,180
48,52,71271,6,0,P|92:32|136:32,1,90
464,332,71431,2,0,P|420:352|376:352,1,90
396,0,71591,2,0,P|416:28|416:72,1,90
116,400,71751,2,0,P|96:356|96:312,1,90
344,112,71910,5,0,0:0:0:0:
168,112,71990,1,0,0:0:0:0:
344,112,72069,1,0,0:0:0:0:
168,112,72148,1,0,0:0:0:0:
256,40,72227,1,0,0:0:0:0:
100,296,72385,5,0,0:0:0:0:
412,296,72464,1,0,0:0:0:0:
100,296,72543,1,0,0:0:0:0:
412,296,72621,1,0,0:0:0:0:
256,360,72699,1,0,0:0:0:0:
376,72,72857,5,0,0:0:0:0:
136,72,72934,1,0,0:0:0:0:
136,312,73012,1,0,0:0:0:0:
376,312,73091,1,0,0:0:0:0:
256,192,73169,1,0,0:0:0:0:
256,192,73324,5,0,0:0:0:0:
444,28,73402,1,0,0:0:0:0:
420,380,73479,1,0,0:0:0:0:
68,356,73557,1,0,0:0:0:0:
92,4,73634,1,0,0:0:0:0:
64,116,73788,5,0,0:0:0:0:
312,56,73865,1,0,0:0:0:0:
64,116,73942,1,0,0:0:0:0:
312,56,74018,1,0,0:0:0:0:
64,116,74095,1,0,0:0:0:0:
448,268,74247,5,0,0:0:0:0:
200,328,74324,1,0,0:0:0:0:
448,268,74400,1,0,0:0:0:0:
200,328,74476,1,0,0:0:0:0:
448,268,74553,1,0,0:0:0:0:
76,328,74705,5,0,0:0:0:0:
64,128,74780,1,0,0:0:0:0:
164,360,74857,5,0,0:0:0:0:
164,132,74932,1,0,0:0:0:0:
256,384,75007,5,0,0:0:0:0:
256,104,75083,1,0,0:0:0:0:
348,360,75159,5,0,0:0:0:0:
348,132,75234,1,0,0:0:0:0:
440,324,75309,6,0,B|443:255|443:255|444:240|444:240|446:216|446:216|443:262|443:262|447:189|447:189|445:225|445:225|450:135,1,348.75
396,44,77709,5,0,0:0:0:0:
356,23,77784,1,0,0:0:0:0:
311,24,77859,1,0,0:0:0:0:
273,46,77934,1,0,0:0:0:0:
249,84,78009,1,0,0:0:0:0:
247,128,78084,1,0,0:0:0:0:
205,104,78159,5,0,0:0:0:0:
163,90,78234,1,0,0:0:0:0:
118,91,78309,1,0,0:0:0:0:
76,107,78384,1,0,0:0:0:0:
41,135,78459,1,0,0:0:0:0:
17,173,78534,1,0,0:0:0:0:
7,217,78609,5,0,0:0:0:0:
16,218,78684,1,0,0:0:0:0:
25,219,78759,1,0,0:0:0:0:
34,220,78834,1,0,0:0:0:0:
43,219,78909,1,0,0:0:0:0:
52,218,78984,1,0,0:0:0:0:
61,216,79059,1,0,0:0:0:0:
70,214,79134,1,0,0:0:0:0:
78,211,79209,1,0,0:0:0:0:
86,207,79284,1,0,0:0:0:0:
94,203,79359,1,0,0:0:0:0:
102,198,79434,1,0,0:0:0:0:
109,193,79509,1,0,0:0:0:0:
116,187,79584,1,0,0:0:0:0:
122,181,79659,1,0,0:0:0:0:
128,174,79734,1,0,0:0:0:0:
133,167,79809,1,0,0:0:0:0:
138,159,79884,1,0,0:0:0:0:
142,151,79959,1,0,0:0:0:0:
146,143,80034,1,0,0:0:0:0:
149,134,80109,1,0,0:0:0:0:
152,128,81789,6,0,L|192:124,1,22.5
20,112,82029,6,0,B|-4:72|-4:72|4:20,1,90
160,116,82269,1,0,0:0:0:0:
88,300,82389,2,0,B|64:340|64:340|72:392,1,90
256,344,82629,1,0,0:0:0:0:
320,148,82749,6,0,P|228:136|176:196,1,180
175,196,83949,6,0,P|200:156|248:132,1,90
396,288,84189,1,0,0:0:0:0:
440,16,84309,2,0,L|452:116,1,90
296,340,84549,1,0,0:0:0:0:
100,188,84669,6,0,P|128:204|176:200,1,67.5
162,204,85149,6,0,P|100:188|72:140,1,90
188,44,85389,1,0,0:0:0:0:
392,292,85509,2,0,P|454:308|482:356,1,90
148,340,85749,1,0,0:0:0:0:
380,144,85869,2,0,L|484:128,1,90
380,308,86109,1,0,0:0:0:0:
84,170,86229,2,0,L|88:70,1,90
384,8,86469,1,0,0:0:0:0:
376,328,86589,6,0,P|276:340|200:288,1,180
210,301,87789,6,0,P|266:309|306:301,1,90
256,28,88029,1,0,0:0:0:0:
432,212,88149,2,0,P|376:220|336:212,1,90
44,128,88389,1,0,0:0:0:0:
420,124,88509,6,0,P|464:124|496:144,1,67.5
484,134,88989,5,0,0:0:0:0:
184,260,89109,1,0,0:0:0:0:
356,16,89229,1,0,0:0:0:0:
344,336,89349,1,0,0:0:0:0:
180,108,89469,1,0,0:0:0:0:
480,168,89589,1,0,0:0:0:0:
176,336,89709,6,0,P|116:320|76:224,1,135
176,228,90669,2,0,L|228:232,1,45
268,158,91149,2,0,L|320:154,1,45
384,100,91629,6,0,B|348:108|312:80|312:80|308:100|304:148|332:188|388:196|456:188|460:136|468:96|452:64,1,360
448,68,94029,1,0,0:0:0:0:
432,56,94509,6,0,P|368:56|328:40,1,90
256,24,95469,2,0,P|204:48|284:96,1,180
267,110,96909,1,0,0:0:0:0:
352,80,97389,2,0,P|400:76|488:176,1,180
486,162,98829,1,0,0:0:0:0:
472,268,99309,1,0,0:0:0:0:
396,344,99789,1,0,0:0:0:0:
288,340,100269,1,0,0:0:0:0:
200,276,100749,1,0,0:0:0:0:
256,184,101229,6,0,P|300:232|288:340,1,180
288,339,102669,1,0,0:0:0:0:
200,316,103149,2,0,P|144:316|104:336,1,90
64,252,104109,2,0,P|64:196|44:156,1,90
60,64,105069,6,0,P|104:96|212:40,1,180
208,49,106509,1,0,0:0:0:0:
303,49,106989,2,0,B|368:56|368:56|484:28,1,180
480,28,108429,1,0,0:0:0:0:
477,28,108909,6,0,P|473:96|501:160,1,90
313,324,109029,2,0,P|317:256|289:192,1,90
213,108,109149,2,0,P|281:112|345:84,1,90
509,272,109269,2,0,P|441:268|377:296,1,90
36,28,109389,6,0,P|40:96|12:160,1,90
200,324,109509,2,0,P|196:256|224:192,1,90
300,108,109629,2,0,P|232:112|168:84,1,90
4,272,109749,2,0,P|72:268|136:296,1,90
200,324,109869,5,0,0:0:0:0:
245,365,109929,1,0,0:0:0:0:
307,365,109989,1,0,0:0:0:0:
353,325,110049,1,0,0:0:0:0:
360,264,110109,1,0,0:0:0:0:
325,213,110169,1,0,0:0:0:0:
376,212,110229,5,0,0:0:0:0:
430,181,110289,1,0,0:0:0:0:
453,124,110349,1,0,0:0:0:0:
436,65,110409,1,0,0:0:0:0:
386,29,110469,1,0,0:0:0:0:
324,32,110529,1,0,0:0:0:0:
278,73,110589,5,0,0:0:0:0:
267,134,110649,1,0,0:0:0:0:
297,189,110709,1,0,0:0:0:0:
267,134,110769,1,0,0:0:0:0:
204,128,110829,6,0,B|144:104|92:128|92:128|40:152|-32:104,1,202.500007724762
32,48,111789,6,0,P|68:32|144:28,1,90
480,48,111909,2,0,P|444:32|368:28,1,90
70,214,112029,2,0,P|114:209|156:192,1,90
441,214,112149,2,0,P|397:209|356:191,1,90
168,356,112269,2,0,P|208:296|208:248,1,90
344,356,112389,2,0,P|304:296|304:248,1,90
73,121,112509,2,0,L|160:96,1,90
438,121,112629,2,0,L|352:96,1,90
116,16,112749,5,0,0:0:0:0:
74,62,112809,1,0,0:0:0:0:
72,123,112869,1,0,0:0:0:0:
110,172,112929,1,0,0:0:0:0:
171,185,112989,1,0,0:0:0:0:
225,156,113049,1,0,0:0:0:0:
216,212,113109,1,0,0:0:0:0:
254,260,113169,1,0,0:0:0:0:
314,275,113229,1,0,0:0:0:0:
372,252,113289,1,0,0:0:0:0:
404,199,113349,1,0,0:0:0:0:
398,137,113409,1,0,0:0:0:0:
356,92,113469,1,0,0:0:0:0:
296,80,113529,1,0,0:0:0:0:
257,126,113589,1,0,0:0:0:0:
197,122,113649,1,0,0:0:0:0:
165,71,113709,5,0,0:0:0:0:
108,94,113769,1,0,0:0:0:0:
50,71,113829,1,0,0:0:0:0:
112,74,113889,1,0,0:0:0:0:
156,117,113949,1,0,0:0:0:0:
159,178,114009,1,0,0:0:0:0:
121,226,114069,1,0,0:0:0:0:
60,235,114129,1,0,0:0:0:0:
9,201,114189,5,0,0:0:0:0:
61,167,114249,1,0,0:0:0:0:
123,157,114309,1,0,0:0:0:0:
183,174,114369,1,0,0:0:0:0:
231,214,114429,1,0,0:0:0:0:
195,264,114489,1,0,0:0:0:0:
197,326,114549,1,0,0:0:0:0:
236,374,114609,1,0,0:0:0:0:
296,384,114669,5,0,0:0:0:0:
323,327,114729,1,0,0:0:0:0:
375,294,114789,1,0,0:0:0:0:
437,292,114849,1,0,0:0:0:0:
488,320,114909,1,0,0:0:0:0:
437,282,114969,1,0,0:0:0:0:
406,228,115029,1,0,0:0:0:0:
398,166,115089,1,0,0:0:0:0:
415,106,115149,5,0,0:0:0:0:
397,109,115209,1,0,0:0:0:0:
379,111,115269,1,0,0:0:0:0:
361,114,115329,1,0,0:0:0:0:
344,117,115389,1,0,0:0:0:0:
326,120,115449,1,0,0:0:0:0:
308,123,115509,1,0,0:0:0:0:
290,126,115569,1,0,0:0:0:0:
272,128,115629,6,0,B|208:120|188:60|188:60|120:60|120:60|120:92|144:136,1,236.250009012223
188,184,116589,5,0,0:0:0:0:
240,212,116649,1,0,0:0:0:0:
304,209,116709,1,0,0:0:0:0:
352,170,116769,1,0,0:0:0:0:
372,111,116829,1,0,0:0:0:0:
355,51,116889,1,0,0:0:0:0:
308,11,116949,1,0,0:0:0:0:
246,3,117009,1,0,0:0:0:0:
184,36,117069,5,0,0:0:0:0:
168,97,117129,1,0,0:0:0:0:
113,124,117189,1,0,0:0:0:0:
57,102,117249,1,0,0:0:0:0:
35,45,117309,1,0,0:0:0:0:
63,0,117369,1,0,0:0:0:0:
112,24,117429,1,0,0:0:0:0:
111,86,117489,1,0,0:0:0:0:
112,148,117549,5,0,0:0:0:0:
79,201,117609,1,0,0:0:0:0:
46,255,117669,1,0,0:0:0:0:
109,258,117729,5,0,0:3:0:0:
124,319,117789,1,0,0:3:0:0:
139,380,117849,1,0,0:3:0:0:
181,337,117909,5,0,0:3:0:0:
239,358,117969,1,0,0:3:0:0:
298,380,118029,5,0,0:0:0:0:
288,319,118089,1,0,0:0:0:0:
321,266,118149,1,0,0:0:0:0:
380,248,118209,1,0,0:0:0:0:
436,273,118269,1,0,0:0:0:0:
428,213,118329,1,0,0:0:0:0:
458,159,118389,1,0,0:0:0:0:
448,98,118449,1,0,0:0:0:0:
403,55,118509,6,0,B|372:53|357:18|357:18|305:57|239:-5|194:22|177:70,1,236.250009012223
154,129,119469,5,0,0:0:0:0:
154,67,119529,1,0,0:0:0:0:
116,18,119589,1,0,0:0:0:0:
56,4,119649,1,0,0:0:0:0:
0,31,119709,1,0,0:0:0:0:
0,86,119769,1,0,0:0:0:0:
0,146,119829,1,0,0:0:0:0:
34,185,119889,1,0,0:0:0:0:
96,191,119949,1,0,0:0:0:0:
157,180,120009,1,0,0:0:0:0:
212,207,120069,1,0,0:0:0:0:
239,263,120129,1,0,0:0:0:0:
225,324,120189,1,0,0:0:0:0:
178,363,120249,1,0,0:0:0:0:
116,365,120309,1,0,0:0:0:0:
66,329,120369,1,0,0:0:0:0:
52,268,120429,5,0,0:0:0:0:
112,285,120489,1,0,0:0:0:0:
173,302,120549,1,0,0:0:0:0:
156,245,120609,1,0,0:0:0:0:
218,240,120669,1,0,0:0:0:0:
281,235,120729,1,0,0:0:0:0:
244,182,120789,1,0,0:0:0:0:
301,156,120849,1,0,0:0:0:0:
358,130,120909,1,0,0:0:0:0:
352,190,120969,1,0,0:0:0:0:
316,240,121029,1,0,0:0:0:0:
315,302,121089,1,0,0:0:0:0:
349,354,121149,1,0,0:0:0:0:
406,378,121209,1,0,0:0:0:0:
472,366,121269,1,0,0:0:0:0:
425,324,121329,1,0,0:0:0:0:
366,301,121389,5,0,0:0:0:0:
304,302,121449,1,0,0:0:0:0:
246,326,121509,1,0,0:0:0:0:
200,368,121569,1,0,0:0:0:0:
139,371,121629,1,0,0:0:0:0:
90,333,121689,1,0,0:0:0:0:
76,273,121749,1,0,0:0:0:0:
104,218,121809,1,0,0:0:0:0:
161,194,121869,1,0,0:0:0:0:
220,213,121929,1,0,0:0:0:0:
276,240,121989,1,0,0:0:0:0:
338,233,122049,1,0,0:0:0:0:
387,195,122109,1,0,0:0:0:0:
409,137,122169,1,0,0:0:0:0:
396,76,122229,1,0,0:0:0:0:
353,31,122289,1,0,0:0:0:0:
293,16,122349,5,0,0:0:0:0:
231,22,122409,1,0,0:0:0:0:
183,62,122469,1,0,0:0:0:0:
153,115,122529,1,0,0:0:0:0:
93,121,122589,1,0,0:0:0:0:
53,75,122649,1,0,0:0:0:0:
67,16,122709,1,0,0:0:0:0:
125,1,122769,1,0,0:0:0:0:
187,6,122829,1,0,0:0:0:0:
238,40,122889,1,0,0:0:0:0:
266,96,122949,1,0,0:0:0:0:
263,158,123009,1,0,0:0:0:0:
273,219,123069,1,0,0:0:0:0:
319,261,123129,1,0,0:0:0:0:
380,266,123189,1,0,0:0:0:0:
431,231,123249,1,0,0:0:0:0:
450,172,123309,5,0,0:0:0:0:
442,164,123789,1,0,0:0:0:0:
435,157,124269,6,0,B|410:90|335:96|295:151|295:151|249:20|249:20|229:63|192:71|192:71|242:211|242:211|186:219|186:219|151:317|78:338|-15:285|-32:207|5:149|52:130|105:158|105:158|93:215,1,1051.20002887207,0|0,0:0|0:0,2:0:0:0:
