osu file format v14

[General]
AudioFilename: audio.mp3
AudioLeadIn: 0
PreviewTime: 82032
Countdown: 0
SampleSet: Soft
StackLeniency: 0
Mode: 0
LetterboxInBreaks: 0
EpilepsyWarning: 1
WidescreenStoryboard: 1

[Editor]
Bookmarks: 11610,19170,26850,33707,47061,60763,71913,82032,93552,108912,116592,124272,131952
DistanceSpacing: 0.7
BeatDivisor: 4
GridSize: 8
TimelineZoom: 4.499998

[Metadata]
Title:Aleph-0
TitleUnicode:ℵ0
Artist:LeaF
ArtistUnicode:LeaF
Creator:Yooh
Version:Yooh x Daycore Black Another
Source:osu!
Tags:electronic instrumental bofu2016 zero BMS OF FIGHTERS ULTIMATE 2016 - Legendary Again - ℵ0 leaf-0001 doppelganger c94 comiket 94 diverse system optie fa featured artist mpg mappers' guild daycore null.temptation null temptation
BeatmapID:2823086
BeatmapSetID:1364626

[Difficulty]
HPDrainRate:6
CircleSize:4.2
OverallDifficulty:8.8
ApproachRate:9.2
SliderMultiplier:2
SliderTickRate:0.5

[Events]
//Background and Video events
0,0,"aleph-0.jpg",0,0
Video,903,"alephvid.mp4"
//Break Periods
//Storyboard Layer 0 (Background)
//Storyboard Layer 1 (Fail)
//Storyboard Layer 2 (Pass)
//Storyboard Layer 3 (Foreground)
//Storyboard Layer 4 (Overlay)
//Storyboard Sound Samples

[TimingPoints]
6690,480,5,2,1,50,1,0
6690,-50,5,2,1,50,0,0
7170,-66.6666666666667,5,2,1,50,0,0
7650,-100,5,2,1,50,0,0
8970,-100,5,2,2,5,0,0
9090,-50,5,2,1,70,0,0
9750,-50,5,2,2,5,0,0
9810,-45.4545454545455,5,2,1,70,0,0
10050,-250,5,2,1,70,0,0
10230,-250,5,2,2,5,0,0
10290,-45.4545454545455,5,2,1,70,0,0
10470,-45.4545454545455,5,2,2,5,0,0
10530,-250,5,2,1,70,0,0
10710,-250,5,2,2,5,0,0
10770,-45.4545454545455,5,2,1,70,0,0
10950,-45.4545454545455,5,2,2,5,0,0
11010,-250,5,2,1,70,0,0
11190,-250,5,2,2,5,0,0
11250,-250,5,2,1,70,0,0
11430,-250,5,2,2,5,0,0
11490,240,4,2,1,60,1,0
11490,-125,4,2,1,60,0,0
14310,-125,4,2,2,5,0,0
14370,-83.3333333333333,4,2,1,60,0,0
14610,-83.3333333333333,4,2,1,60,0,0
14850,-100,4,2,1,60,0,0
15030,-100,4,2,2,5,0,0
15090,-166.666666666667,4,2,1,60,0,0
15330,-125,4,2,1,60,0,0
17970,-100,4,2,1,60,0,0
18150,-100,4,2,2,5,0,0
18210,-33.3333333333333,4,2,1,60,0,0
19170,-111.111111111111,4,2,1,60,0,0
22050,-76.9230769230769,4,2,1,60,0,0
22290,-76.9230769230769,4,2,1,60,0,0
22530,-90.9090909090909,4,2,1,60,0,0
22710,-90.9090909090909,4,2,2,5,0,0
22770,-142.857142857143,4,2,1,60,0,0
23010,-111.111111111111,4,2,1,60,0,0
25890,-166.666666666666,4,2,1,60,0,0
26850,428.571428571429,4,2,3,45,1,0
26850,-66.6666666666667,4,2,3,45,0,0
27707,-153.846153846153,4,2,3,45,0,0
28992,-100,4,2,3,45,0,0
29635,-83.3333333333333,4,2,3,45,0,0
30278,-117.647058823529,4,2,3,45,0,0
30707,-117.647058823529,4,2,3,45,0,0
32421,-100,4,2,3,45,0,0
33064,-83.3333333333333,4,2,3,45,0,0
33600,-83.3333333333333,4,2,3,45,0,0
33707,-111.111111111111,4,2,3,55,0,0
35850,-111.111111111111,4,2,3,55,0,0
37457,-111.111111111111,4,2,2,5,0,0
37564,-111.111111111111,4,2,3,55,0,0
38850,-111.111111111111,4,2,3,60,0,0
39278,-111.111111111111,4,2,3,65,0,0
39707,-111.111111111111,4,2,3,70,0,0
41421,240,1,2,3,80,1,0
46701,-100,1,2,2,5,0,0
46821,-250,1,2,1,80,0,0
47001,-250,1,2,2,5,0,0
47061,240,4,3,1,80,1,0
47061,-117.647058823529,4,3,1,80,0,0
47301,239.043824701195,4,3,1,80,1,0
47301,-117.647058823529,4,3,1,80,0,0
47540,238.095238095238,4,3,1,80,1,0
47778,237.154150197628,4,3,1,80,1,0
47778,-117.647058823529,4,3,1,80,0,0
48015,236.220472440945,4,3,1,80,1,0
48015,-117.647058823529,4,3,1,80,0,0
48252,235.294117647059,4,3,1,80,1,0
48487,234.375,4,3,1,80,1,0
48721,233.463035019455,4,3,1,80,1,0
48896,-100,4,3,2,5,0,0
48955,232.558139534884,4,3,1,80,1,0
49187,231.660231660232,4,3,1,80,1,0
49419,230.769230769231,4,3,1,80,1,0
49650,229.885057471264,4,3,1,80,1,0
49880,229.007633587786,4,3,1,80,1,0
49880,-83.3333333333333,4,3,1,80,0,0
49994,-83.3333333333333,4,3,2,5,0,0
50109,228.136882129278,4,3,1,80,1,0
50109,-76.9230769230769,4,3,1,80,0,0
50223,-76.9230769230769,4,3,2,5,0,0
50337,227.272727272727,4,3,1,80,1,0
50337,-83.3333333333333,4,3,1,80,0,0
50450,-83.3333333333333,4,3,2,5,0,0
50564,226.415094339623,4,3,1,80,1,0
50564,-133.333333333333,4,3,1,80,0,0
50677,-133.333333333333,4,3,2,5,0,0
50790,225.563909774436,4,3,1,80,1,0
50790,-120.481927710843,4,3,1,80,0,0
51016,224.719101123596,4,3,1,80,1,0
51241,223.880597014925,4,3,1,80,1,0
51466,223.048327137546,4,3,1,80,1,0
51689,222.222222222222,4,3,1,80,1,0
51689,-120.481927710843,4,3,1,80,0,0
51911,221.40221402214,4,3,1,80,1,0
52132,220.588235294118,4,3,1,80,1,0
52132,-120.481927710843,4,3,1,80,0,0
52353,219.78021978022,4,3,1,80,1,0
52573,218.978102189781,4,3,1,80,1,0
52792,218.181818181818,4,3,1,80,1,0
53010,217.391304347826,4,3,1,80,1,0
53227,216.606498194946,4,3,1,80,1,0
53444,215.827338129496,4,3,1,80,1,0
53444,-83.3333333333333,4,3,1,80,0,0
53551,-83.3333333333333,4,3,2,5,0,0
53660,215.05376344086,4,3,1,80,1,0
53660,-76.9230769230769,4,3,1,80,0,0
53767,-76.9230769230769,4,3,2,5,0,0
53875,214.285714285714,4,3,1,80,1,0
53875,-83.3333333333333,4,3,1,80,0,0
53982,-83.3333333333333,4,3,2,5,0,0
54089,213.523131672598,4,3,1,80,1,0
54195,-100,4,3,2,5,0,0
54302,212.765957446809,4,3,1,80,1,0
54302,-125,4,3,1,80,0,0
54515,212.014134275618,4,3,1,80,1,0
54727,211.267605633803,4,3,1,80,1,0
54938,210.526315789474,4,3,1,80,1,0
54938,-125,4,3,1,80,0,0
55148,-125,4,3,1,80,0,0
55149,209.79020979021,4,3,1,80,1,0
55359,209.059233449477,4,3,1,80,1,0
55568,208.333333333333,4,3,1,80,1,0
55568,-83.3333333333333,4,3,1,80,0,0
55776,207.612456747405,4,3,1,80,1,0
55777,-83.3333333333333,4,3,1,80,0,0
55984,206.896551724138,4,3,1,80,1,0
56191,206.185567010309,4,3,1,80,1,0
56397,205.479452054795,4,3,1,80,1,0
56602,204.778156996587,4,3,1,80,1,0
56807,204.081632653061,4,3,1,80,1,0
56807,-90.9090909090909,4,3,1,80,0,0
56909,-90.9090909090909,4,3,2,5,0,0
57012,203.389830508475,4,3,1,80,1,0
57012,-83.3333333333333,4,3,1,80,0,0
57113,-83.3333333333333,4,3,2,5,0,0
57216,202.702702702703,4,3,1,80,1,0
57216,-90.9090909090909,4,3,1,80,0,0
57317,-90.9090909090909,4,3,2,5,0,0
57418,202.020202020202,4,3,1,80,1,0
57620,201.342281879195,4,3,1,80,1,0
57620,-133.333333333333,4,3,1,80,0,0
57822,200.66889632107,4,3,1,80,1,0
58022,200,4,3,1,80,1,0
58022,-133.333333333333,4,3,1,80,0,0
58222,199.335548172757,4,3,1,80,1,0
58222,-133.333333333333,4,3,1,80,0,0
58422,198.675496688742,4,3,1,80,1,0
58422,-133.333333333333,4,3,1,80,0,0
58620,198.019801980198,4,3,1,80,1,0
58818,197.368421052632,4,3,1,80,1,0
58818,-133.333333333333,4,3,1,80,0,0
59016,196.72131147541,4,3,1,80,1,0
59212,196.078431372549,4,3,1,80,1,0
59409,195.439739413681,4,3,1,80,1,0
59604,194.805194805195,4,3,1,80,1,0
59799,194.174757281553,4,3,1,80,1,0
59993,193.548387096774,4,3,1,80,1,0
60089,-100,4,3,2,5,0,0
60186,192.926045016077,4,3,1,80,1,0
60282,-100,4,3,2,5,0,0
60379,192.307692307692,4,3,1,80,1,0
60572,191.693290734824,4,3,1,80,1,0
60763,191.082802547771,4,3,1,80,1,0
60954,190.47619047619,4,3,1,80,1,0
61145,189.873417721519,4,3,1,80,1,0
61335,189.274447949527,4,3,1,80,1,0
61524,188.679245283019,4,3,1,80,1,0
61713,188.087774294671,4,3,1,80,1,0
61901,187.5,4,3,1,80,1,0
62088,186.915887850467,4,3,1,80,1,0
62275,186.335403726708,4,3,1,80,1,0
62462,185.758513931889,4,3,1,80,1,0
62647,185.185185185185,4,3,1,80,1,0
62833,184.615384615385,4,3,1,80,1,0
63017,184.049079754601,4,3,1,80,1,0
63017,-83.3333333333333,4,3,1,80,0,0
63109,-83.3333333333333,4,3,2,5,0,0
63201,183.48623853211,4,3,1,80,1,0
63201,-83.3333333333333,4,3,1,80,0,0
63292,-83.3333333333333,4,3,2,5,0,0
63385,182.926829268293,4,3,1,80,1,0
63385,-83.3333333333333,4,3,1,80,0,0
63476,-83.3333333333333,4,3,2,5,0,0
63569,182.370820668693,4,3,1,80,1,0
63569,-83.3333333333333,4,3,1,80,0,0
63660,-83.3333333333333,4,3,2,5,0,0
63751,181.818181818182,4,3,1,80,1,0
63933,181.268882175227,4,3,1,80,1,0
64114,180.722891566265,4,3,1,80,1,0
64295,180.18018018018,4,3,1,80,1,0
64475,179.640718562874,4,3,1,80,1,0
64655,179.10447761194,4,3,1,80,1,0
64834,178.571428571429,4,3,1,80,1,0
65012,178.041543026706,4,3,1,80,1,0
65190,177.514792899408,4,3,1,80,1,0
65368,176.991150442478,4,3,1,80,1,0
65545,176.470588235294,4,3,1,80,1,0
65721,175.953079178886,4,3,1,80,1,0
65897,175.438596491228,4,3,1,80,1,0
65897,-83.3333333333333,4,3,1,80,0,0
65984,-83.3333333333333,4,3,2,5,0,0
66073,174.927113702624,4,3,1,80,1,0
66073,-83.3333333333333,4,3,1,80,0,0
66160,-83.3333333333333,4,3,2,5,0,0
66248,174.418604651163,4,3,1,80,1,0
66248,-83.3333333333333,4,3,1,80,0,0
66335,-83.3333333333333,4,3,2,5,0,0
66422,173.913043478261,4,3,1,80,1,0
66422,-83.3333333333333,4,3,1,80,0,0
66508,-83.3333333333333,4,3,2,5,0,0
66596,173.410404624277,4,3,1,80,1,0
66769,172.910662824208,4,3,1,80,1,0
66942,172.413793103448,4,3,1,80,1,0
67115,171.919770773639,4,3,1,80,1,0
67287,171.428571428571,4,3,1,80,1,0
67458,170.940170940171,4,3,1,80,1,0
67629,170.454545454545,4,3,1,80,1,0
67800,169.971671388102,4,3,1,80,1,0
67970,169.491525423729,4,3,1,80,1,0
68140,169.014084507042,4,3,1,80,1,0
68309,168.539325842697,4,3,1,80,1,0
68477,168.067226890756,4,3,1,80,1,0
68646,167.597765363129,4,3,1,80,1,0
68646,-83.3333333333333,4,3,1,80,0,0
68729,-83.3333333333333,4,3,2,5,0,0
68813,167.130919220056,4,3,1,80,1,0
68813,-83.3333333333333,4,3,1,80,0,0
68896,-83.3333333333333,4,3,2,5,0,0
68980,166.666666666667,4,3,1,80,1,0
68980,-83.3333333333333,4,3,1,80,0,0
69063,-83.3333333333333,4,3,2,5,0,0
69147,166.204986149585,4,3,1,80,1,0
69147,-83.3333333333333,4,3,1,80,0,0
69230,-83.3333333333333,4,3,2,5,0,0
69313,165.745856353591,4,3,1,80,1,0
69479,165.289256198347,4,3,1,80,1,0
69644,164.835164835165,4,3,1,80,1,0
69809,164.383561643836,4,3,1,80,1,0
69973,163.934426229508,4,3,1,80,1,0
70137,163.487738419619,4,3,1,80,1,0
70301,163.04347826087,4,3,1,80,1,0
70464,162.60162601626,4,3,1,80,1,0
70626,162.162162162162,4,3,1,80,1,0
70789,161.725067385445,4,3,1,80,1,0
70950,161.290322580645,4,3,1,80,1,0
71112,160.857908847185,4,3,1,80,1,0
71273,160.427807486631,4,3,1,80,1,0
71273,-83.3333333333333,4,3,1,80,0,0
71353,-83.3333333333333,4,3,2,5,0,0
71434,160,4,3,1,80,1,0
71434,-83.3333333333333,4,3,1,80,0,0
71514,-83.3333333333333,4,3,2,5,0,0
71594,159.574468085106,4,3,1,80,1,0
71594,-83.3333333333333,4,3,1,80,0,0
71673,-83.3333333333333,4,3,2,5,0,0
71754,159.151193633952,4,3,1,80,1,0
71754,-83.3333333333333,4,3,1,80,0,0
71833,-83.3333333333333,4,3,2,5,0,0
71913,158.730158730159,4,3,1,80,1,0
72071,158.311345646438,4,3,1,80,1,0
72230,157.894736842105,4,3,3,80,1,0
72388,157.48031496063,4,3,1,80,1,0
72545,157.068062827225,4,3,1,80,1,0
72702,156.657963446475,4,3,3,80,1,0
72859,156.25,4,3,1,80,1,0
73015,155.844155844156,4,3,1,80,1,0
73171,155.440414507772,4,3,3,80,1,0
73326,155.038759689922,4,3,1,80,1,0
73481,154.639175257732,4,3,1,80,1,0
73636,154.241645244216,4,3,1,80,1,0
73790,153.846153846154,4,3,1,80,1,0
73944,153.452685421995,4,3,1,80,1,0
74098,153.061224489796,4,3,3,80,1,0
74251,152.671755725191,4,3,1,80,1,0
74403,152.284263959391,4,3,1,80,1,0
74556,151.898734177215,4,3,3,80,1,0
74708,151.515151515152,4,3,1,80,1,0
74860,151.133501259446,4,3,1,80,1,0
75011,150.753768844221,4,3,1,80,1,0
75011,-125,4,3,1,80,0,0
75162,150.375939849624,4,3,1,80,1,0
75162,-125,4,3,1,80,0,0
75312,150,4,3,3,80,1,0
75312,-200,4,3,3,80,0,0
75349,-333.333333333333,4,3,1,80,0,0
77637,-333.333333333333,4,3,2,5,0,0
77712,-333.333333333333,4,3,1,80,0,0
78312,-166.666666666667,4,3,1,80,0,0
80112,240,4,3,1,80,1,0
81792,-250,4,2,1,80,0,0
81972,-100,4,2,2,5,0,0
82032,-111.111111111111,4,2,1,70,0,0
82752,-333.333333333331,4,2,1,70,0,0
83652,-111.111111111111,4,2,2,5,0,0
83712,-111.111111111111,4,2,1,70,0,0
84672,-333.333333333332,4,2,1,70,0,0
85092,-111.111111111111,4,2,2,5,0,0
85152,-111.111111111111,4,2,1,70,0,0
86592,-333.333333333333,4,2,1,70,0,0
87492,-111.111111111111,4,2,2,5,0,0
87552,-111.111111111111,4,2,1,70,0,0
88512,-333.333333333333,4,2,1,70,0,0
88932,-111.111111111111,4,2,2,5,0,0
88992,-111.111111111111,4,2,1,70,0,0
90432,-333.333333333333,4,2,1,35,0,0
90642,-333.333333333333,4,2,2,5,0,0
90672,-250,4,2,1,45,0,0
90882,-250,4,2,2,5,0,0
90912,-200,4,2,1,55,0,0
91122,-200,4,2,2,5,0,0
91152,-166.666666666667,4,2,1,60,0,0
91362,-166.666666666667,4,2,2,5,0,0
91392,-142.857142857143,4,2,1,65,0,0
91602,-142.857142857143,4,2,2,5,0,0
91632,-333.333333333333,4,2,1,70,0,0
93492,-333.333333333333,4,2,2,5,0,0
93552,-166.666666666667,4,2,1,80,0,0
94512,-166.666666666667,4,2,1,50,0,0
99672,-166.666666666667,4,2,2,5,0,0
99792,-166.666666666667,4,2,1,50,0,0
101112,-166.666666666667,4,2,2,5,0,0
101232,-166.666666666667,4,2,1,50,0,0
103512,-166.666666666667,4,2,2,5,0,0
103632,-166.666666666667,4,2,1,50,0,0
105072,-166.666666666667,4,2,1,50,0,0
106032,-166.666666666667,4,2,1,50,0,0
106872,-166.666666666667,4,2,2,5,0,0
106992,-166.666666666667,4,2,1,50,0,0
107952,-166.666666666667,4,2,1,50,0,0
108912,-90.9090909090909,4,3,1,80,0,0
110832,-250,4,3,1,80,0,0
111732,-90.9090909090909,4,2,2,5,0,0
111792,-90.9090909090909,4,3,1,80,0,0
115632,-250,4,3,1,80,0,0
116052,-90.9090909090909,4,2,2,5,0,0
116112,-250,4,3,1,80,0,0
116532,-90.9090909090909,4,2,2,5,0,0
116592,-90.9090909090909,4,3,1,80,0,0
118512,-1000,4,3,1,80,0,0
118872,-1000,4,2,2,5,0,0
118992,-1000,4,3,1,80,0,0
119352,-1000,4,2,2,5,0,0
119472,-90.9090909090909,4,3,1,80,0,0
123312,-1000,4,3,1,80,0,0
123672,-1000,4,2,2,5,0,0
123792,-1000,4,3,1,80,0,0
124152,-1000,4,2,2,5,0,0
124272,-1000,4,3,1,80,0,0
124332,-1000,4,3,1,50,0,0
131952,-1000,4,3,1,30,0,0

[Colours]
Combo1 : 122,107,190
Combo2 : 74,116,193
Combo3 : 94,230,253

[HitObjects]
30,150,6690,6,0,L|64:154,11,33.3333333333333,2|0|2|0|2|0|2|0|2|0|2|0,0:0|0:0|0:0|0:0|0:0|0:0|0:0|0:0|0:0|0:0|0:0|0:0,0:0:0:0:
80,155,7170,2,0,P|105:75|144:14,1,150.000005722046
151,14,7470,2,0,L|171:10,4,18.7500007152558,0|0|2|2|2,0:0|0:0|0:0|0:0|0:0,0:0:0:0:
256,192,7650,12,0,8970,0:0:0:0:
459,382,9090,6,0,P|471:333|500:271,1,100,8|0,0:0|0:0,0:0:0:0:
381,201,9330,1,2,0:0:0:0:
368,198,9390,1,0,0:0:0:0:
356,194,9450,1,2,0:0:0:0:
344,188,9510,1,0,0:0:0:0:
332,182,9570,2,0,P|365:235|394:343,1,150,8|0,0:0|0:0,0:0:0:0:
376,326,9810,5,2,0:0:0:0:
306,354,9930,1,0,0:0:0:0:
240,313,10050,2,0,L|208:309,1,30,8|0,0:0|0:0,0:0:0:0:
182,244,10290,2,0,B|110:252|110:252|96:270|96:270|17:280,1,165.000005035401,4|0,0:0|0:0,0:0:0:0:
23,359,10530,2,0,L|54:355,1,30,8|0,0:0|0:0,0:0:0:0:
122,341,10770,2,0,B|113:269|113:269|95:255|95:255|85:176,1,165.000005035401,4|0,0:0|0:0,0:0:0:0:
146,134,11010,6,0,L|177:130,1,30,8|0,0:0|0:0,0:0:0:0:
241,159,11250,2,0,L|272:155,1,30
326,111,11490,6,0,B|403:106|403:106|414:100|414:100|501:93,1,160,8|0,0:0|3:0,0:0:0:0:
484,94,11850,1,2,0:0:0:0:
250,83,11970,2,0,L|272:3,1,80,8|0,0:0|0:0,0:0:0:0:
304,188,12210,2,0,L|326:108,1,80,0|0,3:0|0:0,0:0:0:0:
146,199,12450,6,0,B|171:193|194:177|194:177|166:288,1,160,8|0,0:0|0:0,0:0:0:0:
306,314,12810,2,0,B|223:304|236:368|157:363,1,160,2|0,0:0|0:0,0:0:0:0:
98,262,13170,2,0,B|76:268|61:248|61:248|85:243|98:261,1,80
159,363,13410,5,8,0:0:0:0:
7,292,13530,2,0,P|-7:239|15:196,1,80,2|0,0:0|3:0,0:0:0:0:
159,363,13770,1,0,0:0:0:0:
7,292,13890,2,0,P|-7:239|15:196,1,80,8|2,0:0|0:0,0:0:0:0:
83,43,14130,2,0,L|56:193,1,120,0|0,3:0|0:0,0:0:0:0:
61,161,14370,6,0,B|84:43|84:43|176:137,1,239.999992675781,8|2,0:0|0:0,0:0:0:0:
98,262,14730,1,0,0:0:0:0:
232,187,14850,2,0,B|281:181|281:181|307:138|307:138|361:131,1,150,8|0,0:0|0:0,0:0:0:0:
369,122,15090,2,0,L|302:131,1,59.9999981689454,2|0,0:0|0:0,0:0:0:0:
220,264,15330,6,0,P|287:266|282:365,1,160,8|0,0:0|3:0,0:0:0:0:
220,264,15690,1,2,0:0:0:0:
353,202,15810,2,0,P|400:207|435:180,1,80,8|0,0:0|0:0,0:0:0:0:
512,73,16050,2,0,P|465:68|430:95,1,80,0|0,3:0|0:0,0:0:0:0:
483,230,16290,6,0,P|494:138|513:65,1,160,8|0,0:0|0:0,0:0:0:0:
324,44,16650,2,0,P|342:121|352:201,1,160,2|0,0:0|0:0,0:0:0:0:
482,192,17010,2,0,P|492:129|500:96,1,80
398,17,17250,5,8,0:0:0:0:
262,101,17370,2,0,P|271:139|276:179,1,80,2|0,0:0|3:0,0:0:0:0:
398,17,17610,1,0,0:0:0:0:
262,101,17730,2,0,P|271:139|276:179,1,80,8|2,0:0|0:0,0:0:0:0:
281,261,17970,2,0,B|203:255|228:201|150:200,1,150,0|0,3:0|0:0,0:0:0:0:
63,218,18210,6,0,B|56:197|56:197|58:181|58:181|65:196|65:196|63:218,12,75.0000028610231,8|0|2|0|2|0|2|0|2|0|2|0|2,0:0|0:0|0:0|0:0|0:0|0:0|0:0|0:0|0:0|0:0|0:0|0:0|0:0,0:0:0:0:
57,293,18630,1,0,0:0:0:0:
22,301,18690,1,6,0:0:0:0:
332,384,19170,6,0,P|351:308|402:219,1,179.999994506836,8|0,0:0|3:0,0:0:0:0:
401,220,19530,1,2,0:0:0:0:
512,350,19650,2,0,L|408:337,1,89.9999972534181,8|0,0:0|0:0,0:0:0:0:
301,218,19890,2,0,L|404:205,1,89.9999972534181,0|0,3:0|0:0,0:0:0:0:
498,74,20130,6,0,B|412:63|412:63|407:58|407:58|310:46,1,179.999994506836,8|0,0:0|0:0,0:0:0:0:
214,36,20490,2,0,B|193:19|179:-9|179:-9|211:117,1,179.999994506836,2|0,0:0|0:0,0:0:0:0:
301,218,20850,2,0,L|312:122,1,89.9999972534181
209,109,21090,5,8,0:0:0:0:
250,278,21210,2,0,P|289:259|300:217,1,89.9999972534181,2|0,0:0|3:0,0:0:0:0:
209,109,21450,1,0,0:0:0:0:
250,278,21570,2,0,L|246:309,7,22.4999993133545,8|0|2|0|2|0|2|0,0:0|0:0|0:0|0:0|0:0|0:0|0:0|0:0,0:0:0:0:
237,267,21810,2,0,P|181:270|143:351,1,134.999995880127,0|0,3:0|0:0,0:0:0:0:
46,384,22050,6,0,B|31:264|31:264|13:250|13:250|-4:100,1,259.999988098145,8|2,0:0|0:0,0:0:0:0:
72,41,22410,1,0,0:0:0:0:
162,197,22530,2,0,B|80:206|80:206|69:119,1,165.000005035401,8|0,0:0|0:0,0:0:0:0:
78,115,22770,2,0,L|86:186,1,69.9999978637696,2|0,0:0|0:0,0:0:0:0:
237,267,23010,6,0,L|260:76,1,179.999994506836,8|0,0:0|3:0,0:0:0:0:
258,88,23370,1,2,0:0:0:0:
164,15,23490,2,0,L|175:110,1,89.9999972534181,8|0,0:0|0:0,0:0:0:0:
324,232,23730,2,0,L|335:136,1,89.9999972534181,0|0,3:0|0:0,0:0:0:0:
412,47,23970,6,0,B|391:30|377:2|377:2|409:128,1,179.999994506836,8|0,0:0|0:0,0:0:0:0:
324,232,24330,2,0,B|390:244|409:208|402:206|442:173|494:194,1,179.999994506836,2|0,0:0|0:0,0:0:0:0:
512,315,24690,2,0,P|463:314|424:288,1,89.9999972534181
324,232,24930,5,8,0:0:0:0:
316,263,25050,1,2,3:2:0:0:
183,383,25290,1,2,3:2:0:0:
175,352,25410,1,8,0:0:0:0:
175,352,25650,1,8,0:0:0:0:
146,142,25890,6,0,P|194:129|225:58,1,119.999996337891,8|2,0:0|0:0,0:0:0:0:
115,17,26370,2,0,L|130:144,1,119.999996337891,8|2,0:0|0:0,0:0:0:0:
44,261,26850,6,0,P|209:211|551:172,1,450.000017166138,8|0,0:0|0:0,0:0:0:0:
483,173,27707,2,0,P|470:212|468:259,1,64.9999970245363,2|0,0:0|0:0,0:0:0:0:
407,355,28135,2,0,P|402:322|390:292,1,64.9999970245363,2|0,0:0|0:0,0:0:0:0:
483,173,28564,1,2,0:0:0:0:
226,280,28992,6,0,B|275:259|312:299|312:299|305:236|377:207,1,200,8|0,0:0|0:0,0:0:0:0:
483,173,29635,2,0,B|393:186|343:102|370:51|469:36|461:139,1,239.999992675781,8|0,0:0|0:0,0:0:0:0:
253,162,30278,6,0,B|262:104|262:104|266:100|266:100|264:95|264:95|272:36|272:36|261:61|244:69,1,170.000003242493,8|0,0:0|0:0,0:0:0:0:
64,68,30921,1,0,0:0:0:0:
205,10,31135,2,0,P|178:46|185:103,1,85.0000016212464,8|0,0:0|0:0,0:0:0:0:
358,213,31564,2,0,P|355:171|330:138,1,85.0000016212464
109,199,31992,5,0,0:0:0:0:
270,234,32207,2,0,P|248:239|212:228,1,42.5000008106232,2|0,0:0|0:0,0:0:0:0:
93,306,32421,2,0,B|105:255|172:246|204:291|194:376|129:402,1,200,8|2,0:0|0:0,0:0:0:0:
381,301,33064,2,0,B|257:287|257:287|211:319|211:319|87:305,1,299.999990844727,8|0,0:0|0:0,0:0:0:0:
92,305,33707,6,0,P|83:261|36:214,1,89.9999972534181,8|0,0:0|0:0,0:0:0:0:
0,114,34135,2,0,P|16:142|76:130,1,89.9999972534181,2|0,0:0|0:0,0:0:0:0:
179,117,34564,2,0,P|149:150|126:189,1,89.9999972534181,2|0,0:0|0:0,0:0:0:0:
92,305,34992,2,0,P|83:261|36:214,1,89.9999972534181,2|0,0:0|0:0,0:0:0:0:
0,114,35421,1,2,0:0:0:0:
280,0,35850,6,0,B|269:87|269:87|264:91|264:91|250:207,1,179.999994506836,8|0,0:0|0:0,0:0:0:0:
232,344,36492,2,0,B|302:289|302:289|385:326,1,179.999994506836,8|0,0:0|0:0,0:0:0:0:
503,148,37135,2,0,L|360:165,1,134.999995880127,8|0,0:0|0:0,0:0:0:0:
368,163,37564,2,0,P|380:113|413:74,1,89.9999972534181,2|0,0:0|0:0,0:0:0:0:
232,0,37992,2,0,P|265:29|284:69,1,89.9999972534181,2|0,0:0|0:0,0:0:0:0:
308,243,38421,2,0,P|258:250|236:195,1,89.9999972534181,2|0,0:0|0:0,0:0:0:0:
125,122,38850,5,8,0:0:0:0:
220,133,39064,1,2,0:0:0:0:
47,153,39278,1,8,0:0:0:0:
220,133,39492,1,2,0:0:0:0:
109,251,39707,6,0,L|115:195,1,44.999998626709,8|0,0:0|0:0,0:0:0:0:
125,122,39921,2,0,L|130:77,1,44.999998626709,8|0,0:0|0:0,0:0:0:0:
205,0,40135,1,0,0:0:0:0:
206,15,40242,1,2,0:0:0:0:
208,31,40350,1,2,0:0:0:0:
210,47,40457,1,2,0:0:0:0:
256,192,43221,12,0,46701,0:0:0:0:
223,32,46821,6,0,P|201:48|175:26,1,60,2|0,0:0|0:0,0:0:0:0:
164,24,47061,6,0,P|193:65|179:117,1,85.0000016212464,8|0,0:2|0:0,0:0:0:0:
123,150,47301,1,2,2:2:0:0:
201,183,47420,2,0,L|213:286,1,85.0000016212464,0|4,2:0|0:0,0:0:0:0:
143,322,47659,1,0,0:0:0:0:
143,322,47778,2,0,L|131:219,1,85.0000016212464,2|0,0:2|0:0,0:0:0:0:
273,140,48015,5,8,0:2:0:0:
201,183,48133,2,0,P|202:136|189:80,1,85.0000016212464,2|0,2:0|0:0,0:0:0:0:
272,221,48369,5,2,2:0:0:0:
344,264,48487,2,0,P|343:217|363:155,1,100,4|0,0:0|0:0,0:0:0:0:
443,146,48721,6,0,P|359:134|341:54,1,150,2|0,0:2|0:0,0:0:0:0:
408,81,48955,5,8,0:2:0:0:
404,74,49071,1,2,2:0:0:0:
481,217,49301,5,2,2:0:0:0:
478,211,49418,1,8,0:2:0:0:
443,146,49650,5,4,0:0:0:0:
170,235,49880,6,0,B|150:193|171:142|171:142|198:151|221:139,1,119.999996337891,10|0,0:0|0:0,0:0:0:0:
333,191,50109,2,0,B|307:228|252:236|252:236|246:208|225:194,1,129.999994049073,10|0,0:0|0:0,0:0:0:0:
213,71,50337,2,0,B|258:75|292:118|292:118|271:137|269:163,1,119.999996337891,10|0,0:0|0:0,0:0:0:0:
207,328,50564,6,0,P|222:307|211:329,1,75.0000028610231,10|0,0:0|0:0,0:0:0:0:
422,292,50790,6,0,P|399:231|442:146,1,166.000002406311,8|2,0:2|2:0,0:0:0:0:
492,227,51128,1,0,2:0:0:0:
414,302,51241,2,0,B|370:298|370:298|363:300|363:300|304:295,1,100,4|0,0:0|0:0,0:0:0:0:
333,192,51466,2,0,B|289:200|289:200|282:198|282:198|224:209,1,100,2|0,0:2|0:0,0:0:0:0:
73,246,51689,5,8,0:2:0:0:
122,192,51800,2,0,P|99:246|87:304,1,83.0000012031555,2|0,2:0|0:0,0:0:0:0:
168,315,52021,5,2,2:0:0:0:
217,369,52132,2,0,P|194:315|182:257,1,83.0000012031555,4|0,0:0|0:0,0:0:0:0:
235,207,52352,1,2,0:2:0:0:
84,100,52573,5,8,0:2:0:0:
76,94,52682,1,2,2:0:0:0:
250,217,52901,5,2,2:0:0:0:
243,212,53010,1,8,0:2:0:0:
162,156,53227,5,4,0:0:0:0:
416,124,53444,6,0,B|441:89|429:46|429:46|420:65|404:75,1,119.999996337891,10|0,0:0|0:0,0:0:0:0:
294,118,53660,2,0,B|311:157|356:174|356:174|342:153|340:130,1,129.999994049073,10|0,0:0|0:0,0:0:0:0:
357,10,53875,2,0,B|314:5|284:36|284:36|304:34|321:43,1,119.999996337891,10|0,0:0|0:0,0:0:0:0:
420,201,54089,6,0,B|413:246|413:246|415:251|415:251|410:250|410:250|412:255|412:255|406:298,1,100,10|0,0:0|0:0,0:0:0:0:
295,338,54302,6,0,P|241:358|193:331,1,80,8|0,0:2|0:0,0:0:0:0:
168,293,54514,1,2,2:2:0:0:
228,239,54621,1,0,2:0:0:0:
169,183,54727,1,4,0:0:0:0:
207,151,54832,1,0,0:0:0:0:
179,121,54938,6,0,P|138:90|86:100,1,80,2|0,0:2|0:0,0:0:0:0:
40,55,55148,1,8,0:2:0:0:
59,213,55253,2,0,L|171:196,1,100,2|0,2:0|0:0,0:0:0:0:
169,183,55463,1,2,2:0:0:0:
307,233,55568,6,0,B|289:202|303:154|303:154|307:181|323:198,1,119.999996337891,4|0,0:0|0:0,0:0:0:0:
378,147,55776,1,2,0:2:0:0:
241,336,55983,5,8,0:2:0:0:
283,346,56087,2,0,P|267:304|201:278,1,100,2|0,2:0|2:0,0:0:0:0:
125,360,56294,5,2,2:0:0:0:
83,370,56398,2,0,P|99:328|165:302,1,100,8|0,0:2|0:0,0:0:0:0:
241,206,56602,1,4,0:0:0:0:
398,360,56807,6,0,B|367:310|389:271|430:282|425:331|390:325,1,110.000003356934,10|0,0:0|0:0,0:0:0:0:
456,236,57012,2,0,B|425:232|404:262|404:262|379:235|341:242,1,119.999996337891,10|0,0:0|0:0,0:0:0:0:
241,206,57216,2,0,B|273:187|273:187|277:188|277:188|279:184|279:184|307:165|307:165|287:175|251:173,1,110.000003356934,10|0,0:0|0:0,0:0:0:0:
398,170,57418,1,10,0:0:0:0:
202,132,57620,6,0,B|123:131|153:20|202:26|220:104|172:83,1,150.000005722046,8|2,0:2|2:0,0:0:0:0:
269,97,57922,1,0,2:0:0:0:
164,199,58022,2,0,B|127:194|127:194|119:197|119:197|82:191,1,75.0000028610231,4|0,0:0|0:0,0:0:0:0:
8,109,58222,2,0,B|44:104|44:104|51:107|51:107|89:101,1,75.0000028610231,2|0,0:2|0:0,0:0:0:0:
202,132,58422,5,8,0:2:0:0:
228,160,58521,2,0,P|239:191|214:255,1,75.0000028610231,2|0,2:0|0:0,0:0:0:0:
121,292,58719,5,2,2:0:0:0:
95,264,58818,2,0,P|84:233|107:167,1,75.0000028610231,4|0,0:0|0:0,0:0:0:0:
203,306,59016,5,2,0:2:0:0:
203,306,59212,5,8,0:2:0:0:
195,304,59310,1,2,2:0:0:0:
358,330,59506,5,2,2:0:0:0:
351,329,59604,1,8,0:2:0:0:
277,320,59798,5,4,0:0:0:0:
436,343,59993,6,0,L|451:244,1,100,10|0,0:0|0:0,0:0:0:0:
310,140,60186,2,0,L|295:239,1,100,10|0,0:0|0:0,0:0:0:0:
202,383,60379,5,10,0:0:0:0:
144,363,60475,1,0,0:0:0:0:
117,308,60571,1,10,0:0:0:0:
137,251,60667,1,0,0:0:0:0:
100,187,60763,6,0,L|-27:202,1,100,8|2,0:2|2:0,0:0:0:0:
135,95,60954,1,0,2:0:0:0:
136,110,61049,1,2,2:0:0:0:
138,126,61145,2,0,L|265:110,1,100,4|0,0:0|0:0,0:0:0:0:
474,81,61334,2,0,L|375:94,1,100,2|0,0:2|0:0,0:0:0:0:
326,0,61524,6,0,B|335:79|335:79|354:101|354:101|367:204,1,200,8|0,0:2|0:0,0:0:0:0:
429,244,61807,1,2,2:0:0:0:
429,244,61901,2,0,P|409:197|356:196,1,100,4|0,0:0|0:0,0:0:0:0:
291,277,62088,2,0,P|247:295|241:343,1,100,2|0,0:2|0:0,0:0:0:0:
142,384,62274,5,8,0:2:0:0:
120,298,62368,1,2,2:0:0:0:
216,281,62554,5,2,2:0:0:0:
194,195,62648,1,8,0:2:0:0:
194,195,62833,5,4,0:0:0:0:
1,175,63017,6,0,B|34:152|72:152|72:152|49:133|44:101,1,119.999996337891,10|0,0:0|0:0,0:0:0:0:
232,107,63201,2,0,P|163:84|113:95,1,119.999996337891,10|0,0:0|0:0,0:0:0:0:
1,175,63385,2,0,B|34:152|72:152|72:152|78:183|118:202,1,119.999996337891,10|0,0:0|0:0,0:0:0:0:
289,176,63569,2,0,P|320:105|358:70,1,119.999996337891,10|0,0:0|0:0,0:0:0:0:
451,40,63751,6,0,L|437:151,1,100,8|2,0:2|2:0,0:0:0:0:
427,272,63933,1,0,2:0:0:0:
425,287,64023,1,2,2:0:0:0:
423,303,64114,2,0,P|377:258|332:259,1,100,4|0,0:0|0:0,0:0:0:0:
184,384,64295,2,0,P|232:375|263:336,1,100,2|0,0:2|0:0,0:0:0:0:
364,366,64475,6,0,P|282:312|184:297,1,200,8|0,0:2|0:0,0:0:0:0:
120,238,64744,1,2,2:0:0:0:
120,238,64834,2,0,P|135:283|181:296,1,100,4|0,0:0|0:0,0:0:0:0:
263,168,65012,2,0,P|215:175|194:218,1,100,2|0,0:2|0:0,0:0:0:0:
320,295,65190,5,8,0:2:0:0:
342,209,65278,1,2,2:0:0:0:
421,277,65456,5,2,2:0:0:0:
442,362,65544,1,8,0:2:0:0:
442,361,65721,5,4,0:0:0:0:
484,101,65897,6,0,B|496:91|507:70|507:70|477:186,1,119.999996337891,10|0,0:0|0:0,0:0:0:0:
300,91,66073,2,0,P|330:121|410:120,1,119.999996337891,10|0,0:0|0:0,0:0:0:0:
484,101,66248,2,0,B|496:91|507:70|507:70|471:26|416:44,1,119.999996337891,10|0,0:0|0:0,0:0:0:0:
210,16,66422,2,0,B|216:70|216:70|222:75|222:75|231:151,1,119.999996337891,10|0,0:0|0:0,0:0:0:0:
238,209,66596,6,0,L|110:193,1,100,8|2,0:2|2:0,0:0:0:0:
24,300,66769,1,0,2:0:0:0:
22,315,66855,1,2,2:0:0:0:
20,330,66942,2,0,L|139:315,1,100,4|0,0:0|0:0,0:0:0:0:
248,225,67114,2,0,L|148:212,1,100,2|0,0:2|0:0,0:0:0:0:
79,127,67287,6,0,B|89:214|89:214|107:228|107:228|122:347,1,200,8|0,0:2|0:0,0:0:0:0:
180,372,67543,1,2,2:0:0:0:
180,372,67629,2,0,P|164:326|117:316,1,100,4|0,0:0|0:0,0:0:0:0:
248,225,67800,2,0,P|300:214|309:147,1,100,2|0,0:2|0:0,0:0:0:0:
296,85,67970,5,8,0:2:0:0:
274,0,68054,1,2,2:0:0:0:
431,96,68224,5,2,2:0:0:0:
409,181,68309,1,8,0:2:0:0:
409,181,68477,5,4,0:0:0:0:
497,374,68646,6,0,B|473:343|433:334|433:334|422:361|386:383,1,119.999996337891,10|0,0:0|0:0,0:0:0:0:
300,324,68813,2,0,B|277:300|277:300|345:269|398:328,1,119.999996337891,10|0,0:0|0:0,0:0:0:0:
497,374,68980,2,0,B|473:343|433:334|433:334|447:305|439:262,1,119.999996337891,10|0,0:0|0:0,0:0:0:0:
222,384,69147,2,0,P|203:328|154:277,1,119.999996337891,10|0,0:0|0:0,0:0:0:0:
18,236,69313,6,0,P|60:266|99:223,1,100,8|2,0:2|2:0,0:0:0:0:
159,114,69479,1,0,2:0:0:0:
144,112,69561,1,2,2:0:0:0:
129,110,69644,2,0,P|153:154|162:212,1,100,4|0,0:0|0:0,0:0:0:0:
274,218,69808,2,0,P|298:174|307:116,1,100,2|0,0:2|0:0,0:0:0:0:
370,8,69973,6,0,P|412:80|431:219,1,200,8|0,0:2|0:0,0:0:0:0:
492,245,70218,1,2,2:0:0:0:
492,245,70301,2,0,P|445:238|432:193,1,100,4|0,0:0|0:0,0:0:0:0:
390,302,70464,2,0,P|343:289|304:318,1,100,2|0,0:2|0:0,0:0:0:0:
217,383,70626,5,8,0:2:0:0:
195,298,70707,1,2,2:0:0:0:
94,224,70869,5,2,2:0:0:0:
72,309,70950,1,8,0:2:0:0:
72,309,71111,5,4,0:0:0:0:
223,200,71273,6,0,B|233:159|202:128|202:128|188:162|155:179,1,119.999996337891,10|0,0:0|0:0,0:0:0:0:
94,98,71434,2,0,B|87:86|59:82|59:82|109:58|149:124,1,119.999996337891,10|0,0:0|0:0,0:0:0:0:
223,200,71594,2,0,B|233:159|202:128|202:128|214:96|246:76,1,119.999996337891,10|0,0:0|0:0,0:0:0:0:
327,57,71754,2,0,P|340:115|273:103,1,119.999996337891,10|0,0:0|0:0,0:0:0:0:
430,145,71913,5,8,0:2:0:0:
439,178,71992,1,2,0:2:0:0:
448,211,72071,1,0,0:0:0:0:
458,244,72150,1,2,0:2:0:0:
453,252,72230,5,8,0:2:0:0:
298,304,72388,1,8,0:2:0:0:
264,320,72466,1,2,0:2:0:0:
230,336,72545,1,0,0:0:0:0:
208,307,72624,1,2,0:2:0:0:
186,276,72702,5,8,0:2:0:0:
261,223,72859,1,8,0:2:0:0:
221,193,72937,1,2,0:2:0:0:
172,188,73015,1,0,0:0:0:0:
128,209,73093,1,2,0:2:0:0:
101,251,73171,1,8,0:2:0:0:
37,156,73326,5,8,0:2:0:0:
39,146,73403,1,2,0:2:0:0:
41,136,73481,1,0,0:0:0:0:
43,126,73558,1,2,0:2:0:0:
45,116,73635,5,8,0:2:0:0:
153,60,73790,6,0,B|165:9|165:9|235:11,1,100,8|2,0:2|0:2,0:0:0:0:
265,66,73944,2,0,B|253:117|253:117|183:115,1,100,0|2,0:0|0:2,0:0:0:0:
209,63,74097,1,8,0:2:0:0:
348,66,74251,6,0,L|322:176,1,100,8|2,0:2|0:2,0:0:0:0:
456,252,74403,2,0,L|432:154,1,100,0|2,0:0|0:2,0:0:0:0:
343,57,74556,1,8,0:2:0:0:
367,336,74708,5,8,0:2:0:0:
359,342,74783,1,2,0:2:0:0:
351,348,74859,1,0,0:0:0:0:
343,354,74935,1,2,0:2:0:0:
335,360,75011,2,0,P|292:381|243:375,1,80,0|2,0:0|0:2,0:0:0:0:
275,304,75162,2,0,P|232:283|183:284,1,80,0|2,0:0|0:2,0:0:0:0:
24,323,75312,6,0,B|136:325|218:290|229:141|154:78|72:112|40:157|36:201|56:244|56:244|38:173|107:157|112:121|119:59|105:22|24:20|3:78|3:78|77:15|109:105|187:28|187:28|200:80|248:85|278:73|278:73|359:35|439:78|437:161|434:281|315:296|253:258|246:158|291:140|350:136,1,1550,4|0,0:0|0:0,0:0:0:0:
472,30,77712,5,8,0:2:0:0:
474,59,77787,1,2,0:2:0:0:
477,89,77862,1,2,0:2:0:0:
480,119,77937,1,2,0:2:0:0:
483,149,78012,1,2,0:2:0:0:
486,179,78087,1,2,0:2:0:0:
488,209,78162,1,2,0:2:0:0:
491,239,78237,1,2,0:2:0:0:
432,292,78312,6,0,P|484:318|504:314,3,59.9999981689454,8|2|2|2,0:2|0:2|0:2|0:2,0:0:0:0:
343,243,78612,2,0,P|291:217|271:221,3,59.9999981689454,2|2|2|2,0:2|0:2|0:2|0:2,0:0:0:0:
286,296,78912,5,8,0:2:0:0:
267,319,78987,1,2,0:2:0:0:
242,336,79062,1,2,0:2:0:0:
213,344,79137,1,2,0:2:0:0:
184,342,79212,1,2,0:2:0:0:
156,331,79287,1,2,0:2:0:0:
133,312,79362,1,2,0:2:0:0:
117,286,79437,1,2,0:2:0:0:
110,257,79512,5,8,0:2:0:0:
102,248,79587,1,2,0:2:0:0:
93,241,79662,1,2,0:2:0:0:
82,237,79737,1,2,0:2:0:0:
70,235,79812,1,2,0:2:0:0:
58,237,79887,1,2,0:2:0:0:
47,241,79962,1,2,0:2:0:0:
37,248,80037,1,2,0:2:0:0:
51,331,80112,5,12,0:0:0:0:
416,338,81792,6,0,P|451:343|478:360,1,60,2|0,0:0|0:0,0:0:0:0:
486,347,82032,5,8,0:0:0:0:
486,347,82152,2,0,L|472:235,1,89.9999972534181
462,167,82392,1,2,0:0:0:0:
415,161,82512,1,0,0:0:0:0:
335,243,82632,1,2,0:0:0:0:
382,237,82752,6,0,B|368:124|368:124|362:120|362:120|349:14,1,224.999993133545,12|0,0:0|0:0,0:0:0:0:
359,7,83712,1,2,3:2:0:0:
51,182,83952,5,8,0:0:0:0:
51,182,84072,2,0,L|154:194,1,89.9999972534181
199,106,84312,1,2,0:0:0:0:
246,100,84432,1,0,0:0:0:0:
200,27,84552,1,2,0:0:0:0:
153,21,84672,6,0,P|103:36|90:87,1,104.999996795654,8|0,0:0|0:0,0:0:0:0:
76,91,85152,5,8,0:0:0:0:
76,91,85272,2,0,L|63:186,1,89.9999972534181
54,263,85512,1,2,0:0:0:0:
50,294,85632,1,0,0:0:0:0:
129,291,85752,1,2,0:0:0:0:
208,368,85872,5,8,0:0:0:0:
208,368,85992,2,0,L|303:380,1,89.9999972534181
351,304,86232,1,2,0:0:0:0:
398,298,86352,1,0,0:0:0:0:
473,384,86472,1,2,0:0:0:0:
426,378,86592,6,0,B|438:274|438:274|457:252|457:252|469:157,1,224.999993133545,12|0,0:0|0:0,0:0:0:0:
481,156,87552,1,2,3:2:0:0:
145,90,87792,5,8,0:0:0:0:
145,90,87912,2,0,L|240:78,1,89.9999972534181
324,66,88152,1,2,0:0:0:0:
330,113,88272,1,0,0:0:0:0:
401,146,88392,1,2,0:0:0:0:
406,98,88512,6,0,P|398:51|343:34,1,104.999996795654,8|0,0:0|0:0,0:0:0:0:
338,21,88992,5,8,0:0:0:0:
338,21,89112,2,0,L|242:9,1,89.9999972534181
117,80,89352,1,2,0:0:0:0:
99,0,89472,1,0,0:0:0:0:
134,86,89592,1,2,0:0:0:0:
100,161,89712,1,12,0:0:0:0:
100,161,90432,6,0,P|67:172|52:188,1,52.4999983978272,2|0,0:0|0:0,0:0:0:0:
39,186,90672,2,0,P|30:230|38:258,1,70,2|0,0:0|0:0,0:0:0:0:
24,281,90912,2,0,L|111:270,1,87.5,2|0,0:0|0:0,0:0:0:0:
142,298,91152,2,0,L|255:311,1,104.999996795654,2|0,0:0|0:0,0:0:0:0:
283,280,91392,2,0,L|408:264,1,122.499996261597,2|0,0:0|0:0,0:0:0:0:
477,255,91632,6,0,B|494:303|464:369|464:369|536:291|509:173|458:125|458:125|448:168|404:185,1,464.999985809327,8|0,0:0|0:0,0:0:0:0:
408,183,93552,6,0,L|158:162,1,239.999992675781,4|0,3:0|0:0,0:0:0:0:
169,162,94512,6,0,P|157:214|88:251,1,119.999996337891
307,360,94992,2,0,P|255:375|189:334,1,119.999996337891
8,378,95472,6,0,B|25:301|25:301|10:245|10:245|37:139,1,239.999992675781,2|0,3:2|0:0,0:0:0:0:
104,249,96192,1,0,0:0:0:0:
20,39,96432,6,0,P|57:69|139:43,1,119.999996337891
378,60,96912,2,0,B|353:78|353:78|253:54,1,119.999996337891
386,189,97392,6,0,B|351:120|376:45|473:22|492:130|434:146,1,239.999992675781,2|0,3:2|0:0,0:0:0:0:
172,268,98352,6,0,B|203:246|203:246|178:347,1,119.999996337891
309,360,98832,2,0,B|340:382|340:382|315:281,1,119.999996337891,2|0,3:2|0:0,0:0:0:0:
102,323,99312,6,0,P|84:280|168:177,1,179.999994506836
214,121,99792,2,0,B|156:138|156:138|112:96,1,119.999996337891,2|0,3:2|0:0,0:0:0:0:
298,121,100272,2,0,B|356:138|356:138|400:96,1,119.999996337891
359,179,100752,2,0,P|423:237|410:323,1,179.999994506836
256,280,101232,6,0,B|256:176|256:176|260:172|260:172|252:172|252:172|256:168|256:168|256:40,1,239.999992675781,4|0,0:0|0:0,0:0:0:0:
312,340,102192,2,0,P|272:360|192:328,1,119.999996337891
144,132,102672,2,0,P|164:184|168:256,1,119.999996337891,2|0,3:2|0:0,0:0:0:0:
21,378,103152,6,0,P|24:331|50:180,1,179.999994506836
72,126,103632,2,0,L|73:2,1,119.999996337891,2|0,3:2|0:0,0:0:0:0:
176,51,104112,6,0,B|209:5|374:3|254:157|467:190,1,359.999989013672
445,41,105072,6,0,P|406:101|323:378,1,359.999989013672,2|0,3:2|0:0,0:0:0:0:
455,305,106032,2,0,B|337:340|216:253|218:160|325:101|396:151|395:230,1,419.999987182618
222,314,106992,6,0,B|204:176|91:111|91:111|142:170|134:236,1,359.999989013672,2|0,3:2|0:0,0:0:0:0:
263,31,107952,6,0,P|246:71|249:173,1,119.999996337891
64,285,108432,2,0,P|63:225|43:169,1,119.999996337891
168,376,108912,6,0,P|256:308|378:278,1,220.000006713867,8|2,0:2|2:0,0:0:0:0:
458,332,109272,1,2,2:0:0:0:
417,347,109392,2,0,P|365:327|369:263,1,110.000003356934,8|0,0:2|0:0,0:0:0:0:
270,207,109632,2,0,P|313:171|366:207,1,110.000003356934,2|0,0:2|0:0,0:0:0:0:
435,235,109872,5,8,0:2:0:0:
447,192,109992,1,0,2:0:0:0:
480,163,110112,2,0,P|478:117|447:52,1,110.000003356934,0|2,2:0|2:0,0:0:0:0:
313,1,110352,2,0,P|267:129|253:232,1,220.000006713867,8|2,0:2|0:2,0:0:0:0:
179,230,110712,1,0,0:0:0:0:
89,284,110832,6,0,B|39:269|-13:276|-13:276|186:228,1,300,2|0,2:2|0:0,2:0:0:0:
228,163,111792,6,0,L|347:177,1,110.000003356934,8|2,0:2|2:0,0:0:0:0:
474,129,112032,1,2,2:0:0:0:
470,85,112152,1,2,2:0:0:0:
444,50,112272,2,0,P|384:63|386:116,1,110.000003356934,8|0,0:2|0:0,0:0:0:0:
337,176,112512,2,0,P|378:221|423:193,1,110.000003356934,2|0,0:2|0:0,0:0:0:0:
475,338,112752,5,8,0:2:0:0:
434,319,112872,1,0,2:0:0:0:
393,306,112992,1,0,2:0:0:0:
350,296,113112,1,2,2:0:0:0:
306,291,113232,2,0,B|256:303|256:303|252:309|252:309|171:329,1,110.000003356934,8|0,0:2|0:0,0:0:0:0:
103,256,113472,2,0,B|53:243|53:243|49:237|49:237|-31:217,1,110.000003356934,2|0,0:2|0:0,0:0:0:0:
96,360,113712,6,0,B|122:339|122:339|146:148,1,220.000006713867,8|2,0:2|2:0,0:0:0:0:
130,46,114072,1,0,0:0:0:0:
98,76,114192,2,0,P|100:130|178:141,1,110.000003356934,8|0,0:2|2:0,0:0:0:0:
293,90,114432,2,0,P|245:64|196:126,1,110.000003356934,2|0,2:0|0:0,0:0:0:0:
251,195,114672,5,8,0:2:0:0:
294,203,114792,1,0,0:0:0:0:
336,192,114912,2,0,P|321:113|303:71,1,110.000003356934,2|0,0:2|0:0,0:0:0:0:
478,35,115152,2,0,P|451:116|417:260,1,220.000006713867,8|0,0:2|2:0,0:0:0:0:
409,324,115512,1,0,2:0:0:0:
509,323,115632,6,0,B|517:296|517:296|395:326,1,140,2|0,2:0|0:0,0:0:0:0:
401,342,116112,2,0,L|261:307,1,140,2|0,2:0|0:0,0:0:0:0:
183,269,116592,5,8,0:2:0:0:
133,292,116712,1,0,2:0:0:0:
85,263,116832,1,2,2:0:0:0:
86,208,116952,1,2,2:0:0:0:
137,187,117072,6,0,L|157:53,1,110.000003356934,8|0,0:2|0:0,0:0:0:0:
253,19,117312,2,0,L|269:127,1,110.000003356934,2|0,0:2|0:0,0:0:0:0:
396,158,117552,5,8,0:2:0:0:
439,127,117672,1,0,2:0:0:0:
447,74,117792,1,2,2:0:0:0:
414,32,117912,1,0,0:0:0:0:
362,26,118032,1,8,0:2:0:0:
307,22,118152,1,0,2:0:0:0:
253,19,118272,1,2,2:0:0:0:
198,15,118392,1,0,2:0:0:0:
133,61,118512,6,0,P|140:79|140:95,1,30,2|0,2:0|0:0,0:0:0:0:
34,232,118992,2,0,P|35:217|41:203,1,30,2|0,2:0|0:0,0:0:0:0:
175,191,119472,5,8,0:2:0:0:
227,178,119592,1,0,2:0:0:0:
271,208,119712,1,2,2:0:0:0:
281,260,119832,1,2,2:0:0:0:
249,303,119952,2,0,B|199:300|199:300|197:301|197:301|134:296,1,110.000003356934,8|0,0:2|0:0,0:0:0:0:
0,376,120192,2,0,B|50:372|50:372|52:373|52:373|115:368,1,110.000003356934,2|0,0:2|0:0,0:0:0:0:
360,359,120432,5,8,0:2:0:0:
369,304,120552,1,0,2:0:0:0:
378,249,120672,2,0,L|393:132,1,110.000003356934,0|2,2:0|2:0,0:0:0:0:
487,87,120912,2,0,L|473:196,1,110.000003356934,8|0,0:2|0:0,0:0:0:0:
260,109,121152,5,2,0:2:0:0:
256,55,121272,1,0,0:0:0:0:
289,12,121392,2,0,B|270:30|270:30|160:30,1,110.000003356934,8|0,0:2|2:0,0:0:0:0:
36,106,121632,2,0,B|55:88|55:88|165:88,1,110.000003356934,2|0,2:0|0:0,0:0:0:0:
289,11,121872,5,8,0:2:0:0:
332,43,121992,1,0,2:0:0:0:
354,93,122112,1,2,2:0:0:0:
349,147,122232,1,0,0:0:0:0:
319,192,122352,5,8,0:2:0:0:
283,233,122472,1,0,2:0:0:0:
275,287,122592,1,0,2:0:0:0:
295,337,122712,1,2,2:0:0:0:
339,369,122832,1,8,0:2:0:0:
393,374,122952,1,0,0:0:0:0:
442,349,123072,1,2,0:2:0:0:
470,303,123192,1,0,0:0:0:0:
471,249,123312,6,0,P|449:239|438:237,1,30,2|0,2:0|0:0,0:0:0:0:
263,111,123792,2,0,P|240:121|229:123,1,30,2|0,2:0|0:0,0:0:0:0:
53,242,124272,5,4,0:0:0:0:
256,192,124392,12,0,131952,0:0:0:0:
