osu file format v14

[General]
AudioFilename: audio.mp3
AudioLeadIn: 0
PreviewTime: 82032
Countdown: 0
SampleSet: Soft
StackLeniency: 0.7
Mode: 0
LetterboxInBreaks: 0
EpilepsyWarning: 1
WidescreenStoryboard: 1

[Editor]
Bookmarks: 108912,124272,131952
DistanceSpacing: 1.4
BeatDivisor: 4
GridSize: 8
TimelineZoom: 3.899999

[Metadata]
Title:Aleph-0
TitleUnicode:ℵ0
Artist:LeaF
ArtistUnicode:LeaF
Creator:Yooh
Version:Normal
Source:osu!
Tags:electronic instrumental bofu2016 zero BMS OF FIGHTERS ULTIMATE 2016 - Legendary Again - ℵ0 leaf-0001 doppelganger c94 comiket 94 diverse system optie fa featured artist mpg mappers' guild daycore null.temptation null temptation
BeatmapID:2823089
BeatmapSetID:1364626

[Difficulty]
HPDrainRate:4
CircleSize:3
OverallDifficulty:4
ApproachRate:6
SliderMultiplier:0.999999999999999
SliderTickRate:0.5

[Events]
//Background and Video events
0,0,"aleph-0.jpg",0,0
Video,903,"alephvid.mp4"
//Break Periods
//Storyboard Layer 0 (Background)
//Storyboard Layer 1 (Fail)
//Storyboard Layer 2 (Pass)
//Storyboard Layer 3 (Foreground)
//Storyboard Layer 4 (Overlay)
//Storyboard Sound Samples

[TimingPoints]
6690,480,5,2,1,50,1,0
9090,-100,5,2,1,70,0,0
11490,240,4,2,1,60,1,0
11490,-142.857142857143,4,2,1,60,0,0
26850,428.571428571429,4,2,3,45,1,0
33707,-100,4,2,3,55,0,0
38850,-100,4,2,3,60,0,0
39278,-100,4,2,3,65,0,0
39707,-100,4,2,3,70,0,0
41421,240,1,2,3,80,1,0
43221,-166.666666666667,1,2,3,80,0,0
46461,-100,1,2,3,80,0,0
47061,240,4,3,1,80,1,0
47061,-166.666666666667,4,3,1,80,0,0
47301,239.043824701195,4,3,1,80,1,0
47301,-166.666666666667,4,3,1,80,0,0
47540,238.095238095238,4,3,1,80,1,0
47540,-166.666666666667,4,3,1,80,0,0
47778,237.154150197628,4,3,1,80,1,0
47778,-166.666666666667,4,3,1,80,0,0
48015,236.220472440945,4,3,1,80,1,0
48015,-166.666666666667,4,3,1,80,0,0
48252,235.294117647059,4,3,1,80,1,0
48252,-166.666666666667,4,3,1,80,0,0
48487,234.375,4,3,1,80,1,0
48487,-166.666666666667,4,3,1,80,0,0
48721,233.463035019455,4,3,1,80,1,0
48721,-166.666666666667,4,3,1,80,0,0
48955,232.558139534884,4,3,1,80,1,0
48955,-166.666666666667,4,3,1,80,0,0
49187,231.660231660232,4,3,1,80,1,0
49187,-166.666666666667,4,3,1,80,0,0
49419,230.769230769231,4,3,1,80,1,0
49419,-166.666666666667,4,3,1,80,0,0
49650,229.885057471264,4,3,1,80,1,0
49650,-166.666666666667,4,3,1,80,0,0
49880,229.007633587786,4,3,1,80,1,0
49880,-166.666666666667,4,3,1,80,0,0
50109,228.136882129278,4,3,1,80,1,0
50109,-166.666666666667,4,3,1,80,0,0
50337,227.272727272727,4,3,1,80,1,0
50337,-166.666666666667,4,3,1,80,0,0
50564,226.415094339623,4,3,1,80,1,0
50564,-166.666666666667,4,3,1,80,0,0
50790,225.563909774436,4,3,1,80,1,0
50790,-166.666666666667,4,3,1,80,0,0
51016,224.719101123596,4,3,1,80,1,0
51016,-166.666666666667,4,3,1,80,0,0
51241,223.880597014925,4,3,1,80,1,0
51241,-166.666666666667,4,3,1,80,0,0
51466,223.048327137546,4,3,1,80,1,0
51466,-166.666666666667,4,3,1,80,0,0
51689,222.222222222222,4,3,1,80,1,0
51689,-166.666666666667,4,3,1,80,0,0
51911,221.40221402214,4,3,1,80,1,0
51911,-166.666666666667,4,3,1,80,0,0
52132,220.588235294118,4,3,1,80,1,0
52132,-166.666666666667,4,3,1,80,0,0
52353,219.78021978022,4,3,1,80,1,0
52353,-166.666666666667,4,3,1,80,0,0
52573,218.978102189781,4,3,1,80,1,0
52573,-166.666666666667,4,3,1,80,0,0
52792,218.181818181818,4,3,1,80,1,0
52792,-166.666666666667,4,3,1,80,0,0
53010,217.391304347826,4,3,1,80,1,0
53010,-166.666666666667,4,3,1,80,0,0
53227,216.606498194946,4,3,1,80,1,0
53227,-166.666666666667,4,3,1,80,0,0
53444,215.827338129496,4,3,1,80,1,0
53444,-166.666666666667,4,3,1,80,0,0
53660,215.05376344086,4,3,1,80,1,0
53660,-166.666666666667,4,3,1,80,0,0
53875,214.285714285714,4,3,1,80,1,0
53875,-166.666666666667,4,3,1,80,0,0
54089,213.523131672598,4,3,1,80,1,0
54089,-166.666666666667,4,3,1,80,0,0
54302,212.765957446809,4,3,1,80,1,0
54302,-200,4,3,1,80,0,0
54515,212.014134275618,4,3,1,80,1,0
54515,-200,4,3,1,80,0,0
54727,211.267605633803,4,3,1,80,1,0
54727,-200,4,3,1,80,0,0
54938,210.526315789474,4,3,1,80,1,0
54938,-200,4,3,1,80,0,0
55149,209.79020979021,4,3,1,80,1,0
55149,-200,4,3,1,80,0,0
55359,209.059233449477,4,3,1,80,1,0
55359,-200,4,3,1,80,0,0
55568,208.333333333333,4,3,1,80,1,0
55568,-200,4,3,1,80,0,0
55776,207.612456747405,4,3,1,80,1,0
55776,-200,4,3,1,80,0,0
55984,206.896551724138,4,3,1,80,1,0
55984,-200,4,3,1,80,0,0
56191,206.185567010309,4,3,1,80,1,0
56191,-200,4,3,1,80,0,0
56397,205.479452054795,4,3,1,80,1,0
56397,-200,4,3,1,80,0,0
56602,204.778156996587,4,3,1,80,1,0
56602,-200,4,3,1,80,0,0
56807,204.081632653061,4,3,1,80,1,0
56807,-200,4,3,1,80,0,0
57012,203.389830508475,4,3,1,80,1,0
57012,-200,4,3,1,80,0,0
57216,202.702702702703,4,3,1,80,1,0
57216,-200,4,3,1,80,0,0
57418,202.020202020202,4,3,1,80,1,0
57418,-200,4,3,1,80,0,0
57620,201.342281879195,4,3,1,80,1,0
57620,-200,4,3,1,80,0,0
57822,200.66889632107,4,3,1,80,1,0
57822,-200,4,3,1,80,0,0
58022,200,4,3,1,80,1,0
58022,-200,4,3,1,80,0,0
58222,199.335548172757,4,3,1,80,1,0
58222,-200,4,3,1,80,0,0
58422,198.675496688742,4,3,1,80,1,0
58422,-200,4,3,1,80,0,0
58620,198.019801980198,4,3,1,80,1,0
58620,-200,4,3,1,80,0,0
58818,197.368421052632,4,3,1,80,1,0
58818,-200,4,3,1,80,0,0
59016,196.72131147541,4,3,1,80,1,0
59016,-200,4,3,1,80,0,0
59212,196.078431372549,4,3,1,80,1,0
59212,-200,4,3,1,80,0,0
59409,195.439739413681,4,3,1,80,1,0
59409,-200,4,3,1,80,0,0
59604,194.805194805195,4,3,1,80,1,0
59604,-200,4,3,1,80,0,0
59799,194.174757281553,4,3,1,80,1,0
59799,-200,4,3,1,80,0,0
59993,193.548387096774,4,3,1,80,1,0
59993,-200,4,3,1,80,0,0
60186,192.926045016077,4,3,1,80,1,0
60186,-200,4,3,1,80,0,0
60379,192.307692307692,4,3,1,80,1,0
60379,-200,4,3,1,80,0,0
60572,191.693290734824,4,3,1,80,1,0
60572,-200,4,3,1,80,0,0
60763,191.082802547771,4,3,1,80,1,0
60763,-222.222222222222,4,3,1,80,0,0
60954,190.47619047619,4,3,1,80,1,0
60954,-222.222222222222,4,3,1,80,0,0
61145,189.873417721519,4,3,1,80,1,0
61145,-222.222222222222,4,3,1,80,0,0
61335,189.274447949527,4,3,1,80,1,0
61335,-222.222222222222,4,3,1,80,0,0
61524,188.679245283019,4,3,1,80,1,0
61524,-222.222222222222,4,3,1,80,0,0
61713,188.087774294671,4,3,1,80,1,0
61713,-222.222222222222,4,3,1,80,0,0
61901,187.5,4,3,1,80,1,0
61901,-222.222222222222,4,3,1,80,0,0
62088,186.915887850467,4,3,1,80,1,0
62088,-222.222222222222,4,3,1,80,0,0
62275,186.335403726708,4,3,1,80,1,0
62275,-222.222222222222,4,3,1,80,0,0
62462,185.758513931889,4,3,1,80,1,0
62462,-222.222222222222,4,3,1,80,0,0
62647,185.185185185185,4,3,1,80,1,0
62647,-222.222222222222,4,3,1,80,0,0
62833,184.615384615385,4,3,1,80,1,0
62833,-222.222222222222,4,3,1,80,0,0
63017,184.049079754601,4,3,1,80,1,0
63017,-222.222222222222,4,3,1,80,0,0
63201,183.48623853211,4,3,1,80,1,0
63201,-222.222222222222,4,3,1,80,0,0
63385,182.926829268293,4,3,1,80,1,0
63385,-222.222222222222,4,3,1,80,0,0
63569,182.370820668693,4,3,1,80,1,0
63569,-222.222222222222,4,3,1,80,0,0
63751,181.818181818182,4,3,1,80,1,0
63751,-222.222222222222,4,3,1,80,0,0
63933,181.268882175227,4,3,1,80,1,0
63933,-222.222222222222,4,3,1,80,0,0
64114,180.722891566265,4,3,1,80,1,0
64114,-222.222222222222,4,3,1,80,0,0
64295,180.18018018018,4,3,1,80,1,0
64295,-222.222222222222,4,3,1,80,0,0
64475,179.640718562874,4,3,1,80,1,0
64475,-222.222222222222,4,3,1,80,0,0
64655,179.10447761194,4,3,1,80,1,0
64655,-222.222222222222,4,3,1,80,0,0
64834,178.571428571429,4,3,1,80,1,0
64834,-222.222222222222,4,3,1,80,0,0
65012,178.041543026706,4,3,1,80,1,0
65012,-222.222222222222,4,3,1,80,0,0
65190,177.514792899408,4,3,1,80,1,0
65190,-222.222222222222,4,3,1,80,0,0
65368,176.991150442478,4,3,1,80,1,0
65368,-222.222222222222,4,3,1,80,0,0
65545,176.470588235294,4,3,1,80,1,0
65545,-222.222222222222,4,3,1,80,0,0
65721,175.953079178886,4,3,1,80,1,0
65721,-222.222222222222,4,3,1,80,0,0
65897,175.438596491228,4,3,1,80,1,0
65897,-222.222222222222,4,3,1,80,0,0
66073,174.927113702624,4,3,1,80,1,0
66073,-222.222222222222,4,3,1,80,0,0
66248,174.418604651163,4,3,1,80,1,0
66248,-222.222222222222,4,3,1,80,0,0
66422,173.913043478261,4,3,1,80,1,0
66422,-222.222222222222,4,3,1,80,0,0
66596,173.410404624277,4,3,1,80,1,0
66596,-222.222222222222,4,3,1,80,0,0
66769,172.910662824208,4,3,1,80,1,0
66769,-222.222222222222,4,3,1,80,0,0
66942,172.413793103448,4,3,1,80,1,0
66942,-222.222222222222,4,3,1,80,0,0
67115,171.919770773639,4,3,1,80,1,0
67115,-250,4,3,1,80,0,0
67287,171.428571428571,4,3,1,80,1,0
67287,-250,4,3,1,80,0,0
67458,170.940170940171,4,3,1,80,1,0
67458,-250,4,3,1,80,0,0
67629,170.454545454545,4,3,1,80,1,0
67629,-250,4,3,1,80,0,0
67800,169.971671388102,4,3,1,80,1,0
67800,-250,4,3,1,80,0,0
67970,169.491525423729,4,3,1,80,1,0
67970,-250,4,3,1,80,0,0
68140,169.014084507042,4,3,1,80,1,0
68140,-250,4,3,1,80,0,0
68309,168.539325842697,4,3,1,80,1,0
68309,-250,4,3,1,80,0,0
68477,168.067226890756,4,3,1,80,1,0
68477,-250,4,3,1,80,0,0
68646,167.597765363129,4,3,1,80,1,0
68646,-250,4,3,1,80,0,0
68813,167.130919220056,4,3,1,80,1,0
68813,-250,4,3,1,80,0,0
68980,166.666666666667,4,3,1,80,1,0
68980,-250,4,3,1,80,0,0
69147,166.204986149585,4,3,1,80,1,0
69147,-250,4,3,1,80,0,0
69313,165.745856353591,4,3,1,80,1,0
69313,-250,4,3,1,80,0,0
69479,165.289256198347,4,3,1,80,1,0
69479,-250,4,3,1,80,0,0
69644,164.835164835165,4,3,1,80,1,0
69644,-250,4,3,1,80,0,0
69809,164.383561643836,4,3,1,80,1,0
69809,-250,4,3,1,80,0,0
69973,163.934426229508,4,3,1,80,1,0
69973,-250,4,3,1,80,0,0
70137,163.487738419619,4,3,1,80,1,0
70137,-250,4,3,1,80,0,0
70301,163.04347826087,4,3,1,80,1,0
70301,-250,4,3,1,80,0,0
70464,162.60162601626,4,3,1,80,1,0
70464,-250,4,3,1,80,0,0
70626,162.162162162162,4,3,1,80,1,0
70626,-250,4,3,1,80,0,0
70789,161.725067385445,4,3,1,80,1,0
70789,-250,4,3,1,80,0,0
70950,161.290322580645,4,3,1,80,1,0
70950,-250,4,3,1,80,0,0
71112,160.857908847185,4,3,1,80,1,0
71112,-250,4,3,1,80,0,0
71273,160.427807486631,4,3,1,80,1,0
71273,-250,4,3,1,80,0,0
71434,160,4,3,1,80,1,0
71434,-250,4,3,1,80,0,0
71594,159.574468085106,4,3,1,80,1,0
71594,-250,4,3,1,80,0,0
71754,159.151193633952,4,3,1,80,1,0
71754,-250,4,3,1,80,0,0
71913,158.730158730159,4,3,1,80,1,0
71913,-250,4,3,1,80,0,0
72071,158.311345646438,4,3,1,80,1,0
72071,-250,4,3,1,80,0,0
72230,157.894736842105,4,3,3,80,1,0
72230,-250,4,3,3,80,0,0
72388,157.48031496063,4,3,1,80,1,0
72388,-250,4,3,1,80,0,0
72545,157.068062827225,4,3,1,80,1,0
72545,-250,4,3,1,80,0,0
72702,156.657963446475,4,3,3,80,1,0
72702,-250,4,3,3,80,0,0
72859,156.25,4,3,1,80,1,0
72859,-250,4,3,1,80,0,0
73015,155.844155844156,4,3,1,80,1,0
73015,-250,4,3,1,80,0,0
73171,155.440414507772,4,3,3,80,1,0
73171,-250,4,3,3,80,0,0
73326,155.038759689922,4,3,1,80,1,0
73326,-250,4,3,1,80,0,0
73481,154.639175257732,4,3,1,80,1,0
73481,-250,4,3,1,80,0,0
73636,154.241645244216,4,3,1,80,1,0
73636,-250,4,3,1,80,0,0
73790,153.846153846154,4,3,1,80,1,0
73790,-250,4,3,1,80,0,0
73944,153.452685421995,4,3,1,80,1,0
73944,-250,4,3,1,80,0,0
74098,153.061224489796,4,3,3,80,1,0
74098,-250,4,3,3,80,0,0
74251,152.671755725191,4,3,1,80,1,0
74251,-250,4,3,1,80,0,0
74403,152.284263959391,4,3,1,80,1,0
74403,-250,4,3,1,80,0,0
74556,151.898734177215,4,3,3,80,1,0
74556,-250,4,3,3,80,0,0
74708,151.515151515152,4,3,1,80,1,0
74708,-249,4,3,1,80,0,0
74860,151.133501259446,4,3,1,80,1,0
74860,-250,4,3,1,80,0,0
75011,150.753768844221,4,3,1,80,1,0
75011,-250,4,3,1,80,0,0
75162,150.375939849624,4,3,1,80,1,0
75162,-250,4,3,1,80,0,0
75312,150,4,3,3,80,1,0
75312,-476.190476190476,4,3,3,80,0,0
75349,-476.190476190476,4,3,1,80,0,0
77712,-250.000000000001,4,3,1,80,0,0
80112,240,4,3,1,80,1,0
80112,-142.857142857143,4,3,1,80,0,0
81792,-142.857142857143,4,2,1,80,0,0
82032,-142.857142857143,4,2,1,70,0,0
90432,-142.857142857143,4,2,1,35,0,0
90672,-142.857142857143,4,2,1,45,0,0
90912,-142.857142857143,4,2,1,55,0,0
91152,-142.857142857143,4,2,1,60,0,0
91392,-142.857142857143,4,2,1,65,0,0
91632,-142.857142857143,4,2,1,70,0,0
93552,-142.857142857143,4,2,1,80,0,0
94512,-142.857142857143,4,2,1,50,0,0
99792,-142.857142857143,4,2,1,50,0,0
108912,-142.857142857143,4,3,1,80,0,0
124332,-142.857142857143,4,3,1,50,0,0
131952,-142.857142857143,4,3,1,30,0,0

[Colours]
Combo1 : 122,107,190
Combo2 : 74,116,193
Combo3 : 94,230,253

[HitObjects]
229,349,9090,6,0,L|328:361,1,99.9999999999999,8|8,0:0|0:0,0:0:0:0:
378,337,9810,1,2,0:0:0:0:
378,337,10050,2,0,L|370:274,1,50,8|4,0:0|0:0,0:0:0:0:
404,243,10530,2,0,L|461:250,1,50,8|4,0:0|0:0,0:0:0:0:
494,211,11010,2,0,L|487:158,1,50,8|0,0:0|0:0,0:0:0:0:
509,87,11490,6,0,P|503:65|430:27,1,104.999996795654,8|2,0:0|0:0,0:0:0:0:
387,30,11970,2,0,L|310:39,1,69.9999978637695,8|0,0:0|3:0,0:0:0:0:
219,51,12450,2,0,B|223:97|223:97|229:102|229:102|237:164,2,104.999996795654,8|2|0,0:0|0:0|0:0,0:0:0:0:
126,16,13410,6,0,P|51:39|25:96,1,139.999995727539,8|0,0:0|0:0,0:0:0:0:
32,188,14130,1,0,0:0:0:0:
118,235,14370,1,8,0:0:0:0:
69,319,14610,2,0,L|0:327,2,69.9999978637695,2|8|2,0:0|0:0|0:0,0:0:0:0:
118,235,15330,6,0,P|150:249|187:312,1,104.999996795654,8|2,0:0|0:0,0:0:0:0:
199,353,15810,2,0,L|272:361,1,69.9999978637695,8|0,0:0|3:0,0:0:0:0:
350,306,16290,2,0,B|374:317|374:317|465:307,2,104.999996795654,8|2|0,0:0|0:0|0:0,0:0:0:0:
362,208,17250,6,0,P|420:170|421:91,1,139.999995727539,8|0,0:0|0:0,0:0:0:0:
377,19,17970,1,0,0:0:0:0:
283,46,18210,2,0,B|214:55|214:55|223:135,1,139.999995727539,8|6,0:0|0:0,0:0:0:0:
306,303,19170,6,0,P|284:337|224:355,1,104.999996795654,8|2,0:0|0:0,0:0:0:0:
176,352,19650,2,0,L|103:343,1,69.9999978637695,8|0,0:0|3:0,0:0:0:0:
73,251,20130,2,0,P|24:276|4:324,2,104.999996795654,8|2|0,0:0|0:0|0:0,0:0:0:0:
171,242,21090,6,0,L|156:96,1,139.999995727539,8|0,0:0|0:0,0:0:0:0:
175,6,21810,1,0,0:0:0:0:
284,23,22050,1,8,0:0:0:0:
381,10,22290,2,0,B|415:14|415:14|419:11|419:11|463:17,2,69.9999978637695,2|8|2,0:0|0:0|0:0,0:0:0:0:
284,23,23010,6,0,L|294:129,1,104.999996795654,8|2,0:0|0:0,0:0:0:0:
302,175,23490,2,0,P|337:185|357:213,1,69.9999978637695,8|0,0:0|3:0,0:0:0:0:
375,307,23970,2,0,L|487:320,2,104.999996795654,8|2|0,0:0|0:0|0:0,0:0:0:0:
292,358,24930,2,0,L|181:370,1,104.999996795654,8|2,0:0|3:2,0:0:0:0:
141,357,25410,2,0,L|131:280,1,69.9999978637695,8|8,0:0|0:0,0:0:0:0:
35,271,25890,2,0,P|31:208|99:173,1,139.999995727539,8|8,0:0|0:0,0:0:0:0:
178,180,26610,1,2,0:0:0:0:
264,198,26850,6,0,L|414:179,1,150,8|0,0:0|0:0,0:0:0:0:
463,156,27707,2,0,P|500:192|512:245,2,99.9999999999999,2|2|2,0:0|0:0|0:0,0:0:0:0:
374,90,28992,2,0,L|266:79,1,99.9999999999999,8|0,0:0|0:0,0:0:0:0:
219,73,29635,1,8,0:0:0:0:
68,5,30278,6,0,P|10:32|2:117,1,150,8|0,0:0|0:0,0:0:0:0:
13,164,31135,2,0,L|25:267,1,99.9999999999999,8|0,0:0|0:0,0:0:0:0:
37,372,31992,2,0,L|140:360,1,99.9999999999999,0|8,0:0|0:0,0:0:0:0:
239,320,32850,2,0,L|303:328,1,50,2|8,0:0|0:0,0:0:0:0:
452,343,33707,6,0,B|460:281|460:281|454:255|454:255|463:185,1,150,8|0,0:0|0:0,0:0:0:0:
431,148,34564,2,0,P|448:103|500:88,2,99.9999999999999,2|2|2,0:0|0:0|0:0,0:0:0:0:
333,214,35850,2,0,B|288:190|288:190|276:141,1,99.9999999999999,8|0,0:0|0:0,0:0:0:0:
263,88,36492,1,8,0:0:0:0:
127,24,37135,6,0,L|114:128,1,99.9999999999999,8|2,0:0|0:0,0:0:0:0:
23,164,37992,2,0,L|36:267,1,99.9999999999999,2|2,0:0|0:0,0:0:0:0:
52,362,38850,2,0,L|103:356,1,50,8|2,0:0|0:0,0:0:0:0:
155,347,39278,2,0,L|160:295,1,50,8|2,0:0|0:0,0:0:0:0:
196,256,39707,2,0,B|245:236|285:264|275:269|303:307|369:292,1,175,8|2,0:0|0:0,0:0:0:0:
494,377,43221,6,0,B|452:346|409:347|409:347|412:148|519:15|519:15|478:-5|330:13|336:161|336:161|274:114|168:126,1,899.99997253418,0|2,0:0|0:0,0:0:0:0:
119,54,47061,6,0,P|99:22|41:8,1,89.999997253418,8|0,0:2|2:0,0:0:0:0:
8,13,47540,2,0,L|15:76,1,59.9999981689453,4|2,0:0|0:2,0:0:0:0:
77,126,48015,2,0,L|60:249,1,119.999996337891,8|4,0:2|0:0,0:0:0:0:
26,320,48721,1,2,0:2:0:0:
80,384,48955,2,0,P|114:374|153:335,1,89.999997253418,8|2,0:2|2:0,0:0:0:0:
180,305,49419,2,0,P|215:305|236:316,1,59.9999981689453,8|4,0:2|0:0,0:0:0:0:
290,380,49880,6,0,L|361:371,1,59.9999981689453,10|10,0:0|0:0,0:0:0:0:
433,362,50337,2,0,L|504:353,1,59.9999981689453,10|10,0:0|0:0,0:0:0:0:
464,275,50790,6,0,L|368:263,1,89.999997253418,8|0,0:2|2:0,0:0:0:0:
334,256,51241,2,0,P|308:235|300:202,1,59.9999981689453,4|2,0:0|0:2,0:0:0:0:
303,126,51689,2,0,L|425:113,1,119.999996337891,8|4,0:2|0:0,0:0:0:0:
497,80,52352,1,2,0:2:0:0:
454,7,52573,2,0,L|360:-2,1,89.999997253418,8|2,0:2|2:0,0:0:0:0:
336,29,53010,2,0,L|274:35,1,59.9999981689453,8|4,0:2|0:0,0:0:0:0:
197,10,53444,6,0,B|184:34|184:34|188:66,1,59.9999981689453,10|10,0:0|0:0,0:0:0:0:
201,150,53875,2,0,L|208:213,1,59.9999981689453,10|10,0:0|0:0,0:0:0:0:
135,254,54302,6,0,P|100:268|75:307,1,74.9999999999999,8|0,0:2|2:0,0:0:0:0:
69,338,54727,2,0,L|126:345,1,50,4|2,0:0|0:2,0:0:0:0:
191,381,55149,2,0,L|293:368,1,99.9999999999999,8|4,0:2|0:0,0:0:0:0:
359,324,55776,1,2,0:2:0:0:
427,372,55984,2,0,P|447:366|480:318,1,74.9999999999999,8|2,0:2|2:0,0:0:0:0:
491,285,56397,2,0,P|496:263|492:232,1,50,8|4,0:2|0:0,0:0:0:0:
439,173,56807,6,0,L|383:179,1,50,10|10,0:0|0:0,0:0:0:0:
331,237,57216,2,0,L|275:230,1,50,10|10,0:0|0:0,0:0:0:0:
207,267,57620,6,0,L|127:257,1,74.9999999999999,8|0,0:2|2:0,0:0:0:0:
92,250,58022,2,0,P|67:229|58:204,1,50,4|2,0:0|0:2,0:0:0:0:
46,131,58422,2,0,L|148:117,1,99.9999999999999,8|4,0:2|0:0,0:0:0:0:
223,94,59015,1,2,0:2:0:0:
250,15,59212,2,0,L|332:24,1,74.9999999999999,8|2,0:2|2:0,0:0:0:0:
357,48,59604,2,0,L|412:41,1,50,8|4,0:2|0:0,0:0:0:0:
485,14,59993,6,0,B|505:40|505:40|503:62,1,50,10|10,0:0|0:0,0:0:0:0:
494,141,60379,2,0,L|487:196,1,50,10|10,0:0|0:0,0:0:0:0:
508,271,60763,6,0,L|412:282,1,89.999997253418,8|4,0:2|0:0,0:0:0:0:
389,360,61335,1,2,0:2:0:0:
307,376,61524,1,8,0:2:0:0:
177,271,61901,2,0,L|129:276,1,44.999998626709,4|2,0:0|0:2,0:0:0:0:
83,343,62275,2,0,P|50:336|5:249,1,134.999995880127,8|4,0:2|0:0,0:0:0:0:
39,179,63017,6,0,L|90:172,1,44.999998626709,10|10,0:0|0:0,0:0:0:0:
154,128,63385,2,0,L|205:121,1,44.999998626709,10|10,0:0|0:0,0:0:0:0:
228,43,63751,6,0,L|323:54,1,89.999997253418,8|4,0:2|0:0,0:0:0:0:
399,66,64294,1,2,0:2:0:0:
482,76,64475,1,8,0:2:0:0:
504,241,64834,2,0,P|479:249|458:247,1,44.999998626709,4|2,0:0|0:2,0:0:0:0:
380,225,65190,2,0,L|363:358,1,134.999995880127,8|4,0:2|0:0,0:0:0:0:
280,361,65897,6,0,B|253:340|253:340|251:321,1,44.999998626709,10|10,0:0|0:0,0:0:0:0:
182,283,66248,2,0,L|176:235,1,44.999998626709,10|10,0:0|0:0,0:0:0:0:
235,178,66596,6,0,P|271:169|299:120,1,89.999997253418,8|4,0:2|0:0,0:0:0:0:
315,44,67114,1,2,0:2:0:0:
237,16,67287,1,8,0:2:0:0:
81,70,67629,2,0,L|33:64,1,40,4|2,0:0|0:2,0:0:0:0:
7,140,67970,2,0,L|22:258,1,120,8|4,0:2|0:0,0:0:0:0:
39,340,68646,6,0,P|58:354|78:354,1,40,10|10,0:0|0:0,0:0:0:0:
155,353,68980,2,0,P|176:343|186:326,1,40,10|10,0:0|0:0,0:0:0:0:
181,248,69313,6,0,L|268:259,1,79.9999999999999,8|4,0:2|0:0,0:0:0:0:
298,330,69808,1,2,0:2:0:0:
381,318,69973,1,8,0:2:0:0:
484,189,70301,2,0,P|482:152|478:142,1,40,4|2,0:0|0:2,0:0:0:0:
421,94,70626,2,0,L|294:78,1,120,8|4,0:2|0:0,0:0:0:0:
236,31,71273,2,0,P|221:25|190:28,1,40,10|10,0:0|0:0,0:0:0:0:
119,51,71594,2,0,P|106:60|93:89,1,40,10|10,0:0|0:0,0:0:0:0:
110,163,71913,6,0,L|31:173,1,79.9999999999999,8|8,0:2|0:2,0:0:0:0:
18,256,72388,2,0,L|8:335,1,79.9999999999999,8|8,0:2|0:2,0:0:0:0:
84,368,72859,2,0,L|163:378,1,79.9999999999999,8|8,0:2|0:2,0:0:0:0:
225,324,73326,2,0,L|304:314,1,79.9999999999999,8|8,0:2|0:2,0:0:0:0:
384,339,73790,2,0,P|420:322|442:285,1,79.9999999999999,8|8,0:2|0:2,0:0:0:0:
448,204,74251,2,0,P|441:165|411:134,1,79.9999999999999,8|8,0:2|0:2,0:0:0:0:
330,123,74708,2,0,B|251:113|251:113|260:34,1,160,8|4,0:2|0:0,0:0:0:0:
260,33,77712,2,0,B|204:-26|101:0|74:94|117:161|176:176|176:176|254:197|282:299|213:369|133:364|91:320,1,639.999999999999,8|12,0:2|0:0,0:0:0:0:
91,320,81792,5,2,0:0:0:0:
179,361,82032,2,0,P|248:352|256:285,1,139.999995727539,8|0,0:0|0:0,0:0:0:0:
310,207,82752,2,0,B|288:188|288:188|184:175|184:175|168:181|168:181|25:163,1,279.999991455078,12|2,0:0|3:2,0:0:0:0:
8,72,83952,6,0,L|152:53,1,139.999995727539,8|0,0:0|0:0,0:0:0:0:
243,41,84672,1,8,0:0:0:0:
435,3,85152,2,0,B|427:63|427:63|432:79|432:79|423:148,1,139.999995727539,8|0,0:0|0:0,0:0:0:0:
476,225,85872,6,0,P|469:285|395:296,1,139.999995727539,8|0,0:0|0:0,0:0:0:0:
305,274,86592,2,0,B|235:242|159:294|198:312|117:368|37:315,1,279.999991455078,12|2,0:0|3:2,0:0:0:0:
5,232,87792,2,0,L|22:86,1,139.999995727539,8|0,0:0|0:0,0:0:0:0:
90,23,88512,1,8,0:0:0:0:
269,102,88992,2,0,B|295:115|295:115|445:95,1,174.999994659424,8|0,0:0|0:0,0:0:0:0:
488,87,89712,1,12,0:0:0:0:
428,374,90432,6,0,B|423:349|405:332|382:326|382:326|312:335|312:335|288:328|272:309|267:286|267:286|250:309|223:319|197:315,1,279.999991455079,2|2,0:0|0:0,0:0:0:0:
109,308,91632,1,8,0:0:0:0:
109,308,93552,6,0,P|40:292|24:226,1,139.999995727539,4|0,3:0|0:0,0:0:0:0:
159,90,94512,2,0,L|301:107,2,139.999995727539,0|0|2,0:0|0:0|3:2,0:0:0:0:
22,231,95952,1,0,0:0:0:0:
207,295,96432,6,0,L|349:277,1,139.999995727539
450,111,97392,2,0,L|307:93,1,139.999995727539,2|0,3:2|0:0,0:0:0:0:
128,21,98352,6,0,P|77:19|24:86,2,139.999995727539,0|2|0,0:0|3:2|0:0,0:0:0:0:
311,93,99792,1,2,3:2:0:0:
494,23,100272,2,0,B|506:48|506:48|491:167,1,139.999995727539
466,353,101232,6,0,P|405:343|359:282,1,139.999995727539,4|0,0:0|0:0,0:0:0:0:
311,93,102192,2,0,B|255:99|255:99|230:94|230:94|167:102,2,139.999995727539,0|2|0,0:0|3:2|0:0,0:0:0:0:
359,283,103632,1,2,3:2:0:0:
186,376,104112,6,0,L|46:359,1,139.999995727539
0,168,105072,2,0,L|150:149,1,139.999995727539,2|0,3:2|0:0,0:0:0:0:
278,12,106032,2,0,P|349:36|364:109,1,139.999995727539
443,273,106992,6,0,L|300:255,1,139.999995727539,2|0,3:2|0:0,0:0:0:0:
138,361,107952,1,0,0:0:0:0:
114,166,108432,1,0,0:0:0:0:
240,16,108912,6,0,B|266:2|266:2|345:11,1,104.999996795654,8|2,0:2|2:0,0:0:0:0:
374,47,109392,2,0,L|445:38,1,69.9999978637695,8|2,0:2|0:2,0:0:0:0:
495,121,109872,2,0,B|503:190|503:190|435:199,1,139.999995727539,8|8,0:2|0:2,0:0:0:0:
336,214,110592,1,2,0:2:0:0:
264,145,110832,6,0,B|159:132|159:132|97:231,1,209.999993591309,2|0,2:0|2:0,2:0:0:0:
113,318,111792,6,0,L|223:330,1,104.999996795654,8|2,0:2|2:0,0:0:0:0:
241,373,112272,2,0,L|320:363,1,69.9999978637695,8|2,0:2|0:2,0:0:0:0:
407,347,112752,1,8,0:2:0:0:
466,269,112992,2,0,L|513:274,2,34.9999989318848,0|2|8,2:0|2:0|0:2,0:0:0:0:
424,179,113472,1,2,0:2:0:0:
326,188,113712,6,0,L|313:83,1,104.999996795654,8|0,0:2|0:0,0:0:0:0:
306,35,114192,2,0,P|258:14|233:12,1,69.9999978637695,8|2,0:2|2:0,0:0:0:0:
157,63,114672,1,8,0:2:0:0:
63,34,114912,2,0,L|68:-6,2,34.9999989318848,2|0|8,0:2|0:0|0:2,0:0:0:0:
0,109,115392,1,0,2:0:0:0:
13,206,115632,6,0,L|155:188,1,139.999995727539,2|2,2:0|2:0,0:0:0:0:
251,357,116592,6,0,L|369:370,1,104.999996795654,8|2,0:2|2:0,0:0:0:0:
373,323,117072,2,0,L|442:314,1,69.9999978637695,8|2,0:2|0:2,0:0:0:0:
511,243,117552,2,0,B|519:174|519:174|451:165,1,139.999995727539,8|8,0:2|0:2,0:0:0:0:
351,153,118272,1,2,2:0:0:0:
253,142,118512,6,0,B|183:132|183:132|191:63,1,139.999995727539,2|2,2:0|2:0,0:0:0:0:
4,1,119472,6,0,L|16:111,1,104.999996795654,8|2,0:2|2:0,0:0:0:0:
62,122,119952,2,0,L|53:193,1,69.9999978637695,8|2,0:2|0:2,0:0:0:0:
9,279,120432,1,8,0:2:0:0:
78,347,120672,2,0,L|72:391,2,34.9999989318848,0|2|8,2:0|2:0|0:2,0:0:0:0:
157,289,121152,1,2,0:2:0:0:
238,343,121392,6,0,P|288:327|312:284,1,104.999996795654,8|0,0:2|0:0,0:0:0:0:
298,237,121872,2,0,L|377:227,1,69.9999978637695,8|2,0:2|2:0,0:0:0:0:
465,219,122352,1,8,0:2:0:0:
477,121,122592,2,0,L|516:125,2,34.9999989318848,0|2|8,2:0|2:0|0:2,0:0:0:0:
417,42,123072,1,2,0:2:0:0:
319,51,123312,6,0,B|290:78|290:78|186:91,1,139.999995727539,2|2,2:0|2:0,0:0:0:0:
256,192,124272,12,0,131952,0:0:0:0:
