osu file format v14

[General]
AudioFilename: audio.mp3
AudioLeadIn: 0
PreviewTime: 82032
Countdown: 0
SampleSet: Soft
StackLeniency: 0.2
Mode: 0
LetterboxInBreaks: 0
EpilepsyWarning: 1
WidescreenStoryboard: 0

[Editor]
Bookmarks: 8010,124272,131952
DistanceSpacing: 2.05
BeatDivisor: 4
GridSize: 8
TimelineZoom: 4.499998

[Metadata]
Title:Aleph-0
TitleUnicode:ℵ0
Artist:LeaF
ArtistUnicode:LeaF
Creator:Yooh
Version:{NULL:TEMP_TATION}
Source:osu!
Tags:electronic instrumental bofu2016 zero BMS OF FIGHTERS ULTIMATE 2016 - Legendary Again - ℵ0 leaf-0001 doppelganger c94 comiket 94 diverse system optie fa featured artist mpg mappers' guild daycore null.temptation null temptation
BeatmapID:2823085
BeatmapSetID:1364626

[Difficulty]
HPDrainRate:6
CircleSize:4.5
OverallDifficulty:9
ApproachRate:9.6
SliderMultiplier:2.1
SliderTickRate:0.5

[Events]
//Background and Video events
0,0,"aleph-0.jpg",0,0
Video,903,"alephvid.mp4"
//Break Periods
//Storyboard Layer 0 (Background)
//Storyboard Layer 1 (Fail)
//Storyboard Layer 2 (Pass)
//Storyboard Layer 3 (Foreground)
//Storyboard Layer 4 (Overlay)
//Storyboard Sound Samples

[TimingPoints]
6690,480,5,2,1,50,1,0
6690,-50,5,2,1,50,0,0
7170,-66.6666666666667,5,2,1,50,0,0
7650,-100,5,2,1,50,0,0
8970,-100,5,2,2,5,0,0
9090,-50,5,2,1,70,0,0
9570,-166.666666666667,5,2,1,70,0,0
9750,-166.666666666667,5,2,2,5,0,0
9810,-45.4545454545455,5,2,1,70,0,0
10050,-250,5,2,1,70,0,0
10230,-250,5,2,2,5,0,0
10290,-45.4545454545455,5,2,1,70,0,0
10470,-45.4545454545455,5,2,2,5,0,0
10530,-250,5,2,1,70,0,0
10710,-250,5,2,2,5,0,0
10770,-45.4545454545455,5,2,1,70,0,0
10950,-45.4545454545455,5,2,2,5,0,0
11010,-250,5,2,1,70,0,0
11190,-250,5,2,2,5,0,0
11250,-250,5,2,1,70,0,0
11430,-250,5,2,2,5,0,0
11490,240,4,2,1,60,1,0
14370,-250,4,2,1,60,0,0
14580,-250,4,2,2,5,0,0
14610,-66.6666666666667,4,2,1,60,0,0
14820,-66.6666666666667,4,2,2,5,0,0
14850,-80,4,2,1,60,0,0
15060,-100,4,2,2,5,0,0
15090,-100,4,2,1,60,0,0
18210,-50,4,2,1,60,0,0
18690,-100,4,2,1,60,0,0
19170,-90.9090909090909,4,2,1,60,0,0
22050,-200,4,2,1,60,0,0
22260,-200,4,2,2,5,0,0
22290,-62.5,4,2,1,60,0,0
22500,-62.5,4,2,2,5,0,0
22530,-74.0740740740741,4,2,1,60,0,0
22740,-74.0740740740741,4,2,2,5,0,0
22770,-90.9090909090909,4,2,1,60,0,0
25890,-200,4,2,1,60,0,0
26850,428.571428571429,4,2,3,45,1,0
26850,-333.333333333333,4,2,3,45,0,0
28564,-200,4,2,3,45,0,0
28885,-200,4,2,2,5,0,0
28992,-333.333333333333,4,2,3,45,0,0
30278,-250,4,2,3,45,0,0
30600,-333.333333333333,4,2,2,5,0,0
30707,-333.333333333333,4,2,3,45,0,0
33707,-166.666666666667,4,2,3,55,0,0
35421,-125,4,2,3,55,0,0
35742,-125,4,2,2,5,0,0
35850,-166.666666666667,4,2,3,55,0,0
37135,-333.333333333334,4,2,3,55,0,0
37457,-333.333333333334,4,2,2,5,0,0
37564,-166.666666666667,4,2,3,55,0,0
37992,-142.857142857143,4,2,3,55,0,0
38421,-125,4,2,3,55,0,0
38850,-166.666666666667,4,2,3,60,0,0
39278,-166.666666666667,4,2,3,65,0,0
39707,-166.666666666667,4,2,3,70,0,0
41421,240,1,2,3,80,1,0
46701,-100,1,2,2,5,0,0
46821,-333.333333333333,1,2,1,80,0,0
47001,-333.333333333333,1,2,2,5,0,0
47061,240,4,3,1,80,1,0
47301,239.043824701195,4,3,1,80,1,0
47540,238.095238095238,4,3,1,80,1,0
47778,237.154150197628,4,3,1,80,1,0
48015,236.220472440945,4,3,1,80,1,0
48252,235.294117647059,4,3,1,80,1,0
48487,234.375,4,3,1,80,1,0
48487,-86.9565217391304,4,3,1,80,0,0
48721,233.463035019455,4,3,1,80,1,0
48721,-86.9565217391304,4,3,1,80,0,0
48955,232.558139534884,4,3,1,80,1,0
49187,231.660231660232,4,3,1,80,1,0
49419,230.769230769231,4,3,1,80,1,0
49650,229.885057471264,4,3,1,80,1,0
49880,229.007633587786,4,3,1,80,1,0
49880,-76.9230769230769,4,3,1,80,0,0
49994,-76.9230769230769,4,3,2,5,0,0
50109,228.136882129278,4,3,1,80,1,0
50109,-76.9230769230769,4,3,1,80,0,0
50223,-76.9230769230769,4,3,2,5,0,0
50337,227.272727272727,4,3,1,80,1,0
50337,-76.9230769230769,4,3,1,80,0,0
50450,-76.9230769230769,4,3,2,5,0,0
50564,226.415094339623,4,3,1,80,1,0
50564,-76.9230769230769,4,3,1,80,0,0
50677,-76.9230769230769,4,3,2,5,0,0
50790,225.563909774436,4,3,1,80,1,0
50790,-100,4,3,1,80,0,0
51016,224.719101123596,4,3,1,80,1,0
51241,223.880597014925,4,3,1,80,1,0
51466,223.048327137546,4,3,1,80,1,0
51689,222.222222222222,4,3,1,80,1,0
51911,221.40221402214,4,3,1,80,1,0
52132,220.588235294118,4,3,1,80,1,0
52132,-86.9565217391304,4,3,1,80,0,0
52353,219.78021978022,4,3,1,80,1,0
52353,-86.9565217391304,4,3,1,80,0,0
52573,218.978102189781,4,3,1,80,1,0
52792,218.181818181818,4,3,1,80,1,0
53010,217.391304347826,4,3,1,80,1,0
53227,216.606498194946,4,3,1,80,1,0
53444,215.827338129496,4,3,1,80,1,0
53444,-76.9230769230769,4,3,1,80,0,0
53551,-76.9230769230769,4,3,2,5,0,0
53660,215.05376344086,4,3,1,80,1,0
53660,-76.9230769230769,4,3,1,80,0,0
53767,-76.9230769230769,4,3,2,5,0,0
53875,214.285714285714,4,3,1,80,1,0
53875,-76.9230769230769,4,3,1,80,0,0
53982,-76.9230769230769,4,3,2,5,0,0
54089,213.523131672598,4,3,1,80,1,0
54089,-76.9230769230769,4,3,1,80,0,0
54195,-76.9230769230769,4,3,2,5,0,0
54302,212.765957446809,4,3,1,80,1,0
54302,-100,4,3,1,80,0,0
54515,212.014134275618,4,3,1,80,1,0
54727,211.267605633803,4,3,1,80,1,0
54938,210.526315789474,4,3,1,80,1,0
55149,209.79020979021,4,3,1,80,1,0
55359,209.059233449477,4,3,1,80,1,0
55568,208.333333333333,4,3,1,80,1,0
55568,-90.9090909090909,4,3,1,80,0,0
55776,207.612456747405,4,3,1,80,1,0
55776,-90.9090909090909,4,3,1,80,0,0
55984,206.896551724138,4,3,1,80,1,0
56191,206.185567010309,4,3,1,80,1,0
56397,205.479452054795,4,3,1,80,1,0
56602,204.778156996587,4,3,1,80,1,0
56807,204.081632653061,4,3,1,80,1,0
56807,-76.9230769230769,4,3,1,80,0,0
56909,-76.9230769230769,4,3,2,5,0,0
57012,203.389830508475,4,3,1,80,1,0
57012,-76.9230769230769,4,3,1,80,0,0
57113,-76.9230769230769,4,3,2,5,0,0
57216,202.702702702703,4,3,1,80,1,0
57216,-76.9230769230769,4,3,1,80,0,0
57317,-76.9230769230769,4,3,2,5,0,0
57418,202.020202020202,4,3,1,80,1,0
57418,-76.9230769230769,4,3,1,80,0,0
57519,-76.9230769230769,4,3,2,5,0,0
57620,201.342281879195,4,3,1,80,1,0
57620,-100,4,3,1,80,0,0
57822,200.66889632107,4,3,1,80,1,0
58022,200,4,3,1,80,1,0
58222,199.335548172757,4,3,1,80,1,0
58422,198.675496688742,4,3,1,80,1,0
58620,198.019801980198,4,3,1,80,1,0
58818,197.368421052632,4,3,1,80,1,0
58818,-90.9090909090909,4,3,1,80,0,0
59016,196.72131147541,4,3,1,80,1,0
59016,-90.9090909090909,4,3,1,80,0,0
59212,196.078431372549,4,3,1,80,1,0
59409,195.439739413681,4,3,1,80,1,0
59604,194.805194805195,4,3,1,80,1,0
59799,194.174757281553,4,3,1,80,1,0
59993,193.548387096774,4,3,1,80,1,0
59993,-76.9230769230769,4,3,1,80,0,0
60089,-76.9230769230769,4,3,2,5,0,0
60186,192.926045016077,4,3,1,80,1,0
60186,-76.9230769230769,4,3,1,80,0,0
60282,-76.9230769230769,4,3,2,5,0,0
60379,192.307692307692,4,3,1,80,1,0
60379,-76.9230769230769,4,3,1,80,0,0
60475,-76.9230769230769,4,3,2,5,0,0
60572,191.693290734824,4,3,1,80,1,0
60572,-76.9230769230769,4,3,1,80,0,0
60667,-76.9230769230769,4,3,2,5,0,0
60763,191.082802547771,4,3,1,80,1,0
60954,190.47619047619,4,3,1,80,1,0
61145,189.873417721519,4,3,1,80,1,0
61335,189.274447949527,4,3,1,80,1,0
61524,188.679245283019,4,3,1,80,1,0
61713,188.087774294671,4,3,1,80,1,0
61901,187.5,4,3,1,80,1,0
62088,186.915887850467,4,3,1,80,1,0
62088,-90.9090909090909,4,3,1,80,0,0
62275,186.335403726708,4,3,1,80,1,0
62275,-90.9090909090909,4,3,1,80,0,0
62462,185.758513931889,4,3,1,80,1,0
62462,-90.9090909090909,4,3,1,80,0,0
62647,185.185185185185,4,3,1,80,1,0
62647,-90.9090909090909,4,3,1,80,0,0
62833,184.615384615385,4,3,1,80,1,0
62833,-90.9090909090909,4,3,1,80,0,0
63017,184.049079754601,4,3,1,80,1,0
63017,-76.9230769230769,4,3,1,80,0,0
63109,-76.9230769230769,4,3,2,5,0,0
63201,183.48623853211,4,3,1,80,1,0
63201,-76.9230769230769,4,3,1,80,0,0
63292,-76.9230769230769,4,3,2,5,0,0
63385,182.926829268293,4,3,1,80,1,0
63385,-76.9230769230769,4,3,1,80,0,0
63476,-76.9230769230769,4,3,2,5,0,0
63569,182.370820668693,4,3,1,80,1,0
63569,-76.9230769230769,4,3,1,80,0,0
63660,-76.9230769230769,4,3,2,5,0,0
63751,181.818181818182,4,3,1,80,1,0
63751,-100,4,3,1,80,0,0
63933,181.268882175227,4,3,1,80,1,0
64114,180.722891566265,4,3,1,80,1,0
64295,180.18018018018,4,3,1,80,1,0
64475,179.640718562874,4,3,1,80,1,0
64655,179.10447761194,4,3,1,80,1,0
64834,178.571428571429,4,3,1,80,1,0
65012,178.041543026706,4,3,1,80,1,0
65012,-90.9090909090909,4,3,1,80,0,0
65190,177.514792899408,4,3,1,80,1,0
65190,-90.9090909090909,4,3,1,80,0,0
65368,176.991150442478,4,3,1,80,1,0
65368,-90.9090909090909,4,3,1,80,0,0
65545,176.470588235294,4,3,1,80,1,0
65545,-90.9090909090909,4,3,1,80,0,0
65721,175.953079178886,4,3,1,80,1,0
65721,-90.9090909090909,4,3,1,80,0,0
65897,175.438596491228,4,3,1,80,1,0
65897,-76.9230769230769,4,3,1,80,0,0
65984,-76.9230769230769,4,3,2,5,0,0
66073,174.927113702624,4,3,1,80,1,0
66073,-76.9230769230769,4,3,1,80,0,0
66160,-76.9230769230769,4,3,2,5,0,0
66248,174.418604651163,4,3,1,80,1,0
66248,-76.9230769230769,4,3,1,80,0,0
66335,-76.9230769230769,4,3,2,5,0,0
66422,173.913043478261,4,3,1,80,1,0
66422,-76.9230769230769,4,3,1,80,0,0
66508,-76.9230769230769,4,3,2,5,0,0
66596,173.410404624277,4,3,1,80,1,0
66769,172.910662824208,4,3,1,80,1,0
66942,172.413793103448,4,3,1,80,1,0
67115,171.919770773639,4,3,1,80,1,0
67287,171.428571428571,4,3,1,80,1,0
67458,170.940170940171,4,3,1,80,1,0
67629,170.454545454545,4,3,1,80,1,0
67800,169.971671388102,4,3,1,80,1,0
67800,-90.9090909090909,4,3,1,80,0,0
67970,169.491525423729,4,3,1,80,1,0
67970,-90.9090909090909,4,3,1,80,0,0
68140,169.014084507042,4,3,1,80,1,0
68309,168.539325842697,4,3,1,80,1,0
68477,168.067226890756,4,3,1,80,1,0
68646,167.597765363129,4,3,1,80,1,0
68646,-76.9230769230769,4,3,1,80,0,0
68729,-76.9230769230769,4,3,2,5,0,0
68813,167.130919220056,4,3,1,80,1,0
68813,-76.9230769230769,4,3,1,80,0,0
68896,-76.9230769230769,4,3,2,5,0,0
68980,166.666666666667,4,3,1,80,1,0
68980,-76.9230769230769,4,3,1,80,0,0
69063,-76.9230769230769,4,3,2,5,0,0
69147,166.204986149585,4,3,1,80,1,0
69147,-76.9230769230769,4,3,1,80,0,0
69230,-76.9230769230769,4,3,2,5,0,0
69313,165.745856353591,4,3,1,80,1,0
69479,165.289256198347,4,3,1,80,1,0
69644,164.835164835165,4,3,1,80,1,0
69809,164.383561643836,4,3,1,80,1,0
69973,163.934426229508,4,3,1,80,1,0
70137,163.487738419619,4,3,1,80,1,0
70301,163.04347826087,4,3,1,80,1,0
70464,162.60162601626,4,3,1,80,1,0
70626,162.162162162162,4,3,1,80,1,0
70789,161.725067385445,4,3,1,80,1,0
70950,161.290322580645,4,3,1,80,1,0
71112,160.857908847185,4,3,1,80,1,0
71273,160.427807486631,4,3,1,80,1,0
71273,-76.9230769230769,4,3,1,80,0,0
71353,-76.9230769230769,4,3,2,5,0,0
71434,160,4,3,1,80,1,0
71434,-76.9230769230769,4,3,1,80,0,0
71514,-76.9230769230769,4,3,2,5,0,0
71594,159.574468085106,4,3,1,80,1,0
71594,-76.9230769230769,4,3,1,80,0,0
71673,-76.9230769230769,4,3,2,5,0,0
71754,159.151193633952,4,3,1,80,1,0
71754,-76.9230769230769,4,3,1,80,0,0
71833,-76.9230769230769,4,3,2,5,0,0
71913,158.730158730159,4,3,1,80,1,0
72071,158.311345646438,4,3,1,80,1,0
72230,157.894736842105,4,3,3,80,1,0
72388,157.48031496063,4,3,1,80,1,0
72545,157.068062827225,4,3,1,80,1,0
72702,156.657963446475,4,3,3,80,1,0
72859,156.25,4,3,1,80,1,0
73015,155.844155844156,4,3,1,80,1,0
73171,155.440414507772,4,3,3,80,1,0
73326,155.038759689922,4,3,1,80,1,0
73481,154.639175257732,4,3,1,80,1,0
73636,154.241645244216,4,3,1,80,1,0
73790,153.846153846154,4,3,1,80,1,0
73944,153.452685421995,4,3,1,80,1,0
74098,153.061224489796,4,3,3,80,1,0
74251,152.671755725191,4,3,1,80,1,0
74403,152.284263959391,4,3,1,80,1,0
74556,151.898734177215,4,3,3,80,1,0
74708,151.515151515152,4,3,1,80,1,0
74860,151.133501259446,4,3,1,80,1,0
75011,150.753768844221,4,3,1,80,1,0
75162,150.375939849624,4,3,1,80,1,0
75312,150,4,3,1,80,1,0
75312,-250,4,3,3,80,0,0
75349,-250,4,3,1,80,0,0
77674,-250,4,3,2,5,0,0
77712,-133.333333333333,4,3,1,80,0,0
80112,240,4,3,1,80,1,0
80112,-333.333333333333,4,3,1,80,0,0
81732,-333.333333333333,4,3,2,5,0,0
81792,-200,4,2,1,80,0,0
81972,-125,4,2,2,5,0,0
82032,-125,4,2,1,70,0,0
82752,-1000,4,2,1,70,0,0
83652,-1000,4,2,2,5,0,0
83712,-125,4,2,1,70,0,0
84672,-1000,4,2,1,70,0,0
85092,-1000,4,2,2,5,0,0
85152,-125,4,2,1,70,0,0
86592,-1000,4,2,1,70,0,0
87492,-125,4,2,2,5,0,0
87552,-125,4,2,1,70,0,0
88512,-1000,4,2,1,70,0,0
88932,-125,4,2,2,5,0,0
88992,-125,4,2,1,70,0,0
90432,-333.333333333333,4,2,1,35,0,0
90642,-333.333333333333,4,2,2,5,0,0
90672,-250,4,2,1,45,0,0
90882,-250,4,2,2,5,0,0
90912,-200,4,2,1,55,0,0
91122,-200,4,2,2,5,0,0
91152,-166.666666666667,4,2,1,60,0,0
91362,-166.666666666667,4,2,2,5,0,0
91392,-142.857142857143,4,2,1,65,0,0
91602,-142.857142857143,4,2,2,5,0,0
91632,-333.333333333333,4,2,1,70,0,0
93522,-333.333333333333,4,2,2,5,0,0
93552,-250,4,2,1,80,0,0
94512,-250,4,2,1,50,0,0
105042,-250,4,2,2,5,0,0
105072,-250,4,2,1,50,0,0
106002,-250,4,2,2,5,0,0
106032,-250,4,2,1,50,0,0
107922,-250,4,2,2,5,0,0
107952,-250,4,2,1,50,0,0
108912,-80,4,3,1,80,0,0
110832,-250,4,3,1,80,0,0
111732,-250,4,2,2,5,0,0
111792,-80,4,3,1,80,0,0
115632,-250,4,3,1,80,0,0
116052,-250,4,2,2,5,0,0
116112,-250,4,3,1,80,0,0
116532,-250,4,2,2,5,0,0
116592,-80,4,3,1,80,0,0
118512,-250,4,3,1,80,0,0
118932,-250,4,2,2,5,0,0
118992,-250,4,3,1,80,0,0
119412,-250,4,2,2,5,0,0
119472,-80,4,3,1,80,0,0
123312,-200,4,3,1,80,0,0
123732,-200,4,2,2,5,0,0
123792,-200,4,3,1,80,0,0
124212,-200,4,2,2,5,0,0
124272,-250,4,3,1,80,0,0
124332,-250,4,3,1,50,0,0
131952,-250,4,3,1,30,0,0

[Colours]
Combo1 : 122,107,190
Combo2 : 74,116,193
Combo3 : 94,230,253

[HitObjects]
162,34,6690,6,0,L|166:0,11,35,2|0|2|0|2|0|2|0|2|0|2|0,0:0|0:0|0:0|0:0|0:0|0:0|0:0|0:0|0:0|0:0|0:0|0:0,0:0:0:0:
160,51,7170,2,0,B|87:69|87:69|84:73|84:73|-15:98,1,157.500006008148
9,108,7470,2,0,L|5:133,4,19.6875007510186,0|0|2|2|2,0:0|0:0|0:0|0:0|0:0,0:0:0:0:
256,192,7650,12,0,8970,0:0:0:0:
512,238,9090,6,0,L|410:260,1,105,8|0,0:0|0:0,0:0:0:0:
235,354,9330,1,2,0:0:0:0:
253,349,9390,1,0,0:0:0:0:
286,366,9450,1,2,0:0:0:0:
302,362,9510,1,0,0:0:0:0:
317,358,9570,2,0,L|371:344,1,47.2499985580445,8|0,0:0|0:0,0:0:0:0:
428,330,9810,5,2,0:0:0:0:
409,261,9930,1,0,0:0:0:0:
390,192,10050,2,0,L|380:153,1,31.5,8|0,0:0|0:0,0:0:0:0:
425,96,10290,2,0,B|442:125|442:125|399:295,1,173.250005287171,4|0,0:0|0:0,0:0:0:0:
340,244,10530,2,0,L|301:234,1,31.5,8|0,0:0|0:0,0:0:0:0:
245,219,10770,2,0,B|225:139|225:139|219:134|219:134|198:47,1,173.250005287171,4|0,0:0|0:0,0:0:0:0:
264,30,11010,6,0,L|272:0,1,31.5,8|0,0:0|0:0,0:0:0:0:
284,3,11250,2,0,L|277:34,1,31.5
199,53,11490,5,8,0:0:0:0:
151,276,11730,1,0,3:0:0:0:
119,283,11850,1,2,0:0:0:0:
48,295,11970,2,0,P|7:269|10:198,1,105,8|0,0:0|0:0,0:0:0:0:
28,149,12210,1,0,3:0:0:0:
199,53,12450,2,0,B|180:202|180:202|184:210|184:210|164:378,2,315,8|2|0,0:0|0:0|0:0,0:0:0:0:
448,0,13410,5,8,0:0:0:0:
451,31,13530,2,0,L|464:134,1,105,2|0,0:0|3:0,0:0:0:0:
442,212,13770,1,0,0:0:0:0:
474,204,13890,1,8,0:0:0:0:
403,187,14010,1,2,0:0:0:0:
332,170,14130,1,0,3:0:0:0:
128,312,14370,6,0,L|108:389,1,73.5,8|0,0:0|0:0,0:0:0:0:
124,379,14610,2,0,B|247:343|247:343|264:346|264:346|395:309,1,275.62501051426,2|0,0:0|0:0,0:0:0:0:
401,308,14850,2,0,L|175:251,1,229.6875,8|0,0:0|0:0,0:0:0:0:
113,235,15090,1,2,0:0:0:0:
0,0,15330,5,8,0:0:0:0:
234,62,15570,1,0,3:0:0:0:
230,95,15690,1,2,0:0:0:0:
217,166,15810,2,0,B|165:178|165:178|150:115,1,105,8|0,0:0|0:0,0:0:0:0:
137,57,16050,1,0,3:0:0:0:
368,0,16290,2,0,B|521:38|521:38|477:214,2,315,8|2|0,0:0|0:0|0:0,0:0:0:0:
200,259,17250,5,8,0:0:0:0:
230,252,17370,2,0,L|330:226,1,105,2|0,0:0|3:0,0:0:0:0:
415,240,17610,1,0,0:0:0:0:
407,208,17730,1,8,0:0:0:0:
390,279,17850,1,2,0:0:0:0:
373,350,17970,1,0,3:0:0:0:
69,273,18210,6,0,L|6:257,15,52.5,8|0|2|0|2|0|2|0|2|0|2|0|2|0|0|0,0:0|0:0|0:0|0:0|0:0|0:0|0:0|0:0|0:0|0:0|0:0|0:0|0:0|0:0|0:0|0:0,0:0:0:0:
82,276,18690,1,6,0:0:0:0:
465,365,19170,5,8,0:0:0:0:
443,144,19410,1,0,3:0:0:0:
439,106,19530,1,2,0:0:0:0:
428,37,19650,2,0,P|388:32|345:107,1,115.50000352478,8|0,0:0|0:0,0:0:0:0:
344,153,19890,1,0,3:0:0:0:
465,365,20130,2,0,B|485:199|485:199|482:194|482:194|504:18,2,346.500010574341,8|2|0,0:0|0:0|0:0,0:0:0:0:
225,384,21090,5,8,0:0:0:0:
221,346,21210,2,0,L|205:219,1,115.50000352478,2|0,0:0|3:0,0:0:0:0:
199,158,21450,1,0,0:0:0:0:
232,165,21570,2,0,L|286:179,7,28.8750008811951,8|0|2|0|2|0|2|0,0:0|0:0|0:0|0:0|0:0|0:0|0:0|0:0,0:0:0:0:
273,175,21810,1,0,3:0:0:0:
100,0,22050,6,0,L|7:23,1,91.875,8|0,0:0|0:0,0:0:0:0:
0,27,22290,2,0,B|19:50|19:50|136:79|136:79|171:72|171:72|287:101,1,294,2|0,0:0|0:0,0:0:0:0:
281,108,22530,2,0,B|401:78|401:78|300:7,1,248.062500946283,8|0,0:0|0:0,0:0:0:0:
289,10,22770,1,2,0:0:0:0:
104,192,23010,5,8,0:0:0:0:
256,368,23250,1,0,3:0:0:0:
288,360,23370,1,2,0:0:0:0:
357,338,23490,2,0,B|372:281|372:281|311:266,1,115.50000352478,8|0,0:0|0:0,0:0:0:0:
249,251,23730,1,0,3:0:0:0:
157,32,23970,2,0,B|-10:73|-10:73|31:242,2,346.500010574341,8|2|0,0:0|0:0|0:0,0:0:0:0:
249,251,24930,5,8,0:0:0:0:
217,243,25050,1,2,3:2:0:0:
79,126,25290,1,2,3:2:0:0:
111,118,25410,1,8,0:0:0:0:
111,118,25650,1,8,0:0:0:0:
308,367,25890,6,0,L|322:247,1,105,8|2,0:0|0:0,0:0:0:0:
472,192,26370,2,0,L|457:72,1,105,8|2,0:0|0:0,0:0:0:0:
256,0,26850,6,0,L|251:39,1,31.4999990386963,8|0,0:0|0:0,0:0:0:0:
163,85,27278,2,0,L|202:80,1,31.4999990386963,2|0,0:0|0:0,0:0:0:0:
319,63,27707,2,0,L|350:59,1,31.4999990386963,2|0,0:0|0:0,0:0:0:0:
256,0,28135,2,0,L|251:39,1,31.4999990386963,2|0,0:0|0:0,0:0:0:0:
237,159,28564,2,0,L|316:168,1,78.75,2|0,0:0|0:0,0:0:0:0:
326,170,28992,1,8,0:0:0:0:
83,95,29421,5,0,0:0:0:0:
319,63,29635,1,8,0:0:0:0:
511,308,30278,6,0,L|432:317,1,63,8|0,0:0|0:0,0:0:0:0:
439,317,30707,1,0,0:0:0:0:
395,384,30921,1,0,0:0:0:0:
380,264,31135,1,8,0:0:0:0:
380,264,31564,1,0,0:0:0:0:
476,190,31992,2,0,L|480:150,1,31.4999990386963,0|2,0:0|0:0,0:0:0:0:
494,38,32421,1,8,0:0:0:0:
494,38,32850,5,2,0:0:0:0:
258,70,33064,1,8,0:0:0:0:
0,280,33707,6,0,L|79:289,1,62.9999980773926,8|0,0:0|0:0,0:0:0:0:
145,361,34135,2,0,L|136:289,1,62.9999980773926,2|0,0:0|0:0,0:0:0:0:
116,161,34564,2,0,L|108:223,1,62.9999980773926,2|0,0:0|0:0,0:0:0:0:
0,280,34992,2,0,L|79:289,1,62.9999980773926,2|0,0:0|0:0,0:0:0:0:
224,305,35421,2,0,P|279:288|287:212,1,126,2|0,0:0|0:0,0:0:0:0:
289,214,35850,1,8,0:0:0:0:
440,376,36278,5,0,0:0:0:0:
475,116,36492,1,8,0:0:0:0:
178,0,37135,6,0,L|183:47,1,47.2499985580445,8|0,0:0|0:0,0:0:0:0:
186,59,37564,2,0,L|265:68,1,62.9999980773926,2|0,0:0|0:0,0:0:0:0:
391,125,37992,2,0,L|400:45,1,73.4999977569581,2|0,0:0|0:0,0:0:0:0:
326,34,38421,2,0,L|315:121,1,84,2|0,0:0|0:0,0:0:0:0:
288,273,38850,5,8,0:0:0:0:
285,296,39064,1,2,0:0:0:0:
458,338,39278,1,8,0:0:0:0:
467,262,39492,1,2,0:0:0:0:
387,166,39707,6,0,L|381:213,1,31.4999990386963,8|0,0:0|0:0,0:0:0:0:
232,373,39921,2,0,L|226:325,1,31.4999990386963,8|0,0:0|0:0,0:0:0:0:
210,183,40135,1,0,0:0:0:0:
208,167,40242,1,2,0:0:0:0:
206,151,40350,1,2,0:0:0:0:
204,135,40457,1,2,0:0:0:0:
256,192,43221,12,0,46701,0:0:0:0:
0,15,46821,6,0,L|47:9,1,47.2499985580445,2|0,0:0|0:0,0:0:0:0:
53,0,47061,6,0,B|66:17|66:17|55:113,1,105,8|0,0:2|0:0,0:0:0:0:
148,217,47301,1,2,2:2:0:0:
151,185,47420,1,0,2:0:0:0:
160,113,47540,2,0,L|32:97,1,105,4|0,0:0|0:0,0:0:0:0:
169,42,47778,2,0,L|273:54,1,105,2|0,0:2|0:0,0:0:0:0:
415,73,48015,5,8,0:2:0:0:
445,76,48133,1,2,2:0:0:0:
476,139,48252,1,0,0:0:0:0:
430,143,48369,1,2,2:0:0:0:
385,148,48487,2,0,B|329:155|329:155|326:151|326:151|251:160,1,120.750002303124,4|0,0:0|0:0,0:0:0:0:
394,219,48721,2,0,B|450:212|450:212|453:216|453:216|512:208,1,120.750002303124,2|0,0:2|0:0,0:0:0:0:
461,369,48955,5,8,0:2:0:0:
429,365,49071,2,0,B|377:358|377:358|384:302,1,105,2|0,2:0|2:0,0:0:0:0:
298,234,49302,1,2,2:0:0:0:
266,238,49419,2,0,B|214:244|214:244|221:300,1,105,8|0,0:2|0:0,0:0:0:0:
103,365,49650,2,0,B|51:358|51:358|58:302,1,105,4|0,0:0|2:0,0:0:0:0:
0,184,49880,6,0,B|55:177|55:177|80:182|80:182|151:173,1,136.499993751526,10|0,0:0|0:0,0:0:0:0:
227,0,50109,2,0,B|197:17|197:17|170:126,1,136.499993751526,10|0,0:0|0:0,0:0:0:0:
189,292,50337,2,0,B|159:274|159:274|132:165,1,136.499993751526,10|0,0:0|0:0,0:0:0:0:
173,116,50564,2,0,B|228:122|228:122|253:117|253:117|308:124,1,136.499993751526,10|0,0:0|0:0,0:0:0:0:
512,12,50790,6,0,L|392:-2,1,105,8|0,0:2|0:0,0:0:0:0:
274,84,51015,1,2,2:0:0:0:
310,88,51128,1,0,2:0:0:0:
380,97,51241,2,0,B|398:75|398:75|411:-28,1,105,4|0,0:0|0:0,0:0:0:0:
453,125,51466,2,0,B|434:146|434:146|421:250,1,105,2|0,0:2|0:0,0:0:0:0:
404,384,51689,5,8,0:2:0:0:
443,379,51800,1,2,2:0:0:0:
478,321,51911,1,0,0:0:0:0:
423,314,52021,1,2,2:0:0:0:
368,307,52132,2,0,B|307:300|307:300|297:383,1,120.750002303124,4|0,0:0|0:0,0:0:0:0:
167,384,52353,2,0,L|149:241,1,120.750002303124,2|0,0:2|0:0,0:0:0:0:
280,143,52573,5,8,0:2:0:0:
276,179,52682,2,0,B|269:231|269:231|213:224,1,105,2|0,2:0|2:0,0:0:0:0:
93,209,52901,1,2,2:0:0:0:
89,173,53010,2,0,L|71:30,1,105,8|0,0:2|0:0,0:0:0:0:
230,0,53227,2,0,L|212:142,1,105,4|0,0:0|2:0,0:0:0:0:
443,199,53444,6,0,B|435:132|435:132|438:126|438:126|428:43,1,136.499993751526,10|0,0:0|0:0,0:0:0:0:
394,0,53660,2,0,B|341:44|341:44|366:108,1,136.499993751526,10|0,0:0|0:0,0:0:0:0:
502,243,53875,2,0,B|527:178|527:178|474:134,1,136.499993751526,10|0,0:0|0:0,0:0:0:0:
308,187,54089,2,0,B|375:195|375:195|381:192|381:192|464:202,1,136.499993751526,10|0,0:0|0:0,0:0:0:0:
466,350,54302,6,0,L|346:364,1,105,8|0,0:2|0:0,0:0:0:0:
195,383,54515,1,2,2:2:0:0:
150,378,54621,1,0,2:0:0:0:
78,370,54727,2,0,L|93:251,1,105,4|0,0:0|0:0,0:0:0:0:
213,142,54938,2,0,B|233:189|233:189|201:232,1,105,2|0,0:2|0:0,0:0:0:0:
91,265,55149,5,8,0:2:0:0:
46,260,55253,1,2,2:0:0:0:
8,200,55359,1,0,0:0:0:0:
66,193,55463,1,2,2:0:0:0:
125,186,55568,2,0,B|130:138|130:138|141:115|141:115|149:51,1,115.50000352478,4|0,0:0|0:0,0:0:0:0:
285,0,55776,2,0,B|290:41|290:41|301:64|301:64|306:112,1,115.50000352478,2|0,0:2|0:0,0:0:0:0:
469,204,55984,5,8,0:2:0:0:
424,199,56087,2,0,L|310:185,1,105,2|0,2:0|2:0,0:0:0:0:
386,44,56294,1,2,2:0:0:0:
429,38,56397,2,0,B|480:31|480:31|491:114,1,105,8|0,0:2|0:0,0:0:0:0:
511,277,56602,2,0,L|397:290,1,105,4|0,0:0|2:0,0:0:0:0:
212,384,56807,6,0,B|193:362|193:362|177:227,1,136.499993751526,10|0,0:0|0:0,0:0:0:0:
265,135,57012,2,0,B|297:194|297:194|250:245,1,136.499993751526,10|0,0:0|0:0,0:0:0:0:
83,334,57216,2,0,B|102:312|102:312|118:177,1,136.499993751526,10|0,0:0|0:0,0:0:0:0:
30,85,57418,2,0,B|-2:144|-2:144|44:195,1,136.499993751526,10|0,0:0|0:0,0:0:0:0:
189,170,57620,6,0,L|203:59,1,105,8|0,0:2|0:0,0:0:0:0:
344,0,57822,1,2,2:0:0:0:
351,58,57922,1,0,2:0:0:0:
360,132,58022,2,0,B|412:138|412:138|419:71,1,105,4|0,0:0|0:0,0:0:0:0:
512,246,58222,2,0,L|392:260,1,105,2|0,0:2|0:0,0:0:0:0:
236,280,58422,5,8,0:2:0:0:
243,338,58522,1,2,2:0:0:0:
303,384,58620,1,0,0:0:0:0:
311,314,58720,1,2,2:0:0:0:
319,244,58818,2,0,B|266:237|266:237|261:241|261:241|191:232,1,115.50000352478,4|0,0:0|0:0,0:0:0:0:
51,328,59016,2,0,B|103:321|103:321|108:325|108:325|164:318,1,115.50000352478,2|0,0:2|0:0,0:0:0:0:
216,164,59212,5,8,0:2:0:0:
223,106,59310,2,0,B|230:53|230:53|173:46,1,105,2|0,2:0|2:0,0:0:0:0:
28,0,59506,1,2,2:0:0:0:
35,57,59604,2,0,B|40:109|40:109|97:102,1,105,8|0,0:2|0:0,0:0:0:0:
291,168,59799,2,0,L|303:63,1,105,4|0,0:0|2:0,0:0:0:0:
462,0,59993,6,0,B|488:20|488:20|505:155,1,136.499993751526,10|0,0:0|0:0,0:0:0:0:
511,194,60186,2,0,B|484:214|484:214|382:202,1,136.499993751526,10|0,0:0|0:0,0:0:0:0:
229,367,60379,2,0,B|284:360|284:360|307:349|307:349|362:342,1,136.499993751526,10|0,0:0|0:0,0:0:0:0:
506,297,60572,2,0,B|450:290|450:290|427:279|427:279|372:272,1,136.499993751526,10|0,0:0|0:0,0:0:0:0:
193,250,60763,5,8,0:2:0:0:
145,244,60858,1,2,2:0:0:0:
113,279,60954,1,0,2:0:0:0:
66,285,61049,1,2,2:0:0:0:
26,258,61145,2,0,B|19:205|19:205|75:198,1,105,4|0,0:0|0:0,0:0:0:0:
2,78,61335,2,0,B|8:130|8:130|64:123,1,105,2|0,0:2|0:0,0:0:0:0:
207,106,61524,5,8,0:2:0:0:
255,100,61618,1,2,2:0:0:0:
296,40,61713,1,0,0:0:0:0:
234,33,61807,1,2,2:0:0:0:
172,25,61901,2,0,B|129:56|129:56|141:106,1,105,4|0,0:0|0:0,0:0:0:0:
338,233,62088,2,0,L|355:98,1,115.50000352478,2|0,0:2|0:0,0:0:0:0:
488,0,62275,5,8,0:2:0:0:
494,48,62368,2,0,B|501:102|501:102|506:105|506:105|513:160,1,115.50000352478,2|0,2:0|2:0,0:0:0:0:
452,315,62554,1,2,2:0:0:0:
446,363,62647,2,0,B|392:385|392:385|346:350,1,115.50000352478,8|0,0:2|0:0,0:0:0:0:
226,251,62833,2,0,B|280:244|280:244|283:239|283:239|338:232,1,115.50000352478,4|0,0:0|2:0,0:0:0:0:
91,384,63017,6,0,B|65:371|65:371|47:228,1,136.499993751526,10|0,0:0|0:0,0:0:0:0:
217,125,63201,2,0,B|238:143|238:143|221:286,1,136.499993751526,10|0,0:0|0:0,0:0:0:0:
258,329,63385,2,0,B|202:322|202:322|179:311|179:311|116:303,1,136.499993751526,10|0,0:0|0:0,0:0:0:0:
0,199,63569,2,0,B|55:192|55:192|80:197|80:197|143:189,1,136.499993751526,10|0,0:0|0:0,0:0:0:0:
313,165,63751,5,8,0:2:0:0:
370,157,63841,1,2,2:0:0:0:
414,195,63933,1,0,2:0:0:0:
471,203,64023,1,2,2:0:0:0:
500,152,64114,2,0,L|513:40,1,105,4|0,0:0|0:0,0:0:0:0:
347,0,64295,2,0,B|325:18|325:18|334:94,1,105,2|0,0:2|0:0,0:0:0:0:
356,275,64475,5,8,0:2:0:0:
348,332,64564,1,2,2:0:0:0:
293,378,64654,1,0,0:0:0:0:
283,309,64743,1,2,2:0:0:0:
273,241,64834,2,0,B|221:247|221:247|214:180,1,105,4|0,0:0|0:0,0:0:0:0:
88,268,65012,2,0,B|144:260|144:260|134:176,1,115.50000352478,2|0,0:2|0:0,0:0:0:0:
208,16,65190,5,8,0:2:0:0:
151,8,65278,2,0,B|101:1|101:1|84:7|84:7|37:2,1,115.50000352478,2|0,2:0|2:0,0:0:0:0:
2,157,65456,1,2,2:0:0:0:
59,149,65545,2,0,B|106:143|106:143|121:133|121:133|185:125,1,115.50000352478,8|0,0:2|0:0,0:0:0:0:
341,104,65721,2,0,B|334:47|334:47|266:55,1,115.50000352478,4|0,0:0|2:0,0:0:0:0:
512,25,65897,6,0,L|494:167,1,136.499993751526,10|0,0:0|0:0,0:0:0:0:
479,280,66073,2,0,B|410:271|410:271|420:190,1,136.499993751526,10|0,0:0|0:0,0:0:0:0:
282,221,66248,2,0,L|432:202,1,136.499993751526,10|0,0:0|0:0,0:0:0:0:
493,379,66422,2,0,B|472:352|472:352|368:339,1,136.499993751526,10|0,0:0|0:0,0:0:0:0:
257,320,66596,5,8,0:2:0:0:
194,311,66682,1,2,2:0:0:0:
155,362,66769,1,0,2:0:0:0:
92,371,66855,1,2,2:0:0:0:
46,325,66942,2,0,B|19:304|19:304|6:193,1,105,4|0,0:0|0:0,0:0:0:0:
94,51,67115,2,0,B|115:77|115:77|106:148,1,105,2|0,0:2|0:0,0:0:0:0:
145,224,67287,5,8,0:2:0:0:
83,215,67372,1,2,2:0:0:0:
37,159,67458,1,0,0:0:0:0:
106,149,67543,1,2,2:0:0:0:
175,139,67629,2,0,B|228:132|228:132|236:198,1,105,4|0,0:0|0:0,0:0:0:0:
272,0,67800,2,0,B|279:57|279:57|341:49,1,115.50000352478,2|0,0:2|0:0,0:0:0:0:
493,153,67970,5,8,0:2:0:0:
431,144,68054,2,0,B|377:137|377:137|372:132|372:132|304:124,1,115.50000352478,2|0,2:0|2:0,0:0:0:0:
218,265,68224,1,2,2:0:0:0:
280,256,68309,2,0,B|331:249|331:249|337:253|337:253|401:245,1,105,8|0,0:2|0:0,0:0:0:0:
471,337,68477,2,0,B|464:389|464:389|409:383,1,105,4|0,0:0|2:0,0:0:0:0:
209,358,68646,6,0,L|73:340,1,136.499993751526,10|0,0:0|0:0,0:0:0:0:
5,265,68813,2,0,B|59:225|59:225|123:250,1,136.499993751526,10|0,0:0|0:0,0:0:0:0:
209,136,68980,2,0,B|154:175|154:175|90:150,1,136.499993751526,10|0,0:0|0:0,0:0:0:0:
5,43,69147,2,0,L|140:60,1,136.499993751526,10|0,0:0|0:0,0:0:0:0:
282,77,69313,5,8,0:2:0:0:
351,86,69395,1,2,2:0:0:0:
393,28,69479,1,0,2:0:0:0:
462,19,69561,1,2,2:0:0:0:
512,68,69644,2,0,B|505:120|505:120|444:113,1,105,4|0,0:0|0:0,0:0:0:0:
489,249,69808,2,0,B|495:196|495:196|433:188,1,105,2|0,0:2|0:0,0:0:0:0:
278,269,69973,5,8,0:2:0:0:
287,338,70054,1,2,2:0:0:0:
345,384,70137,1,0,0:0:0:0:
354,308,70218,1,2,2:0:0:0:
364,232,70301,2,0,B|324:236|324:236|301:247|301:247|253:253,1,105,4|0,0:0|0:0,0:0:0:0:
168,376,70464,2,0,B|128:371|128:371|105:360|105:360|66:355,1,105,2|0,0:2|0:0,0:0:0:0:
0,158,70626,5,8,0:2:0:0:
69,167,70707,2,0,B|82:184|82:184|69:295,1,105,2|0,2:0|2:0,0:0:0:0:
261,251,70869,1,2,2:0:0:0:
192,260,70950,2,0,B|174:246|174:246|160:134,1,105,8|0,0:2|0:0,0:0:0:0:
93,23,71111,2,0,B|145:16|145:16|152:72,1,105,4|0,0:0|2:0,0:0:0:0:
253,98,71273,6,0,B|219:109|219:109|330:123,1,136.499993751526,10|0,0:0|0:0,0:0:0:0:
512,146,71434,2,0,B|499:171|499:171|392:184,1,136.499993751526,10|0,0:0|0:0,0:0:0:0:
389,21,71594,2,0,B|369:-8|369:-8|382:102,1,136.499993751526,10|0,0:0|0:0,0:0:0:0:
407,294,71754,2,0,B|394:268|394:268|274:253,1,136.499993751526,10|0,0:0|0:0,0:0:0:0:
91,374,71913,5,8,0:2:0:0:
94,345,71992,1,2,0:2:0:0:
98,316,72071,1,0,0:0:0:0:
101,287,72150,1,2,0:2:0:0:
105,259,72229,1,8,0:2:0:0:
2,160,72388,5,8,0:2:0:0:
31,163,72466,1,2,0:2:0:0:
59,167,72545,1,0,0:0:0:0:
88,171,72623,1,2,0:2:0:0:
116,174,72702,1,8,0:2:0:0:
215,70,72858,5,8,0:2:0:0:
212,97,72937,1,2,0:2:0:0:
208,127,73015,1,0,0:0:0:0:
205,156,73092,1,2,0:2:0:0:
201,184,73172,1,8,0:2:0:0:
304,285,73326,5,8,0:2:0:0:
277,281,73403,1,2,0:2:0:0:
247,277,73481,1,0,0:0:0:0:
218,274,73558,1,2,0:2:0:0:
190,270,73635,1,8,0:2:0:0:
57,90,73790,5,8,0:2:0:0:
94,69,73866,1,2,0:2:0:0:
136,80,73944,1,0,0:0:0:0:
174,59,74020,1,2,0:2:0:0:
215,70,74098,1,8,0:2:0:0:
354,135,74251,5,8,0:2:0:0:
391,156,74327,1,2,0:2:0:0:
433,145,74403,1,0,0:0:0:0:
471,166,74479,1,2,0:2:0:0:
512,155,74556,1,8,0:2:0:0:
480,384,74707,5,8,0:2:0:0:
421,376,74783,1,2,0:2:0:0:
363,368,74860,1,0,0:0:0:0:
306,361,74935,1,2,0:2:0:0:
247,354,75011,1,0,0:0:0:0:
190,347,75086,1,2,0:2:0:0:
133,339,75162,1,0,0:0:0:0:
75,333,75237,1,2,0:2:0:0:
6,325,75312,6,0,B|353:282|353:282|346:283|346:283|125:-9|125:-9|129:-3|129:-3|21:250|21:250|217:225|217:225|137:119,1,1323,4|0,0:0|0:0,0:0:0:0:
75,56,77712,5,8,0:2:0:0:
56,98,77787,1,2,0:2:0:0:
37,141,77862,1,2,0:2:0:0:
19,184,77937,1,2,0:2:0:0:
0,227,78012,5,2,0:2:0:0:
46,221,78087,1,2,0:2:0:0:
93,215,78162,1,2,0:2:0:0:
139,211,78237,1,2,0:2:0:0:
186,205,78312,5,8,0:2:0:0:
204,162,78387,1,2,0:2:0:0:
223,119,78462,1,2,0:2:0:0:
241,76,78537,1,2,0:2:0:0:
260,33,78612,5,2,0:2:0:0:
306,27,78687,1,2,0:2:0:0:
353,21,78762,1,2,0:2:0:0:
399,17,78837,1,2,0:2:0:0:
446,11,78912,5,8,0:2:0:0:
486,31,78987,1,2,0:2:0:0:
510,67,79062,1,2,0:2:0:0:
511,109,79137,1,2,0:2:0:0:
494,146,79212,1,2,0:2:0:0:
462,169,79287,1,2,0:2:0:0:
424,176,79362,1,2,0:2:0:0:
389,163,79437,1,2,0:2:0:0:
360,141,79512,5,8,0:2:0:0:
326,131,79587,1,2,0:2:0:0:
292,141,79662,1,2,0:2:0:0:
267,159,79737,1,2,0:2:0:0:
250,185,79812,1,2,0:2:0:0:
245,212,79887,1,2,0:2:0:0:
248,240,79962,1,2,0:2:0:0:
259,261,80037,1,2,0:2:0:0:
318,298,80112,6,0,B|350:267|346:208|305:172|207:157|181:247|245:291|140:343|62:345|27:298,1,425.2499870224,12|0,0:0|0:0,0:0:0:0:
16,290,81792,6,0,L|6:211,1,78.75,2|0,0:0|0:0,0:0:0:0:
16,201,82032,5,8,0:0:0:0:
15,184,82152,2,0,B|52:202|52:202|84:175,1,84
188,64,82392,1,2,0:0:0:0:
187,47,82512,1,0,0:0:0:0:
115,55,82632,1,2,0:0:0:0:
29,23,82752,6,0,L|38:101,1,78.75,12|0,0:0|0:0,0:0:0:0:
40,113,83712,1,2,3:2:0:0:
236,143,83952,5,8,0:0:0:0:
251,141,84072,2,0,L|346:129,1,84
417,44,84312,1,2,0:0:0:0:
400,46,84432,1,0,0:0:0:0:
410,121,84552,1,2,0:0:0:0:
421,212,84672,6,0,L|425:251,1,36.75,8|0,0:0|0:0,0:0:0:0:
426,264,85152,5,8,0:0:0:0:
428,280,85272,2,0,L|523:268,1,84
343,333,85512,1,2,0:0:0:0:
345,350,85632,1,0,0:0:0:0:
270,359,85752,1,2,0:0:0:0:
179,370,85872,5,8,0:0:0:0:
161,370,85992,2,0,B|178:333|178:333|151:301,1,84
41,197,86232,1,2,0:0:0:0:
24,199,86352,1,0,0:0:0:0:
32,271,86472,1,2,0:0:0:0:
0,357,86592,6,0,L|78:348,1,78.75,12|0,0:0|0:0,0:0:0:0:
90,346,87552,1,2,3:2:0:0:
281,194,87792,5,8,0:0:0:0:
279,179,87912,2,0,L|267:84,1,84
184,47,88152,1,2,0:0:0:0:
181,30,88272,1,0,0:0:0:0:
257,21,88392,1,2,0:0:0:0:
347,10,88512,6,0,L|386:4,1,36.75,8|0,0:0|0:0,0:0:0:0:
399,2,88992,5,8,0:0:0:0:
415,0,89112,2,0,L|426:95,1,84
399,201,89352,1,2,0:0:0:0:
366,132,89472,1,0,0:0:0:0:
493,116,89592,1,2,0:0:0:0:
478,191,89712,1,12,0:0:0:0:
478,191,90432,6,0,B|463:201|463:201|423:206,1,55.1249983177186,2|0,0:0|0:0,0:0:0:0:
419,217,90672,2,0,B|402:211|402:211|347:218,1,73.5,2|0,0:0|0:0,0:0:0:0:
327,211,90912,2,0,B|313:229|313:229|234:239,1,91.875,2|0,0:0|0:0,0:0:0:0:
223,267,91152,2,0,B|197:254|197:254|102:266,1,110.249996635437,2|0,0:0|0:0,0:0:0:0:
72,286,91392,2,0,B|54:272|54:272|40:153,1,128.624996074677,2|0,0:0|0:0,0:0:0:0:
30,99,91632,6,0,B|7:41|52:-22|123:-23|165:19|170:65|170:65|176:127|246:163|309:130|327:74|310:31,1,496.124984859467,8|0,0:0|0:0,0:0:0:0:
306,19,93552,6,0,P|266:73|336:120,1,168,4|0,3:0|0:0,0:0:0:0:
512,224,94512,2,0,B|440:215|440:215|417:204|417:204|346:195,2,168,0|0|2,0:0|0:0|3:2,0:0:0:0:
224,376,96432,2,0,B|295:367|295:367|318:356|318:356|389:347,2,168,0|0|2,0:0|0:0|3:2,0:0:0:0:
32,112,98352,6,0,L|206:133,1,168,0|2,0:0|3:2,0:0:0:0:
327,0,99312,2,0,L|348:174,1,168,0|2,0:0|3:2,0:0:0:0:
460,313,100272,1,0,0:0:0:0:
278,291,100752,1,0,0:0:0:0:
0,384,101232,6,0,P|17:286|72:254,1,168,4|0,0:0|0:0,0:0:0:0:
234,81,102192,2,0,B|254:107|254:107|238:242,1,168,0|2,0:0|3:2,0:0:0:0:
86,345,103152,2,0,B|59:324|59:324|42:191,1,168,0|2,0:0|3:2,0:0:0:0:
185,14,104112,2,0,B|263:-27|354:45|302:75|398:143|477:92,1,325.5
477,81,105072,2,0,P|369:107|487:181,1,325.5,2|0,3:2|0:0,0:0:0:0:
492,174,106032,1,0,0:0:0:0:
112,0,106992,6,0,B|94:142|94:142|106:176|106:176|88:324,1,325.5,2|0,3:2|0:0,0:0:0:0:
86,336,107952,1,0,0:0:0:0:
84,351,108432,1,0,0:0:0:0:
82,366,108912,6,0,B|137:359|137:359|152:349|152:349|223:340,1,131.25,8|0,0:2|0:0,0:0:0:0:
377,321,109152,1,2,2:0:0:0:
456,311,109272,1,2,2:0:0:0:
424,384,109392,2,0,L|407:249,1,131.25,8|0,0:2|0:0,0:0:0:0:
486,65,109632,2,0,L|469:199,1,131.25,2|0,0:2|0:0,0:0:0:0:
336,214,109872,5,8,0:2:0:0:
312,216,109992,1,0,2:0:0:0:
242,177,110112,1,0,2:0:0:0:
252,269,110232,1,2,2:0:0:0:
318,146,110352,2,0,B|257:139|257:139|253:133|253:133|187:125,1,131.25,8|0,0:2|0:0,0:0:0:0:
54,250,110592,2,0,B|116:243|116:243|120:237|120:237|186:229,1,131.25,2|0,0:2|0:0,0:0:0:0:
424,81,110832,6,0,B|272:63|272:63|265:65|265:65|112:46,1,315,2|0,2:0|0:0,2:0:0:0:
98,35,111792,5,8,0:2:0:0:
100,58,111912,1,2,2:0:0:0:
182,154,112032,2,0,B|201:133|201:133|214:31,1,131.25,2|2,2:0|2:0,0:0:0:0:
16,104,112272,2,0,B|4:130|4:130|19:265,1,131.25,8|0,0:2|0:0,0:0:0:0:
156,364,112512,2,0,L|307:382,1,131.25,2|0,0:2|0:0,0:0:0:0:
433,240,112752,5,8,0:2:0:0:
302,254,112872,1,0,2:0:0:0:
371,324,112992,1,0,2:0:0:0:
373,300,113112,1,2,2:0:0:0:
380,173,113232,2,0,B|421:122|421:122|393:62,1,131.25,8|0,0:2|0:0,0:0:0:0:
276,113,113472,2,0,B|214:106|214:106|210:100|210:100|144:92,1,131.25,2|0,0:2|0:0,0:0:0:0:
2,76,113712,5,8,0:2:0:0:
0,52,113832,1,0,2:0:0:0:
84,3,113952,2,0,L|65:154,1,131.25,2|0,2:0|0:0,0:0:0:0:
163,207,114192,1,8,0:2:0:0:
165,183,114312,1,0,2:0:0:0:
81,134,114432,2,0,L|100:285,1,131.25,2|0,2:0|0:0,0:0:0:0:
171,380,114672,6,0,B|123:374|123:374|93:354|93:354|45:348,1,131.25,8|0,0:2|0:0,0:0:0:0:
224,252,114912,2,0,B|271:246|271:246|301:226|301:226|349:220,1,131.25,2|0,0:2|0:0,0:0:0:0:
465,281,115152,1,8,0:2:0:0:
453,327,115272,1,0,2:0:0:0:
441,373,115392,1,0,2:0:0:0:
427,267,115512,1,0,2:0:0:0:
414,162,115632,6,0,P|433:103|507:119,1,147,2|0,2:0|0:0,0:0:0:0:
430,165,116112,2,0,P|401:101|331:53,1,147,2|0,2:0|0:0,0:0:0:0:
327,45,116592,5,8,0:2:0:0:
329,68,116712,1,0,2:0:0:0:
248,136,116832,1,2,2:0:0:0:
263,8,116952,1,2,2:0:0:0:
310,172,117072,2,0,L|159:153,1,131.25,8|0,0:2|0:0,0:0:0:0:
11,36,117312,2,0,L|161:17,1,131.25,2|0,0:2|0:0,0:0:0:0:
248,136,117552,5,8,0:2:0:0:
225,138,117672,1,0,2:0:0:0:
118,108,117792,2,0,B|90:168|90:168|131:219,1,131.25,2|0,2:0|0:0,0:0:0:0:
263,244,118032,1,8,0:2:0:0:
286,246,118152,1,0,2:0:0:0:
393,216,118272,2,0,B|421:276|421:276|380:327,1,131.25,2|0,2:0|2:0,0:0:0:0:
187,384,118512,6,0,B|123:376|123:376|108:366|108:366|37:357,1,147,2|0,2:0|0:0,0:0:0:0:
35,370,118992,2,0,P|74:374|128:287,1,147,2|0,2:0|0:0,0:0:0:0:
120,282,119472,5,8,0:2:0:0:
130,203,119592,1,0,2:0:0:0:
193,250,119712,2,0,L|58:233,1,131.25,2|2,2:0|2:0,0:0:0:0:
0,64,119952,2,0,L|135:47,1,131.25,8|0,0:2|0:0,0:0:0:0:
314,25,120192,2,0,B|334:51|334:51|316:202,1,131.25,2|0,0:2|0:0,0:0:0:0:
364,324,120432,5,8,0:2:0:0:
388,326,120552,1,0,2:0:0:0:
458,287,120672,1,0,2:0:0:0:
448,379,120792,1,2,2:0:0:0:
382,258,120912,2,0,B|430:252|430:252|460:232|460:232|507:226,1,131.25,8|0,0:2|0:0,0:0:0:0:
293,359,121152,2,0,B|246:353|246:353|216:333|216:333|168:327,1,131.25,2|0,0:2|0:0,0:0:0:0:
13,311,121392,5,8,0:2:0:0:
11,335,121512,1,0,2:0:0:0:
95,384,121632,2,0,L|76:233,1,131.25,2|0,2:0|0:0,0:0:0:0:
174,180,121872,1,8,0:2:0:0:
176,203,121992,1,0,2:0:0:0:
92,253,122112,2,0,L|111:102,1,131.25,2|0,2:0|0:0,0:0:0:0:
121,3,122352,5,8,0:2:0:0:
75,15,122472,1,0,2:0:0:0:
29,27,122592,1,0,2:0:0:0:
135,41,122712,1,2,2:0:0:0:
240,54,122832,2,0,P|293:4|380:34,1,131.25,8|0,0:2|0:0,0:0:0:0:
466,121,123072,2,0,L|315:102,1,131.25,2|0,0:2|0:0,0:0:0:0:
264,296,123312,6,0,L|456:272,1,183.75,2|0,2:0|0:0,0:0:0:0:
447,257,123792,2,0,B|367:247|367:247|353:229|353:229|266:218,1,183.75,2|0,2:0|0:0,0:0:0:0:
265,210,124272,5,4,0:0:0:0:
256,192,124332,12,0,131952,0:0:0:0:
