osu file format v14

[General]
AudioFilename: aleph-0.mp3
AudioLeadIn: 0
PreviewTime: 11496
Countdown: 0
SampleSet: Normal
StackLeniency: 0.4
Mode: 2
LetterboxInBreaks: 0
EpilepsyWarning: 1
WidescreenStoryboard: 1

[Editor]
Bookmarks: 6716,9096,10536,11496,15336,15816,23016,26856,33713,41427,47104,50824,54329,58243,60781,63773,66615,69339,71944,77732,80132,82052,91652,93572,108932,131972
DistanceSpacing: 1
BeatDivisor: 4
GridSize: 4
TimelineZoom: 3.499999

[Metadata]
Title:Aleph-0
TitleUnicode:ℵ0
Artist:LeaF
ArtistUnicode:LeaF
Creator:Sakary
Version:Sang's Cup
Source:osu!
Tags:featured artist FA OF FIGHTERS ULTIMATE LEGENDARY AGAIN 孤高クローバー dance rail phigros video game instrumental bms bofu2016 optie aleph-zero null naught infinity hi_hello CLSW CrystalSeed Crystal Daiz_IX Minato Yukina nelly -luminate sangkrazf1nal3 phob razor sharp arthas
BeatmapID:1724742
BeatmapSetID:806903

[Difficulty]
HPDrainRate:3
CircleSize:2.5
OverallDifficulty:6
ApproachRate:6
SliderMultiplier:0.9
SliderTickRate:1

[Events]
//Background and Video events
0,0,"aleph.jpg",0,0
Video,971,"credits to OPTIE.mp4"
//Break Periods
2,6916,8046
2,27056,32663
2,89932,90602
2,91852,92522
//Storyboard Layer 0 (Background)
//Storyboard Layer 1 (Fail)
//Storyboard Layer 2 (Pass)
//Storyboard Layer 3 (Foreground)
//Storyboard Layer 4 (Overlay)
//Storyboard Sound Samples

[TimingPoints]
936,480,4,1,99,70,1,0
9096,240,4,3,1,60,1,0
10536,-100,4,3,1,60,0,0
11496,240,4,1,99,70,1,0
11736,-100,4,3,2,50,0,0
12456,-100,4,3,2,50,0,0
14856,-100,4,3,2,90,0,0
15096,-100,4,3,2,50,0,0
15336,-100,4,3,2,50,0,0
18216,-100,4,1,99,80,0,0
18246,-100,4,2,0,5,0,0
19176,-100,4,3,2,50,0,0
22536,-100,4,3,2,90,0,0
22656,-100,4,3,2,50,0,0
26376,-100,4,3,2,90,0,0
26616,-100,4,3,2,50,0,0
26856,428.571428571429,4,1,99,80,1,0
26882,-100,4,2,0,5,0,0
33713,-100,4,2,0,30,0,0
38856,-100,4,3,0,30,0,0
41427,-100,4,1,99,70,0,0
41481,-100,4,2,0,5,0,0
46891,-100,4,2,0,40,0,0
47104,240,4,1,10,50,1,1
47339,239.043824701195,4,1,10,50,1,0
47578,238.095238095238,4,1,10,50,1,0
47816,237.154150197628,4,1,10,50,1,0
48053,236.220472440945,4,1,10,50,1,0
48289,235.294117647059,4,1,10,50,1,0
48524,234.375,4,1,10,50,1,0
48758,233.463035019455,4,1,10,50,1,0
48991,232.558139534884,4,1,10,50,1,0
49223,231.660231660232,4,1,10,50,1,0
49454,230.769230769231,4,1,10,50,1,0
49684,229.885057471264,4,1,10,50,1,0
49913,-100,4,1,0,100,0,0
50824,225.563909774436,4,1,10,55,1,1
50936,-100,4,1,10,55,0,0
51049,224.719101123595,4,1,10,55,1,0
51273,223.880597014925,4,1,10,55,1,0
51496,223.048327137546,4,1,10,55,1,0
51719,222.222222222222,4,1,10,55,1,0
51941,221.40221402214,4,1,10,55,1,0
52162,220.588235294118,4,1,10,55,1,0
52382,219.78021978022,4,1,10,55,1,0
52601,218.978102189781,4,1,10,55,1,0
52819,218.181818181818,4,1,10,55,1,0
53037,217.391304347826,4,1,10,55,1,0
53254,216.606498194946,4,1,10,55,1,0
53470,-100,4,1,0,100,0,0
54329,212.765957446809,4,1,10,50,1,1
54435,-100,4,1,10,50,0,0
54541,212.014134275618,4,1,10,60,1,0
54753,211.267605633803,4,1,10,60,1,0
54964,210.526315789474,4,1,10,60,1,0
55174,209.79020979021,4,1,10,60,1,0
55383,209.059233449477,4,1,10,60,1,0
55592,208.333333333333,4,1,10,60,1,0
55800,207.612456747405,4,1,10,60,1,0
56007,206.896551724138,4,1,10,60,1,0
56213,206.185567010309,4,1,10,60,1,0
56419,205.479452054795,4,1,10,60,1,0
56624,204.778156996587,4,1,10,60,1,0
56828,-100,4,1,0,100,0,0
57642,201.342281879195,4,1,10,65,1,1
57742,-100,4,1,10,65,0,0
57843,200.66889632107,4,1,10,65,1,0
58043,200,4,1,10,65,1,0
58243,199.335548172757,4,1,10,65,1,0
58442,198.675496688742,4,1,10,65,1,0
58640,198.019801980198,4,1,10,65,1,0
58838,197.368421052632,4,1,10,65,1,0
59035,196.72131147541,4,1,10,65,1,0
59232,196.078431372549,4,1,10,65,1,0
59428,195.439739413681,4,1,10,65,1,0
59623,194.805194805195,4,1,10,65,1,0
59817,194.174757281553,4,1,10,65,1,0
60011,-100,4,1,0,100,0,0
60781,191.082802547771,4,1,99,90,1,1
60876,-100,4,1,10,70,0,1
60972,190.47619047619,4,1,10,70,1,1
61162,189.873417721519,4,1,10,70,1,1
61353,189.274447949527,4,1,10,70,1,1
61542,188.679245283019,4,1,10,70,1,1
61730,188.087774294671,4,1,10,70,1,1
61918,187.5,4,1,10,70,1,1
62105,186.915887850467,4,1,10,70,1,1
62293,186.335403726708,4,1,10,70,1,1
62479,185.758513931889,4,1,10,70,1,1
62664,185.185185185185,4,1,10,70,1,1
62849,184.615384615385,4,1,10,70,1,1
63033,-100,4,1,0,100,0,1
63679,-100,4,1,10,50,0,0
63773,181.818181818182,4,1,10,75,1,1
63954,181.268882175227,4,1,10,75,1,1
64135,180.722891566265,4,1,10,75,1,1
64315,180.18018018018,4,1,10,75,1,1
64495,179.640718562874,4,1,10,75,1,1
64674,179.10447761194,4,1,10,75,1,1
64853,178.571428571429,4,1,10,75,1,1
65031,178.041543026706,4,1,10,75,1,1
65213,177.514792899408,4,1,10,75,1,1
65390,176.991150442478,4,1,10,75,1,1
65566,176.470588235294,4,1,10,75,1,1
65742,175.953079178886,4,1,10,75,1,1
65917,-100,4,1,0,100,0,1
66533,-100,4,1,10,50,0,0
66615,173.410404624277,4,1,10,80,1,1
66788,172.910662824207,4,1,10,80,1,1
66960,172.413793103448,4,1,10,80,1,1
67132,171.919770773639,4,1,10,80,1,1
67303,171.428571428571,4,1,10,80,1,1
67474,170.940170940171,4,1,10,80,1,1
67644,170.454545454545,4,1,10,80,1,1
67814,169.971671388102,4,1,10,80,1,1
67989,169.491525423729,4,1,10,80,1,1
68157,169.014084507042,4,1,10,80,1,1
68326,168.539325842697,4,1,10,80,1,1
68496,168.067226890756,4,1,10,80,1,1
68664,-100,4,1,0,100,0,1
69252,-100,4,1,10,50,0,0
69339,165.745856353591,4,1,10,85,1,1
69504,165.289256198347,4,1,10,85,1,1
69669,164.835164835165,4,1,10,85,1,1
69833,164.383561643836,4,1,10,85,1,1
70001,163.934426229508,4,1,10,85,1,1
70164,163.487738419619,4,1,10,85,1,1
70327,163.04347826087,4,1,10,85,1,1
70490,162.60162601626,4,1,10,85,1,1
70652,162.162162162162,4,1,10,85,1,1
70814,161.725067385445,4,1,10,85,1,1
70975,161.290322580645,4,1,10,85,1,1
71136,160.857908847185,4,1,10,85,1,1
71296,-100,4,1,0,100,0,1
71859,-100,4,1,10,50,0,0
71944,158.730158730159,3,3,1,90,1,1
72102,158.311345646438,3,3,1,90,1,1
72260,157.894736842105,3,3,1,90,1,0
72417,157.48031496063,3,3,1,90,1,1
72574,157.068062827225,3,3,1,90,1,1
72731,156.657963446475,3,3,1,90,1,0
72887,156.25,3,3,1,90,1,1
73043,155.844155844156,3,3,1,90,1,1
73198,155.440414507772,3,3,1,90,1,0
73353,155.038759689922,3,3,1,90,1,1
73508,154.639175257732,3,3,1,90,1,1
73662,154.241645244216,3,3,1,90,1,0
73816,153.846153846154,3,3,1,90,1,1
73969,153.452685421995,3,3,1,90,1,1
74122,153.061224489796,3,3,1,90,1,0
74275,152.671755725191,3,3,1,90,1,1
74427,152.284263959391,3,3,1,90,1,1
74579,151.898734177215,3,3,1,90,1,0
74730,151.515151515152,3,3,1,90,1,1
74881,151.133501259446,3,3,1,90,1,1
75032,150.753768844221,3,3,1,90,1,1
75182,150.375939849624,3,3,1,90,1,1
75332,150,4,1,99,100,1,0
75482,-100,4,2,0,20,0,0
77732,-100,4,3,1,100,0,1
80132,480,4,1,99,70,1,0
82052,240,4,3,1,70,1,0
82772,960,4,3,2,70,1,0
83732,240,4,3,1,70,1,0
84692,960,4,3,2,70,1,0
85172,240,4,3,1,70,1,0
86612,960,4,3,2,70,1,0
87572,240,4,3,1,70,1,0
88532,960,4,3,2,70,1,0
89012,240,4,3,1,70,1,0
89732,-100,4,1,99,70,0,0
91652,-100,4,3,1,50,0,0
93572,480,4,1,99,90,1,0
94052,-100,4,2,5,40,0,0
108932,240,4,1,10,90,1,1
110852,480,4,2,5,70,1,0
111812,240,4,1,10,90,1,1
115652,480,4,2,5,40,1,0
116612,240,4,1,10,90,1,1
118532,480,4,2,5,40,1,0
119492,240,4,1,10,90,1,1
123332,480,4,2,5,40,1,0
124292,-100,4,1,99,100,0,1
124412,-100,4,2,0,20,0,0
131972,-100,4,1,99,100,0,1
132092,-100,4,2,0,5,0,0

[Colours]
Combo1 : 149,189,132
Combo2 : 208,179,111
Combo3 : 119,135,136
Combo4 : 95,149,160

[HitObjects]
129,193,6716,5,2,0:0:0:0:
201,190,9096,6,0,L|422:190,1,180,8|8,0:0|0:0,0:0:0:0:
206,235,10056,1,0,0:0:0:0:
116,235,10296,1,8,0:0:0:0:
206,235,10536,1,8,0:0:0:0:
385,233,11016,1,8,0:0:0:0:
206,235,11496,6,0,B|110:285|110:285|85:209,1,180,4|0,0:0|0:0,0:0:0:0:
176,203,12216,2,0,L|274:203,1,90,0|12,0:0|0:0,0:0:0:0:
160,114,12816,1,4,0:0:0:0:
294,113,13176,1,4,0:0:0:0:
160,114,13416,6,0,B|130:219|130:219|219:245,1,180,4|12,0:0|0:0,0:0:0:0:
288,237,14136,2,0,L|397:224,1,90,4|4,0:0|0:0,0:0:0:0:
201,185,14856,1,8,2:0:0:0:
290,187,15096,1,2,0:0:0:0:
380,187,15336,6,0,P|446:156|406:63,1,180,4|4,2:0|0:0,0:0:0:0:
240,53,16296,1,12,0:0:0:0:
105,53,16656,1,8,0:0:0:0:
231,99,17016,1,4,0:0:0:0:
312,136,17256,6,0,B|185:132|185:132|163:45,1,180,4|8,0:0|0:0,0:0:0:0:
349,113,18216,1,2,0:0:0:0:
200,119,19176,6,0,L|170:297,1,180,4|4,2:0|0:0,0:0:0:0:
307,282,20136,1,4,0:0:0:0:
441,285,20496,1,4,0:0:0:0:
440,124,20856,1,4,0:0:0:0:
323,92,21096,6,0,L|290:283,2,180,4|12|4,0:0|0:0|0:0,0:0:0:0:
176,65,22536,1,8,2:0:0:0:
354,87,23016,6,0,L|444:247,2,180,4|4|12,2:0|0:0|0:0,0:0:0:0:
219,73,24336,1,4,0:0:0:0:
218,207,24696,1,4,0:0:0:0:
362,201,24936,6,0,B|365:344|365:344|363:300,1,180,4|12,0:0|0:0,0:0:0:0:
236,101,25896,1,4,0:0:0:0:
415,104,26376,2,0,L|394:223,1,90,8|0,2:0|0:0,0:0:0:0:
273,190,26856,1,8,0:0:0:0:
152,200,33713,6,0,P|141:152|243:73,1,180,4|8,0:0|0:0,0:0:0:0:
408,70,35427,1,0,0:0:0:0:
228,58,36284,2,0,L|228:165,1,90,8|4,0:0|3:0,0:0:0:0:
401,171,37141,1,4,3:0:0:0:
93,58,37998,1,8,0:0:0:0:
237,59,38856,6,0,L|338:58,1,90,4|4,0:0|0:0,0:0:0:0:
243,92,39713,2,0,L|137:93,2,90,4|4|0,0:0|0:0|0:0,0:0:0:0:
245,271,41427,5,2,0:0:0:0:
256,192,43141,12,0,47104,0:0:0:0:
318,114,47578,5,8,0:0:0:0:
151,185,48053,6,0,P|99:120|166:54,1,180,2|8,0:0|0:0,0:0:0:0:
352,72,48991,1,2,0:0:0:0:
156,96,49454,1,8,0:0:0:0:
332,188,49913,6,0,L|340:-8,1,180,4|4,0:0|0:0,0:0:0:0:
144,40,50824,1,6,0:0:0:0:
340,68,51273,5,10,0:0:0:0:
344,268,51719,1,2,0:0:0:0:
144,284,52162,1,8,0:0:0:0:
332,216,52601,6,0,B|360:24,1,180,2|10,0:0|0:0,0:0:0:0:
164,68,53470,2,0,L|152:256,1,180,4|4,0:0|0:0,0:0:0:0:
352,264,54329,6,0,B|386:82,1,180,6|8,0:0|0:0,0:0:0:0:
205,72,55174,2,0,L|161:261,1,180,0|8,0:0|0:0,0:0:0:0:
344,239,56007,6,0,L|393:66,1,180
415,243,56828,2,0,L|456:53,1,180
275,102,57642,6,0,B|268:288|268:288,1,180,6|8,0:0|0:0,0:0:0:0:
87,284,58442,2,0,B|88:94,1,180,6|8,0:0|0:0,0:0:0:0:
221,223,59231,2,0,L|213:38,1,180,0|8,0:0|0:0,0:0:0:0:
356,207,60011,2,0,L|380:20,1,180,4|4,0:0|0:0,0:0:0:0:
199,34,60781,6,0,L|139:223,1,180,12|10,0:0|0:0,0:0:0:0:
288,280,61542,2,0,L|288:388,2,90,2|2|8,0:0|0:0|0:0,0:0:0:0:
119,219,62291,6,0,L|119:34,1,180,2|10,0:0|0:0,0:0:0:0:
254,45,63033,2,0,L|255:235,1,180,4|4,0:0|0:0,0:0:0:0:
436,198,63773,6,0,L|433:391,1,180,6|10,0:0|0:0,0:0:0:0:
270,301,64495,5,2,0:0:0:0:
269,211,64674,1,0,0:0:0:0:
272,120,64853,1,10,0:0:0:0:
451,116,65209,1,2,0:0:0:0:
272,120,65567,1,8,0:0:0:0:
94,140,65917,6,0,P|74:39|146:-3,1,180,4|4,0:0|0:0,0:0:0:0:
292,108,66615,2,0,P|363:181|326:256,1,180,4|8,0:0|0:0,0:0:0:0:
192,256,67303,6,0,L|197:166,2,90,2|2|8,0:0|0:0|0:0,0:0:0:0:
369,213,67989,2,0,L|371:114,2,90,2|0|8,0:0|0:0|0:0,0:0:0:0:
189,190,68664,2,0,L|193:-6,1,180,4|4,0:0|0:0,0:0:0:0:
370,55,69339,6,0,P|424:104|354:171,1,180,4|8,0:0|0:0,0:0:0:0:
196,235,70001,2,0,B|194:139|194:139|194:234,1,180,0|8,0:0|0:0,0:0:0:0:
366,172,70652,2,0,P|427:116|365:57,1,180,2|8,0:0|0:0,0:0:0:0:
202,109,71296,2,0,B|200:13|200:13|200:108,1,180
385,93,71944,5,8,0:0:0:0:
374,363,72417,1,8,0:0:0:0:
103,346,72887,1,8,0:0:0:0:
125,76,73353,5,8,0:0:0:0:
395,77,73816,1,8,0:0:0:0:
207,271,74275,1,8,0:0:0:0:
396,328,74730,5,8,0:0:0:0:
463,267,74881,1,8,0:0:0:0:
462,177,75031,1,8,0:0:0:0:
396,116,75181,1,6,0:0:0:0:
305,112,75332,5,4,0:0:0:0:
256,192,75482,12,0,77132,0:0:0:0:
256,192,77732,12,6,80132,0:0:0:0:
205,196,82052,6,0,P|141:126|189:57,1,180,4|2,0:0|0:0,0:0:0:0:
331,71,82772,2,0,L|332:169,1,90,8|0,0:0|0:0,0:0:0:0:
230,244,83972,6,0,B|163:206|196:129,1,135,4|0,0:0|0:0,0:0:0:0:
334,169,84692,1,8,0:0:0:0:
230,244,85172,6,0,B|163:206|196:129,1,135,4|0,0:0|0:0,0:0:0:0:
372,172,85892,2,0,B|397:99|322:62,1,135,4|0,0:0|0:0,0:0:0:0:
165,166,86612,1,8,0:0:0:0:
161,69,87812,6,0,L|197:254,1,180
346,238,88532,1,8,0:0:0:0:
166,251,89012,5,0,0:0:0:0:
300,240,89372,1,0,0:0:0:0:
434,242,89732,1,8,0:0:0:0:
133,247,91652,5,4,0:0:0:0:
254,164,93572,6,0,L|362:164,1,90,4|0,0:0|0:0,0:0:0:0:
259,97,94532,2,0,L|161:97,1,90,8|0,0:0|0:0,0:0:0:0:
312,105,95492,2,0,L|312:10,1,90
401,18,96452,2,0,L|400:119,1,90,8|0,0:0|0:0,0:0:0:0:
181,199,97412,6,0,L|157:96,1,90,4|0,3:0|0:0,0:0:0:0:
290,108,98372,2,0,L|326:207,1,90,8|0,0:0|0:0,0:0:0:0:
189,99,99332,2,0,L|168:198,1,90,4|0,3:0|0:0,0:0:0:0:
302,188,100292,2,0,L|332:280,1,90,8|0,0:0|0:0,0:0:0:0:
166,271,101252,6,0,L|125:168,1,90,4|0,0:0|0:0,0:0:0:0:
222,180,102212,2,0,L|255:89,1,90
346,304,103172,2,0,L|382:202,1,90,4|0,3:0|0:0,0:0:0:0:
172,199,104132,1,8,0:0:0:0:
352,200,105092,6,0,L|383:107,2,90
262,198,106532,1,0,0:0:0:0:
160,200,107012,2,0,L|129:107,2,90
249,207,108452,1,0,0:0:0:0:
363,126,108932,6,0,L|438:183,2,90,2|10|2,0:0|0:0|0:0,0:0:0:0:
246,268,109892,1,2,0:0:0:0:
148,237,110132,1,10,0:0:0:0:
147,130,110372,1,2,0:0:0:0:
353,270,110852,6,0,L|453:270,1,90
326,88,111812,2,0,L|325:192,2,90,2|10|2,0:0|0:0|0:0,0:0:0:0:
144,108,112772,6,0,P|105:154|182:254,1,180,6|10,0:0|0:0,0:0:0:0:
357,249,113732,2,0,P|409:182|368:108,1,180,6|10,0:0|0:0,0:0:0:0:
207,163,114692,6,0,P|143:99|208:37,1,180,2|2,0:0|0:0,0:0:0:0:
295,36,115652,2,0,L|193:36,1,90
349,191,116612,6,0,L|380:94,2,90,2|10|2,0:0|0:0|0:0,0:0:0:0:
171,223,117572,2,0,L|146:315,2,90,2|10|2,0:0|0:0|0:0,0:0:0:0:
322,202,118532,6,0,L|432:198,1,90
262,97,119492,2,0,L|144:56,2,90,2|10|0,0:0|0:0|0:0,0:0:0:0:
441,95,120452,6,0,L|453:295,1,180,6|10,0:0|0:0,0:0:0:0:
240,324,121412,2,0,P|132:224|136:188,1,180,2|10,0:0|0:0,0:0:0:0:
312,199,122372,2,0,L|407:40,1,180,2|10,0:0|0:0,0:0:0:0:
178,242,123332,5,0,0:0:0:0:
322,248,123812,1,0,0:0:0:0:
411,249,124292,1,6,0:0:0:0:
256,192,124772,12,4,131972,0:0:0:0:
