osu file format v14

[General]
AudioFilename: aleph-0.mp3
AudioLeadIn: 0
PreviewTime: 11496
Countdown: 0
SampleSet: Soft
StackLeniency: 0.7
Mode: 2
LetterboxInBreaks: 0
EpilepsyWarning: 1
WidescreenStoryboard: 1

[Editor]
Bookmarks: 6716,9096,11496,26856,33713,41427,43248,47104,60781,71944,77732,80132,82052,91652,93572,108932,124292,131972
DistanceSpacing: 1
BeatDivisor: 4
GridSize: 8
TimelineZoom: 2.9

[Metadata]
Title:Aleph-0
TitleUnicode:ℵ0
Artist:LeaF
ArtistUnicode:LeaF
Creator:Sakary
Version:Platter
Source:osu!
Tags:featured artist FA OF FIGHTERS ULTIMATE LEGENDARY AGAIN 孤高クローバー dance rail phigros video game instrumental bms bofu2016 optie aleph-zero null naught infinity hi_hello CLSW CrystalSeed Crystal Daiz_IX Minato Yukina nelly -luminate sangkrazf1nal3 phob razor sharp arthas
BeatmapID:1867684
BeatmapSetID:806903

[Difficulty]
HPDrainRate:5
CircleSize:3.5
OverallDifficulty:8
ApproachRate:8
SliderMultiplier:1.4
SliderTickRate:1

[Events]
//Background and Video events
0,0,"aleph.jpg",0,0
Video,971,"credits to OPTIE.mp4"
//Break Periods
2,6896,8346
2,43248,46034
2,80332,81062
//Storyboard Layer 0 (Background)
//Storyboard Layer 1 (Fail)
//Storyboard Layer 2 (Pass)
//Storyboard Layer 3 (Foreground)
//Storyboard Layer 4 (Overlay)
//Storyboard Sound Samples

[TimingPoints]
936,480,4,1,99,70,1,0
9096,240,4,3,1,60,1,0
11496,240,4,1,99,70,1,0
11736,-100,4,3,2,50,0,0
14856,-100,4,3,2,90,0,0
15096,-100,4,3,2,50,0,0
18216,-100,4,1,99,80,0,0
18246,-100,4,2,0,5,0,0
19176,-100,4,3,2,50,0,0
22536,-100,4,3,2,90,0,0
22656,-100,4,3,2,50,0,0
26376,-100,4,3,2,90,0,0
26616,-100,4,3,2,50,0,0
26856,428.571428571429,4,1,99,80,1,0
26882,-100,4,2,0,5,0,0
33713,-100,4,2,0,30,0,0
38856,-100,4,3,0,30,0,0
39713,-58.8235294117647,4,3,0,30,0,0
41427,-100,4,1,99,70,0,0
41481,-100,4,2,0,5,0,0
46891,-100,4,2,0,40,0,0
47104,240,4,1,10,50,1,1
47224,-100,4,1,10,50,0,0
47339,239.043824701195,4,1,10,50,1,0
47578,238.095238095238,4,1,10,50,1,0
47816,237.154150197628,4,1,10,50,1,0
48053,236.220472440945,4,1,10,50,1,0
48289,235.294117647059,4,1,10,50,1,0
48524,234.375,4,1,10,50,1,0
48758,233.463035019455,4,1,10,50,1,0
48991,232.558139534884,4,1,10,50,1,0
49223,231.660231660232,4,1,10,50,1,0
49454,230.769230769231,4,1,10,50,1,0
49684,229.885057471264,4,1,10,50,1,0
49913,-100,4,1,0,100,0,0
50824,225.563909774436,4,1,10,55,1,1
50936,-100,4,1,10,55,0,0
51049,224.719101123595,4,1,10,55,1,0
51273,223.880597014925,4,1,10,55,1,0
51496,223.048327137546,4,1,10,55,1,0
51719,222.222222222222,4,1,10,55,1,0
51941,221.40221402214,4,1,10,55,1,0
52162,220.588235294118,4,1,10,55,1,0
52382,219.78021978022,4,1,10,55,1,0
52601,218.978102189781,4,1,10,55,1,0
52819,218.181818181818,4,1,10,55,1,0
53037,217.391304347826,4,1,10,55,1,0
53254,216.606498194946,4,1,10,55,1,0
53470,-100,4,1,0,100,0,0
54329,212.765957446809,4,1,10,50,1,1
54435,-100,4,1,10,50,0,0
54541,212.014134275618,4,1,10,60,1,0
54753,211.267605633803,4,1,10,60,1,0
54964,210.526315789474,4,1,10,60,1,0
55174,209.79020979021,4,1,10,60,1,0
55383,209.059233449477,4,1,10,60,1,0
55592,208.333333333333,4,1,10,60,1,0
55800,207.612456747405,4,1,10,60,1,0
56007,206.896551724138,4,1,10,60,1,0
56213,206.185567010309,4,1,10,60,1,0
56419,205.479452054795,4,1,10,60,1,0
56624,204.778156996587,4,1,10,60,1,0
56828,-100,4,1,0,100,0,0
57642,201.342281879195,4,1,10,65,1,1
57742,-100,4,1,10,65,0,0
57843,200.66889632107,4,1,10,65,1,0
58043,200,4,1,10,65,1,0
58243,199.335548172757,4,1,10,65,1,0
58442,198.675496688742,4,1,10,65,1,0
58640,198.019801980198,4,1,10,65,1,0
58838,197.368421052632,4,1,10,65,1,0
59035,196.72131147541,4,1,10,65,1,0
59232,196.078431372549,4,1,10,65,1,0
59428,195.439739413681,4,1,10,65,1,0
59623,194.805194805195,4,1,10,65,1,0
59817,194.174757281553,4,1,10,65,1,0
60011,-100,4,1,0,100,0,0
60781,191.082802547771,4,1,99,90,1,1
60876,-100,4,1,10,70,0,1
60972,190.47619047619,4,1,10,70,1,1
61162,189.873417721519,4,1,10,70,1,1
61353,189.274447949527,4,1,10,70,1,1
61542,188.679245283019,4,1,10,70,1,1
61730,188.087774294671,4,1,10,70,1,1
61918,187.5,4,1,10,70,1,1
62105,186.915887850467,4,1,10,70,1,1
62293,186.335403726708,4,1,10,70,1,1
62479,185.758513931889,4,1,10,70,1,1
62664,185.185185185185,4,1,10,70,1,1
62849,184.615384615385,4,1,10,70,1,1
63033,-100,4,1,0,100,0,1
63679,-100,4,1,10,50,0,0
63773,181.818181818182,4,1,10,75,1,1
63954,181.268882175227,4,1,10,75,1,1
64135,180.722891566265,4,1,10,75,1,1
64315,180.18018018018,4,1,10,75,1,1
64495,179.640718562874,4,1,10,75,1,1
64674,179.10447761194,4,1,10,75,1,1
64853,178.571428571429,4,1,10,75,1,1
65031,178.041543026706,4,1,10,75,1,1
65213,177.514792899408,4,1,10,75,1,1
65390,176.991150442478,4,1,10,75,1,1
65566,176.470588235294,4,1,10,75,1,1
65742,175.953079178886,4,1,10,75,1,1
65917,-100,4,1,0,100,0,1
66533,-100,4,1,10,50,0,0
66615,173.410404624277,4,1,10,80,1,1
66788,172.910662824207,4,1,10,80,1,1
66960,172.413793103448,4,1,10,80,1,1
67132,171.919770773639,4,1,10,80,1,1
67303,171.428571428571,4,1,10,80,1,1
67474,170.940170940171,4,1,10,80,1,1
67644,170.454545454545,4,1,10,80,1,1
67814,169.971671388102,4,1,10,80,1,1
67989,169.491525423729,4,1,10,80,1,1
68157,169.014084507042,4,1,10,80,1,1
68326,168.539325842697,4,1,10,80,1,1
68496,168.067226890756,4,1,10,80,1,1
68664,-100,4,1,0,100,0,1
69252,-100,4,1,10,50,0,0
69339,165.745856353591,4,1,10,85,1,1
69504,165.289256198347,4,1,10,85,1,1
69669,164.835164835165,4,1,10,85,1,1
69833,164.383561643836,4,1,10,85,1,1
70001,163.934426229508,4,1,10,85,1,1
70164,163.487738419619,4,1,10,85,1,1
70327,163.04347826087,4,1,10,85,1,1
70490,162.60162601626,4,1,10,85,1,1
70652,162.162162162162,4,1,10,85,1,1
70814,161.725067385445,4,1,10,85,1,1
70975,161.290322580645,4,1,10,85,1,1
71136,160.857908847185,4,1,10,85,1,1
71296,-100,4,1,0,100,0,1
71859,-100,4,1,10,50,0,0
71944,158.730158730159,3,3,1,90,1,1
72102,158.311345646438,3,3,1,90,1,1
72260,157.894736842105,3,3,1,90,1,0
72417,157.48031496063,3,3,1,90,1,1
72574,157.068062827225,3,3,1,90,1,1
72731,156.657963446475,3,3,1,90,1,0
72887,156.25,3,3,1,90,1,1
73043,155.844155844156,3,3,1,90,1,1
73198,155.440414507772,3,3,1,90,1,0
73353,155.038759689922,3,3,1,90,1,1
73508,154.639175257732,3,3,1,90,1,1
73662,154.241645244216,3,3,1,90,1,0
73816,153.846153846154,3,3,1,90,1,1
73969,153.452685421995,3,3,1,90,1,1
74122,153.061224489796,3,3,1,90,1,0
74275,152.671755725191,3,3,1,90,1,1
74427,152.284263959391,3,3,1,90,1,1
74579,151.898734177215,3,3,1,90,1,0
74730,151.515151515152,3,3,1,90,1,1
74881,151.133501259446,3,3,1,90,1,1
75032,150.753768844221,3,3,1,90,1,1
75182,150.375939849624,3,3,1,90,1,1
75332,150,4,1,99,100,1,0
75572,-100,4,2,0,20,0,0
77732,-185.185185185185,4,3,1,100,0,1
80132,480,4,1,99,70,1,0
82052,240,4,3,1,70,1,0
82772,960,4,3,2,70,1,0
83732,240,4,3,1,70,1,0
84692,960,4,3,2,70,1,0
85172,240,4,3,1,70,1,0
86612,960,4,3,2,70,1,0
87572,240,4,3,1,70,1,0
88532,960,4,3,2,70,1,0
89012,240,4,3,1,70,1,0
89732,-200,4,1,99,70,0,0
89792,-100,4,2,0,20,0,0
91652,-200,4,3,1,50,0,0
93572,480,4,1,99,90,1,0
94052,-100,4,2,5,40,0,0
108932,240,4,1,10,90,1,1
110852,480,4,2,5,70,1,0
111812,240,4,1,10,90,1,1
115652,480,4,2,5,40,1,0
116612,240,4,1,10,90,1,1
118532,480,4,2,5,40,1,0
119492,240,4,1,10,90,1,1
123332,480,4,2,5,40,1,0
124292,-100,4,1,99,100,0,1
124412,-100,4,2,0,20,0,0
131972,-100,4,1,99,100,0,1
132092,-100,4,2,0,5,0,0

[Colours]
Combo1 : 149,189,132
Combo2 : 208,179,111
Combo3 : 119,135,136
Combo4 : 95,149,160

[HitObjects]
256,192,936,8,0,6216,0:0:0:0:
256,192,6696,5,2,0:0:0:0:
168,352,9096,6,0,P|208:280|256:216,1,140,8|2,0:0|2:0,0:0:0:0:
368,232,9576,2,0,P|432:176|456:120,1,140,8|8,0:0|0:0,0:0:0:0:
352,128,9936,2,0,P|304:80|256:8,1,140,8|8,0:0|0:0,0:0:0:0:
360,24,10296,1,8,0:0:0:0:
216,56,10536,2,0,P|144:88|96:136,2,140,8|2|8,0:0|2:0|0:0,0:0:0:0:
368,56,11256,1,8,0:0:0:0:
56,264,11496,6,0,P|48:184|56:112,2,140,4|0|4,0:0|0:0|0:0,0:0:0:0:
168,272,12216,1,0,0:0:0:0:
408,280,12456,2,4,P|384:232|256:112,2,210,12|4|4,0:0|0:0|0:0,0:0:0:0:
168,344,13416,5,4,0:0:0:0:
64,288,13656,1,8,0:0:0:0:
64,184,13896,1,12,0:0:0:0:
160,120,14136,1,4,0:0:0:0:
400,112,14376,1,4,0:0:0:0:
96,64,14856,1,8,2:0:0:0:
408,56,15336,6,0,L|488:176,2,140,4|4|4,2:0|0:0|0:0,0:0:0:0:
304,48,16056,1,0,0:0:0:0:
104,112,16296,2,4,P|136:160|248:264,2,210,12|8|4,0:0|0:0|0:0,0:0:0:0:
336,192,17256,5,4,0:0:0:0:
344,136,17376,1,0,0:0:0:0:
192,240,17616,1,0,0:0:0:0:
128,200,17736,2,0,L|136:40,1,140,8|4,0:0|0:0,0:0:0:0:
464,136,18216,1,2,0:0:0:0:
200,272,19176,6,0,L|72:168,2,140,4|4|4,2:0|0:0|0:0,0:0:0:0:
328,232,19896,1,4,0:0:0:0:
80,256,20136,2,4,P|72:192|72:32,2,210,12|4|4,0:0|0:0|0:0,0:0:0:0:
328,304,21096,6,0,L|432:192,1,140,4|12,0:0|0:0,0:0:0:0:
280,200,21576,2,0,L|184:80,1,140,12|4,0:0|0:0,0:0:0:0:
344,80,22056,1,4,0:0:0:0:
24,56,22536,1,8,2:0:0:0:
400,288,23016,6,0,L|472:168,2,140,4|4|4,2:0|0:0|0:0,0:0:0:0:
288,320,23736,1,0,0:0:0:0:
48,312,23976,2,0,L|208:144,2,210,12|4|4,0:0|0:0|0:0,0:0:0:0:
280,272,24936,5,4,0:0:0:0:
280,272,25056,1,0,0:0:0:0:
152,224,25296,1,4,0:0:0:0:
152,224,25416,1,12,0:0:0:0:
304,176,25656,1,4,0:0:0:0:
152,128,25896,1,4,0:0:0:0:
320,88,26376,5,8,2:0:0:0:
112,40,26616,1,0,0:0:0:0:
440,24,26856,1,8,0:0:0:0:
112,112,27713,6,0,L|264:232,2,140
368,104,28998,1,0,0:0:0:0:
104,240,29427,1,0,0:0:0:0:
96,296,29641,1,0,0:0:0:0:
352,320,30070,1,0,0:0:0:0:
160,328,30284,6,0,P|96:280|136:136,1,210
232,152,31141,1,0,0:0:0:0:
32,112,31570,1,0,0:0:0:0:
344,216,31998,2,0,L|192:216,2,140
192,296,33070,1,0,0:0:0:0:
464,328,33713,5,0,0:0:0:0:
88,328,34570,2,0,P|80:264|168:120,1,210,8|0,0:0|0:0,0:0:0:0:
280,112,35427,2,0,L|128:88,2,140,0|0|8,0:0|0:0|0:0,0:0:0:0:
192,160,36498,1,4,3:0:0:0:
88,184,36713,1,0,0:0:0:0:
480,288,37141,6,0,P|448:192|272:112,1,280,4|8,3:0|0:0,0:0:0:0:
464,96,38427,1,0,0:0:0:0:
152,288,38856,1,4,0:0:0:0:
64,288,39070,1,4,0:0:0:0:
160,288,39284,1,4,0:0:0:0:
56,288,39498,1,4,0:0:0:0:
272,344,39713,5,0,0:0:0:0:
312,301,39820,1,0,0:0:0:0:
335,246,39927,1,0,0:0:0:0:
338,187,40034,1,0,0:0:0:0:
320,131,40141,1,0,0:0:0:0:
284,84,40248,1,0,0:0:0:0:
234,53,40355,1,0,0:0:0:0:
176,41,40462,1,0,0:0:0:0:
448,48,41427,1,2,0:0:0:0:
408,336,46784,5,0,0:0:0:0:
128,328,47104,5,4,0:0:0:0:
224,288,47339,1,2,0:0:0:0:
294,215,47578,2,0,L|158:143,1,140,8|0,0:0|0:0,0:0:0:0:
304,104,48053,5,2,0:0:0:0:
320,104,48171,1,0,0:0:0:0:
176,72,48406,1,0,0:0:0:0:
160,72,48524,1,8,0:0:0:0:
264,8,48758,1,2,0:0:0:0:
488,72,48991,6,0,L|480:144,1,70,2|0,0:0|0:0,0:0:0:0:
352,176,49338,2,0,L|344:264,1,70,0|8,0:0|0:0,0:0:0:0:
464,336,49684,1,0,0:0:0:0:
264,328,49913,5,0,0:0:0:0:
264,328,50143,1,0,0:0:0:0:
408,248,50373,1,0,0:0:0:0:
408,248,50603,1,0,0:0:0:0:
96,320,50824,5,6,0:0:0:0:
200,288,51049,1,2,0:0:0:0:
272,208,51273,2,0,L|146:113,1,140,10|2,0:0|0:0,0:0:0:0:
304,80,51719,5,2,0:0:0:0:
304,48,51830,1,0,0:0:0:0:
192,152,52051,1,0,0:0:0:0:
194,118,52162,1,8,0:0:0:0:
96,200,52382,1,2,0:0:0:0:
352,280,52601,6,0,L|344:208,1,70,2|0,0:0|0:0,0:0:0:0:
208,224,52928,2,0,L|200:144,1,70,0|10,0:0|0:0,0:0:0:0:
96,136,53254,1,0,0:0:0:0:
296,336,53470,5,0,0:0:0:0:
304,296,53687,1,0,0:0:0:0:
192,248,53903,1,0,0:0:0:0:
184,200,54120,1,0,0:0:0:0:
464,120,54329,6,0,L|488:280,1,140,6|2,0:0|0:0,0:0:0:0:
344,208,54753,2,0,L|336:368,1,140,8|0,0:0|0:0,0:0:0:0:
200,344,55174,5,2,0:0:0:0:
200,296,55278,1,0,0:0:0:0:
288,264,55487,1,0,0:0:0:0:
296,216,55592,1,8,0:0:0:0:
184,168,55800,1,2,0:0:0:0:
400,168,56007,6,0,L|408:96,1,70,2|2,0:0|0:0,0:0:0:0:
272,104,56316,2,0,L|264:24,1,70,2|8,0:0|0:0,0:0:0:0:
392,32,56624,1,0,0:0:0:0:
192,88,56828,6,0,L|176:232,1,140,4|4,0:0|0:0,0:0:0:0:
328,200,57238,2,0,L|344:352,1,140,4|4,0:0|0:0,0:0:0:0:
27,197,57642,6,0,L|48:336,1,140,6|2,0:0|0:0,0:0:0:0:
176,336,58043,1,8,0:0:0:0:
288,288,58243,1,0,0:0:0:0:
368,152,58442,5,2,0:0:0:0:
368,96,58541,1,0,0:0:0:0:
256,104,58739,1,0,0:0:0:0:
248,48,58838,1,8,0:0:0:0:
368,40,59035,1,0,0:0:0:0:
176,152,59231,5,2,0:0:0:0:
176,96,59330,1,0,0:0:0:0:
288,136,59525,1,0,0:0:0:0:
288,184,59623,1,8,0:0:0:0:
176,256,59817,1,2,0:0:0:0:
384,336,60011,6,0,L|360:168,1,140,4|4,0:0|0:0,0:0:0:0:
224,208,60399,2,0,L|208:56,1,140,4|4,0:0|0:0,0:0:0:0:
480,72,60781,5,12,0:0:0:0:
376,32,60972,1,10,0:0:0:0:
280,80,61162,1,2,0:0:0:0:
352,144,61353,1,0,0:0:0:0:
224,160,61542,1,2,0:0:0:0:
176,208,61636,1,0,0:0:0:0:
224,160,61730,1,10,0:0:0:0:
352,172,61918,1,2,0:0:0:0:
400,288,62105,1,10,0:0:0:0:
240,304,62293,5,0,0:0:0:0:
288,284,62386,1,2,0:0:0:0:
360,232,62571,1,2,0:0:0:0:
368,192,62664,1,2,0:0:0:0:
320,112,62849,1,10,0:0:0:0:
32,56,63033,6,0,L|56:208,1,140,4|4,0:0|0:0,0:0:0:0:
168,328,63402,2,0,L|208:176,1,140,4|4,0:0|0:0,0:0:0:0:
496,88,63772,5,6,0:0:0:0:
480,200,63954,1,10,0:0:0:0:
360,256,64135,1,2,0:0:0:0:
248,256,64315,1,10,0:0:0:0:
368,168,64495,1,2,0:0:0:0:
416,144,64584,1,0,0:0:0:0:
368,168,64674,1,10,0:0:0:0:
248,160,64853,1,2,0:0:0:0:
168,72,65031,1,10,0:0:0:0:
320,240,65213,5,0,0:0:0:0:
272,224,65301,1,2,0:0:0:0:
184,184,65478,1,2,0:0:0:0:
184,128,65566,1,2,0:0:0:0:
240,48,65742,1,10,0:0:0:0:
480,56,65917,6,0,L|464:206,1,140,4|4,0:0|0:0,0:0:0:0:
344,328,66269,2,0,L|304:192,1,140,4|4,0:0|0:0,0:0:0:0:
72,168,66615,5,6,0:0:0:0:
96,264,66788,1,10,0:0:0:0:
192,312,66960,1,2,0:0:0:0:
288,272,67132,1,10,0:0:0:0:
200,192,67303,1,2,0:0:0:0:
160,184,67388,1,0,0:0:0:0:
200,192,67474,1,10,0:0:0:0:
312,160,67644,1,2,0:0:0:0:
376,48,67814,1,10,0:0:0:0:
208,128,67989,5,2,0:0:0:0:
256,136,68073,1,10,0:0:0:0:
360,112,68241,1,0,0:0:0:0:
384,72,68326,1,2,0:0:0:0:
352,0,68496,1,10,0:0:0:0:
32,328,68664,6,0,L|56:176,1,140,4|4,0:0|0:0,0:0:0:0:
168,56,69000,2,0,L|208:208,1,140,4|4,0:0|0:0,0:0:0:0:
440,104,69339,5,0,0:0:0:0:
480,192,69504,1,10,0:0:0:0:
384,256,69669,1,2,0:0:0:0:
280,224,69833,1,10,0:0:0:0:
352,168,70001,1,0,0:0:0:0:
388,152,70082,1,0,0:0:0:0:
352,168,70164,1,10,0:0:0:0:
240,152,70327,1,2,0:0:0:0:
200,48,70490,1,10,0:0:0:0:
312,96,70652,5,2,0:0:0:0:
348,80,70733,1,2,0:0:0:0:
288,72,70894,1,2,0:0:0:0:
312,48,70975,1,2,0:0:0:0:
408,40,71136,1,10,0:0:0:0:
152,328,71296,6,0,L|160:160,1,140,4|4,0:0|0:0,0:0:0:0:
304,264,71618,2,0,L|320:104,1,140,4|4,0:0|0:0,0:0:0:0:
80,48,71940,5,4,1:0:0:0:
56,96,72023,1,0,0:0:0:0:
64,144,72102,1,0,0:0:0:0:
96,192,72181,1,0,0:0:0:0:
152,208,72260,1,0,0:0:0:0:
320,304,72417,5,4,1:0:0:0:
376,272,72495,1,0,0:0:0:0:
392,216,72574,1,0,0:0:0:0:
360,168,72652,1,0,0:0:0:0:
296,160,72731,1,0,0:0:0:0:
152,112,72887,5,4,1:0:0:0:
96,144,72965,1,0,0:0:0:0:
72,200,73043,1,0,0:0:0:0:
96,256,73120,1,0,0:0:0:0:
152,280,73198,1,0,0:0:0:0:
352,344,73353,5,4,1:0:0:0:
400,320,73430,1,0,0:0:0:0:
424,280,73508,1,0,0:0:0:0:
408,224,73585,1,0,0:0:0:0:
352,200,73662,1,0,0:0:0:0:
192,184,73816,6,0,L|136:96,4,70,4|8|8|8|0,1:0|0:0|0:0|0:0|0:0,0:0:0:0:
352,112,74275,6,0,L|400:40,4,70,4|8|8|8|0,1:0|0:0|0:0|0:0|0:0,0:0:0:0:
120,312,74730,5,4,1:0:0:0:
80,272,74805,1,8,0:0:0:0:
64,216,74881,1,8,0:0:0:0:
72,160,74956,1,8,0:0:0:0:
104,112,75032,1,8,0:0:0:0:
152,80,75107,1,8,0:0:0:0:
208,64,75182,1,8,0:0:0:0:
432,56,75332,5,6,0:0:0:0:
256,192,75632,8,0,77432,0:0:0:0:
88,128,77732,6,0,L|80:176,3,37.8000009228516
168,168,78032,6,0,L|168:216,3,37.8000009228516
256,216,78332,6,0,L|256:264,3,37.8000009228516
336,248,78632,6,0,L|336:296,3,37.8000009228516
416,280,78932,6,0,L|424:328,3,37.8000009228516
328,328,79232,5,0,0:0:0:0:
290,323,79307,1,0,0:0:0:0:
254,311,79382,1,0,0:0:0:0:
222,292,79457,1,0,0:0:0:0:
194,266,79532,1,0,0:0:0:0:
172,235,79607,1,0,0:0:0:0:
158,201,79682,1,0,0:0:0:0:
150,164,79757,1,0,0:0:0:0:
151,126,79832,1,0,0:0:0:0:
160,89,79907,1,0,0:0:0:0:
176,55,79982,1,0,0:0:0:0:
472,56,80132,1,0,0:0:0:0:
352,184,81812,5,0,0:0:0:0:
352,184,82052,6,0,L|472:88,1,140
368,48,82532,1,0,0:0:0:0:
64,72,82772,6,0,L|64:224,1,140
280,304,83972,5,0,0:0:0:0:
216,296,84092,1,0,0:0:0:0:
160,272,84212,1,0,0:0:0:0:
88,192,84452,1,0,0:0:0:0:
408,312,84692,5,0,0:0:0:0:
408,272,85172,6,0,L|416:112,1,140
320,208,85532,2,0,L|312:48,1,140
208,80,85892,5,0,0:0:0:0:
264,40,86012,1,0,0:0:0:0:
336,32,86132,1,0,0:0:0:0:
424,64,86372,1,0,0:0:0:0:
80,280,86612,6,0,L|80:120,1,140
224,280,87812,6,0,L|304:280,2,70
128,272,88292,1,0,0:0:0:0:
448,232,88532,5,0,0:0:0:0:
448,232,89012,5,0,0:0:0:0:
360,240,89132,1,0,0:0:0:0:
264,224,89252,1,0,0:0:0:0:
208,176,89372,1,0,0:0:0:0:
192,96,89492,1,0,0:0:0:0:
224,24,89612,1,0,0:0:0:0:
464,40,89732,6,0,B|464:184|464:184|440:320|272:288|240:168|304:72|408:96,1,560,8|4,0:0|0:0,0:0:0:0:
208,56,92132,2,0,P|74:84|40:272,1,350
472,160,93572,6,0,P|472:232|288:256,1,280,4|0,0:0|0:0,0:0:0:0:
152,208,95012,1,0,0:0:0:0:
360,192,95492,2,0,L|368:48,1,140,4|0,3:0|0:0,0:0:0:0:
152,184,96452,2,0,L|144:40,1,140,8|0,0:0|0:0,0:0:0:0:
360,120,97412,6,0,L|72:120,1,280,4|8,3:0|0:0,0:0:0:0:
232,152,98852,1,0,0:0:0:0:
80,208,99332,2,0,L|232:208,1,140,4|0,3:0|0:0,0:0:0:0:
432,208,100292,2,0,L|440:64,1,140,8|0,0:0|0:0,0:0:0:0:
128,64,101252,6,0,P|48:136|136:264,1,280,4|8,0:0|0:0,0:0:0:0:
272,216,102692,1,0,0:0:0:0:
120,200,103172,2,0,L|112:56,1,140,4|0,3:0|0:0,0:0:0:0:
328,64,104132,2,0,P|408:80|432:272,1,280,8|4,0:0|3:0,0:0:0:0:
296,264,105572,5,0,0:0:0:0:
440,224,106052,2,0,L|448:80,1,140,8|0,0:0|0:0,0:0:0:0:
96,72,107012,6,0,L|88:224,1,140,4|0,3:0|0:0,0:0:0:0:
416,72,107972,2,0,L|424:224,1,140,8|8,0:0|3:0,0:0:0:0:
152,280,108932,6,0,L|144:208,1,70,2|0,0:0|0:0,0:0:0:0:
232,208,109172,2,0,L|240:136,1,70,10|0,0:0|0:0,0:0:0:0:
320,176,109412,2,0,L|349:109,1,70,2|0,0:0|0:0,0:0:0:0:
425,153,109652,1,10,0:0:0:0:
264,80,109892,6,0,L|256:152,1,70,2|0,0:0|0:0,0:0:0:0:
352,144,110132,1,0,0:0:0:0:
408,176,110252,1,0,0:0:0:0:
448,224,110372,1,0,0:0:0:0:
440,288,110492,1,0,0:0:0:0:
392,336,110612,1,0,0:0:0:0:
328,352,110732,1,0,0:0:0:0:
80,288,110852,6,0,L|80:56,1,210
344,312,111812,6,0,L|352:240,1,70,2|0,0:0|0:0,0:0:0:0:
264,248,112052,2,0,L|256:176,1,70,10|0,0:0|0:0,0:0:0:0:
176,224,112292,2,0,L|146:157,1,70,2|0,0:0|0:0,0:0:0:0:
74,208,112532,1,10,0:0:0:0:
296,144,112772,6,0,L|304:72,3,70,2|0|0|0,0:0|0:0|0:0|0:0,0:0:0:0:
200,104,113252,2,0,L|192:200,3,70
296,112,113732,5,2,0:0:0:0:
352,128,113852,1,0,0:0:0:0:
376,176,113972,1,10,0:0:0:0:
352,224,114092,1,0,0:0:0:0:
224,256,114212,2,0,L|144:256,1,70,2|0,0:0|0:0,0:0:0:0:
280,312,114452,2,0,L|288:240,1,70,10|0,0:0|0:0,0:0:0:0:
160,232,114692,5,2,0:0:0:0:
136,176,114812,1,0,0:0:0:0:
160,128,114932,1,10,0:0:0:0:
216,112,115052,1,0,0:0:0:0:
88,56,115172,2,0,L|96:128,1,70,2|0,0:0|0:0,0:0:0:0:
160,144,115412,1,10,0:0:0:0:
440,72,115652,6,0,L|440:224,1,140
144,280,116612,6,0,L|136:208,1,70,2|0,0:0|0:0,0:0:0:0:
224,208,116852,2,0,L|232:136,1,70,10|0,0:0|0:0,0:0:0:0:
312,176,117092,2,0,L|341:109,1,70,2|0,0:0|0:0,0:0:0:0:
417,153,117332,1,10,0:0:0:0:
208,112,117572,6,0,L|192:16,1,70,2|0,0:0|0:0,0:0:0:0:
280,40,117812,1,0,0:0:0:0:
352,48,117932,1,0,0:0:0:0:
408,96,118052,1,0,0:0:0:0:
416,160,118172,1,0,0:0:0:0:
392,216,118292,1,0,0:0:0:0:
328,248,118412,1,0,0:0:0:0:
80,152,118532,6,0,L|80:320,1,140
360,296,119492,6,0,L|368:224,1,70,2|0,0:0|0:0,0:0:0:0:
280,232,119732,2,0,L|272:160,1,70,10|0,0:0|0:0,0:0:0:0:
192,208,119972,2,0,L|162:141,1,70,2|0,0:0|0:0,0:0:0:0:
90,192,120212,1,10,0:0:0:0:
288,128,120452,6,0,L|352:96,1,70,2|2,0:0|0:0,0:0:0:0:
272,112,120692,2,0,L|264:40,1,70,10|2,0:0|0:0,0:0:0:0:
368,144,120932,1,2,0:0:0:0:
360,200,121052,1,2,0:0:0:0:
320,240,121172,1,10,0:0:0:0:
264,248,121292,1,2,0:0:0:0:
184,224,121412,6,0,L|176:152,1,70,2|2,0:0|0:0,0:0:0:0:
256,144,121652,2,0,L|320:112,1,70,10|2,0:0|0:0,0:0:0:0:
184,80,121892,1,2,0:0:0:0:
128,104,122012,1,2,0:0:0:0:
104,160,122132,1,10,0:0:0:0:
128,216,122252,1,2,0:0:0:0:
216,248,122372,6,0,L|232:320,3,70,2|2|0|0,0:0|0:0|0:0|0:0,0:0:0:0:
144,288,122852,2,0,L|128:368,3,70,2|2|0|0,0:0|0:0|0:0|0:0,0:0:0:0:
344,280,123332,6,0,L|464:184,1,140
224,184,124292,1,8,0:0:0:0:
256,192,124772,8,4,131972,0:0:0:0:
