osu file format v14

[General]
AudioFilename: audio.mp3
AudioLeadIn: 0
PreviewTime: -1
Countdown: 0
SampleSet: Normal
StackLeniency: 0.7
Mode: 0
LetterboxInBreaks: 0
WidescreenStoryboard: 1

[Editor]
Bookmarks: 7790,11496,31141,31998,61333,65546,65678,66072,66595,69813,71924
DistanceSpacing: 3
BeatDivisor: 4
GridSize: 32
TimelineZoom: 0.9000059

[Metadata]
Title:Aleph-0
TitleUnicode:ℵ-0
Artist:LeaF
ArtistUnicode:LeaF
Creator:Rose Pacifica
Version:Zero
Source:BMS
Tags:math
BeatmapID:1244537
BeatmapSetID:587766

[Difficulty]
HPDrainRate:4.2
CircleSize:4.2
OverallDifficulty:7.2
ApproachRate:9.7
SliderMultiplier:1.8
SliderTickRate:1

[Events]
//Background and Video events
0,0,"bg.jpg",0,0
//Break Periods
//Storyboard Layer 0 (Background)
//Storyboard Layer 1 (Fail)
//Storyboard Layer 2 (Pass)
//Storyboard Layer 3 (Foreground)
//Storyboard Sound Samples

[TimingPoints]
936,480,4,1,0,5,1,0
936,-200,4,1,0,5,0,0
6696,240,4,1,0,60,1,0
6696,-50,4,1,0,60,0,0
7176,-50,4,1,0,60,0,0
7336,-100,4,1,0,60,0,0
7456,24,4,1,0,60,1,0
7550,240,4,1,0,60,1,0
7790,480,4,1,0,60,1,0
7790,-80,4,1,0,60,0,0
9096,240,4,1,0,60,1,0
9576,240,4,1,0,60,1,0
11496,-100,4,1,0,60,0,0
12456,-133.333333333333,4,1,0,60,0,0
13416,-100,4,1,0,60,0,0
14376,-133.333333333333,4,1,0,60,0,0
14616,-100,4,1,0,60,0,0
14856,-33.333333333333,4,1,0,60,0,0
15096,-133.333333333333,4,1,0,60,0,0
15336,-100,4,1,0,60,0,0
16296,-133.333333333333,4,1,0,60,0,0
17256,-100,4,1,0,60,0,0
18216,-33.333333333333,4,1,0,60,0,0
18696,-133.333333333333,4,1,0,60,0,0
19176,-90.9090909090909,4,1,0,60,0,0
20136,-117.647058823529,4,1,0,60,0,0
21096,-90.9090909090909,4,1,0,60,0,0
22056,-100,4,1,0,60,0,0
22536,-33.3333333333333,4,1,0,60,0,0
22776,-133.333333333333,4,1,0,60,0,0
23016,-90.9090909090909,4,1,0,60,0,0
23976,-133.333333333333,4,1,0,60,0,0
24696,-76.9230769230769,4,1,0,60,0,0
24936,-90.9090909090909,4,1,0,60,0,0
25416,-100,4,1,0,60,0,0
25656,-111.111111111111,4,1,0,60,0,0
25896,-125,4,1,0,60,0,0
26136,-142.857142857143,4,1,0,60,0,0
26376,-166.666666666667,4,1,0,60,0,0
26616,-200,4,1,0,60,0,0
26856,857.142857142857,16,1,0,60,1,0
33070,-200,16,1,0,60,0,0
33713,-100,16,1,0,60,0,0
39713,-50,16,1,0,60,0,0
40141,-33.333333333333,16,1,0,60,0,0
40356,-25,16,1,0,60,0,0
40570,-1000,4,1,0,60,0,0
41427,428.571428571429,4,1,0,60,1,0
41855,-33.333333333333,4,1,0,60,0,0
42712,428.571428571429,4,1,0,60,1,0
42819,-200,4,1,0,60,0,0
43247,214.285714285714,4,1,0,60,1,0
46782,-200,4,1,0,60,0,0
47084,240,4,1,0,60,1,1
47319,239.043824701195,4,1,0,60,1,1
47558,238.095238095238,4,1,0,60,1,1
47796,237.154150197628,4,1,0,60,1,1
48033,236.220472440945,4,1,0,60,1,1
48269,235.294117647059,4,1,0,60,1,1
48504,234.375,4,1,0,60,1,1
48738,233.463035019455,4,1,0,60,1,1
48971,232.558139534884,4,1,0,60,1,1
49203,231.660231660232,4,1,0,60,1,1
49434,230.769230769231,4,1,0,60,1,1
49664,229.885057471264,4,1,0,60,1,1
49893,114.503816793893,4,1,0,60,1,1
49893,-58.8235294117647,4,1,0,60,0,1
50122,114.068441064639,4,1,0,60,1,1
50122,-55.5555555555556,4,1,0,60,0,1
50350,113.636363636364,4,1,0,60,1,1
50350,-52.6315789473684,4,1,0,60,0,1
50577,113.207547169811,4,1,0,60,1,1
50577,-50,4,1,0,60,0,1
50804,225.563909774436,4,1,0,60,1,1
51029,224.719101123595,4,1,0,60,1,1
51253,223.880597014925,4,1,0,60,1,1
51476,223.048327137546,4,1,0,60,1,1
51699,222.222222222222,4,1,0,60,1,1
51921,221.40221402214,4,1,0,60,1,1
52142,220.588235294118,4,1,0,60,1,1
52362,219.78021978022,4,1,0,60,1,1
52581,218.978102189781,4,1,0,60,1,1
52799,218.181818181818,4,1,0,60,1,1
53017,217.391304347826,4,1,0,60,1,1
53234,216.606498194946,4,1,0,60,1,1
53450,107.913669064748,4,1,0,60,1,1
53450,-58.8235294117647,4,1,0,60,0,1
53665,107.52688172043,4,1,0,60,1,1
53665,-55.5555555555556,4,1,0,60,0,1
53880,107.142857142857,4,1,0,60,1,1
53880,-52.6315789473684,4,1,0,60,0,1
54094,106.761565836299,4,1,0,60,1,1
54094,-50,4,1,0,60,0,1
54309,212.765957446809,4,1,0,60,1,1
54521,212.014134275618,4,1,0,60,1,1
54733,211.267605633803,4,1,0,60,1,1
54944,210.526315789474,4,1,0,60,1,1
55154,209.79020979021,4,1,0,60,1,1
55363,209.059233449477,4,1,0,60,1,1
55572,208.333333333333,4,1,0,60,1,1
55780,207.612456747405,4,1,0,60,1,1
55987,206.896551724138,4,1,0,60,1,1
56193,206.185567010309,4,1,0,60,1,1
56399,205.479452054795,4,1,0,60,1,1
56604,204.778156996587,4,1,0,60,1,1
56809,102.040816326531,4,1,0,60,1,1
56809,-58.8235294117647,4,1,0,60,0,1
57013,101.694915254237,4,1,0,60,1,1
57013,-55.5555555555556,4,1,0,60,0,1
57216,101.351351351351,4,1,0,60,1,1
57216,-52.6315789473684,4,1,0,60,0,1
57418,101.010101010101,4,1,0,60,1,1
57418,-50,4,1,0,60,0,1
57622,201.342281879195,4,1,0,60,1,1
57622,-100,4,1,0,60,0,1
57823,200.66889632107,4,1,0,60,1,1
58023,200,4,1,0,60,1,1
58223,199.335548172757,4,1,0,60,1,1
58422,198.675496688742,4,1,0,60,1,1
58620,198.019801980198,4,1,0,60,1,1
58818,197.368421052632,4,1,0,60,1,1
59015,196.72131147541,4,1,0,60,1,1
59212,196.078431372549,4,1,0,60,1,1
59408,195.439739413681,4,1,0,60,1,1
59603,194.805194805195,4,1,0,60,1,1
59797,194.174757281553,4,1,0,60,1,1
59991,96.7741935483871,4,1,0,60,1,1
59991,-58.8235294117647,4,1,0,60,0,1
60184,96.4630225080386,4,1,0,60,1,1
60184,-55.5555555555556,4,1,0,60,0,1
60376,96.1538461538462,4,1,0,60,1,1
60376,-52.6315789473684,4,1,0,60,0,1
60568,95.8466453674121,4,1,0,60,1,1
60568,-50,4,1,0,60,0,1
60759,-100,4,1,0,60,0,1
60761,191.082802547771,4,1,0,60,1,1
60952,190.47619047619,4,1,0,60,1,1
61142,189.873417721519,4,1,0,60,1,1
61333,189.274447949527,4,1,0,60,1,1
61522,188.679245283019,4,1,0,60,1,1
61710,188.087774294671,4,1,0,60,1,1
61898,187.5,4,1,0,60,1,1
62085,186.915887850467,4,1,0,60,1,1
62273,186.335403726708,4,1,0,60,1,1
62459,185.758513931889,4,1,0,60,1,1
62644,185.185185185185,4,1,0,60,1,1
62829,184.615384615385,4,1,0,60,1,1
63015,92.0245398773006,4,1,0,60,1,1
63015,-58.8235294117647,4,1,0,60,0,1
63199,91.743119266055,4,1,0,60,1,1
63199,-55.5555555555556,4,1,0,60,0,1
63382,91.4634146341463,4,1,0,60,1,1
63382,-52.6315789473684,4,1,0,60,0,1
63564,91.1854103343465,4,1,0,60,1,1
63564,-50,4,1,0,60,0,1
63753,181.818181818182,4,1,0,60,1,1
63934,181.268882175227,4,1,0,60,1,1
64115,180.722891566265,4,1,0,60,1,1
64295,180.18018018018,4,1,0,60,1,1
64475,179.640718562874,4,1,0,60,1,1
64654,179.10447761194,4,1,0,60,1,1
64833,178.571428571429,4,1,0,60,1,1
65011,178.041543026706,4,1,0,60,1,1
65193,177.514792899408,4,1,0,60,1,1
65370,176.991150442478,4,1,0,60,1,1
65546,176.470588235294,4,1,0,60,1,1
65722,175.953079178886,4,1,0,60,1,1
65897,87.719298245614,4,1,0,60,1,1
65897,-58.8235294117647,4,1,0,60,0,1
66072,87.4635568513119,4,1,0,60,1,1
66072,-55.5555555555556,4,1,0,60,0,1
66246,87.2093023255814,4,1,0,60,1,1
66246,-52.6315789473684,4,1,0,60,0,1
66420,86.9565217391304,4,1,0,60,1,1
66420,-50,4,1,0,60,0,1
66595,173.410404624277,4,1,0,60,1,1
66768,172.910662824207,4,1,0,60,1,1
66940,172.413793103448,4,1,0,60,1,1
67112,171.919770773639,4,1,0,60,1,1
67283,171.428571428571,4,1,0,60,1,1
67454,170.940170940171,4,1,0,60,1,1
67624,170.454545454545,4,1,0,60,1,1
67794,169.971671388102,4,1,0,60,1,1
67969,169.491525423729,4,1,0,60,1,1
68137,169.014084507042,4,1,0,60,1,1
68306,168.539325842697,4,1,0,60,1,1
68476,168.067226890756,4,1,0,60,1,1
68644,83.7988826815643,4,1,0,60,1,1
68644,-58.8235294117647,4,1,0,60,0,1
68811,83.5654596100279,4,1,0,60,1,1
68811,-55.5555555555556,4,1,0,60,0,1
68978,83.3333333333333,4,1,0,60,1,1
68978,-52.6315789473684,4,1,0,60,0,1
69144,83.1024930747923,4,1,0,60,1,1
69144,-50,4,1,0,60,0,1
69319,165.745856353591,4,1,0,60,1,1
69484,165.289256198347,4,1,0,60,1,1
69649,164.835164835165,4,1,0,60,1,1
69813,164.383561643836,4,1,0,60,1,1
69981,163.934426229508,4,1,0,60,1,1
70144,163.487738419619,4,1,0,60,1,1
70307,163.04347826087,4,1,0,60,1,1
70470,162.60162601626,4,1,0,60,1,1
70632,162.162162162162,4,1,0,60,1,1
70794,161.725067385445,4,1,0,60,1,1
70955,161.290322580645,4,1,0,60,1,1
71116,160.857908847185,4,1,0,60,1,1
71276,80.2139037433155,4,1,0,60,1,1
71276,-58.8235294117647,4,1,0,60,0,1
71436,80,4,1,0,60,1,1
71436,-55.5555555555556,4,1,0,60,0,1
71596,79.7872340425532,4,1,0,60,1,1
71596,-52.6315789473684,4,1,0,60,0,1
71755,79.5755968169761,4,1,0,60,1,1
71755,-50,4,1,0,60,0,1
71924,158.730158730159,3,1,0,60,1,1
71924,-100,3,1,0,60,0,1
72082,158.311345646438,3,1,0,60,1,1
72240,157.894736842105,3,1,0,60,1,1
72397,157.48031496063,3,1,0,60,1,1
72554,157.068062827225,3,1,0,60,1,1
72711,156.657963446475,3,1,0,60,1,1
72867,156.25,3,1,0,60,1,1
73023,155.844155844156,3,1,0,60,1,1
73178,155.440414507772,3,1,0,60,1,1
73333,155.038759689922,3,1,0,60,1,1
73488,154.639175257732,3,1,0,60,1,1
73642,154.241645244216,3,1,0,60,1,1
73796,153.846153846154,3,1,0,60,1,1
73949,153.452685421995,3,1,0,60,1,1
74102,153.061224489796,3,1,0,60,1,1
74255,152.671755725191,3,1,0,60,1,1
74407,152.284263959391,3,1,0,60,1,1
74559,151.898734177215,3,1,0,60,1,1
74710,151.515151515152,3,1,0,60,1,1
74861,151.133501259446,3,1,0,60,1,1
75012,150.753768844221,3,1,0,60,1,1
75162,150.375939849624,3,1,0,60,1,1
75312,300,8,1,0,60,1,0
75312,-200,8,1,0,60,0,0
77712,-100,8,1,0,60,0,0
82032,240,4,1,0,60,1,0
82752,1200,4,1,0,60,1,0
82752,-1200,4,1,0,60,0,0
83472,240,4,1,0,60,1,0
83952,240,4,1,0,60,1,0
84672,1200,4,1,0,60,1,0
84672,-1200,4,1,0,60,0,0
84912,240,4,1,0,60,1,0
85872,240,4,1,0,60,1,0
86592,1200,4,1,0,60,1,0
86592,-1200,4,1,0,60,0,0
87312,240,4,1,0,60,1,0
87792,240,4,1,0,60,1,0
88512,1200,4,1,0,60,1,0
88512,-1200,4,1,0,60,0,0
88752,240,4,1,0,60,1,0
89712,480,16,1,0,60,1,0
89712,-133.333333333333,16,1,0,60,0,0
93552,960,4,1,0,60,1,0
93552,-200,4,1,0,60,0,0
106992,-166.666666666667,4,1,0,60,0,0
107952,-125,4,1,0,60,0,0
108432,-111.111111111111,4,1,0,60,0,0
108912,240,1,1,0,60,1,1
108912,-66.6666666666667,1,1,0,60,0,1
110832,960,4,1,0,60,1,0
110832,-100,4,1,0,60,0,0
111792,240,1,1,0,60,1,1
111792,-66.6666666666667,1,1,0,60,0,1
115632,960,4,1,0,60,1,0
115632,-200,4,1,0,60,0,0
116592,240,1,1,0,60,1,1
116592,-66.6666666666667,1,1,0,60,0,1
118512,960,4,1,0,60,1,0
119472,240,1,1,0,60,1,1
119472,-66.6666666666667,1,1,0,60,0,1
123312,960,4,1,0,60,1,0
123312,-200,4,1,0,60,0,0
124272,759.493670886076,4,1,0,60,1,1
124279.757575758,768.768768768768,4,1,0,60,1,1
124287.515151515,769.539078156311,4,1,0,60,1,1
124295.272727273,770.310932798392,4,1,0,60,1,1
124303.03030303,771.084337349399,4,1,0,60,1,1
124310.787878788,771.859296482412,4,1,0,60,1,1
124318.545454545,772.635814889334,4,1,0,60,1,1
124326.303030303,773.41389728097,4,1,0,60,1,1
124334.060606061,774.193548387095,4,1,0,60,1,1
124341.818181818,774.974772956613,4,1,0,60,1,1
124349.575757576,775.757575757576,4,1,0,60,1,1
124357.333333333,776.541961577349,4,1,0,60,1,1
124365.090909091,777.327935222669,4,1,0,60,1,1
124372.848484848,778.115501519754,4,1,0,60,1,1
124380.606060606,778.904665314401,4,1,0,60,1,1
124388.363636364,779.695431472082,4,1,0,60,1,1
124396.121212121,780.487804878052,4,1,0,60,1,1
124403.878787879,781.281790437435,4,1,0,60,1,1
124411.636363636,782.077393075353,4,1,0,60,1,1
124419.393939394,782.874617737006,4,1,0,60,1,1
124427.151515152,783.673469387758,4,1,0,60,1,1
124434.909090909,784.473953013281,4,1,0,60,1,1
124442.666666667,785.27607361963,4,1,0,60,1,1
124450.424242424,786.079836233365,4,1,0,60,1,1
124458.181818182,786.885245901642,4,1,0,60,1,1
124465.939393939,787.692307692311,4,1,0,60,1,1
124473.696969697,788.501026694047,4,1,0,60,1,1
124481.454545455,789.311408016446,4,1,0,60,1,1
124489.212121212,790.123456790124,4,1,0,60,1,1
124496.96969697,790.93717816684,4,1,0,60,1,1
124504.727272727,791.752577319591,4,1,0,60,1,1
124512.484848485,792.569659442726,4,1,0,60,1,1
124520.242424242,793.388429752067,4,1,0,60,1,1
124528,794.208893485002,4,1,0,60,1,1
124535.757575758,795.031055900621,4,1,0,60,1,1
124543.515151515,795.85492227979,4,1,0,60,1,1
124551.272727273,796.680497925312,4,1,0,60,1,1
124559.03030303,797.507788161992,4,1,0,60,1,1
124566.787878788,798.336798336799,4,1,0,60,1,1
124574.545454545,799.167533818936,4,1,0,60,1,1
124582.303030303,800.000000000003,4,1,0,60,1,1
124590.060606061,800.83420229406,4,1,0,60,1,1
124597.818181818,801.670146137787,4,1,0,60,1,1
124605.575757576,802.507836990597,4,1,0,60,1,1
124613.333333333,803.347280334728,4,1,0,60,1,1
124621.090909091,804.188481675395,4,1,0,60,1,1
124628.848484848,805.031446540877,4,1,0,60,1,1
124636.606060606,805.876180482686,4,1,0,60,1,1
124644.363636364,806.722689075633,4,1,0,60,1,1
124652.121212121,807.570977917978,4,1,0,60,1,1
124659.878787879,808.42105263158,4,1,0,60,1,1
124667.636363636,809.272918861962,4,1,0,60,1,1
124675.393939394,810.126582278484,4,1,0,60,1,1
124683.151515152,810.982048574446,4,1,0,60,1,1
124690.909090909,811.839323467231,4,1,0,60,1,1
124698.666666667,812.698412698414,4,1,0,60,1,1
124706.424242424,813.559322033902,4,1,0,60,1,1
124714.181818182,814.422057264054,4,1,0,60,1,1
124721.939393939,815.286624203819,4,1,0,60,1,1
124729.696969697,816.153028692879,4,1,0,60,1,1
124737.454545455,817.021276595743,4,1,0,60,1,1
124745.212121212,817.891373801918,4,1,0,60,1,1
124752.96969697,818.76332622601,4,1,0,60,1,1
124760.727272727,819.6371398079,4,1,0,60,1,1
124768.484848485,820.512820512822,4,1,0,60,1,1
124776.242424242,821.390374331551,4,1,0,60,1,1
124784,822.269807280515,4,1,0,60,1,1
124791.757575758,823.15112540193,4,1,0,60,1,1
124799.515151515,824.03433476395,4,1,0,60,1,1
124807.272727273,824.919441460792,4,1,0,60,1,1
124815.03030303,825.806451612902,4,1,0,60,1,1
124822.787878788,826.695371367061,4,1,0,60,1,1
124830.545454545,827.58620689655,4,1,0,60,1,1
124838.303030303,828.478964401298,4,1,0,60,1,1
124846.060606061,829.373650107994,4,1,0,60,1,1
124853.818181818,830.270270270269,4,1,0,60,1,1
124861.575757576,831.168831168829,4,1,0,60,1,1
124869.333333333,832.069339111595,4,1,0,60,1,1
124877.090909091,832.971800433838,4,1,0,60,1,1
124884.848484848,833.876221498368,4,1,0,60,1,1
124892.606060606,834.782608695652,4,1,0,60,1,1
124900.363636364,835.690968443958,4,1,0,60,1,1
124908.121212121,836.60130718954,4,1,0,60,1,1
124915.878787879,837.513631406761,4,1,0,60,1,1
124923.636363636,838.427947598254,4,1,0,60,1,1
124931.393939394,839.344262295084,4,1,0,60,1,1
124939.151515152,840.262582056891,4,1,0,60,1,1
124946.909090909,841.182913472072,4,1,0,60,1,1
124954.666666667,842.105263157898,4,1,0,60,1,1
124962.424242424,843.029637760704,4,1,0,60,1,1
124970.181818182,843.956043956045,4,1,0,60,1,1
124977.939393939,844.884488448845,4,1,0,60,1,1
124985.696969697,845.814977973565,4,1,0,60,1,1
124993.454545455,846.747519294374,4,1,0,60,1,1
125001.212121212,847.682119205299,4,1,0,60,1,1
125008.96969697,848.618784530388,4,1,0,60,1,1
125016.727272727,849.557522123896,4,1,0,60,1,1
125024.484848485,850.498338870428,4,1,0,60,1,1
125032.242424242,851.441241685141,4,1,0,60,1,1
125040,852.386237513871,4,1,0,60,1,1
125047.757575758,853.333333333332,4,1,0,60,1,1
125055.515151515,854.282536151278,4,1,0,60,1,1
125063.272727273,855.233853006682,4,1,0,60,1,1
125071.03030303,856.187290969897,4,1,0,60,1,1
125078.787878788,857.142857142858,4,1,0,60,1,1
125086.545454545,858.100558659218,4,1,0,60,1,1
125094.303030303,859.060402684562,4,1,0,60,1,1
125102.060606061,860.022396416571,4,1,0,60,1,1
125109.818181818,860.986547085205,4,1,0,60,1,1
125117.575757576,861.952861952863,4,1,0,60,1,1
125125.333333333,862.921348314609,4,1,0,60,1,1
125133.090909091,863.892013498314,4,1,0,60,1,1
125140.848484848,864.864864864868,4,1,0,60,1,1
125148.606060606,865.839909808343,4,1,0,60,1,1
125156.363636364,866.817155756206,4,1,0,60,1,1
125164.121212121,867.796610169493,4,1,0,60,1,1
125171.878787879,868.778280542984,4,1,0,60,1,1
125179.636363636,869.762174405437,4,1,0,60,1,1
125187.393939394,870.748299319726,4,1,0,60,1,1
125195.151515152,871.73666288309,4,1,0,60,1,1
125202.909090909,872.727272727276,4,1,0,60,1,1
125210.666666667,873.720136518774,4,1,0,60,1,1
125218.424242424,874.715261958997,4,1,0,60,1,1
125226.181818182,875.712656784492,4,1,0,60,1,1
125233.939393939,876.712328767127,4,1,0,60,1,1
125241.696969697,877.714285714284,4,1,0,60,1,1
125249.454545455,878.718535469107,4,1,0,60,1,1
125257.212121212,879.725085910656,4,1,0,60,1,1
125264.96969697,880.73394495413,4,1,0,60,1,1
125272.727272727,881.745120551094,4,1,0,60,1,1
125280.484848485,882.758620689654,4,1,0,60,1,1
125288.242424242,883.774453394703,4,1,0,60,1,1
125296,884.792626728108,4,1,0,60,1,1
125303.757575758,885.813148788925,4,1,0,60,1,1
125311.515151515,886.836027713626,4,1,0,60,1,1
125319.272727273,887.861271676301,4,1,0,60,1,1
125327.03030303,888.888888888891,4,1,0,60,1,1
125334.787878788,889.91888760139,4,1,0,60,1,1
125342.545454545,890.951276102085,4,1,0,60,1,1
125350.303030303,891.98606271777,4,1,0,60,1,1
125358.060606061,893.023255813954,4,1,0,60,1,1
125365.818181818,894.062863795108,4,1,0,60,1,1
125373.575757576,895.104895104899,4,1,0,60,1,1
125381.333333333,896.149358226371,4,1,0,60,1,1
125389.090909091,897.196261682243,4,1,0,60,1,1
125396.848484848,898.245614035085,4,1,0,60,1,1
125404.606060606,899.297423887588,4,1,0,60,1,1
125412.363636364,900.35169988277,4,1,0,60,1,1
125420.121212121,901.408450704223,4,1,0,60,1,1
125427.878787879,902.46768507638,4,1,0,60,1,1
125435.636363636,903.529411764703,4,1,0,60,1,1
125443.393939394,904.593639575969,4,1,0,60,1,1
125451.151515152,905.660377358492,4,1,0,60,1,1
125458.909090909,906.729634002363,4,1,0,60,1,1
125466.666666667,907.801418439713,4,1,0,60,1,1
125474.424242424,908.875739644969,4,1,0,60,1,1
125482.181818182,909.952606635072,4,1,0,60,1,1
125489.939393939,911.03202846975,4,1,0,60,1,1
125497.696969697,912.114014251784,4,1,0,60,1,1
125505.454545455,913.198573127232,4,1,0,60,1,1
125513.212121212,914.285714285714,4,1,0,60,1,1
125520.96969697,915.375446960671,4,1,0,60,1,1
125528.727272727,916.467780429596,4,1,0,60,1,1
125536.484848485,917.562724014336,4,1,0,60,1,1
125544.242424242,918.660287081341,4,1,0,60,1,1
125552,919.760479041915,4,1,0,60,1,1
125559.757575758,920.863309352517,4,1,0,60,1,1
125567.515151515,921.968787515005,4,1,0,60,1,1
125575.272727273,923.076923076925,4,1,0,60,1,1
125583.03030303,924.187725631772,4,1,0,60,1,1
125590.787878788,925.301204819274,4,1,0,60,1,1
125598.545454545,926.417370325693,4,1,0,60,1,1
125606.303030303,927.536231884055,4,1,0,60,1,1
125614.060606061,928.657799274486,4,1,0,60,1,1
125621.818181818,929.782082324452,4,1,0,60,1,1
125629.575757576,930.909090909089,4,1,0,60,1,1
125637.333333333,932.038834951457,4,1,0,60,1,1
125645.090909091,933.171324422845,4,1,0,60,1,1
125652.848484848,934.306569343066,4,1,0,60,1,1
125660.606060606,935.444579780752,4,1,0,60,1,1
125668.363636364,936.585365853658,4,1,0,60,1,1
125676.121212121,937.728937728937,4,1,0,60,1,1
125683.878787879,938.87530562347,4,1,0,60,1,1
125691.636363636,940.024479804165,4,1,0,60,1,1
125699.393939394,941.176470588234,4,1,0,60,1,1
125707.151515152,942.331288343555,4,1,0,60,1,1
125714.909090909,943.488943488945,4,1,0,60,1,1
125722.666666667,944.649446494464,4,1,0,60,1,1
125730.424242424,945.812807881774,4,1,0,60,1,1
125738.181818182,946.979038224415,4,1,0,60,1,1
125745.939393939,948.14814814815,4,1,0,60,1,1
125753.696969697,949.320148331274,4,1,0,60,1,1
125761.454545455,950.495049504952,4,1,0,60,1,1
125769.212121212,951.672862453532,4,1,0,60,1,1
125776.96969697,952.853598014891,4,1,0,60,1,1
125784.727272727,954.037267080745,4,1,0,60,1,1
125792.484848485,955.223880597013,4,1,0,60,1,1
125800.242424242,956.413449564134,4,1,0,60,1,1
125808,957.605985037409,4,1,0,60,1,1
125815.757575758,958.80149812734,4,1,0,60,1,1
125823.515151515,960,4,1,0,60,1,1
125831.272727273,961.201501877345,4,1,0,60,1,1
125839.03030303,962.406015037594,4,1,0,60,1,1
125846.787878788,963.613550815557,4,1,0,60,1,1
125854.545454545,964.824120603018,4,1,0,60,1,1
125862.303030303,966.03773584906,4,1,0,60,1,1
125870.060606061,967.254408060457,4,1,0,60,1,1
125877.818181818,968.474148802015,4,1,0,60,1,1
125885.575757576,969.696969696968,4,1,0,60,1,1
125893.333333333,970.92288242731,4,1,0,60,1,1
125901.090909091,972.15189873418,4,1,0,60,1,1
125908.848484848,973.38403041825,4,1,0,60,1,1
125916.606060606,974.619289340099,4,1,0,60,1,1
125924.363636364,975.857687420582,4,1,0,60,1,1
125932.121212121,977.099236641224,4,1,0,60,1,1
125939.878787879,978.343949044585,4,1,0,60,1,1
125947.636363636,979.591836734692,4,1,0,60,1,1
125955.393939394,980.842911877394,4,1,0,60,1,1
125963.151515152,982.097186700764,4,1,0,60,1,1
125970.909090909,983.354673495521,4,1,0,60,1,1
125978.666666667,984.615384615383,4,1,0,60,1,1
125986.424242424,985.879332477535,4,1,0,60,1,1
125994.181818182,987.146529562982,4,1,0,60,1,1
126001.939393939,988.416988416991,4,1,0,60,1,1
126009.696969697,989.690721649482,4,1,0,60,1,1
126017.454545455,990.967741935483,4,1,0,60,1,1
126025.212121212,992.248062015506,4,1,0,60,1,1
126032.96969697,993.53169469599,4,1,0,60,1,1
126040.727272727,994.818652849743,4,1,0,60,1,1
126048.484848485,996.108949416345,4,1,0,60,1,1
126056.242424242,997.402597402598,4,1,0,60,1,1
126064,998.699609882964,4,1,0,60,1,1
126071.757575758,999.999999999998,4,1,0,60,1,1
126079.515151515,1001.30378096479,4,1,0,60,1,1
126087.272727273,1002.61096605744,4,1,0,60,1,1
126095.03030303,1003.92156862745,4,1,0,60,1,1
126102.787878788,1005.23560209424,4,1,0,60,1,1
126110.545454545,1006.55307994757,4,1,0,60,1,1
126118.303030303,1007.87401574803,4,1,0,60,1,1
126126.060606061,1009.19842312746,4,1,0,60,1,1
126133.818181818,1010.52631578947,4,1,0,60,1,1
126141.575757576,1011.85770750988,4,1,0,60,1,1
126149.333333333,1013.19261213721,4,1,0,60,1,1
126157.090909091,1014.53104359313,4,1,0,60,1,1
126164.848484848,1015.87301587301,4,1,0,60,1,1
126172.606060606,1017.21854304636,4,1,0,60,1,1
126180.363636364,1018.56763925729,4,1,0,60,1,1
126188.121212121,1019.9203187251,4,1,0,60,1,1
126195.878787879,1021.27659574468,4,1,0,60,1,1
126203.636363636,1022.63648468708,4,1,0,60,1,1
126211.393939394,1024,4,1,0,60,1,1
126219.151515152,1025.36715620827,4,1,0,60,1,1
126226.909090909,1026.73796791443,4,1,0,60,1,1
126234.666666667,1028.1124497992,4,1,0,60,1,1
126242.424242424,1029.49061662198,4,1,0,60,1,1
126250.181818182,1030.87248322148,4,1,0,60,1,1
126257.939393939,1032.25806451613,4,1,0,60,1,1
126265.696969697,1033.64737550471,4,1,0,60,1,1
126273.454545455,1035.04043126685,4,1,0,60,1,1
126281.212121212,1036.43724696356,4,1,0,60,1,1
126288.96969697,1037.83783783784,4,1,0,60,1,1
126296.727272727,1039.24221921516,4,1,0,60,1,1
126304.484848485,1040.65040650406,4,1,0,60,1,1
126312.242424242,1042.06241519674,4,1,0,60,1,1
126320,1043.47826086956,4,1,0,60,1,1
126327.757575758,1044.89795918367,4,1,0,60,1,1
126335.515151515,1046.32152588556,4,1,0,60,1,1
126343.272727273,1047.74897680764,4,1,0,60,1,1
126351.03030303,1049.18032786885,4,1,0,60,1,1
126358.787878788,1050.61559507524,4,1,0,60,1,1
126366.545454545,1052.05479452055,4,1,0,60,1,1
126374.303030303,1053.49794238683,4,1,0,60,1,1
126382.060606061,1054.94505494505,4,1,0,60,1,1
126389.818181818,1056.39614855571,4,1,0,60,1,1
126397.575757576,1057.85123966942,4,1,0,60,1,1
126405.333333333,1059.31034482759,4,1,0,60,1,1
126413.090909091,1060.77348066298,4,1,0,60,1,1
126420.848484848,1062.24066390042,4,1,0,60,1,1
126428.606060606,1063.71191135734,4,1,0,60,1,1
126436.363636364,1065.18723994452,4,1,0,60,1,1
126444.121212121,1066.66666666667,4,1,0,60,1,1
126451.878787879,1068.15020862309,4,1,0,60,1,1
126459.636363636,1069.63788300836,4,1,0,60,1,1
126467.393939394,1071.12970711297,4,1,0,60,1,1
126475.151515152,1072.62569832402,4,1,0,60,1,1
126482.909090909,1074.12587412588,4,1,0,60,1,1
126490.666666667,1075.63025210084,4,1,0,60,1,1
126498.424242424,1077.13884992987,4,1,0,60,1,1
126506.181818182,1078.65168539326,4,1,0,60,1,1
126513.939393939,1080.16877637131,4,1,0,60,1,1
126521.696969697,1081.69014084507,4,1,0,60,1,1
126529.454545455,1083.21579689704,4,1,0,60,1,1
126537.212121212,1084.74576271186,4,1,0,60,1,1
126544.96969697,1086.28005657708,4,1,0,60,1,1
126552.727272727,1087.81869688385,4,1,0,60,1,1
126560.484848485,1089.36170212766,4,1,0,60,1,1
126568.242424242,1090.90909090909,4,1,0,60,1,1
126576,1092.46088193456,4,1,0,60,1,1
126583.757575758,1094.01709401709,4,1,0,60,1,1
126591.515151515,1095.57774607703,4,1,0,60,1,1
126599.272727273,1097.14285714286,4,1,0,60,1,1
126607.03030303,1098.71244635193,4,1,0,60,1,1
126614.787878788,1100.28653295129,4,1,0,60,1,1
126622.545454545,1101.86513629842,4,1,0,60,1,1
126630.303030303,1103.44827586207,4,1,0,60,1,1
126638.060606061,1105.03597122302,4,1,0,60,1,1
126645.818181818,1106.62824207493,4,1,0,60,1,1
126653.575757576,1108.22510822511,4,1,0,60,1,1
126661.333333333,1109.82658959537,4,1,0,60,1,1
126669.090909091,1111.43270622287,4,1,0,60,1,1
126676.848484848,1113.04347826087,4,1,0,60,1,1
126684.606060606,1114.65892597968,4,1,0,60,1,1
126692.363636364,1116.27906976744,4,1,0,60,1,1
126700.121212121,1117.903930131,4,1,0,60,1,1
126707.878787879,1119.5335276968,4,1,0,60,1,1
126715.636363636,1121.16788321168,4,1,0,60,1,1
126723.393939394,1122.80701754386,4,1,0,60,1,1
126731.151515152,1124.45095168375,4,1,0,60,1,1
126738.909090909,1126.09970674487,4,1,0,60,1,1
126746.666666667,1127.75330396476,4,1,0,60,1,1
126754.424242424,1129.41176470588,4,1,0,60,1,1
126762.181818182,1131.07511045656,4,1,0,60,1,1
126769.939393939,1132.74336283186,4,1,0,60,1,1
126777.696969697,1134.4165435746,4,1,0,60,1,1
126785.454545455,1136.09467455621,4,1,0,60,1,1
126793.212121212,1137.77777777778,4,1,0,60,1,1
126800.96969697,1139.46587537092,4,1,0,60,1,1
126808.727272727,1141.15898959881,4,1,0,60,1,1
126816.484848485,1142.85714285714,4,1,0,60,1,1
126824.242424242,1144.56035767511,4,1,0,60,1,1
126832,1146.26865671642,4,1,0,60,1,1
126839.757575758,1147.98206278027,4,1,0,60,1,1
126847.515151515,1149.70059880239,4,1,0,60,1,1
126855.272727273,1151.42428785607,4,1,0,60,1,1
126863.03030303,1153.15315315315,4,1,0,60,1,1
126870.787878788,1154.88721804511,4,1,0,60,1,1
126878.545454545,1156.62650602409,4,1,0,60,1,1
126886.303030303,1158.37104072398,4,1,0,60,1,1
126894.060606061,1160.12084592145,4,1,0,60,1,1
126901.818181818,1161.87594553707,4,1,0,60,1,1
126909.575757576,1163.63636363637,4,1,0,60,1,1
126917.333333333,1165.40212443096,4,1,0,60,1,1
126925.090909091,1167.17325227964,4,1,0,60,1,1
126932.848484848,1168.9497716895,4,1,0,60,1,1
126940.606060606,1170.73170731707,4,1,0,60,1,1
126948.363636364,1172.51908396947,4,1,0,60,1,1
126956.121212121,1174.3119266055,4,1,0,60,1,1
126963.878787879,1176.1102603369,4,1,0,60,1,1
126971.636363636,1177.91411042945,4,1,0,60,1,1
126979.393939394,1179.72350230415,4,1,0,60,1,1
126987.151515152,1181.53846153846,4,1,0,60,1,1
126994.909090909,1183.35901386749,4,1,0,60,1,1
127002.666666667,1185.18518518519,4,1,0,60,1,1
127010.424242424,1187.0170015456,4,1,0,60,1,1
127018.181818182,1188.85448916409,4,1,0,60,1,1
127025.939393939,1190.6976744186,4,1,0,60,1,1
127033.696969697,1192.54658385093,4,1,0,60,1,1
127041.454545455,1194.40124416796,4,1,0,60,1,1
127049.212121212,1196.26168224299,4,1,0,60,1,1
127056.96969697,1198.127925117,4,1,0,60,1,1
127064.727272727,1200,4,1,0,60,1,1
127072.484848485,1201.8779342723,4,1,0,60,1,1
127080.242424242,1203.7617554859,4,1,0,60,1,1
127088,1205.65149136578,4,1,0,60,1,1
127095.757575758,1207.54716981132,4,1,0,60,1,1
127103.515151515,1209.44881889764,4,1,0,60,1,1
127111.272727273,1211.35646687697,4,1,0,60,1,1
127119.03030303,1213.2701421801,4,1,0,60,1,1
127126.787878788,1215.18987341772,4,1,0,60,1,1
127134.545454545,1217.11568938194,4,1,0,60,1,1
127142.303030303,1219.04761904762,4,1,0,60,1,1
127150.060606061,1220.98569157392,4,1,0,60,1,1
127157.818181818,1222.92993630573,4,1,0,60,1,1
127165.575757576,1224.88038277512,4,1,0,60,1,1
127173.333333333,1226.83706070288,4,1,0,60,1,1
127181.090909091,1228.8,4,1,0,60,1,1
127188.848484848,1230.76923076923,4,1,0,60,1,1
127196.606060606,1232.74478330658,4,1,0,60,1,1
127204.363636364,1234.72668810289,4,1,0,60,1,1
127212.121212121,1236.71497584541,4,1,0,60,1,1
127219.878787879,1238.70967741935,4,1,0,60,1,1
127227.636363636,1240.71082390953,4,1,0,60,1,1
127235.393939394,1242.71844660194,4,1,0,60,1,1
127243.151515152,1244.73257698542,4,1,0,60,1,1
127250.909090909,1246.75324675324,4,1,0,60,1,1
127258.666666667,1248.78048780488,4,1,0,60,1,1
127266.424242424,1250.81433224756,4,1,0,60,1,1
127274.181818182,1252.85481239804,4,1,0,60,1,1
127281.939393939,1254.90196078432,4,1,0,60,1,1
127289.696969697,1256.9558101473,4,1,0,60,1,1
127297.454545455,1259.01639344262,4,1,0,60,1,1
127305.212121212,1261.08374384237,4,1,0,60,1,1
127312.96969697,1263.15789473684,4,1,0,60,1,1
127320.727272727,1265.23887973641,4,1,0,60,1,1
127328.484848485,1267.32673267327,4,1,0,60,1,1
127336.242424242,1269.4214876033,4,1,0,60,1,1
127344,1271.52317880795,4,1,0,60,1,1
127351.757575758,1273.63184079602,4,1,0,60,1,1
127359.515151515,1275.74750830565,4,1,0,60,1,1
127367.272727273,1277.87021630616,4,1,0,60,1,1
127375.03030303,1280,4,1,0,60,1,1
127382.787878788,1282.13689482471,4,1,0,60,1,1
127390.545454545,1284.28093645485,4,1,0,60,1,1
127398.303030303,1286.43216080402,4,1,0,60,1,1
127406.060606061,1288.59060402685,4,1,0,60,1,1
127413.818181818,1290.75630252101,4,1,0,60,1,1
127421.575757576,1292.92929292929,4,1,0,60,1,1
127429.333333333,1295.10961214165,4,1,0,60,1,1
127437.090909091,1297.2972972973,4,1,0,60,1,1
127444.848484848,1299.49238578681,4,1,0,60,1,1
127452.606060606,1301.69491525424,4,1,0,60,1,1
127460.363636364,1303.90492359932,4,1,0,60,1,1
127468.121212121,1306.12244897959,4,1,0,60,1,1
127475.878787879,1308.34752981261,4,1,0,60,1,1
127483.636363636,1310.58020477816,4,1,0,60,1,1
127491.393939394,1312.82051282051,4,1,0,60,1,1
127499.151515152,1315.06849315069,4,1,0,60,1,1
127506.909090909,1317.32418524871,4,1,0,60,1,1
127514.666666667,1319.58762886598,4,1,0,60,1,1
127522.424242424,1321.85886402754,4,1,0,60,1,1
127530.181818182,1324.13793103448,4,1,0,60,1,1
127537.939393939,1326.42487046632,4,1,0,60,1,1
127545.696969697,1328.71972318339,4,1,0,60,1,1
127553.454545455,1331.02253032929,4,1,0,60,1,1
127561.212121212,1333.33333333333,4,1,0,60,1,1
127568.96969697,1335.65217391304,4,1,0,60,1,1
127576.727272727,1337.97909407665,4,1,0,60,1,1
127584.484848485,1340.31413612565,4,1,0,60,1,1
127592.242424242,1342.65734265734,4,1,0,60,1,1
127600,1345.00875656743,4,1,0,60,1,1
127607.757575758,1347.36842105263,4,1,0,60,1,1
127615.515151515,1349.73637961336,4,1,0,60,1,1
127623.272727273,1352.11267605634,4,1,0,60,1,1
127631.03030303,1354.49735449736,4,1,0,60,1,1
127638.787878788,1356.89045936396,4,1,0,60,1,1
127646.545454545,1359.29203539823,4,1,0,60,1,1
127654.303030303,1361.70212765957,4,1,0,60,1,1
127662.060606061,1364.12078152753,4,1,0,60,1,1
127669.818181818,1366.54804270462,4,1,0,60,1,1
127677.575757576,1368.98395721925,4,1,0,60,1,1
127685.333333333,1371.42857142857,4,1,0,60,1,1
127693.090909091,1373.88193202147,4,1,0,60,1,1
127700.848484848,1376.3440860215,4,1,0,60,1,1
127708.606060606,1378.81508078994,4,1,0,60,1,1
127716.363636364,1381.29496402878,4,1,0,60,1,1
127724.121212121,1383.78378378378,4,1,0,60,1,1
127731.878787879,1386.28158844765,4,1,0,60,1,1
127739.636363636,1388.78842676311,4,1,0,60,1,1
127747.393939394,1391.30434782609,4,1,0,60,1,1
127755.151515152,1393.82940108893,4,1,0,60,1,1
127762.909090909,1396.36363636364,4,1,0,60,1,1
127770.666666667,1398.90710382513,4,1,0,60,1,1
127778.424242424,1401.4598540146,4,1,0,60,1,1
127786.181818182,1404.02193784278,4,1,0,60,1,1
127793.939393939,1406.59340659341,4,1,0,60,1,1
127801.696969697,1409.1743119266,4,1,0,60,1,1
127809.454545455,1411.76470588235,4,1,0,60,1,1
127817.212121212,1414.36464088398,4,1,0,60,1,1
127824.96969697,1416.9741697417,4,1,0,60,1,1
127832.727272727,1419.59334565619,4,1,0,60,1,1
127840.484848485,1422.22222222222,4,1,0,60,1,1
127848.242424242,1424.86085343228,4,1,0,60,1,1
127856,1427.50929368029,4,1,0,60,1,1
127863.757575758,1430.16759776536,4,1,0,60,1,1
127871.515151515,1432.83582089552,4,1,0,60,1,1
127879.272727273,1435.51401869159,4,1,0,60,1,1
127887.03030303,1438.20224719101,4,1,0,60,1,1
127894.787878788,1440.90056285178,4,1,0,60,1,1
127902.545454545,1443.60902255639,4,1,0,60,1,1
127910.303030303,1446.32768361582,4,1,0,60,1,1
127918.060606061,1449.05660377359,4,1,0,60,1,1
127925.818181818,1451.79584120983,4,1,0,60,1,1
127933.575757576,1454.54545454545,4,1,0,60,1,1
127941.333333333,1457.3055028463,4,1,0,60,1,1
127949.090909091,1460.07604562738,4,1,0,60,1,1
127956.848484848,1462.85714285714,4,1,0,60,1,1
127964.606060606,1465.64885496184,4,1,0,60,1,1
127972.363636364,1468.45124282983,4,1,0,60,1,1
127980.121212121,1471.26436781609,4,1,0,60,1,1
127987.878787879,1474.08829174664,4,1,0,60,1,1
127995.636363636,1476.92307692307,4,1,0,60,1,1
128003.393939394,1479.76878612717,4,1,0,60,1,1
128011.151515152,1482.62548262548,4,1,0,60,1,1
128018.909090909,1485.49323017408,4,1,0,60,1,1
128026.666666667,1488.37209302326,4,1,0,60,1,1
128034.424242424,1491.26213592233,4,1,0,60,1,1
128042.181818182,1494.16342412451,4,1,0,60,1,1
128049.939393939,1497.07602339181,4,1,0,60,1,1
128057.696969697,1500,4,1,0,60,1,1
128065.454545455,1502.93542074364,4,1,0,60,1,1
128073.212121212,1505.88235294118,4,1,0,60,1,1
128080.96969697,1508.84086444008,4,1,0,60,1,1
128088.727272727,1511.81102362204,4,1,0,60,1,1
128096.484848485,1514.79289940828,4,1,0,60,1,1
128104.242424242,1517.78656126482,4,1,0,60,1,1
128112,1520.79207920792,4,1,0,60,1,1
128119.757575758,1523.80952380952,4,1,0,60,1,1
128127.515151515,1526.83896620278,4,1,0,60,1,1
128135.272727273,1529.88047808765,4,1,0,60,1,1
128143.03030303,1532.93413173653,4,1,0,60,1,1
128150.787878788,1536,4,1,0,60,1,1
128158.545454545,1539.07815631262,4,1,0,60,1,1
128166.303030303,1542.1686746988,4,1,0,60,1,1
128174.060606061,1545.27162977868,4,1,0,60,1,1
128181.818181818,1548.38709677419,4,1,0,60,1,1
128189.575757576,1551.51515151515,4,1,0,60,1,1
128197.333333333,1554.65587044535,4,1,0,60,1,1
128205.090909091,1557.8093306288,4,1,0,60,1,1
128212.848484848,1560.9756097561,4,1,0,60,1,1
128220.606060606,1564.15478615071,4,1,0,60,1,1
128228.363636364,1567.34693877551,4,1,0,60,1,1
128236.121212121,1570.55214723926,4,1,0,60,1,1
128243.878787879,1573.77049180328,4,1,0,60,1,1
128251.636363636,1577.00205338809,4,1,0,60,1,1
128259.393939394,1580.24691358025,4,1,0,60,1,1
128267.151515152,1583.50515463917,4,1,0,60,1,1
128274.909090909,1586.77685950413,4,1,0,60,1,1
128282.666666667,1590.06211180124,4,1,0,60,1,1
128290.424242424,1593.36099585062,4,1,0,60,1,1
128298.181818182,1596.6735966736,4,1,0,60,1,1
128305.939393939,1600,4,1,0,60,1,1
128313.696969697,1603.34029227557,4,1,0,60,1,1
128321.454545455,1606.69456066946,4,1,0,60,1,1
128329.212121212,1610.06289308176,4,1,0,60,1,1
128336.96969697,1613.44537815126,4,1,0,60,1,1
128344.727272727,1616.84210526316,4,1,0,60,1,1
128352.484848485,1620.25316455696,4,1,0,60,1,1
128360.242424242,1623.67864693446,4,1,0,60,1,1
128368,1627.1186440678,4,1,0,60,1,1
128375.757575758,1630.57324840765,4,1,0,60,1,1
128383.515151515,1634.04255319149,4,1,0,60,1,1
128391.272727273,1637.52665245203,4,1,0,60,1,1
128399.03030303,1641.02564102564,4,1,0,60,1,1
128406.787878788,1644.53961456103,4,1,0,60,1,1
128414.545454545,1648.0686695279,4,1,0,60,1,1
128422.303030303,1651.6129032258,4,1,0,60,1,1
128430.060606061,1655.1724137931,4,1,0,60,1,1
128437.818181818,1658.74730021598,4,1,0,60,1,1
128445.575757576,1662.33766233766,4,1,0,60,1,1
128453.333333333,1665.94360086768,4,1,0,60,1,1
128461.090909091,1669.5652173913,4,1,0,60,1,1
128468.848484848,1673.20261437909,4,1,0,60,1,1
128476.606060606,1676.85589519651,4,1,0,60,1,1
128484.363636364,1680.52516411378,4,1,0,60,1,1
128492.121212121,1684.21052631579,4,1,0,60,1,1
128499.878787879,1687.91208791209,4,1,0,60,1,1
128507.636363636,1691.62995594714,4,1,0,60,1,1
128515.393939394,1695.3642384106,4,1,0,60,1,1
128523.151515152,1699.11504424778,4,1,0,60,1,1
128530.909090909,1702.88248337029,4,1,0,60,1,1
128538.666666667,1706.66666666666,4,1,0,60,1,1
128546.424242424,1710.46770601336,4,1,0,60,1,1
128554.181818182,1714.28571428572,4,1,0,60,1,1
128561.939393939,1718.12080536912,4,1,0,60,1,1
128569.696969697,1721.9730941704,4,1,0,60,1,1
128577.454545455,1725.84269662921,4,1,0,60,1,1
128585.212121212,1729.72972972973,4,1,0,60,1,1
128592.96969697,1733.63431151241,4,1,0,60,1,1
128600.727272727,1737.55656108598,4,1,0,60,1,1
128608.484848485,1741.49659863946,4,1,0,60,1,1
128616.242424242,1745.45454545454,4,1,0,60,1,1
128624,1749.43052391799,4,1,0,60,1,1
128631.757575758,1753.42465753425,4,1,0,60,1,1
128639.515151515,1757.43707093821,4,1,0,60,1,1
128647.272727273,1761.46788990826,4,1,0,60,1,1
128655.03030303,1765.51724137931,4,1,0,60,1,1
128662.787878788,1769.58525345622,4,1,0,60,1,1
128670.545454545,1773.67205542725,4,1,0,60,1,1
128678.303030303,1777.77777777777,4,1,0,60,1,1
128686.060606061,1781.90255220418,4,1,0,60,1,1
128693.818181818,1786.04651162791,4,1,0,60,1,1
128701.575757576,1790.20979020979,4,1,0,60,1,1
128709.333333333,1794.39252336449,4,1,0,60,1,1
128717.090909091,1798.59484777518,4,1,0,60,1,1
128724.848484848,1802.81690140845,4,1,0,60,1,1
128732.606060606,1807.05882352941,4,1,0,60,1,1
128740.363636364,1811.32075471698,4,1,0,60,1,1
128748.121212121,1815.60283687943,4,1,0,60,1,1
128755.878787879,1819.90521327014,4,1,0,60,1,1
128763.636363636,1824.22802850356,4,1,0,60,1,1
128771.393939394,1828.57142857143,4,1,0,60,1,1
128779.151515152,1832.93556085919,4,1,0,60,1,1
128786.909090909,1837.32057416268,4,1,0,60,1,1
128794.666666667,1841.72661870503,4,1,0,60,1,1
128802.424242424,1846.15384615384,4,1,0,60,1,1
128810.181818182,1850.60240963856,4,1,0,60,1,1
128817.939393939,1855.07246376812,4,1,0,60,1,1
128825.696969697,1859.56416464891,4,1,0,60,1,1
128833.454545455,1864.07766990291,4,1,0,60,1,1
128841.212121212,1868.61313868613,4,1,0,60,1,1
128848.96969697,1873.17073170732,4,1,0,60,1,1
128856.727272727,1877.75061124694,4,1,0,60,1,1
128864.484848485,1882.35294117647,4,1,0,60,1,1
128872.242424242,1886.97788697789,4,1,0,60,1,1
128880,1891.62561576355,4,1,0,60,1,1
128887.757575758,1896.2962962963,4,1,0,60,1,1
128895.515151515,1900.9900990099,4,1,0,60,1,1
128903.272727273,1905.70719602978,4,1,0,60,1,1
128911.03030303,1910.44776119403,4,1,0,60,1,1
128918.787878788,1915.21197007481,4,1,0,60,1,1
128926.545454545,1920,4,1,0,60,1,1
128934.303030303,1924.81203007519,4,1,0,60,1,1
128942.060606061,1929.64824120603,4,1,0,60,1,1
128949.818181818,1934.50881612091,4,1,0,60,1,1
128957.575757576,1939.39393939394,4,1,0,60,1,1
128965.333333333,1944.30379746835,4,1,0,60,1,1
128973.090909091,1949.2385786802,4,1,0,60,1,1
128980.848484848,1954.19847328244,4,1,0,60,1,1
128988.606060606,1959.18367346939,4,1,0,60,1,1
128996.363636364,1964.19437340154,4,1,0,60,1,1
129004.121212121,1969.23076923077,4,1,0,60,1,1
129011.878787879,1974.29305912596,4,1,0,60,1,1
129019.636363636,1979.38144329897,4,1,0,60,1,1
129027.393939394,1984.496124031,4,1,0,60,1,1
129035.151515152,1989.63730569948,4,1,0,60,1,1
129042.909090909,1994.8051948052,4,1,0,60,1,1
129050.666666667,2000,4,1,0,60,1,1
129058.424242424,2005.22193211488,4,1,0,60,1,1
129066.181818182,2010.47120418848,4,1,0,60,1,1
129073.939393939,2015.74803149606,4,1,0,60,1,1
129081.696969697,2021.05263157895,4,1,0,60,1,1
129089.454545455,2026.3852242744,4,1,0,60,1,1
129097.212121212,2031.74603174604,4,1,0,60,1,1
129104.96969697,2037.13527851459,4,1,0,60,1,1
129112.727272727,2042.55319148936,4,1,0,60,1,1
129120.484848485,2048,4,1,0,60,1,1
129128.242424242,2053.47593582888,4,1,0,60,1,1
129136,2058.98123324397,4,1,0,60,1,1
129143.757575758,2064.51612903226,4,1,0,60,1,1
129151.515151515,2070.08086253369,4,1,0,60,1,1
129159.272727273,2075.67567567567,4,1,0,60,1,1
129167.03030303,2081.30081300813,4,1,0,60,1,1
129174.787878788,2086.95652173913,4,1,0,60,1,1
129182.545454545,2092.64305177112,4,1,0,60,1,1
129190.303030303,2098.3606557377,4,1,0,60,1,1
129198.060606061,2104.1095890411,4,1,0,60,1,1
129205.818181818,2109.89010989011,4,1,0,60,1,1
129213.575757576,2115.70247933884,4,1,0,60,1,1
129221.333333333,2121.54696132597,4,1,0,60,1,1
129229.090909091,2127.42382271469,4,1,0,60,1,1
129236.848484848,2133.33333333334,4,1,0,60,1,1
129244.606060606,2139.27576601671,4,1,0,60,1,1
129252.363636364,2145.25139664804,4,1,0,60,1,1
129260.121212121,2151.26050420168,4,1,0,60,1,1
129267.878787879,2157.30337078651,4,1,0,60,1,1
129275.636363636,2163.38028169014,4,1,0,60,1,1
129283.393939394,2169.49152542373,4,1,0,60,1,1
129291.151515152,2175.63739376771,4,1,0,60,1,1
129298.909090909,2181.81818181818,4,1,0,60,1,1
129306.666666667,2188.03418803419,4,1,0,60,1,1
129314.424242424,2194.28571428572,4,1,0,60,1,1
129322.181818182,2200.57306590258,4,1,0,60,1,1
129329.939393939,2206.89655172413,4,1,0,60,1,1
129337.696969697,2213.25648414986,4,1,0,60,1,1
129345.454545455,2219.65317919075,4,1,0,60,1,1
129353.212121212,2226.08695652174,4,1,0,60,1,1
129360.96969697,2232.55813953489,4,1,0,60,1,1
129368.727272727,2239.06705539358,4,1,0,60,1,1
129376.484848485,2245.61403508772,4,1,0,60,1,1
129384.242424242,2252.19941348973,4,1,0,60,1,1
129392,2258.82352941177,4,1,0,60,1,1
129399.757575758,2265.48672566372,4,1,0,60,1,1
129407.515151515,2272.18934911242,4,1,0,60,1,1
129415.272727273,2278.93175074184,4,1,0,60,1,1
129423.03030303,2285.71428571429,4,1,0,60,1,1
129430.787878788,2292.53731343283,4,1,0,60,1,1
129438.545454545,2299.40119760479,4,1,0,60,1,1
129446.303030303,2306.3063063063,4,1,0,60,1,1
129454.060606061,2313.25301204819,4,1,0,60,1,1
129461.818181818,2320.2416918429,4,1,0,60,1,1
129469.575757576,2327.27272727273,4,1,0,60,1,1
129477.333333333,2334.34650455927,4,1,0,60,1,1
129485.090909091,2341.46341463415,4,1,0,60,1,1
129492.848484848,2348.62385321101,4,1,0,60,1,1
129500.606060606,2355.8282208589,4,1,0,60,1,1
129508.363636364,2363.07692307693,4,1,0,60,1,1
129516.121212121,2370.37037037037,4,1,0,60,1,1
129523.878787879,2377.70897832817,4,1,0,60,1,1
129531.636363636,2385.09316770186,4,1,0,60,1,1
129539.393939394,2392.52336448598,4,1,0,60,1,1
129547.151515152,2400,4,1,0,60,1,1
129554.909090909,2407.52351097178,4,1,0,60,1,1
129562.666666667,2415.09433962264,4,1,0,60,1,1
129570.424242424,2422.71293375394,4,1,0,60,1,1
129578.181818182,2430.37974683545,4,1,0,60,1,1
129585.939393939,2438.09523809523,4,1,0,60,1,1
129593.696969697,2445.85987261147,4,1,0,60,1,1
129601.454545455,2453.67412140575,4,1,0,60,1,1
129609.212121212,2461.53846153847,4,1,0,60,1,1
129616.96969697,2469.45337620579,4,1,0,60,1,1
129624.727272727,2477.41935483871,4,1,0,60,1,1
129632.484848485,2485.43689320389,4,1,0,60,1,1
129640.242424242,2493.5064935065,4,1,0,60,1,1
129648,2501.62866449511,4,1,0,60,1,1
129655.757575758,2509.80392156863,4,1,0,60,1,1
129663.515151515,2518.03278688524,4,1,0,60,1,1
129671.272727273,2526.31578947369,4,1,0,60,1,1
129679.03030303,2534.65346534653,4,1,0,60,1,1
129686.787878788,2543.0463576159,4,1,0,60,1,1
129694.545454545,2551.49501661129,4,1,0,60,1,1
129702.303030303,2560,4,1,0,60,1,1
129710.060606061,2568.5618729097,4,1,0,60,1,1
129717.818181818,2577.18120805369,4,1,0,60,1,1
129725.575757576,2585.85858585859,4,1,0,60,1,1
129733.333333333,2594.5945945946,4,1,0,60,1,1
129741.090909091,2603.38983050848,4,1,0,60,1,1
129748.848484848,2612.24489795919,4,1,0,60,1,1
129756.606060606,2621.16040955631,4,1,0,60,1,1
129764.363636364,2630.13698630137,4,1,0,60,1,1
129772.121212121,2639.17525773196,4,1,0,60,1,1
129779.878787879,2648.27586206897,4,1,0,60,1,1
129787.636363636,2657.43944636678,4,1,0,60,1,1
129795.393939394,2666.66666666667,4,1,0,60,1,1
129803.151515152,2675.95818815331,4,1,0,60,1,1
129810.909090909,2685.31468531469,4,1,0,60,1,1
129818.666666667,2694.73684210526,4,1,0,60,1,1
129826.424242424,2704.22535211268,4,1,0,60,1,1
129834.181818182,2713.78091872792,4,1,0,60,1,1
129841.939393939,2723.40425531915,4,1,0,60,1,1
129849.696969697,2733.09608540926,4,1,0,60,1,1
129857.454545455,2742.85714285714,4,1,0,60,1,1
129865.212121212,2752.68817204301,4,1,0,60,1,1
129872.96969697,2762.58992805755,4,1,0,60,1,1
129880.727272727,2772.56317689531,4,1,0,60,1,1
129888.484848485,2782.60869565217,4,1,0,60,1,1
129896.242424242,2792.72727272728,4,1,0,60,1,1
129904,2802.9197080292,4,1,0,60,1,1
129911.757575758,2813.18681318681,4,1,0,60,1,1
129919.515151515,2823.5294117647,4,1,0,60,1,1
129927.272727273,2833.94833948339,4,1,0,60,1,1
129935.03030303,2844.44444444444,4,1,0,60,1,1
129942.787878788,2855.0185873606,4,1,0,60,1,1
129950.545454545,2865.67164179105,4,1,0,60,1,1
129958.303030303,2876.40449438203,4,1,0,60,1,1
129966.060606061,2887.21804511278,4,1,0,60,1,1
129973.818181818,2898.11320754717,4,1,0,60,1,1
129981.575757576,2909.09090909091,4,1,0,60,1,1
129989.333333333,2920.15209125475,4,1,0,60,1,1
129997.090909091,2931.29770992366,4,1,0,60,1,1
130004.848484848,2942.52873563218,4,1,0,60,1,1
130012.606060606,2953.84615384616,4,1,0,60,1,1
130020.363636364,2965.25096525096,4,1,0,60,1,1
130028.121212121,2976.74418604651,4,1,0,60,1,1
130035.878787879,2988.32684824903,4,1,0,60,1,1
130043.636363636,3000,4,1,0,60,1,1
130051.393939394,3011.76470588235,4,1,0,60,1,1
130059.151515152,3023.6220472441,4,1,0,60,1,1
130066.909090909,3035.57312252964,4,1,0,60,1,1
130074.666666667,3047.61904761905,4,1,0,60,1,1
130082.424242424,3059.7609561753,4,1,0,60,1,1
130090.181818182,3072,4,1,0,60,1,1
130097.939393939,3084.33734939759,4,1,0,60,1,1
130105.696969697,3096.77419354839,4,1,0,60,1,1
130113.454545455,3109.31174089069,4,1,0,60,1,1
130121.212121212,3121.95121951219,4,1,0,60,1,1
130128.96969697,3134.69387755102,4,1,0,60,1,1
130136.727272727,3147.54098360656,4,1,0,60,1,1
130144.484848485,3160.49382716049,4,1,0,60,1,1
130152.242424242,3173.55371900827,4,1,0,60,1,1
130160,3186.72199170125,4,1,0,60,1,1
130167.757575758,3200,4,1,0,60,1,1
130175.515151515,3213.38912133891,4,1,0,60,1,1
130183.272727273,3226.89075630252,4,1,0,60,1,1
130191.03030303,3240.50632911392,4,1,0,60,1,1
130198.787878788,3254.23728813559,4,1,0,60,1,1
130206.545454545,3268.08510638298,4,1,0,60,1,1
130214.303030303,3282.05128205128,4,1,0,60,1,1
130222.060606061,3296.13733905579,4,1,0,60,1,1
130229.818181818,3310.34482758621,4,1,0,60,1,1
130237.575757576,3324.67532467533,4,1,0,60,1,1
130245.333333333,3339.13043478261,4,1,0,60,1,1
130253.090909091,3353.71179039302,4,1,0,60,1,1
130260.848484848,3368.42105263158,4,1,0,60,1,1
130268.606060606,3383.25991189428,4,1,0,60,1,1
130276.363636364,3398.23008849558,4,1,0,60,1,1
130284.121212121,3413.33333333333,4,1,0,60,1,1
130291.878787879,3428.57142857143,4,1,0,60,1,1
130299.636363636,3443.94618834081,4,1,0,60,1,1
130307.393939394,3459.45945945946,4,1,0,60,1,1
130315.151515152,3475.11312217194,4,1,0,60,1,1
130322.909090909,3490.90909090909,4,1,0,60,1,1
130330.666666667,3506.84931506849,4,1,0,60,1,1
130338.424242424,3522.93577981651,4,1,0,60,1,1
130346.181818182,3539.17050691245,4,1,0,60,1,1
130353.939393939,3555.55555555556,4,1,0,60,1,1
130361.696969697,3572.09302325581,4,1,0,60,1,1
130369.454545455,3588.78504672897,4,1,0,60,1,1
130377.212121212,3605.6338028169,4,1,0,60,1,1
130384.96969697,3622.64150943396,4,1,0,60,1,1
130392.727272727,3639.81042654029,4,1,0,60,1,1
130400.484848485,3657.14285714286,4,1,0,60,1,1
130408.242424242,3674.64114832536,4,1,0,60,1,1
130416,3692.30769230769,4,1,0,60,1,1
130423.757575758,3710.14492753624,4,1,0,60,1,1
130431.515151515,3728.15533980583,4,1,0,60,1,1
130439.272727273,3746.34146341463,4,1,0,60,1,1
130447.03030303,3764.70588235294,4,1,0,60,1,1
130454.787878788,3783.2512315271,4,1,0,60,1,1
130462.545454545,3801.9801980198,4,1,0,60,1,1
130470.303030303,3820.89552238806,4,1,0,60,1,1
130478.060606061,3840,4,1,0,60,1,1
130485.818181818,3859.29648241206,4,1,0,60,1,1
130493.575757576,3878.78787878788,4,1,0,60,1,1
130501.333333333,3898.47715736041,4,1,0,60,1,1
130509.090909091,3918.36734693878,4,1,0,60,1,1
130516.848484848,3938.46153846154,4,1,0,60,1,1
130524.606060606,3958.76288659794,4,1,0,60,1,1
130532.363636364,3979.27461139897,4,1,0,60,1,1
130540.121212121,4000,4,1,0,60,1,1
130547.878787879,4020.94240837697,4,1,0,60,1,1
130555.636363636,4042.10526315789,4,1,0,60,1,1
130563.393939394,4063.49206349206,4,1,0,60,1,1
130571.151515152,4085.10638297873,4,1,0,60,1,1
130578.909090909,4106.95187165775,4,1,0,60,1,1
130586.666666667,4129.03225806452,4,1,0,60,1,1
130594.424242424,4151.35135135135,4,1,0,60,1,1
130602.181818182,4173.91304347826,4,1,0,60,1,1
130609.939393939,4196.72131147541,4,1,0,60,1,1
130617.696969697,4219.78021978022,4,1,0,60,1,1
130625.454545455,4243.09392265193,4,1,0,60,1,1
130633.212121212,4266.66666666666,4,1,0,60,1,1
130640.96969697,4290.50279329609,4,1,0,60,1,1
130648.727272727,4314.60674157304,4,1,0,60,1,1
130656.484848485,4338.98305084746,4,1,0,60,1,1
130664.242424242,4363.63636363636,4,1,0,60,1,1
130672,4388.57142857143,4,1,0,60,1,1
130679.757575758,4413.79310344828,4,1,0,60,1,1
130687.515151515,4439.3063583815,4,1,0,60,1,1
130695.272727273,4465.11627906977,4,1,0,60,1,1
130703.03030303,4491.22807017544,4,1,0,60,1,1
130710.787878788,4517.64705882353,4,1,0,60,1,1
130718.545454545,4544.37869822485,4,1,0,60,1,1
130726.303030303,4571.42857142857,4,1,0,60,1,1
130734.060606061,4598.80239520958,4,1,0,60,1,1
130741.818181818,4626.50602409639,4,1,0,60,1,1
130749.575757576,4654.54545454545,4,1,0,60,1,1
130757.333333333,4682.92682926829,4,1,0,60,1,1
130765.090909091,4711.6564417178,4,1,0,60,1,1
130772.848484848,4740.74074074074,4,1,0,60,1,1
130780.606060606,4770.18633540373,4,1,0,60,1,1
130788.363636364,4800,4,1,0,60,1,1
130796.121212121,4830.18867924528,4,1,0,60,1,1
130803.878787879,4860.75949367089,4,1,0,60,1,1
130811.636363636,4891.71974522293,4,1,0,60,1,1
130819.393939394,4923.07692307692,4,1,0,60,1,1
130827.151515152,4954.83870967741,4,1,0,60,1,1
130834.909090909,4987.01298701298,4,1,0,60,1,1
130842.666666667,5019.60784313726,4,1,0,60,1,1
130850.424242424,5052.63157894737,4,1,0,60,1,1
130858.181818182,5086.09271523179,4,1,0,60,1,1
130865.939393939,5120,4,1,0,60,1,1
130873.696969697,5154.36241610738,4,1,0,60,1,1
130881.454545455,5189.18918918919,4,1,0,60,1,1
130889.212121212,5224.48979591837,4,1,0,60,1,1
130896.96969697,5260.27397260275,4,1,0,60,1,1
130904.727272727,5296.55172413793,4,1,0,60,1,1
130912.484848485,5333.33333333334,4,1,0,60,1,1
130920.242424242,5370.62937062937,4,1,0,60,1,1
130928,5408.45070422535,4,1,0,60,1,1
130935.757575758,5446.80851063829,4,1,0,60,1,1
130943.515151515,5485.71428571428,4,1,0,60,1,1
130951.272727273,5525.1798561151,4,1,0,60,1,1
130959.03030303,5565.21739130435,4,1,0,60,1,1
130966.787878788,5605.8394160584,4,1,0,60,1,1
130974.545454545,5647.05882352941,4,1,0,60,1,1
130982.303030303,5688.88888888889,4,1,0,60,1,1
130990.060606061,5731.34328358209,4,1,0,60,1,1
130997.818181818,5774.43609022557,4,1,0,60,1,1
131005.575757576,5818.18181818183,4,1,0,60,1,1
131013.333333333,5862.59541984733,4,1,0,60,1,1
131021.090909091,5907.69230769231,4,1,0,60,1,1
131028.848484848,5953.48837209302,4,1,0,60,1,1
131036.606060606,6000,4,1,0,60,1,1
131044.363636364,6047.24409448819,4,1,0,60,1,1
131052.121212121,6095.2380952381,4,1,0,60,1,1
131059.878787879,6144,4,1,0,60,1,1
131067.636363636,6193.54838709678,4,1,0,60,1,1
131075.393939394,6243.9024390244,4,1,0,60,1,1
131083.151515152,6295.08196721312,4,1,0,60,1,1
131090.909090909,6347.10743801653,4,1,0,60,1,1
131098.666666667,6400,4,1,0,60,1,1
131106.424242424,6453.78151260504,4,1,0,60,1,1
131114.181818182,6508.47457627119,4,1,0,60,1,1
131121.939393939,6564.10256410257,4,1,0,60,1,1
131129.696969697,6620.68965517241,4,1,0,60,1,1
131137.454545455,6678.26086956521,4,1,0,60,1,1
131145.212121212,6736.84210526316,4,1,0,60,1,1
131152.96969697,6796.46017699115,4,1,0,60,1,1
131160.727272727,6857.14285714286,4,1,0,60,1,1
131168.484848485,6918.91891891892,4,1,0,60,1,1
131176.242424242,6981.81818181818,4,1,0,60,1,1
131184,7045.87155963303,4,1,0,60,1,1
131191.757575758,7111.11111111112,4,1,0,60,1,1
131199.515151515,7177.57009345796,4,1,0,60,1,1
131207.272727273,7245.28301886792,4,1,0,60,1,1
131215.03030303,7314.28571428571,4,1,0,60,1,1
131222.787878788,7384.61538461538,4,1,0,60,1,1
131230.545454545,7456.31067961166,4,1,0,60,1,1
131238.303030303,7529.41176470588,4,1,0,60,1,1
131246.060606061,7603.9603960396,4,1,0,60,1,1
131253.818181818,7680,4,1,0,60,1,1
131261.575757576,7757.57575757576,4,1,0,60,1,1
131269.333333333,7836.73469387758,4,1,0,60,1,1
131277.090909091,7917.5257731959,4,1,0,60,1,1
131284.848484848,8000.00000000003,4,1,0,60,1,1
131292.606060606,8084.2105263158,4,1,0,60,1,1
131300.363636364,8170.21276595743,4,1,0,60,1,1
131308.121212121,8258.06451612902,4,1,0,60,1,1
131315.878787879,8347.82608695652,4,1,0,60,1,1
131323.636363636,8439.56043956045,4,1,0,60,1,1
131331.393939394,8533.33333333332,4,1,0,60,1,1
131339.151515152,8629.21348314609,4,1,0,60,1,1
131346.909090909,8727.27272727276,4,1,0,60,1,1
131354.666666667,8827.58620689654,4,1,0,60,1,1
131362.424242424,8930.23255813955,4,1,0,60,1,1
131370.181818182,9035.29411764703,4,1,0,60,1,1
131377.939393939,9142.85714285714,4,1,0,60,1,1
131385.696969697,9253.01204819282,4,1,0,60,1,1
131393.454545455,9365.85365853658,4,1,0,60,1,1
131401.212121212,9481.4814814815,4,1,0,60,1,1
131408.96969697,9600,4,1,0,60,1,1
131416.727272727,9721.5189873418,4,1,0,60,1,1
131424.484848485,9846.15384615383,4,1,0,60,1,1
131432.242424242,9974.02597402598,4,1,0,60,1,1
131440,10105.2631578947,4,1,0,60,1,1
131447.757575758,10240,4,1,0,60,1,1
131455.515151515,10378.3783783784,4,1,0,60,1,1
131463.272727273,10520.5479452055,4,1,0,60,1,1
131471.03030303,10666.6666666667,4,1,0,60,1,1
131478.787878788,10816.9014084507,4,1,0,60,1,1
131486.545454545,10971.4285714286,4,1,0,60,1,1
131494.303030303,11130.4347826087,4,1,0,60,1,1
131502.060606061,11294.1176470588,4,1,0,60,1,1
131509.818181818,11462.6865671642,4,1,0,60,1,1
131517.575757576,11636.3636363636,4,1,0,60,1,1
131525.333333333,11815.3846153846,4,1,0,60,1,1
131533.090909091,12000,4,1,0,60,1,1
131540.848484848,12190.4761904762,4,1,0,60,1,1
131548.606060606,12387.0967741935,4,1,0,60,1,1
131556.363636364,12590.1639344262,4,1,0,60,1,1
131564.121212121,12800,4,1,0,60,1,1
131571.878787879,13016.9491525424,4,1,0,60,1,1
131579.636363636,13241.3793103449,4,1,0,60,1,1
131587.393939394,13473.6842105264,4,1,0,60,1,1
131595.151515152,13714.2857142857,4,1,0,60,1,1
131602.909090909,13963.6363636364,4,1,0,60,1,1
131610.666666667,14222.2222222222,4,1,0,60,1,1
131618.424242424,14490.5660377359,4,1,0,60,1,1
131626.181818182,14769.2307692307,4,1,0,60,1,1
131633.939393939,15058.8235294118,4,1,0,60,1,1
131641.696969697,15360,4,1,0,60,1,1
131649.454545455,15673.4693877551,4,1,0,60,1,1
131657.212121212,16000.0000000001,4,1,0,60,1,1
131664.96969697,16340.4255319149,4,1,0,60,1,1
131672.727272727,16695.6521739131,4,1,0,60,1,1
131680.484848485,17066.6666666667,4,1,0,60,1,1
131688.242424242,17454.5454545455,4,1,0,60,1,1
131696,17860.4651162791,4,1,0,60,1,1
131703.757575758,18285.7142857143,4,1,0,60,1,1
131711.515151515,18731.7073170732,4,1,0,60,1,1
131719.272727273,19200,4,1,0,60,1,1
131727.03030303,19692.3076923077,4,1,0,60,1,1
131734.787878788,20210.5263157895,4,1,0,60,1,1
131742.545454545,20756.7567567568,4,1,0,60,1,1
131750.303030303,21333.3333333334,4,1,0,60,1,1
131758.060606061,21942.8571428572,4,1,0,60,1,1
131765.818181818,22588.2352941177,4,1,0,60,1,1
131773.575757576,23272.7272727274,4,1,0,60,1,1
131781.333333333,24000.0000000001,4,1,0,60,1,1
131789.090909091,24774.1935483871,4,1,0,60,1,1
131796.848484848,25600,4,1,0,60,1,1
131804.606060606,26482.7586206895,4,1,0,60,1,1
131812.363636364,27428.5714285715,4,1,0,60,1,1
131820.121212121,28444.4444444445,4,1,0,60,1,1
131827.878787879,29538.4615384616,4,1,0,60,1,1
131835.636363636,30720,4,1,0,60,1,1
131843.393939394,31999.9999999999,4,1,0,60,1,1
131851.151515152,33391.3043478263,4,1,0,60,1,1
131858.909090909,34909.0909090911,4,1,0,60,1,1
131866.666666667,36571.4285714287,4,1,0,60,1,1
131874.424242424,38400.0000000002,4,1,0,60,1,1
131882.181818182,40421.0526315791,4,1,0,60,1,1
131889.939393939,42666.6666666667,4,1,0,60,1,1
131897.696969697,45176.4705882353,4,1,0,60,1,1
131905.454545455,47999.9999999999,4,1,0,60,1,1
131913.212121212,51199.9999999999,4,1,0,60,1,1
131920.96969697,54857.1428571426,4,1,0,60,1,1
131928.727272727,59076.9230769235,4,1,0,60,1,1
131936.484848485,64000.0000000004,4,1,0,60,1,1
131944.242424242,69818.1818181822,4,1,0,60,1,1
131951,1,1,1,0,60,1,0
131952,-869.565217391304,1,1,0,60,1,0

[Colours]
Combo1 : 215,157,249
Combo2 : 5,240,5
Combo3 : 13,51,232
Combo4 : 240,5,5
Combo5 : 5,240,240
Combo6 : 255,150,0
Combo7 : 176,241,129
Combo8 : 152,14,141

[HitObjects]
32,297,936,6,0,B|40:251|68:215|68:215|100:199|212:127|204:27|204:27|132:84|140:211|155:259|203:325|203:325|215:229|259:181|303:161|303:161|327:225|311:289|311:289|336:247|371:238,1,1057.5
375,237,6696,1,0,0:0:0:0:
404,328,6726,6,0,L|392:388,1,45
416,324,6786,2,0,L|404:384,1,45
428,320,6846,2,0,L|416:380,1,45
440,316,6906,2,0,L|428:376,1,45
452,312,6966,2,0,L|440:372,5,45
136,240,7336,6,0,L|148:280,2,30
176,168,7456,6,0,B|177:167|177:167|176:168|175:167|175:167|176:168|176:168|176:167|176:167|175:168|175:168|175:167|175:167|175:167,75,11.25,0|0|0|0|0|0|0|0|0|0|0|0|0|0|0|0|0|0|0|0|0|0|0|0|0|0|0|0|0|0|0|0|0|0|0|0|0|0|0|0|0|0|0|0|0|0|0|0|0|0|0|0|0|0|0|0|0|0|0|0|0|0|0|0|0|0|0|0|0|0|0|0|0|0|0|0,2:0|2:0|2:0|2:0|2:0|2:0|2:0|2:0|2:0|2:0|2:0|2:0|2:0|2:0|2:0|2:0|2:0|2:0|2:0|2:0|2:0|2:0|2:0|2:0|2:0|2:0|2:0|2:0|2:0|2:0|2:0|2:0|2:0|2:0|2:0|2:0|2:0|2:0|2:0|2:0|2:0|2:0|2:0|2:0|2:0|2:0|2:0|2:0|2:0|2:0|2:0|2:0|2:0|2:0|2:0|2:0|2:0|2:0|2:0|2:0|2:0|2:0|2:0|2:0|2:0|2:0|2:0|2:0|2:0|2:0|2:0|2:0|2:0|2:0|2:0|2:0,2:0:0:0:
375,236,7670,5,0,0:0:0:0:
375,236,7790,6,0,B|338:232|314:239|285:256|267:279|256:303|251:340|251:340|236:314|195:298|195:298|128:352|80:364|32:337|15:301|20:260|32:224|80:208|112:220|132:248,1,562.5,0|0,2:0|0:0,0:0:0:0:
136,240,9096,6,0,L|125:164,1,60
62,43,9336,5,0,0:0:0:0:
99,66,9396,1,0,0:0:0:0:
146,72,9456,1,0,0:0:0:0:
195,99,9516,1,0,0:0:0:0:
243,76,9576,6,0,P|304:48|281:-1,1,135
271,3,9816,5,0,0:0:0:0:
412,55,9936,2,0,P|460:45|490:24,1,45,0|0,0:0|2:0,0:0:0:0:
192,4,10056,6,0,P|200:38|215:61,1,45,0|0,0:0|2:0,0:0:0:0:
374,137,10176,2,0,P|341:150|321:169,1,45,0|0,0:0|2:0,0:0:0:0:
195,298,10296,2,0,L|211:175,1,90
22,47,10536,6,0,B|-6:98|-6:98|28:179,1,135
14,184,10776,1,0,0:0:0:0:
58,176,10836,1,0,0:0:0:0:
94,212,10896,1,0,0:0:0:0:
150,196,10956,1,0,0:0:0:0:
206,208,11016,5,0,0:0:0:0:
80,319,11136,2,0,P|57:316|38:305,1,45,0|0,0:0|2:0,0:0:0:0:
184,288,11256,1,0,0:0:0:0:
336,372,11496,6,0,L|344:272,1,90
408,124,11736,1,0,0:0:0:0:
232,232,11856,1,0,0:0:0:0:
414,331,11976,2,0,P|456:332|500:308,1,90
336,264,12216,1,0,0:0:0:0:
512,176,12456,6,0,L|488:404,2,202.500007724762
432,232,13416,5,0,0:0:0:0:
340,92,13536,2,0,L|332:0,1,90
206,208,13776,1,0,0:0:0:0:
440,116,13896,5,0,0:0:0:0:
148,16,14136,1,0,0:0:0:0:
216,196,14376,6,0,L|296:184,1,67.5000025749208
148,96,14616,1,0,0:0:0:0:
44,312,14736,1,0,0:0:0:0:
245,294,14856,6,0,B|184:312|127:253|127:253|71:199|0:220,1,270.000010299683
264,284,15096,6,0,P|308:272|356:280,1,84.3750032186509
417,366,15336,6,0,L|433:214,1,135
316,72,15576,1,0,0:0:0:0:
512,208,15696,1,0,0:0:0:0:
345,276,15816,6,0,P|336:240|336:212,1,45,0|0,0:0|2:0,0:0:0:0:
476,100,16056,2,0,P|473:122|466:143,1,45,0|0,0:0|2:0,0:0:0:0:
188,108,16296,6,0,B|316:72|316:72|384:96,2,202.500007724762
108,76,17256,5,0,0:0:0:0:
240,272,17376,2,0,L|224:376,1,90
320,208,17616,1,0,0:0:0:0:
12,200,17736,6,0,P|96:200|148:288,1,180
64,330,18216,6,0,P|55:310|52:288,18,45.0000017166138,0|0|0|0|0|0|0|0|0|0|0|0|0|0|0|0|0|0|0,2:0|2:0|2:0|2:0|2:0|2:0|2:0|2:0|2:0|2:0|2:0|2:0|2:0|2:0|2:0|2:0|2:0|2:0|2:0,2:0:0:0:
147,374,18636,1,0,2:0:0:0:
159,366,18696,2,0,L|251:358,1,67.5000025749208,0|0,2:0|2:0,0:0:0:0:
304,368,19176,6,0,L|132:352,1,148.50000453186
20,384,19416,1,0,0:0:0:0:
240,252,19536,1,0,0:0:0:0:
89,107,19656,2,0,P|92:156|107:203,1,99.0000030212403
208,25,19896,1,0,0:0:0:0:
208,25,20136,6,0,P|124:102|-2:70,2,229.500004377365
386,65,21096,5,0,0:0:0:0:
240,252,21216,2,0,P|251:191|290:135,1,99.0000030212403
359,328,21456,1,0,0:0:0:0:
474,256,21576,6,0,L|516:261,3,24.7500007553101
341,341,21696,2,0,L|239:348,1,99.0000030212403
76,147,22056,6,0,B|127:99|127:99|145:164,1,135
88,244,22296,5,0,0:0:0:0:
300,292,22416,1,0,0:0:0:0:
88,244,22536,2,0,B|168:280|220:228|220:228|272:172|360:200,1,270.000010299683
336,16,22776,6,0,P|323:71|312:88,1,67.5000025749208
144,161,23016,6,0,P|128:108|132:48,1,99.0000030212403
288,192,23256,1,0,0:0:0:0:
88,324,23376,1,0,0:0:0:0:
244,92,23496,2,0,P|288:84|356:100,1,99.0000030212403
488,176,23736,1,0,0:0:0:0:
346,365,23976,6,0,P|282:289|287:191,2,202.500007724762
328,352,24936,6,0,P|272:336|216:332,1,99.0000030212403
88,216,25176,2,0,P|137:210|184:195,1,99.0000030212403
308,104,25416,1,0,0:0:0:0:
208,340,25656,1,0,0:0:0:0:
468,300,25896,6,0,P|449:263|461:183,1,108,0|0,0:0|2:0,0:0:0:0:
464,184,26136,6,0,L|368:200,1,94.499997116089,0|0,0:0|2:0,0:0:0:0:
352,124,26376,6,0,B|392:126|392:126|428:149,1,80.9999975280763,0|0,0:0|2:0,0:0:0:0:
383,272,26616,6,0,B|347:272|347:272|310:245,1,67.5,0|0,0:0|2:0,0:0:0:0:
370,199,26856,54,0,L|417:191,1,45,0|0,0:0|2:0,0:0:0:0:
272,304,27284,2,0,L|225:296,1,45,0|0,0:0|2:0,0:0:0:0:
96,224,27713,6,0,P|104:272|104:292,1,45
32,104,28141,2,0,P|24:152|24:172,1,45
176,28,28570,6,0,P|138:-2|121:-12,1,45
169,190,28998,1,0,0:0:0:0:
169,190,29427,2,0,P|214:172|231:162,1,45
256,64,30070,1,0,0:0:0:0:
320,168,30284,6,0,P|323:135|317:105,1,45
388,260,30713,2,0,P|406:233|417:205,1,45
274,272,31141,2,0,P|280:293|291:313,1,45
436,376,31570,2,0,P|456:332|460:316,1,45
396,144,31998,2,0,P|366:158|343:177,1,45
284,260,32427,1,0,0:0:0:0:
284,260,32856,5,0,0:0:0:0:
284,260,33070,2,0,L|220:268,1,56.25,0|0,2:0|2:0,2:0:0:0:
128,240,33713,6,0,P|118:259|106:298,1,45
44,136,34141,2,0,P|36:114|26:94,1,45
149,136,34570,6,0,P|181:141|209:142,1,45
284,188,34998,2,0,P|306:183|328:182,1,45
484,216,35427,6,0,L|472:156,1,45
388,76,35856,1,0,0:0:0:0:
388,76,36284,2,0,P|381:97|379:119,1,45
440,284,36927,5,0,0:0:0:0:
360,304,37141,2,0,P|396:296|420:296,1,45
248,240,37570,2,0,P|284:248|308:248,1,45
168,360,37998,6,0,P|203:348|227:346,1,45
88,200,38427,2,0,P|108:209|129:215,1,45
236,144,38748,5,0,0:0:0:0:
220,140,38856,2,0,L|180:148,2,22.5
312,80,39284,1,0,0:0:0:0:
96,72,39498,1,0,0:0:0:0:
73,67,39605,1,0,0:0:0:0:
51,62,39713,5,0,0:0:0:0:
95,57,39820,1,0,0:0:0:0:
140,53,39927,1,0,0:0:0:0:
185,49,40034,1,0,0:0:0:0:
256,96,40141,6,0,L|332:108,1,67.5000025749208
492,28,40356,6,0,L|380:40,1,90
256,192,41427,12,0,41802,2:0:0:0:
104,212,41855,6,0,L|208:224,1,67.5000025749208,0|0,2:0|2:0,2:0:0:0:
352,276,42069,2,0,P|360:320|360:344,2,45.0000017166138,0|0|0,0:0|2:0|0:0,0:0:0:0:
304,216,42177,6,0,L|312:172,6,33.7500012874604
248,280,42498,1,0,0:0:0:0:
248,280,42819,6,0,P|208:288|164:292,1,67.5,0|0,0:0|2:0,0:0:0:0:
256,192,43247,12,0,46568,0:0:0:0:
128,264,46782,6,0,L|236:272,1,90
368,136,47084,6,0,L|256:148,1,90
420,116,47438,6,0,L|308:128,1,90
176,64,47796,5,0,0:0:0:0:
321,233,48033,5,0,0:0:0:0:
331,178,48151,1,0,0:0:0:0:
368,136,48269,1,0,0:0:0:0:
420,116,48387,1,0,0:0:0:0:
475,125,48505,1,0,0:0:0:0:
456,248,48738,1,0,0:0:0:0:
300,336,48971,6,0,L|408:324,1,90
244,248,49318,6,0,L|154:257,1,90
8,372,49664,5,0,0:0:0:0:
168,268,49893,6,0,P|188:180|192:96,1,153.000002918243,0|0,2:0|2:0,2:0:0:0:
32,36,50122,6,0,P|48:124|96:212,1,161.999995056153,0|0,2:0|2:0,2:0:0:0:
212,360,50350,6,0,P|248:292|268:168,1,170.999995433807
308,20,50577,6,0,P|220:28|108:76,1,180
4,260,50804,6,0,P|56:285|120:292,1,90
188,153,51029,1,0,0:0:0:0:
97,21,51141,6,0,B|60:76|60:76|79:192,1,180
4,260,51476,5,0,0:0:0:0:
196,332,51699,1,0,0:0:0:0:
243,302,51810,1,0,0:0:0:0:
299,301,51921,1,0,0:0:0:0:
347,327,52031,1,0,0:0:0:0:
376,375,52142,1,0,0:0:0:0:
504,280,52362,1,0,0:0:0:0:
316,156,52581,6,0,L|204:168,1,90
368,136,52908,6,0,L|256:148,1,90
124,84,53234,5,0,0:0:0:0:
212,297,53450,6,0,P|297:271|345:211,1,153.000002918243
488,72,53665,6,0,P|388:40|308:40,1,161.999995056153
120,200,53880,6,0,P|112:280|140:396,1,170.999995433807
502,293,54094,6,0,P|439:253|311:222,1,180
144,92,54309,6,0,P|195:85|254:60,1,90,0|0,0:3|0:3,0:3:0:0:
296,180,54521,1,0,0:0:0:0:
360,0,54627,6,0,L|348:112,1,90
400,216,54838,2,0,P|348:209|289:184,1,90,0|0,0:3|0:3,0:3:0:0:
55,350,55154,5,0,0:0:0:0:
103,322,55258,1,0,0:0:0:0:
157,304,55363,1,0,0:0:0:0:
212,297,55468,1,0,0:0:0:0:
268,302,55573,1,0,0:0:0:0:
72,204,55780,1,0,0:0:0:0:
260,52,55987,6,0,L|244:160,1,90
344,340,56296,6,0,L|357:250,1,90
488,108,56604,5,0,0:0:0:0:
100,184,56809,6,0,P|171:112|220:140,1,153.000002918243
472,120,57013,6,0,P|399:126|368:48,1,161.999995056153
12,48,57216,6,0,B|66:62|101:39|101:39|135:19|199:27,1,170.999995433807
448,220,57418,6,0,B|397:226|362:203|362:203|328:183|264:191,1,180
144,300,57620,5,0,0:0:0:0:
220,352,57722,2,0,B|283:321|347:322|347:322|315:305|294:278,1,180
48,288,58023,6,0,P|63:354|90:390,2,90
168,224,58322,5,0,0:0:0:0:
181,210,58422,2,0,P|201:162|205:110,1,90
12,48,58620,2,0,P|18:92|36:133,1,90
260,48,58818,6,0,P|218:31|165:27,1,90
380,152,59015,2,0,P|338:168|285:172,1,90
424,24,59212,5,0,0:0:0:0:
480,192,59310,2,0,L|460:316,1,90
272,160,59505,5,0,0:0:0:0:
208,296,59603,2,0,L|228:420,1,90
367,214,59797,6,0,P|327:154|255:174,1,135
128,232,59991,6,0,B|160:208|159:164|159:164|159:107|206:70,1,153.000002918243
384,304,60184,6,0,B|320:359|320:359|306:256,1,161.999995056153
408,52,60376,6,0,B|468:96|468:96|480:196,1,170.999995433807
54,334,60568,6,0,B|24:265|24:265|58:166,1,180
241,60,60761,5,0,0:0:0:0:
321,28,60856,2,0,P|365:35|407:51,1,90
59,166,61047,5,0,0:0:0:0:
141,197,61142,2,0,P|185:189|227:173,1,90
384,304,61333,2,0,P|428:312|470:328,1,90
248,384,61522,6,0,P|253:339|263:295,1,90
356,108,61710,2,0,P|365:152|371:196,1,90
136,96,61898,5,0,0:0:0:0:
241,60,61991,1,0,0:0:0:0:
141,197,62085,2,0,P|77:181|45:149,1,90
200,368,62273,5,0,0:0:0:0:
263,295,62366,2,0,P|300:270|344:264,1,90
440,60,62551,5,0,0:0:0:0:
356,108,62644,2,0,P|311:102|273:79,1,90
126,6,62829,2,0,L|138:118,1,90
52,324,63015,6,0,B|72:232|72:232|128:200,1,153.000002918243
344,264,63199,6,0,B|372:308|372:308|216:288,1,161.999995056153
248,36,63382,6,0,P|280:132|280:212,1,170.999995433807
32,352,63564,6,0,L|48:144,1,180
248,36,63753,5,0,0:0:0:0:
356,108,63843,2,0,L|456:96,2,90
326,308,64115,5,0,0:0:0:0:
232,252,64205,1,0,0:0:0:0:
141,316,64295,2,0,L|51:323,1,90
28,56,64475,6,0,P|84:68|120:88,1,90
248,164,64654,2,0,P|207:183|163:190,1,90
424,16,64833,5,0,0:0:0:0:
468,120,64922,1,0,0:0:0:0:
356,108,65011,2,0,P|340:168|340:220,1,90
400,344,65193,5,0,0:0:0:0:
227,296,65281,2,0,P|182:303|140:317,1,90
252,140,65458,5,0,0:0:0:0:
52,179,65546,2,0,P|95:192|140:200,1,90
308,20,65722,2,0,P|263:27|216:44,1,90
308,272,65897,6,0,P|296:184|236:132,1,153.000002918243
100,26,66072,6,0,P|56:142|52:210,1,161.999995056153
32,336,66246,6,0,B|140:320|140:320|196:252,1,170.999995433807
431,161,66420,6,0,L|231:137,1,180
480,264,66595,5,0,0:0:0:0:
400,344,66681,2,0,L|388:220,1,90
252,139,66854,6,0,L|260:49,2,90
179,272,67112,2,0,P|119:296|72:284,1,90
16,188,67283,5,0,0:0:0:0:
131,111,67368,2,0,L|123:201,2,90
272,252,67624,5,0,0:0:0:0:
304,368,67709,1,0,0:0:0:0:
384,168,67794,5,0,0:0:0:0:
368,296,67878,1,0,0:0:0:0:
244,148,67969,5,0,0:0:0:0:
396,64,68053,2,0,L|504:84,1,90
136,92,68221,5,0,0:0:0:0:
384,168,68306,2,0,L|492:188,1,90
196,320,68476,2,0,P|176:248|180:204,1,90
228,116,68644,6,0,L|180:316,1,153.000002918243
104,376,68811,6,0,P|92:296|72:212,1,161.999995056153
24,40,68978,6,0,B|120:-4|120:-4|232:12,1,170.999995433807
432,316,69144,6,0,P|352:360|348:232,1,270
470,146,69319,6,0,P|410:166|362:166,1,90
228,116,69484,1,0,0:0:0:0:
344,24,69566,1,0,0:0:0:0:
278,242,69649,6,0,P|236:259|192:264,1,90
28,32,69813,2,0,P|72:36|113:54,1,90
112,304,69981,5,0,0:0:0:0:
40,156,70062,1,0,0:0:0:0:
239,26,70144,2,0,L|223:154,1,90
292,256,70307,6,0,P|338:258|398:282,1,90
500,380,70470,2,0,L|516:260,1,90
344,24,70632,5,0,0:0:0:0:
512,192,70713,2,0,P|464:196|404:220,1,90
304,267,70874,5,0,0:0:0:0:
116,160,70955,2,0,L|136:44,1,90
244,336,71116,2,0,P|196:360|128:352,1,90
336,136,71276,6,0,P|436:168|424:220,1,153.000002918243
204,224,71436,6,0,B|227:189|221:147|221:147|216:102|239:69,1,161.999995056153,0|0,2:0|0:0,0:0:0:0:
431,351,71596,6,0,B|343:339|343:339|291:243,1,170.999995433807
115,159,71755,2,0,B|20:108|20:108|68:268,1,270
124,380,71924,5,0,0:0:0:0:
168,380,72003,1,0,0:0:0:0:
208,360,72082,1,0,0:0:0:0:
234,324,72161,1,0,0:0:0:0:
241,280,72240,1,0,0:0:0:0:
272,28,72397,5,0,0:0:0:0:
296,65,72475,1,0,0:0:0:0:
331,93,72554,1,0,0:0:0:0:
372,110,72632,1,0,0:0:0:0:
417,112,72711,1,0,0:0:0:0:
452,328,72867,5,0,0:0:0:0:
403,352,72945,1,0,0:0:0:0:
354,329,73023,1,0,0:0:0:0:
342,276,73100,1,0,0:0:0:0:
376,234,73178,1,0,0:0:0:0:
108,68,73333,5,0,0:0:0:0:
117,123,73410,1,0,0:0:0:0:
126,178,73488,1,0,0:0:0:0:
135,234,73565,1,0,0:0:0:0:
144,289,73643,1,0,0:0:0:0:
472,120,73796,5,0,0:0:0:0:
428,152,73872,1,0,0:0:0:0:
376,132,73949,1,0,0:0:0:0:
320,160,74025,1,0,0:0:0:0:
256,144,74102,1,0,0:0:0:0:
4,288,74255,5,0,0:0:0:0:
56,316,74331,1,0,0:0:0:0:
120,296,74407,1,0,0:0:0:0:
188,308,74483,1,0,0:0:0:0:
248,348,74559,1,0,0:0:0:0:
336,32,74710,5,0,0:0:0:0:
332,33,74785,1,0,0:0:0:0:
328,34,74861,1,0,0:0:0:0:
325,35,74936,1,0,0:0:0:0:
321,37,75012,1,0,0:0:0:0:
318,38,75087,1,0,0:0:0:0:
314,39,75162,1,0,0:0:0:0:
311,40,75237,1,0,0:0:0:0:
312,40,75312,2,0,B|241:46|201:6|201:6|261:66|237:118|237:118|213:118|213:118|241:150|232:172|232:172|120:232|156:316|141:366|248:348|268:296|268:296|292:328|340:332,1,697.5
372,248,77712,6,0,L|312:260,3,45
464,232,78012,2,0,L|448:296,1,45
400,160,78162,2,0,L|410:116,1,45
388,24,78312,6,0,L|460:16,3,45
300,84,78612,1,0,0:0:0:0:
277,80,78687,1,0,0:0:0:0:
255,77,78762,1,0,0:0:0:0:
233,74,78837,1,0,0:0:0:0:
210,71,78912,6,0,L|228:152,3,45
72,244,79212,1,0,0:0:0:0:
78,222,79287,1,0,0:0:0:0:
84,200,79362,1,0,0:0:0:0:
90,179,79437,1,0,0:0:0:0:
97,157,79512,5,0,0:0:0:0:
117,166,79587,1,0,0:0:0:0:
135,179,79662,1,0,0:0:0:0:
151,194,79737,1,0,0:0:0:0:
165,213,79812,1,0,0:0:0:0:
174,233,79887,1,0,0:0:0:0:
181,254,79962,1,0,0:0:0:0:
183,277,80037,1,0,0:0:0:0:
182,299,80112,1,0,0:0:0:0:
256,192,80187,12,0,81762,0:0:0:0:
400,68,82032,6,0,P|424:108|412:176,1,90
284,316,82272,1,0,0:0:0:0:
263,209,82392,2,0,B|308:200|345:226|345:226|388:263|443:254,1,180
196,292,82752,6,0,L|201:278,1,14.625,0|0,0:0|2:0,0:0:0:0:
112,80,83952,5,0,0:0:0:0:
0,160,84072,2,0,P|0:212|32:264,1,90
200,278,84312,2,0,P|208:222|92:198,1,180
64,313,84672,6,0,B|63:314|65:315|65:315|65:313,1,5.625
172,360,85152,6,0,B|218:364|218:364|271:342,1,90
304,169,85392,1,0,0:0:0:0:
440,288,85512,6,0,B|403:264|403:264|357:260,1,90
364,384,85752,1,0,0:0:0:0:
502,230,85872,2,0,L|512:320,1,90
400,172,86112,1,0,0:0:0:0:
224,144,86232,2,0,B|272:148|328:108|328:108|304:136|304:172,1,180
304,188,86592,6,0,L|307:202,1,14.625
172,360,87792,5,0,0:0:0:0:
42,223,87912,2,0,P|97:231|146:256,1,90
179,58,88152,2,0,P|90:73|138:145,1,180
192,184,88512,6,0,B|193:185|195:185|195:185|193:186,1,5.625
248,288,88992,5,0,0:0:0:0:
357,260,89112,1,0,0:0:0:0:
447,324,89232,1,0,0:0:0:0:
508,172,89352,5,0,0:0:0:0:
376,244,89472,1,0,0:0:0:0:
248,112,89592,1,0,0:0:0:0:
476,248,89712,5,0,0:0:0:0:
256,192,89742,12,0,91632,2:0:0:0:
140,248,92112,6,0,B|168:228|203:226|203:226|168:228|140:248,1,135.000005149842
64,320,92832,1,0,0:0:0:0:
24,192,93072,2,0,P|24:136|28:104,1,67.5000025749208
148,56,93552,6,0,L|200:64,1,45
336,44,94512,2,0,L|328:92,1,45
276,188,95472,2,0,P|284:232|304:272,1,90
376,312,96912,1,0,0:0:0:0:
264,360,97392,6,0,P|204:344|168:344,1,90
64,364,98832,1,0,0:0:0:0:
120,272,99312,2,0,B|128:228|128:228|120:272,1,90
48,200,100752,1,0,0:0:0:0:
112,120,101232,6,0,P|160:124|204:148,1,90
296,112,102672,1,0,0:0:0:0:
248,208,103152,2,0,L|260:272,1,45
376,312,104112,2,0,L|384:267,1,45
448,180,105072,6,0,B|396:148|396:148|320:176,1,135
240,88,106992,6,0,L|300:96,1,53.9999983520508
208,180,107952,6,0,L|160:184,1,36,0|0,0:0|2:0,0:0:0:0:
24,180,108432,6,0,P|36:206|51:244,1,60.7499981460572
216,312,108912,6,0,P|180:344|80:344,1,135.000005149842
220,168,109152,1,0,0:0:0:0:
340,340,109272,1,0,0:0:0:0:
132,256,109392,6,0,B|112:176|112:176|120:104,1,135.000005149842
300,140,109632,2,0,B|328:164|328:164|187:181,1,135.000005149842
36,68,109872,5,0,0:0:0:0:
140,20,109992,1,0,0:0:0:0:
244,68,110112,2,0,B|296:56|296:56|320:60|320:60|376:48,1,135.000005149842
489,336,110352,5,0,0:0:0:0:
395,366,110472,1,0,0:0:0:0:
305,324,110592,1,0,0:0:0:0:
267,233,110712,1,0,0:0:0:0:
300,140,110832,6,0,L|332:144,1,22.5
400,196,111072,2,0,L|422:193,5,22.5
267,233,111792,6,0,B|208:264|208:264|116:252,1,135.000005149842
340,92,112032,2,0,B|407:83|407:83|466:114,1,135.000005149842
184,156,112272,5,0,0:0:0:0:
208,8,112392,1,0,0:0:0:0:
135,236,112512,1,0,0:0:0:0:
80,104,112632,1,0,0:0:0:0:
16,340,112752,6,0,P|72:344|148:376,1,135.000005149842
267,233,112992,2,0,P|376:244|384:164,1,202.500007724762
340,92,113232,5,0,0:0:0:0:
472,268,113352,1,0,0:0:0:0:
267,233,113472,2,0,B|212:228|212:228|188:240|188:240|135:236,1,135.000005149842
36,32,113712,5,0,0:0:0:0:
168,160,113832,1,0,0:0:0:0:
16,260,113952,2,0,P|24:188|76:132,1,135.000005149842
325,183,114192,5,0,0:3:0:0:
135,236,114312,1,0,0:3:0:0:
256,81,114432,2,0,L|248:245,1,135.000005149842,0|0,0:3|0:3,0:3:0:0:
400,336,114672,5,0,0:0:0:0:
336,188,114792,1,0,0:0:0:0:
332,372,114912,5,0,0:0:0:0:
408,148,115032,1,0,0:0:0:0:
408,352,115152,5,0,0:0:0:0:
312,96,115272,1,0,0:0:0:0:
472,268,115392,5,0,0:0:0:0:
168,160,115512,1,0,0:0:0:0:
260,300,115632,6,0,P|258:322|251:343,1,45
16,260,116592,6,0,B|72:244|72:244|144:280,1,135.000005149842
264,224,116832,1,0,0:0:0:0:
60,360,116952,1,0,0:0:0:0:
152,44,117072,6,0,L|164:188,1,135.000005149842
360,264,117312,2,0,B|364:198|364:198|323:122,1,135.000005149842
140,278,117552,5,0,3:0:0:0:
221,367,117672,1,0,3:0:0:0:
341,376,117792,2,0,P|407:368|457:324,1,135.000005149842,0|0,3:0|3:0,3:0:0:0:
400,80,118032,5,0,0:0:0:0:
312,132,118152,1,0,0:0:0:0:
480,116,118272,2,0,P|482:50|438:1,1,135.000005149842
288,32,118512,6,0,L|292:56,3,22.5
208,124,118992,2,0,L|204:146,3,22.5
44,32,119472,5,0,0:0:0:0:
120,232,119592,1,0,0:0:0:0:
208,124,119712,2,0,L|56:136,1,135.000005149842
304,264,119952,5,0,0:0:0:0:
112,220,120072,1,0,0:0:0:0:
184,384,120192,2,0,P|200:328|208:232,1,135.000005149842
200,116,120432,37,0,0:0:0:0:
396,252,120552,1,0,0:0:0:0:
64,304,120672,1,0,0:0:0:0:
276,172,120792,1,0,0:0:0:0:
376,372,120912,102,0,L|392:224,1,135.000005149842
460,20,121152,2,0,L|474:154,1,135.000005149842
304,264,121392,69,0,0:0:0:0:
504,292,121512,1,0,0:0:0:0:
308,60,121632,1,0,0:0:0:0:
108,128,121752,1,0,0:0:0:0:
276,172,121872,6,0,P|364:164|408:120,1,135.000005149842
40,52,122112,2,0,B|4:104|4:104|32:212,1,135.000005149842
64,304,122352,5,0,0:0:0:0:
200,116,122472,1,0,0:0:0:0:
196,360,122592,5,0,0:0:0:0:
108,128,122712,1,0,0:0:0:0:
304,264,122832,5,0,0:0:0:0:
380,12,122952,1,0,0:0:0:0:
116,232,123072,5,0,0:0:0:0:
492,160,123192,1,0,0:0:0:0:
296,308,123312,6,0,L|304:260,1,45
256,192,124272,5,0,0:0:0:0:
256,192,124279,12,0,131951,2:0:0:0:
