osu file format v14

[General]
AudioFilename: audio.mp3
AudioLeadIn: 0
PreviewTime: 41413
Countdown: 0
SampleSet: Soft
StackLeniency: 0.7
Mode: 2
LetterboxInBreaks: 0
WidescreenStoryboard: 0

[Editor]
DistanceSpacing: 1.6
BeatDivisor: 1
GridSize: 32
TimelineZoom: 8

[Metadata]
Title:Aleph-0
TitleUnicode:ℵ0
Artist:LeaF
ArtistUnicode:LeaF
Creator:Pltilt
Version:Alpha
Source:BOFU2016
Tags:BOFU2016 - Legendary Again - Aleph-naught Aleph zero Aleph-null
BeatmapID:1693120
BeatmapSetID:806618

[Difficulty]
HPDrainRate:3
CircleSize:4
OverallDifficulty:6
ApproachRate:9.9
SliderMultiplier:1.6
SliderTickRate:1

[Events]
//Background and Video events
0,0,"aleph0bg.jpg",0,0
//Break Periods
2,7865,8635
2,75512,77247
2,89912,91167
2,91832,93087
2,101432,108447
//Storyboard Layer 0 (Background)
//Storyboard Layer 1 (Fail)
//Storyboard Layer 2 (Pass)
//Storyboard Layer 3 (Foreground)
//Storyboard Sound Samples

[TimingPoints]
-100000000,100000000000,5,2,1,5,1,0
6720,-100,5,2,1,70,0,0
9100,240,5,2,1,70,1,0
11500,240,4,2,1,70,1,0
18220,960,4,2,1,70,1,0
18220,-25,4,2,1,70,0,0
19180,240,4,2,1,70,1,0
26860,857.142857142857,4,2,1,70,1,0
33708,857.142857142857,4,2,1,70,1,0
34136,428.571428571429,4,2,1,70,1,0
34564,857.142857142857,4,2,1,70,1,0
34992,428.571428571429,4,2,1,70,1,0
35420,857.142857142857,4,2,1,70,1,0
35848,428.571428571429,4,2,1,70,1,0
36276,857.142857142857,4,2,1,70,1,0
36704,428.571428571429,4,2,1,70,1,0
37132,857.142857142857,4,2,1,70,1,0
37560,428.571428571429,4,2,1,70,1,0
37988,857.142857142857,4,2,1,70,1,0
38416,428.571428571429,4,2,1,70,1,0
38844,857.142857142857,4,2,1,70,1,0
39272,428.571428571429,4,2,1,70,1,0
39700,857.142857142857,4,2,1,70,1,0
40128,428.571428571429,3,2,1,70,1,0
41413,100000000000,5,2,1,70,1,0
42133,100000000000,5,2,1,70,1,0
42148,100000000000,5,2,1,70,1,0
42163,100000000000,5,2,1,70,1,0
42178,100000000000,5,2,1,70,1,0
42193,100000000000,5,2,1,70,1,0
42208,100000000000,5,2,1,70,1,0
42223,100000000000,5,2,1,70,1,0
42238,100000000000,5,2,1,70,1,0
42253,100000000000,5,2,1,70,1,0
42268,100000000000,5,2,1,70,1,0
42283,100000000000,5,2,1,70,1,0
42298,100000000000,5,2,1,70,1,0
42313,100000000000,5,2,1,70,1,0
42328,100000000000,5,2,1,70,1,0
42343,100000000000,5,2,1,70,1,0
42358,100000000000,5,2,1,70,1,0
42373,100000000000,5,2,1,70,1,0
42388,100000000000,5,2,1,70,1,0
42403,100000000000,5,2,1,70,1,0
42418,100000000000,5,2,1,70,1,0
42433,100000000000,5,2,1,70,1,0
42448,100000000000,5,2,1,70,1,0
42463,100000000000,5,2,1,70,1,0
42478,100000000000,5,2,1,70,1,0
42493,100000000000,5,2,1,70,1,0
42508,100000000000,5,2,1,70,1,0
42523,100000000000,5,2,1,70,1,0
42538,100000000000,5,2,1,70,1,0
42553,100000000000,5,2,1,70,1,0
42568,100000000000,5,2,1,70,1,0
42583,100000000000,5,2,1,70,1,0
42598,100000000000,5,2,1,70,1,0
42853,100000000000,5,2,1,70,1,0
42868,100000000000,5,2,1,70,1,0
42883,100000000000,5,2,1,70,1,0
42898,100000000000,5,2,1,70,1,0
42913,100000000000,5,2,1,70,1,0
42928,100000000000,5,2,1,70,1,0
42943,100000000000,5,2,1,70,1,0
42958,100000000000,5,2,1,70,1,0
42973,100000000000,5,2,1,70,1,0
42988,100000000000,5,2,1,70,1,0
43003,100000000000,5,2,1,70,1,0
43018,100000000000,5,2,1,70,1,0
43033,100000000000,5,2,1,70,1,0
43048,100000000000,5,2,1,70,1,0
43063,100000000000,5,2,1,70,1,0
43078,100000000000,5,2,1,70,1,0
45884,-240,4,2,1,70,1,0
47053,240,4,2,1,70,1,0
47084,240,4,2,1,70,1,1
47319,239.043824701195,4,2,1,70,1,1
47558,238.095238095238,4,2,1,70,1,1
47796,237.154150197628,4,2,1,70,1,1
48033,236.220472440945,4,2,1,70,1,1
48269,235.294117647059,4,2,1,70,1,1
48504,234.375,4,2,1,70,1,1
48738,233.463035019455,4,2,1,70,1,1
48971,232.558139534884,4,2,1,70,1,1
49203,231.660231660232,4,2,1,70,1,1
49434,230.769230769231,4,2,1,70,1,1
49664,229.885057471264,4,2,1,70,1,1
49893,229.007633587786,4,2,1,70,1,1
50122,228.136882129278,4,2,1,70,1,1
50350,227.272727272727,4,2,1,70,1,1
50577,226.415094339623,4,2,1,70,1,1
50804,225.563909774436,4,2,1,70,1,1
51029,224.719101123595,4,2,1,70,1,1
51253,223.880597014925,4,2,1,70,1,1
51476,223.048327137546,4,2,1,70,1,1
51699,222.222222222222,4,2,1,70,1,1
51921,221.40221402214,4,2,1,70,1,1
52142,220.588235294118,4,2,1,70,1,1
52362,219.78021978022,4,2,1,70,1,1
52581,218.978102189781,4,2,1,70,1,1
52799,218.181818181818,4,2,1,70,1,1
53017,217.391304347826,4,2,1,70,1,1
53234,216.606498194946,4,2,1,70,1,1
53450,215.827338129496,4,2,1,70,1,1
53665,215.05376344086,4,2,1,70,1,1
53880,214.285714285714,4,2,1,70,1,1
54094,213.523131672598,4,2,1,70,1,1
54309,212.765957446809,4,2,1,70,1,1
54521,212.014134275618,4,2,1,70,1,1
54733,211.267605633803,4,2,1,70,1,1
54944,210.526315789474,4,2,1,70,1,1
55154,209.79020979021,4,2,1,70,1,1
55363,209.059233449477,4,2,1,70,1,1
55572,208.333333333333,4,2,1,70,1,1
55780,207.612456747405,4,2,1,70,1,1
55987,206.896551724138,4,2,1,70,1,1
56193,206.185567010309,4,2,1,70,1,1
56399,205.479452054795,4,2,1,70,1,1
56604,204.778156996587,4,2,1,70,1,1
56809,204.081632653061,4,2,1,70,1,1
57013,203.389830508475,4,2,1,70,1,1
57216,202.702702702703,4,2,1,70,1,1
57418,202.020202020202,4,2,1,70,1,1
57622,201.342281879195,4,2,1,70,1,1
57823,200.66889632107,4,2,1,70,1,1
58023,200,4,2,1,70,1,1
58223,199.335548172757,4,2,1,70,1,1
58422,198.675496688742,4,2,1,70,1,1
58620,198.019801980198,4,2,1,70,1,1
58818,197.368421052632,4,2,1,70,1,1
59015,196.72131147541,4,2,1,70,1,1
59212,196.078431372549,4,2,1,70,1,1
59408,195.439739413681,4,2,1,70,1,1
59603,194.805194805195,4,2,1,70,1,1
59797,194.174757281553,4,2,1,70,1,1
59991,193.548387096774,4,2,1,70,1,1
60184,192.926045016077,4,2,1,70,1,1
60376,192.307692307692,4,2,1,70,1,1
60568,191.693290734824,4,2,1,70,1,1
60761,191.082802547771,4,2,1,70,1,1
60952,190.47619047619,4,2,1,70,1,1
61142,189.873417721519,4,2,1,70,1,1
61333,189.274447949527,4,2,1,70,1,1
61522,188.679245283019,4,2,1,70,1,1
61710,188.087774294671,4,2,1,70,1,1
61898,187.5,4,2,1,70,1,1
62085,186.915887850467,4,2,1,70,1,1
62273,186.335403726708,4,2,1,70,1,1
62459,185.758513931889,4,2,1,70,1,1
62644,185.185185185185,4,2,1,70,1,1
62829,184.615384615385,4,2,1,70,1,1
63015,184.049079754601,4,2,1,70,1,1
63199,183.48623853211,4,2,1,70,1,1
63382,182.926829268293,4,2,1,70,1,1
63564,182.370820668693,4,2,1,70,1,1
63753,181.818181818182,4,2,1,70,1,1
63934,181.268882175227,4,2,1,70,1,1
64115,180.722891566265,4,2,1,70,1,1
64295,180.18018018018,4,2,1,70,1,1
64475,179.640718562874,4,2,1,70,1,1
64654,179.10447761194,4,2,1,70,1,1
64833,178.571428571429,4,2,1,70,1,1
65011,178.041543026706,4,2,1,70,1,1
65193,177.514792899408,4,2,1,70,1,1
65370,176.991150442478,4,2,1,70,1,1
65546,176.470588235294,4,2,1,70,1,1
65722,175.953079178886,4,2,1,70,1,1
65897,175.438596491228,4,2,1,70,1,1
66072,174.927113702624,4,2,1,70,1,1
66246,174.418604651163,4,2,1,70,1,1
66420,173.913043478261,4,2,1,70,1,1
66595,173.410404624277,4,2,1,70,1,1
66768,172.910662824207,4,2,1,70,1,1
66940,172.413793103448,4,2,1,70,1,1
67112,171.919770773639,4,2,1,70,1,1
67283,171.428571428571,4,2,1,70,1,1
67454,170.940170940171,4,2,1,70,1,1
67624,170.454545454545,4,2,1,70,1,1
67794,169.971671388102,4,2,1,70,1,1
67969,169.491525423729,4,2,1,70,1,1
68137,169.014084507042,4,2,1,70,1,1
68306,168.539325842697,4,2,1,70,1,1
68476,168.067226890756,4,2,1,70,1,1
68644,167.597765363129,4,2,1,70,1,1
68811,167.130919220056,4,2,1,70,1,1
68978,166.666666666667,4,2,1,70,1,1
69144,166.204986149584,4,2,1,70,1,1
69319,165.745856353591,4,2,1,70,1,1
69484,165.289256198347,4,2,1,70,1,1
69649,164.835164835165,4,2,1,70,1,1
69813,164.383561643836,4,2,1,70,1,1
69981,163.934426229508,4,2,1,70,1,1
70144,163.487738419619,4,2,1,70,1,1
70307,163.04347826087,4,2,1,70,1,1
70470,162.60162601626,4,2,1,70,1,1
70632,162.162162162162,4,2,1,70,1,1
70794,161.725067385445,4,2,1,70,1,1
70955,161.290322580645,4,2,1,70,1,1
71116,160.857908847185,4,2,1,70,1,1
71276,160.427807486631,4,2,1,70,1,1
71436,160,4,2,1,70,1,1
71596,159.574468085106,4,2,1,70,1,1
71755,159.151193633952,4,2,1,70,1,1
71924,158.730158730159,3,2,1,70,1,1
72082,158.311345646438,3,2,1,70,1,1
72240,157.894736842105,3,2,1,70,1,1
72397,157.48031496063,3,2,1,70,1,1
72554,157.068062827225,3,2,1,70,1,1
72711,156.657963446475,3,2,1,70,1,1
72867,156.25,3,2,1,70,1,1
73023,155.844155844156,3,2,1,70,1,1
73178,155.440414507772,3,2,1,70,1,1
73333,155.038759689922,3,2,1,70,1,1
73488,154.639175257732,3,2,1,70,1,1
73642,154.241645244216,3,2,1,70,1,1
73796,153.846153846154,3,2,1,70,1,1
73949,153.452685421995,3,2,1,70,1,1
74102,153.061224489796,3,2,1,70,1,1
74255,152.671755725191,3,2,1,70,1,1
74407,152.284263959391,3,2,1,70,1,1
74559,151.898734177215,3,2,1,70,1,1
74710,151.515151515152,3,2,1,70,1,1
74861,151.133501259446,3,2,1,70,1,1
75012,150.753768844221,3,2,1,70,1,1
75162,150.375939849624,3,2,1,70,1,1
75312,-150,8,2,1,70,1,0
77712,150,8,1,0,70,1,0
77712,-25,8,1,0,70,0,0
80112,-300,8,2,1,70,1,0
82032,240,4,2,1,70,1,0
82752,100000000000,4,2,1,70,1,0
83952,240,4,2,1,70,1,0
84672,100000000000,4,2,1,70,1,0
85152,240,4,2,1,70,1,0
86592,100000000000,4,2,1,70,1,0
87552,240,4,2,1,70,1,0
88512,100000000000,4,2,1,70,1,0
88992,240,4,2,1,70,1,0
93552,240,4,2,1,70,1,0
108912,120,1,1,0,100,1,0
110832,240,4,2,1,70,1,0
111792,120,1,1,0,100,1,0
115632,240,4,2,1,70,1,0
116592,120,1,1,0,100,1,0
118512,240,4,2,1,70,1,0
119472,120,1,1,0,100,1,0
123312,240,4,2,1,70,1,0
124272,2.4,1,2,1,0,1,0
124272,-1000000,4,2,1,0,0,0
124274,2.4,1,2,1,0,1,0
124276,2.4,1,2,1,0,1,0
124278,2.4,1,2,1,0,1,0
124280,2.4,1,2,1,0,1,0
124282,2.4,1,2,1,0,1,0
124284,2.4,1,2,1,0,1,0
124286,2.4,1,2,1,0,1,0
124288,2.4,1,2,1,0,1,0
124290,2.4,1,2,1,0,1,0
124292,2.4,1,2,1,0,1,0
124294,2.4,1,2,1,0,1,0
124296,2.4,1,2,1,0,1,0
124298,2.4,1,2,1,0,1,0
124300,2.4,1,2,1,0,1,0
124302,2.4,1,2,1,0,1,0
124304,2.4,1,2,1,0,1,0
124306,2.4,1,2,1,0,1,0
124308,2.4,1,2,1,0,1,0
124310,2.4,1,2,1,0,1,0
124312,2.4,1,2,1,0,1,0
124314,2.4,1,2,1,0,1,0
124316,2.4,1,2,1,0,1,0
124318,2.4,1,2,1,0,1,0
124320,2.4,1,2,1,0,1,0
124322,2.4,1,2,1,0,1,0
124324,2.4,1,2,1,0,1,0
124326,2.4,1,2,1,0,1,0
124328,2.4,1,2,1,0,1,0
124330,2.4,1,2,1,0,1,0
124332,2.4,1,2,1,0,1,0
124334,2.4,1,2,1,0,1,0
124336,2.4,1,2,1,0,1,0
124338,2.4,1,2,1,0,1,0
124340,2.4,1,2,1,0,1,0
124342,2.4,1,2,1,0,1,0
124344,2.4,1,2,1,0,1,0
124346,2.4,1,2,1,0,1,0
124348,2.4,1,2,1,0,1,0
124350,2.4,1,2,1,0,1,0
124350,2.4,1,2,1,0,1,0
124352,2.4,1,2,1,0,1,0
124354,2.4,1,2,1,0,1,0
124356,2.4,1,2,1,0,1,0
124358,2.4,1,2,1,0,1,0
124360,2.4,1,2,1,0,1,0
124362,2.4,1,2,1,0,1,0
124364,2.4,1,2,1,0,1,0
124366,2.4,1,2,1,0,1,0
124368,2.4,1,2,1,0,1,0
124370,2.4,1,2,1,0,1,0
124372,2.4,1,2,1,0,1,0
124374,2.4,1,2,1,0,1,0
124376,2.4,1,2,1,0,1,0
124378,2.4,1,2,1,0,1,0
124380,2.4,1,2,1,0,1,0
124382,2.4,1,2,1,0,1,0
124384,2.4,1,2,1,0,1,0
124386,2.4,1,2,1,0,1,0
124388,2.4,1,2,1,0,1,0
124390,2.4,1,2,1,0,1,0
124392,2.4,1,2,1,0,1,0
124394,2.4,1,2,1,0,1,0
124396,2.4,1,2,1,0,1,0
124398,2.4,1,2,1,0,1,0
124400,2.4,1,2,1,0,1,0
124402,2.4,1,2,1,0,1,0
124404,2.4,1,2,1,0,1,0
124406,2.4,1,2,1,0,1,0
124408,2.4,1,2,1,0,1,0
124410,2.4,1,2,1,0,1,0
124412,2.4,1,2,1,0,1,0
124414,2.4,1,2,1,0,1,0
124416,2.4,1,2,1,0,1,0
124418,2.4,1,2,1,0,1,0
124420,2.4,1,2,1,0,1,0
124422,2.4,1,2,1,0,1,0
124424,2.4,1,2,1,0,1,0
124426,2.4,1,2,1,0,1,0
124426,2.4,1,2,1,0,1,0
124428,2.4,1,2,1,0,1,0
124430,2.4,1,2,1,0,1,0
124432,2.4,1,2,1,0,1,0
124434,2.4,1,2,1,0,1,0
124436,2.4,1,2,1,0,1,0
124438,2.4,1,2,1,0,1,0
124440,2.4,1,2,1,0,1,0
124442,2.4,1,2,1,0,1,0
124444,2.4,1,2,1,0,1,0
124446,2.4,1,2,1,0,1,0
124448,2.4,1,2,1,0,1,0
124450,2.4,1,2,1,0,1,0
124452,2.4,1,2,1,0,1,0
124454,2.4,1,2,1,0,1,0
124456,2.4,1,2,1,0,1,0
124458,2.4,1,2,1,0,1,0
124460,2.4,1,2,1,0,1,0
124462,2.4,1,2,1,0,1,0
124464,2.4,1,2,1,0,1,0
124466,2.4,1,2,1,0,1,0
124468,2.4,1,2,1,0,1,0
124470,2.4,1,2,1,0,1,0
124472,2.4,1,2,1,0,1,0
124474,2.4,1,2,1,0,1,0
124476,2.4,1,2,1,0,1,0
124478,2.4,1,2,1,0,1,0
124480,2.4,1,2,1,0,1,0
124482,2.4,1,2,1,0,1,0
124484,2.4,1,2,1,0,1,0
124486,2.4,1,2,1,0,1,0
124488,2.4,1,2,1,0,1,0
124490,2.4,1,2,1,0,1,0
124492,2.4,1,2,1,0,1,0
124494,2.4,1,2,1,0,1,0
124496,2.4,1,2,1,0,1,0
124498,2.4,1,2,1,0,1,0
124499,2.4,1,2,1,0,1,0
124500,2.4,1,2,1,0,1,0
124501,2.4,1,2,1,0,1,0
124502,2.4,1,2,1,0,1,0
124503,2.4,1,2,1,0,1,0
124505,2.4,1,2,1,0,1,0
124507,2.4,1,2,1,0,1,0
124509,2.4,1,2,1,0,1,0
124511,2.4,1,2,1,0,1,0
124513,2.4,1,2,1,0,1,0
124515,2.4,1,2,1,0,1,0
124517,2.4,1,2,1,0,1,0
124519,2.4,1,2,1,0,1,0
124521,2.4,1,2,1,0,1,0
124523,2.4,1,2,1,0,1,0
124525,2.4,1,2,1,0,1,0
124527,2.4,1,2,1,0,1,0
124529,2.4,1,2,1,0,1,0
124531,2.4,1,2,1,0,1,0
124533,2.4,1,2,1,0,1,0
124535,2.4,1,2,1,0,1,0
124537,2.4,1,2,1,0,1,0
124539,2.4,1,2,1,0,1,0
124541,2.4,1,2,1,0,1,0
124543,2.4,1,2,1,0,1,0
124545,2.4,1,2,1,0,1,0
124547,2.4,1,2,1,0,1,0
124549,2.4,1,2,1,0,1,0
124551,2.4,1,2,1,0,1,0
124553,2.4,1,2,1,0,1,0
124555,2.4,1,2,1,0,1,0
124557,2.4,1,2,1,0,1,0
124559,2.4,1,2,1,0,1,0
124561,2.4,1,2,1,0,1,0
124563,2.4,1,2,1,0,1,0
124565,2.4,1,2,1,0,1,0
124567,2.4,1,2,1,0,1,0
124569,2.4,1,2,1,0,1,0
124571,2.4,1,2,1,0,1,0
124573,2.4,1,2,1,0,1,0
124575,2.4,1,2,1,0,1,0
124719,2.4,1,2,1,0,1,0
124721,2.4,1,2,1,0,1,0
124723,2.4,1,2,1,0,1,0
124725,2.4,1,2,1,0,1,0
124727,2.4,1,2,1,0,1,0
124729,2.4,1,2,1,0,1,0
124731,2.4,1,2,1,0,1,0
124731,2.4,1,2,1,0,1,0
124733,2.4,1,2,1,0,1,0
124733,2.4,1,2,1,0,1,0
124735,2.4,1,2,1,0,1,0
124735,2.4,1,2,1,0,1,0
124737,2.4,1,2,1,0,1,0
124737,2.4,1,2,1,0,1,0
124739,2.4,1,2,1,0,1,0
124739,2.4,1,2,1,0,1,0
124741,2.4,1,2,1,0,1,0
124741,2.4,1,2,1,0,1,0
124743,2.4,1,2,1,0,1,0
124743,2.4,1,2,1,0,1,0
124745,2.4,1,2,1,0,1,0
124745,2.4,1,2,1,0,1,0
124747,2.4,1,2,1,0,1,0
124747,2.4,1,2,1,0,1,0
124749,2.4,1,2,1,0,1,0
124749,2.4,1,2,1,0,1,0
124751,2.4,1,2,1,0,1,0
124751,2.4,1,2,1,0,1,0
124753,2.4,1,2,1,0,1,0
124753,2.4,1,2,1,0,1,0
124755,2.4,1,2,1,0,1,0
124755,2.4,1,2,1,0,1,0
124757,2.4,1,2,1,0,1,0
124757,2.4,1,2,1,0,1,0
124759,2.4,1,2,1,0,1,0
124759,2.4,1,2,1,0,1,0
124761,2.4,1,2,1,0,1,0
124761,2.4,1,2,1,0,1,0
124763,2.4,1,2,1,0,1,0
124763,2.4,1,2,1,0,1,0
124765,2.4,1,2,1,0,1,0
124765,2.4,1,2,1,0,1,0
124767,2.4,1,2,1,0,1,0
124767,2.4,1,2,1,0,1,0
124769,2.4,1,2,1,0,1,0
124769,2.4,1,2,1,0,1,0
124771,2.4,1,2,1,0,1,0
124771,2.4,1,2,1,0,1,0
124773,2.4,1,2,1,0,1,0
124773,2.4,1,2,1,0,1,0
124775,2.4,1,2,1,0,1,0
124775,2.4,1,2,1,0,1,0
124777,2.4,1,2,1,0,1,0
124777,2.4,1,2,1,0,1,0
124779,2.4,1,2,1,0,1,0
124779,2.4,1,2,1,0,1,0
124781,2.4,1,2,1,0,1,0
124781,2.4,1,2,1,0,1,0
124783,2.4,1,2,1,0,1,0
124783,2.4,1,2,1,0,1,0
124785,2.4,1,2,1,0,1,0
124785,2.4,1,2,1,0,1,0
124787,2.4,1,2,1,0,1,0
124787,2.4,1,2,1,0,1,0
124789,2.4,1,2,1,0,1,0
124789,2.4,1,2,1,0,1,0
124791,2.4,1,2,1,0,1,0
124791,2.4,1,2,1,0,1,0
124793,2.4,1,2,1,0,1,0
124793,2.4,1,2,1,0,1,0
124795,2.4,1,2,1,0,1,0
124795,2.4,1,2,1,0,1,0
124797,2.4,1,2,1,0,1,0
124799,2.4,1,2,1,0,1,0
124801,2.4,1,2,1,0,1,0
124803,2.4,1,2,1,0,1,0
124805,2.4,1,2,1,0,1,0
124807,2.4,1,2,1,0,1,0
124850,2.4,1,2,1,0,1,0
124852,2.4,1,2,1,0,1,0
124854,2.4,1,2,1,0,1,0
124856,2.4,1,2,1,0,1,0
124858,2.4,1,2,1,0,1,0
124860,2.4,1,2,1,0,1,0
124862,2.4,1,2,1,0,1,0
124864,2.4,1,2,1,0,1,0
124866,2.4,1,2,1,0,1,0
124868,2.4,1,2,1,0,1,0
124870,2.4,1,2,1,0,1,0
124872,2.4,1,2,1,0,1,0
124874,2.4,1,2,1,0,1,0
124876,2.4,1,2,1,0,1,0
124877,2.4,1,2,1,0,1,0
124878,2.4,1,2,1,0,1,0
124879,2.4,1,2,1,0,1,0
124880,2.4,1,2,1,0,1,0
124881,2.4,1,2,1,0,1,0
124882,2.4,1,2,1,0,1,0
124883,2.4,1,2,1,0,1,0
124884,2.4,1,2,1,0,1,0
124885,2.4,1,2,1,0,1,0
124886,2.4,1,2,1,0,1,0
124887,2.4,1,2,1,0,1,0
124888,2.4,1,2,1,0,1,0
124889,2.4,1,2,1,0,1,0
124890,2.4,1,2,1,0,1,0
124891,2.4,1,2,1,0,1,0
124892,2.4,1,2,1,0,1,0
124893,2.4,1,2,1,0,1,0
124894,2.4,1,2,1,0,1,0
124895,2.4,1,2,1,0,1,0
124896,2.4,1,2,1,0,1,0
124897,2.4,1,2,1,0,1,0
124898,2.4,1,2,1,0,1,0
124899,2.4,1,2,1,0,1,0
124900,2.4,1,2,1,0,1,0
124901,2.4,1,2,1,0,1,0
124902,2.4,1,2,1,0,1,0
124903,2.4,1,2,1,0,1,0
124904,2.4,1,2,1,0,1,0
124905,2.4,1,2,1,0,1,0
124906,2.4,1,2,1,0,1,0
124907,2.4,1,2,1,0,1,0
124908,2.4,1,2,1,0,1,0
124909,2.4,1,2,1,0,1,0
124910,2.4,1,2,1,0,1,0
124911,2.4,1,2,1,0,1,0
124912,2.4,1,2,1,0,1,0
124913,2.4,1,2,1,0,1,0
124914,2.4,1,2,1,0,1,0
124915,2.4,1,2,1,0,1,0
124916,2.4,1,2,1,0,1,0
124917,2.4,1,2,1,0,1,0
124918,2.4,1,2,1,0,1,0
124919,2.4,1,2,1,0,1,0
124920,2.4,1,2,1,0,1,0
124921,2.4,1,2,1,0,1,0
124922,2.4,1,2,1,0,1,0
124923,2.4,1,2,1,0,1,0
124924,2.4,1,2,1,0,1,0
124925,2.4,1,2,1,0,1,0
124926,2.4,1,2,1,0,1,0
124927,2.4,1,2,1,0,1,0
124929,2.4,1,2,1,0,1,0
124931,2.4,1,2,1,0,1,0
124933,2.4,1,2,1,0,1,0
124935,2.4,1,2,1,0,1,0
124937,2.4,1,2,1,0,1,0
124939,2.4,1,2,1,0,1,0
124941,2.4,1,2,1,0,1,0
124943,2.4,1,2,1,0,1,0
124945,2.4,1,2,1,0,1,0
124947,2.4,1,2,1,0,1,0
124949,2.4,1,2,1,0,1,0
124951,2.4,1,2,1,0,1,0
124953,2.4,1,2,1,0,1,0
125001,2.4,1,2,1,0,1,0
125003,2.4,1,2,1,0,1,0
125005,2.4,1,2,1,0,1,0
125007,2.4,1,2,1,0,1,0
125009,2.4,1,2,1,0,1,0
125011,2.4,1,2,1,0,1,0
125013,2.4,1,2,1,0,1,0
125015,2.4,1,2,1,0,1,0
125017,2.4,1,2,1,0,1,0
125019,2.4,1,2,1,0,1,0
125021,2.4,1,2,1,0,1,0
125023,2.4,1,2,1,0,1,0
125025,2.4,1,2,1,0,1,0
125027,2.4,1,2,1,0,1,0
125029,2.4,1,2,1,0,1,0
125031,2.4,1,2,1,0,1,0
125033,2.4,1,2,1,0,1,0
125035,2.4,1,2,1,0,1,0
125037,2.4,1,2,1,0,1,0
125039,2.4,1,2,1,0,1,0
125041,2.4,1,2,1,0,1,0
125043,2.4,1,2,1,0,1,0
125045,2.4,1,2,1,0,1,0
125047,2.4,1,2,1,0,1,0
125049,2.4,1,2,1,0,1,0
125051,2.4,1,2,1,0,1,0
125053,2.4,1,2,1,0,1,0
125055,2.4,1,2,1,0,1,0
125057,2.4,1,2,1,0,1,0
125059,2.4,1,2,1,0,1,0
125061,2.4,1,2,1,0,1,0
125063,2.4,1,2,1,0,1,0
125065,2.4,1,2,1,0,1,0
125067,2.4,1,2,1,0,1,0
125069,2.4,1,2,1,0,1,0
125071,2.4,1,2,1,0,1,0
125073,2.4,1,2,1,0,1,0
125075,2.4,1,2,1,0,1,0
125077,2.4,1,2,1,0,1,0
125077,2.4,1,2,1,0,1,0
125079,2.4,1,2,1,0,1,0
125081,2.4,1,2,1,0,1,0
125083,2.4,1,2,1,0,1,0
125085,2.4,1,2,1,0,1,0
125087,2.4,1,2,1,0,1,0
125089,2.4,1,2,1,0,1,0
125091,2.4,1,2,1,0,1,0
125092,2.4,1,2,1,0,1,0
125093,2.4,1,2,1,0,1,0
125094,2.4,1,2,1,0,1,0
125095,2.4,1,2,1,0,1,0
125096,2.4,1,2,1,0,1,0
125097,2.4,1,2,1,0,1,0
125098,2.4,1,2,1,0,1,0
125099,2.4,1,2,1,0,1,0
125100,2.4,1,2,1,0,1,0
125101,2.4,1,2,1,0,1,0
125102,2.4,1,2,1,0,1,0
125103,2.4,1,2,1,0,1,0
125104,2.4,1,2,1,0,1,0
125105,2.4,1,2,1,0,1,0
125106,2.4,1,2,1,0,1,0
125107,2.4,1,2,1,0,1,0
125108,2.4,1,2,1,0,1,0
125109,2.4,1,2,1,0,1,0
125110,2.4,1,2,1,0,1,0
125111,2.4,1,2,1,0,1,0
125112,2.4,1,2,1,0,1,0
125113,2.4,1,2,1,0,1,0
125114,2.4,1,2,1,0,1,0
125115,2.4,1,2,1,0,1,0
125116,2.4,1,2,1,0,1,0
125117,2.4,1,2,1,0,1,0
125118,2.4,1,2,1,0,1,0
125119,2.4,1,2,1,0,1,0
125120,2.4,1,2,1,0,1,0
125121,2.4,1,2,1,0,1,0
125122,2.4,1,2,1,0,1,0
125123,2.4,1,2,1,0,1,0
125124,2.4,1,2,1,0,1,0
125125,2.4,1,2,1,0,1,0
125126,2.4,1,2,1,0,1,0
125127,2.4,1,2,1,0,1,0
125128,2.4,1,2,1,0,1,0
125129,2.4,1,2,1,0,1,0
125130,2.4,1,2,1,0,1,0
125131,2.4,1,2,1,0,1,0
125132,2.4,1,2,1,0,1,0
125133,2.4,1,2,1,0,1,0
125134,2.4,1,2,1,0,1,0
125135,2.4,1,2,1,0,1,0
125136,2.4,1,2,1,0,1,0
125137,2.4,1,2,1,0,1,0
125138,2.4,1,2,1,0,1,0
125139,2.4,1,2,1,0,1,0
125140,2.4,1,2,1,0,1,0
125141,2.4,1,2,1,0,1,0
125142,2.4,1,2,1,0,1,0
125143,2.4,1,2,1,0,1,0
125144,2.4,1,2,1,0,1,0
125145,2.4,1,2,1,0,1,0
125146,2.4,1,2,1,0,1,0
125147,2.4,1,2,1,0,1,0
125148,2.4,1,2,1,0,1,0
125149,2.4,1,2,1,0,1,0
125150,2.4,1,2,1,0,1,0
125151,2.4,1,2,1,0,1,0
125152,2.4,1,2,1,0,1,0
125153,2.4,1,2,1,0,1,0
125154,2.4,1,2,1,0,1,0
125156,2.4,1,2,1,0,1,0
125158,2.4,1,2,1,0,1,0
125160,2.4,1,2,1,0,1,0
125162,2.4,1,2,1,0,1,0
125164,2.4,1,2,1,0,1,0
125166,2.4,1,2,1,0,1,0
125168,2.4,1,2,1,0,1,0
125244,2.4,1,2,1,0,1,0
125246,2.4,1,2,1,0,1,0
125248,2.4,1,2,1,0,1,0
125250,2.4,1,2,1,0,1,0
125252,2.4,1,2,1,0,1,0
125254,2.4,1,2,1,0,1,0
125256,2.4,1,2,1,0,1,0
125258,2.4,1,2,1,0,1,0
125260,2.4,1,2,1,0,1,0
125262,2.4,1,2,1,0,1,0
125264,2.4,1,2,1,0,1,0
125266,2.4,1,2,1,0,1,0
125268,2.4,1,2,1,0,1,0
125270,2.4,1,2,1,0,1,0
125272,2.4,1,2,1,0,1,0
125274,2.4,1,2,1,0,1,0
125276,2.4,1,2,1,0,1,0
125278,2.4,1,2,1,0,1,0
125280,2.4,1,2,1,0,1,0
125282,2.4,1,2,1,0,1,0
125284,2.4,1,2,1,0,1,0
125286,2.4,1,2,1,0,1,0
125288,2.4,1,2,1,0,1,0
125290,2.4,1,2,1,0,1,0
125292,2.4,1,2,1,0,1,0
125294,2.4,1,2,1,0,1,0
125296,2.4,1,2,1,0,1,0
125298,2.4,1,2,1,0,1,0
125300,2.4,1,2,1,0,1,0
125302,2.4,1,2,1,0,1,0
125304,2.4,1,2,1,0,1,0
125306,2.4,1,2,1,0,1,0
125308,2.4,1,2,1,0,1,0
125310,2.4,1,2,1,0,1,0
125312,2.4,1,2,1,0,1,0
125314,2.4,1,2,1,0,1,0
125316,2.4,1,2,1,0,1,0
125318,2.4,1,2,1,0,1,0
125320,2.4,1,2,1,0,1,0
125379,2.4,1,2,1,0,1,0
125381,2.4,1,2,1,0,1,0
125383,2.4,1,2,1,0,1,0
125385,2.4,1,2,1,0,1,0
125387,2.4,1,2,1,0,1,0
125389,2.4,1,2,1,0,1,0
125391,2.4,1,2,1,0,1,0
125393,2.4,1,2,1,0,1,0
125395,2.4,1,2,1,0,1,0
125397,2.4,1,2,1,0,1,0
125399,2.4,1,2,1,0,1,0
125401,2.4,1,2,1,0,1,0
125403,2.4,1,2,1,0,1,0
125405,2.4,1,2,1,0,1,0
125407,2.4,1,2,1,0,1,0
125409,2.4,1,2,1,0,1,0
125411,2.4,1,2,1,0,1,0
125413,2.4,1,2,1,0,1,0
125415,2.4,1,2,1,0,1,0
125417,2.4,1,2,1,0,1,0
125419,2.4,1,2,1,0,1,0
125421,2.4,1,2,1,0,1,0
125423,2.4,1,2,1,0,1,0
125425,2.4,1,2,1,0,1,0
125427,2.4,1,2,1,0,1,0
125429,2.4,1,2,1,0,1,0
125431,2.4,1,2,1,0,1,0
125433,2.4,1,2,1,0,1,0
125435,2.4,1,2,1,0,1,0
125437,2.4,1,2,1,0,1,0
125439,2.4,1,2,1,0,1,0
125441,2.4,1,2,1,0,1,0
125443,2.4,1,2,1,0,1,0
125445,2.4,1,2,1,0,1,0
125447,2.4,1,2,1,0,1,0
125449,2.4,1,2,1,0,1,0
125451,2.4,1,2,1,0,1,0
125453,2.4,1,2,1,0,1,0
125455,2.4,1,2,1,0,1,0
125483,2.4,1,2,1,0,1,0
125485,2.4,1,2,1,0,1,0
125487,2.4,1,2,1,0,1,0
125489,2.4,1,2,1,0,1,0
125491,2.4,1,2,1,0,1,0
125493,2.4,1,2,1,0,1,0
125495,2.4,1,2,1,0,1,0
125497,2.4,1,2,1,0,1,0
125499,2.4,1,2,1,0,1,0
125501,2.4,1,2,1,0,1,0
125503,2.4,1,2,1,0,1,0
125505,2.4,1,2,1,0,1,0
125507,2.4,1,2,1,0,1,0
125509,2.4,1,2,1,0,1,0
125511,2.4,1,2,1,0,1,0
125513,2.4,1,2,1,0,1,0
125515,2.4,1,2,1,0,1,0
125517,2.4,1,2,1,0,1,0
125519,2.4,1,2,1,0,1,0
125521,2.4,1,2,1,0,1,0
125523,2.4,1,2,1,0,1,0
125525,2.4,1,2,1,0,1,0
125527,2.4,1,2,1,0,1,0
125529,2.4,1,2,1,0,1,0
125531,2.4,1,2,1,0,1,0
125533,2.4,1,2,1,0,1,0
125535,2.4,1,2,1,0,1,0
125537,2.4,1,2,1,0,1,0
125539,2.4,1,2,1,0,1,0
125541,2.4,1,2,1,0,1,0
125543,2.4,1,2,1,0,1,0
125545,2.4,1,2,1,0,1,0
125547,2.4,1,2,1,0,1,0
125549,2.4,1,2,1,0,1,0
125551,2.4,1,2,1,0,1,0
125553,2.4,1,2,1,0,1,0
125555,2.4,1,2,1,0,1,0
125557,2.4,1,2,1,0,1,0
125559,2.4,1,2,1,0,1,0
125600,2.4,1,2,1,0,1,0
125602,2.4,1,2,1,0,1,0
125604,2.4,1,2,1,0,1,0
125606,2.4,1,2,1,0,1,0
125608,2.4,1,2,1,0,1,0
125610,2.4,1,2,1,0,1,0
125612,2.4,1,2,1,0,1,0
125614,2.4,1,2,1,0,1,0
125616,2.4,1,2,1,0,1,0
125618,2.4,1,2,1,0,1,0
125620,2.4,1,2,1,0,1,0
125622,2.4,1,2,1,0,1,0
125624,2.4,1,2,1,0,1,0
125626,2.4,1,2,1,0,1,0
125628,2.4,1,2,1,0,1,0
125630,2.4,1,2,1,0,1,0
125632,2.4,1,2,1,0,1,0
125634,2.4,1,2,1,0,1,0
125636,2.4,1,2,1,0,1,0
125638,2.4,1,2,1,0,1,0
125640,2.4,1,2,1,0,1,0
125642,2.4,1,2,1,0,1,0
125644,2.4,1,2,1,0,1,0
125646,2.4,1,2,1,0,1,0
125648,2.4,1,2,1,0,1,0
125650,2.4,1,2,1,0,1,0
125652,2.4,1,2,1,0,1,0
125654,2.4,1,2,1,0,1,0
125656,2.4,1,2,1,0,1,0
125658,2.4,1,2,1,0,1,0
125660,2.4,1,2,1,0,1,0
125662,2.4,1,2,1,0,1,0
125664,2.4,1,2,1,0,1,0
125666,2.4,1,2,1,0,1,0
125668,2.4,1,2,1,0,1,0
125670,2.4,1,2,1,0,1,0
125672,2.4,1,2,1,0,1,0
125674,2.4,1,2,1,0,1,0
125676,2.4,1,2,1,0,1,0
125737,2.4,1,2,1,0,1,0
125739,2.4,1,2,1,0,1,0
125741,2.4,1,2,1,0,1,0
125743,2.4,1,2,1,0,1,0
125745,2.4,1,2,1,0,1,0
125747,2.4,1,2,1,0,1,0
125749,2.4,1,2,1,0,1,0
125751,2.4,1,2,1,0,1,0
125753,2.4,1,2,1,0,1,0
125755,2.4,1,2,1,0,1,0
125757,2.4,1,2,1,0,1,0
125759,2.4,1,2,1,0,1,0
125761,2.4,1,2,1,0,1,0
125763,2.4,1,2,1,0,1,0
125765,2.4,1,2,1,0,1,0
125767,2.4,1,2,1,0,1,0
125769,2.4,1,2,1,0,1,0
125771,2.4,1,2,1,0,1,0
125773,2.4,1,2,1,0,1,0
125775,2.4,1,2,1,0,1,0
125777,2.4,1,2,1,0,1,0
125779,2.4,1,2,1,0,1,0
125781,2.4,1,2,1,0,1,0
125783,2.4,1,2,1,0,1,0
125785,2.4,1,2,1,0,1,0
125787,2.4,1,2,1,0,1,0
125789,2.4,1,2,1,0,1,0
125791,2.4,1,2,1,0,1,0
125793,2.4,1,2,1,0,1,0
125795,2.4,1,2,1,0,1,0
125797,2.4,1,2,1,0,1,0
125799,2.4,1,2,1,0,1,0
125801,2.4,1,2,1,0,1,0
125803,2.4,1,2,1,0,1,0
125805,2.4,1,2,1,0,1,0
125807,2.4,1,2,1,0,1,0
125809,2.4,1,2,1,0,1,0
125811,2.4,1,2,1,0,1,0
125813,2.4,1,2,1,0,1,0
125875,2.4,1,2,1,0,1,0
125877,2.4,1,2,1,0,1,0
125879,2.4,1,2,1,0,1,0
125881,2.4,1,2,1,0,1,0
125883,2.4,1,2,1,0,1,0
125885,2.4,1,2,1,0,1,0
125887,2.4,1,2,1,0,1,0
125889,2.4,1,2,1,0,1,0
125891,2.4,1,2,1,0,1,0
125893,2.4,1,2,1,0,1,0
125895,2.4,1,2,1,0,1,0
125896,2.4,1,2,1,0,1,0
125897,2.4,1,2,1,0,1,0
125898,2.4,1,2,1,0,1,0
125899,2.4,1,2,1,0,1,0
125900,2.4,1,2,1,0,1,0
125901,2.4,1,2,1,0,1,0
125902,2.4,1,2,1,0,1,0
125903,2.4,1,2,1,0,1,0
125904,2.4,1,2,1,0,1,0
125905,2.4,1,2,1,0,1,0
125906,2.4,1,2,1,0,1,0
125907,2.4,1,2,1,0,1,0
125908,2.4,1,2,1,0,1,0
125909,2.4,1,2,1,0,1,0
125910,2.4,1,2,1,0,1,0
125911,2.4,1,2,1,0,1,0
125912,2.4,1,2,1,0,1,0
125913,2.4,1,2,1,0,1,0
125914,2.4,1,2,1,0,1,0
125915,2.4,1,2,1,0,1,0
125916,2.4,1,2,1,0,1,0
125917,2.4,1,2,1,0,1,0
125918,2.4,1,2,1,0,1,0
125919,2.4,1,2,1,0,1,0
125920,2.4,1,2,1,0,1,0
125921,2.4,1,2,1,0,1,0
125922,2.4,1,2,1,0,1,0
125923,2.4,1,2,1,0,1,0
125924,2.4,1,2,1,0,1,0
125925,2.4,1,2,1,0,1,0
125926,2.4,1,2,1,0,1,0
125927,2.4,1,2,1,0,1,0
125928,2.4,1,2,1,0,1,0
125929,2.4,1,2,1,0,1,0
125930,2.4,1,2,1,0,1,0
125931,2.4,1,2,1,0,1,0
125932,2.4,1,2,1,0,1,0
125933,2.4,1,2,1,0,1,0
125934,2.4,1,2,1,0,1,0
125935,2.4,1,2,1,0,1,0
125936,2.4,1,2,1,0,1,0
125937,2.4,1,2,1,0,1,0
125938,2.4,1,2,1,0,1,0
125939,2.4,1,2,1,0,1,0
125940,2.4,1,2,1,0,1,0
125941,2.4,1,2,1,0,1,0
125942,2.4,1,2,1,0,1,0
125943,2.4,1,2,1,0,1,0
125944,2.4,1,2,1,0,1,0
125945,2.4,1,2,1,0,1,0
125946,2.4,1,2,1,0,1,0
125947,2.4,1,2,1,0,1,0
125948,2.4,1,2,1,0,1,0
125949,2.4,1,2,1,0,1,0
125950,2.4,1,2,1,0,1,0
125951,2.4,1,2,1,0,1,0
125952,2.4,1,2,1,0,1,0
125954,2.4,1,2,1,0,1,0
125956,2.4,1,2,1,0,1,0
125958,2.4,1,2,1,0,1,0
125960,2.4,1,2,1,0,1,0
125962,2.4,1,2,1,0,1,0
125964,2.4,1,2,1,0,1,0
125966,2.4,1,2,1,0,1,0
125968,2.4,1,2,1,0,1,0
125970,2.4,1,2,1,0,1,0
125970,2.4,1,2,1,0,1,0
125972,2.4,1,2,1,0,1,0
125972,2.4,1,2,1,0,1,0
125974,2.4,1,2,1,0,1,0
125976,2.4,1,2,1,0,1,0
125978,2.4,1,2,1,0,1,0
125980,2.4,1,2,1,0,1,0
125982,2.4,1,2,1,0,1,0
125984,2.4,1,2,1,0,1,0
125986,2.4,1,2,1,0,1,0
125988,2.4,1,2,1,0,1,0
125990,2.4,1,2,1,0,1,0
125992,2.4,1,2,1,0,1,0
125994,2.4,1,2,1,0,1,0
125996,2.4,1,2,1,0,1,0
125998,2.4,1,2,1,0,1,0
126000,2.4,1,2,1,0,1,0
126002,2.4,1,2,1,0,1,0
126004,2.4,1,2,1,0,1,0
126004,2.4,1,2,1,0,1,0
126006,2.4,1,2,1,0,1,0
126006,2.4,1,2,1,0,1,0
126008,2.4,1,2,1,0,1,0
126008,2.4,1,2,1,0,1,0
126010,2.4,1,2,1,0,1,0
126010,2.4,1,2,1,0,1,0
126012,2.4,1,2,1,0,1,0
126012,2.4,1,2,1,0,1,0
126014,2.4,1,2,1,0,1,0
126014,2.4,1,2,1,0,1,0
126016,2.4,1,2,1,0,1,0
126016,2.4,1,2,1,0,1,0
126018,2.4,1,2,1,0,1,0
126018,2.4,1,2,1,0,1,0
126020,2.4,1,2,1,0,1,0
126020,2.4,1,2,1,0,1,0
126022,2.4,1,2,1,0,1,0
126022,2.4,1,2,1,0,1,0
126024,2.4,1,2,1,0,1,0
126024,2.4,1,2,1,0,1,0
126026,2.4,1,2,1,0,1,0
126026,2.4,1,2,1,0,1,0
126028,2.4,1,2,1,0,1,0
126028,2.4,1,2,1,0,1,0
126030,2.4,1,2,1,0,1,0
126030,2.4,1,2,1,0,1,0
126032,2.4,1,2,1,0,1,0
126032,2.4,1,2,1,0,1,0
126034,2.4,1,2,1,0,1,0
126034,2.4,1,2,1,0,1,0
126036,2.4,1,2,1,0,1,0
126036,2.4,1,2,1,0,1,0
126038,2.4,1,2,1,0,1,0
126038,2.4,1,2,1,0,1,0
126040,2.4,1,2,1,0,1,0
126040,2.4,1,2,1,0,1,0
126042,2.4,1,2,1,0,1,0
126042,2.4,1,2,1,0,1,0
126044,2.4,1,2,1,0,1,0
126044,2.4,1,2,1,0,1,0
126046,2.4,1,2,1,0,1,0
126046,2.4,1,2,1,0,1,0
126048,2.4,1,2,1,0,1,0
126050,2.4,1,2,1,0,1,0
126052,2.4,1,2,1,0,1,0
126054,2.4,1,2,1,0,1,0
126056,2.4,1,2,1,0,1,0
126058,2.4,1,2,1,0,1,0
126060,2.4,1,2,1,0,1,0
126062,2.4,1,2,1,0,1,0
126064,2.4,1,2,1,0,1,0
126066,2.4,1,2,1,0,1,0
126068,2.4,1,2,1,0,1,0
126070,2.4,1,2,1,0,1,0
126072,2.4,1,2,1,0,1,0
126074,2.4,1,2,1,0,1,0
126076,2.4,1,2,1,0,1,0
126078,2.4,1,2,1,0,1,0
126080,2.4,1,2,1,0,1,0
126115,2.4,1,2,1,0,1,0
126117,2.4,1,2,1,0,1,0
126119,2.4,1,2,1,0,1,0
126121,2.4,1,2,1,0,1,0
126123,2.4,1,2,1,0,1,0
126125,2.4,1,2,1,0,1,0
126127,2.4,1,2,1,0,1,0
126129,2.4,1,2,1,0,1,0
126131,2.4,1,2,1,0,1,0
126133,2.4,1,2,1,0,1,0
126135,2.4,1,2,1,0,1,0
126137,2.4,1,2,1,0,1,0
126139,2.4,1,2,1,0,1,0
126141,2.4,1,2,1,0,1,0
126143,2.4,1,2,1,0,1,0
126145,2.4,1,2,1,0,1,0
126147,2.4,1,2,1,0,1,0
126149,2.4,1,2,1,0,1,0
126151,2.4,1,2,1,0,1,0
126153,2.4,1,2,1,0,1,0
126155,2.4,1,2,1,0,1,0
126157,2.4,1,2,1,0,1,0
126159,2.4,1,2,1,0,1,0
126161,2.4,1,2,1,0,1,0
126163,2.4,1,2,1,0,1,0
126165,2.4,1,2,1,0,1,0
126167,2.4,1,2,1,0,1,0
126169,2.4,1,2,1,0,1,0
126171,2.4,1,2,1,0,1,0
126173,2.4,1,2,1,0,1,0
126175,2.4,1,2,1,0,1,0
126177,2.4,1,2,1,0,1,0
126179,2.4,1,2,1,0,1,0
126181,2.4,1,2,1,0,1,0
126183,2.4,1,2,1,0,1,0
126185,2.4,1,2,1,0,1,0
126187,2.4,1,2,1,0,1,0
126189,2.4,1,2,1,0,1,0
126191,2.4,1,2,1,0,1,0
126229,2.4,1,2,1,0,1,0
126231,2.4,1,2,1,0,1,0
126233,2.4,1,2,1,0,1,0
126235,2.4,1,2,1,0,1,0
126237,2.4,1,2,1,0,1,0
126239,2.4,1,2,1,0,1,0
126241,2.4,1,2,1,0,1,0
126243,2.4,1,2,1,0,1,0
126245,2.4,1,2,1,0,1,0
126247,2.4,1,2,1,0,1,0
126249,2.4,1,2,1,0,1,0
126251,2.4,1,2,1,0,1,0
126253,2.4,1,2,1,0,1,0
126255,2.4,1,2,1,0,1,0
126257,2.4,1,2,1,0,1,0
126259,2.4,1,2,1,0,1,0
126259,2.4,1,2,1,0,1,0
126261,2.4,1,2,1,0,1,0
126261,2.4,1,2,1,0,1,0
126263,2.4,1,2,1,0,1,0
126263,2.4,1,2,1,0,1,0
126265,2.4,1,2,1,0,1,0
126265,2.4,1,2,1,0,1,0
126267,2.4,1,2,1,0,1,0
126267,2.4,1,2,1,0,1,0
126269,2.4,1,2,1,0,1,0
126269,2.4,1,2,1,0,1,0
126271,2.4,1,2,1,0,1,0
126271,2.4,1,2,1,0,1,0
126273,2.4,1,2,1,0,1,0
126273,2.4,1,2,1,0,1,0
126275,2.4,1,2,1,0,1,0
126275,2.4,1,2,1,0,1,0
126277,2.4,1,2,1,0,1,0
126277,2.4,1,2,1,0,1,0
126279,2.4,1,2,1,0,1,0
126279,2.4,1,2,1,0,1,0
126281,2.4,1,2,1,0,1,0
126281,2.4,1,2,1,0,1,0
126283,2.4,1,2,1,0,1,0
126283,2.4,1,2,1,0,1,0
126285,2.4,1,2,1,0,1,0
126285,2.4,1,2,1,0,1,0
126287,2.4,1,2,1,0,1,0
126287,2.4,1,2,1,0,1,0
126289,2.4,1,2,1,0,1,0
126289,2.4,1,2,1,0,1,0
126291,2.4,1,2,1,0,1,0
126291,2.4,1,2,1,0,1,0
126293,2.4,1,2,1,0,1,0
126293,2.4,1,2,1,0,1,0
126295,2.4,1,2,1,0,1,0
126295,2.4,1,2,1,0,1,0
126297,2.4,1,2,1,0,1,0
126297,2.4,1,2,1,0,1,0
126299,2.4,1,2,1,0,1,0
126299,2.4,1,2,1,0,1,0
126301,2.4,1,2,1,0,1,0
126301,2.4,1,2,1,0,1,0
126303,2.4,1,2,1,0,1,0
126303,2.4,1,2,1,0,1,0
126305,2.4,1,2,1,0,1,0
126305,2.4,1,2,1,0,1,0
126307,2.4,1,2,1,0,1,0
126309,2.4,1,2,1,0,1,0
126311,2.4,1,2,1,0,1,0
126313,2.4,1,2,1,0,1,0
126315,2.4,1,2,1,0,1,0
126317,2.4,1,2,1,0,1,0
126319,2.4,1,2,1,0,1,0
126321,2.4,1,2,1,0,1,0
126323,2.4,1,2,1,0,1,0
126325,2.4,1,2,1,0,1,0
126327,2.4,1,2,1,0,1,0
126329,2.4,1,2,1,0,1,0
126331,2.4,1,2,1,0,1,0
126333,2.4,1,2,1,0,1,0
126335,2.4,1,2,1,0,1,0
126455,2.4,1,2,1,0,1,0
126457,2.4,1,2,1,0,1,0
126459,2.4,1,2,1,0,1,0
126461,2.4,1,2,1,0,1,0
126463,2.4,1,2,1,0,1,0
126465,2.4,1,2,1,0,1,0
126467,2.4,1,2,1,0,1,0
126469,2.4,1,2,1,0,1,0
126471,2.4,1,2,1,0,1,0
126473,2.4,1,2,1,0,1,0
126475,2.4,1,2,1,0,1,0
126477,2.4,1,2,1,0,1,0
126479,2.4,1,2,1,0,1,0
126481,2.4,1,2,1,0,1,0
126483,2.4,1,2,1,0,1,0
126485,2.4,1,2,1,0,1,0
126487,2.4,1,2,1,0,1,0
126489,2.4,1,2,1,0,1,0
126491,2.4,1,2,1,0,1,0
126493,2.4,1,2,1,0,1,0
126495,2.4,1,2,1,0,1,0
126497,2.4,1,2,1,0,1,0
126499,2.4,1,2,1,0,1,0
126501,2.4,1,2,1,0,1,0
126503,2.4,1,2,1,0,1,0
126505,2.4,1,2,1,0,1,0
126507,2.4,1,2,1,0,1,0
126509,2.4,1,2,1,0,1,0
126511,2.4,1,2,1,0,1,0
126513,2.4,1,2,1,0,1,0
126515,2.4,1,2,1,0,1,0
126517,2.4,1,2,1,0,1,0
126519,2.4,1,2,1,0,1,0
126521,2.4,1,2,1,0,1,0
126523,2.4,1,2,1,0,1,0
126525,2.4,1,2,1,0,1,0
126527,2.4,1,2,1,0,1,0
126529,2.4,1,2,1,0,1,0
126531,2.4,1,2,1,0,1,0
126537,2.4,1,2,1,0,1,0
126539,2.4,1,2,1,0,1,0
126541,2.4,1,2,1,0,1,0
126543,2.4,1,2,1,0,1,0
126545,2.4,1,2,1,0,1,0
126547,2.4,1,2,1,0,1,0
126549,2.4,1,2,1,0,1,0
126551,2.4,1,2,1,0,1,0
126553,2.4,1,2,1,0,1,0
126555,2.4,1,2,1,0,1,0
126557,2.4,1,2,1,0,1,0
126559,2.4,1,2,1,0,1,0
126561,2.4,1,2,1,0,1,0
126563,2.4,1,2,1,0,1,0
126565,2.4,1,2,1,0,1,0
126567,2.4,1,2,1,0,1,0
126569,2.4,1,2,1,0,1,0
126571,2.4,1,2,1,0,1,0
126573,2.4,1,2,1,0,1,0
126575,2.4,1,2,1,0,1,0
126577,2.4,1,2,1,0,1,0
126579,2.4,1,2,1,0,1,0
126581,2.4,1,2,1,0,1,0
126583,2.4,1,2,1,0,1,0
126585,2.4,1,2,1,0,1,0
126587,2.4,1,2,1,0,1,0
126589,2.4,1,2,1,0,1,0
126591,2.4,1,2,1,0,1,0
126593,2.4,1,2,1,0,1,0
126595,2.4,1,2,1,0,1,0
126597,2.4,1,2,1,0,1,0
126599,2.4,1,2,1,0,1,0
126601,2.4,1,2,1,0,1,0
126603,2.4,1,2,1,0,1,0
126605,2.4,1,2,1,0,1,0
126607,2.4,1,2,1,0,1,0
126609,2.4,1,2,1,0,1,0
126611,2.4,1,2,1,0,1,0
126613,2.4,1,2,1,0,1,0
126628,2.4,1,2,1,0,1,0
126630,2.4,1,2,1,0,1,0
126632,2.4,1,2,1,0,1,0
126634,2.4,1,2,1,0,1,0
126636,2.4,1,2,1,0,1,0
126638,2.4,1,2,1,0,1,0
126640,2.4,1,2,1,0,1,0
126642,2.4,1,2,1,0,1,0
126644,2.4,1,2,1,0,1,0
126646,2.4,1,2,1,0,1,0
126648,2.4,1,2,1,0,1,0
126650,2.4,1,2,1,0,1,0
126652,2.4,1,2,1,0,1,0
126654,2.4,1,2,1,0,1,0
126656,2.4,1,2,1,0,1,0
126658,2.4,1,2,1,0,1,0
126660,2.4,1,2,1,0,1,0
126662,2.4,1,2,1,0,1,0
126664,2.4,1,2,1,0,1,0
126666,2.4,1,2,1,0,1,0
126668,2.4,1,2,1,0,1,0
126670,2.4,1,2,1,0,1,0
126672,2.4,1,2,1,0,1,0
126674,2.4,1,2,1,0,1,0
126676,2.4,1,2,1,0,1,0
126678,2.4,1,2,1,0,1,0
126680,2.4,1,2,1,0,1,0
126682,2.4,1,2,1,0,1,0
126684,2.4,1,2,1,0,1,0
126686,2.4,1,2,1,0,1,0
126688,2.4,1,2,1,0,1,0
126690,2.4,1,2,1,0,1,0
126692,2.4,1,2,1,0,1,0
126694,2.4,1,2,1,0,1,0
126696,2.4,1,2,1,0,1,0
126698,2.4,1,2,1,0,1,0
126700,2.4,1,2,1,0,1,0
126702,2.4,1,2,1,0,1,0
126704,2.4,1,2,1,0,1,0
126707,2.4,1,2,1,0,1,0
126709,2.4,1,2,1,0,1,0
126711,2.4,1,2,1,0,1,0
126713,2.4,1,2,1,0,1,0
126715,2.4,1,2,1,0,1,0
126717,2.4,1,2,1,0,1,0
126719,2.4,1,2,1,0,1,0
126721,2.4,1,2,1,0,1,0
126723,2.4,1,2,1,0,1,0
126725,2.4,1,2,1,0,1,0
126725,2.4,1,2,1,0,1,0
126727,2.4,1,2,1,0,1,0
126727,2.4,1,2,1,0,1,0
126729,2.4,1,2,1,0,1,0
126729,2.4,1,2,1,0,1,0
126731,2.4,1,2,1,0,1,0
126731,2.4,1,2,1,0,1,0
126733,2.4,1,2,1,0,1,0
126733,2.4,1,2,1,0,1,0
126735,2.4,1,2,1,0,1,0
126735,2.4,1,2,1,0,1,0
126737,2.4,1,2,1,0,1,0
126737,2.4,1,2,1,0,1,0
126739,2.4,1,2,1,0,1,0
126739,2.4,1,2,1,0,1,0
126741,2.4,1,2,1,0,1,0
126741,2.4,1,2,1,0,1,0
126743,2.4,1,2,1,0,1,0
126743,2.4,1,2,1,0,1,0
126745,2.4,1,2,1,0,1,0
126745,2.4,1,2,1,0,1,0
126747,2.4,1,2,1,0,1,0
126747,2.4,1,2,1,0,1,0
126749,2.4,1,2,1,0,1,0
126749,2.4,1,2,1,0,1,0
126751,2.4,1,2,1,0,1,0
126751,2.4,1,2,1,0,1,0
126753,2.4,1,2,1,0,1,0
126753,2.4,1,2,1,0,1,0
126755,2.4,1,2,1,0,1,0
126755,2.4,1,2,1,0,1,0
126756,2.4,1,2,1,0,1,0
126757,2.4,1,2,1,0,1,0
126757,2.4,1,2,1,0,1,0
126758,2.4,1,2,1,0,1,0
126759,2.4,1,2,1,0,1,0
126759,2.4,1,2,1,0,1,0
126760,2.4,1,2,1,0,1,0
126761,2.4,1,2,1,0,1,0
126761,2.4,1,2,1,0,1,0
126762,2.4,1,2,1,0,1,0
126763,2.4,1,2,1,0,1,0
126763,2.4,1,2,1,0,1,0
126764,2.4,1,2,1,0,1,0
126765,2.4,1,2,1,0,1,0
126765,2.4,1,2,1,0,1,0
126766,2.4,1,2,1,0,1,0
126767,2.4,1,2,1,0,1,0
126767,2.4,1,2,1,0,1,0
126768,2.4,1,2,1,0,1,0
126769,2.4,1,2,1,0,1,0
126769,2.4,1,2,1,0,1,0
126770,2.4,1,2,1,0,1,0
126771,2.4,1,2,1,0,1,0
126771,2.4,1,2,1,0,1,0
126772,2.4,1,2,1,0,1,0
126773,2.4,1,2,1,0,1,0
126773,2.4,1,2,1,0,1,0
126774,2.4,1,2,1,0,1,0
126775,2.4,1,2,1,0,1,0
126775,2.4,1,2,1,0,1,0
126776,2.4,1,2,1,0,1,0
126777,2.4,1,2,1,0,1,0
126777,2.4,1,2,1,0,1,0
126778,2.4,1,2,1,0,1,0
126779,2.4,1,2,1,0,1,0
126779,2.4,1,2,1,0,1,0
126780,2.4,1,2,1,0,1,0
126781,2.4,1,2,1,0,1,0
126781,2.4,1,2,1,0,1,0
126782,2.4,1,2,1,0,1,0
126783,2.4,1,2,1,0,1,0
126783,2.4,1,2,1,0,1,0
126784,2.4,1,2,1,0,1,0
126785,2.4,1,2,1,0,1,0
126786,2.4,1,2,1,0,1,0
126787,2.4,1,2,1,0,1,0
126788,2.4,1,2,1,0,1,0
126789,2.4,1,2,1,0,1,0
126790,2.4,1,2,1,0,1,0
126791,2.4,1,2,1,0,1,0
126792,2.4,1,2,1,0,1,0
126793,2.4,1,2,1,0,1,0
126794,2.4,1,2,1,0,1,0
126795,2.4,1,2,1,0,1,0
126796,2.4,1,2,1,0,1,0
126797,2.4,1,2,1,0,1,0
126798,2.4,1,2,1,0,1,0
126799,2.4,1,2,1,0,1,0
126800,2.4,1,2,1,0,1,0
126801,2.4,1,2,1,0,1,0
126802,2.4,1,2,1,0,1,0
126804,2.4,1,2,1,0,1,0
126806,2.4,1,2,1,0,1,0
126808,2.4,1,2,1,0,1,0
126810,2.4,1,2,1,0,1,0
126812,2.4,1,2,1,0,1,0
126814,2.4,1,2,1,0,1,0
126816,2.4,1,2,1,0,1,0
126818,2.4,1,2,1,0,1,0
126820,2.4,1,2,1,0,1,0
126822,2.4,1,2,1,0,1,0
126824,2.4,1,2,1,0,1,0
126826,2.4,1,2,1,0,1,0
126828,2.4,1,2,1,0,1,0
126830,2.4,1,2,1,0,1,0
126832,2.4,1,2,1,0,1,0
126946,2.4,1,2,1,0,1,0
126948,2.4,1,2,1,0,1,0
126950,2.4,1,2,1,0,1,0
126952,2.4,1,2,1,0,1,0
126952,2.4,1,2,1,0,1,0
126954,2.4,1,2,1,0,1,0
126954,2.4,1,2,1,0,1,0
126956,2.4,1,2,1,0,1,0
126956,2.4,1,2,1,0,1,0
126958,2.4,1,2,1,0,1,0
126958,2.4,1,2,1,0,1,0
126960,2.4,1,2,1,0,1,0
126960,2.4,1,2,1,0,1,0
126962,2.4,1,2,1,0,1,0
126962,2.4,1,2,1,0,1,0
126964,2.4,1,2,1,0,1,0
126964,2.4,1,2,1,0,1,0
126966,2.4,1,2,1,0,1,0
126966,2.4,1,2,1,0,1,0
126968,2.4,1,2,1,0,1,0
126968,2.4,1,2,1,0,1,0
126970,2.4,1,2,1,0,1,0
126970,2.4,1,2,1,0,1,0
126972,2.4,1,2,1,0,1,0
126972,2.4,1,2,1,0,1,0
126974,2.4,1,2,1,0,1,0
126974,2.4,1,2,1,0,1,0
126976,2.4,1,2,1,0,1,0
126976,2.4,1,2,1,0,1,0
126978,2.4,1,2,1,0,1,0
126978,2.4,1,2,1,0,1,0
126980,2.4,1,2,1,0,1,0
126980,2.4,1,2,1,0,1,0
126982,2.4,1,2,1,0,1,0
126982,2.4,1,2,1,0,1,0
126984,2.4,1,2,1,0,1,0
126984,2.4,1,2,1,0,1,0
126986,2.4,1,2,1,0,1,0
126986,2.4,1,2,1,0,1,0
126988,2.4,1,2,1,0,1,0
126988,2.4,1,2,1,0,1,0
126990,2.4,1,2,1,0,1,0
126990,2.4,1,2,1,0,1,0
126992,2.4,1,2,1,0,1,0
126992,2.4,1,2,1,0,1,0
126994,2.4,1,2,1,0,1,0
126994,2.4,1,2,1,0,1,0
126996,2.4,1,2,1,0,1,0
126996,2.4,1,2,1,0,1,0
126998,2.4,1,2,1,0,1,0
126998,2.4,1,2,1,0,1,0
127000,2.4,1,2,1,0,1,0
127000,2.4,1,2,1,0,1,0
127002,2.4,1,2,1,0,1,0
127002,2.4,1,2,1,0,1,0
127004,2.4,1,2,1,0,1,0
127004,2.4,1,2,1,0,1,0
127006,2.4,1,2,1,0,1,0
127006,2.4,1,2,1,0,1,0
127008,2.4,1,2,1,0,1,0
127008,2.4,1,2,1,0,1,0
127009,2.4,1,2,1,0,1,0
127010,2.4,1,2,1,0,1,0
127010,2.4,1,2,1,0,1,0
127011,2.4,1,2,1,0,1,0
127012,2.4,1,2,1,0,1,0
127012,2.4,1,2,1,0,1,0
127013,2.4,1,2,1,0,1,0
127014,2.4,1,2,1,0,1,0
127014,2.4,1,2,1,0,1,0
127015,2.4,1,2,1,0,1,0
127016,2.4,1,2,1,0,1,0
127016,2.4,1,2,1,0,1,0
127017,2.4,1,2,1,0,1,0
127018,2.4,1,2,1,0,1,0
127018,2.4,1,2,1,0,1,0
127019,2.4,1,2,1,0,1,0
127020,2.4,1,2,1,0,1,0
127020,2.4,1,2,1,0,1,0
127021,2.4,1,2,1,0,1,0
127022,2.4,1,2,1,0,1,0
127022,2.4,1,2,1,0,1,0
127023,2.4,1,2,1,0,1,0
127024,2.4,1,2,1,0,1,0
127025,2.4,1,2,1,0,1,0
127026,2.4,1,2,1,0,1,0
127027,2.4,1,2,1,0,1,0
127028,2.4,1,2,1,0,1,0
127029,2.4,1,2,1,0,1,0
127031,2.4,1,2,1,0,1,0
127033,2.4,1,2,1,0,1,0
127035,2.4,1,2,1,0,1,0
127037,2.4,1,2,1,0,1,0
127039,2.4,1,2,1,0,1,0
127041,2.4,1,2,1,0,1,0
127043,2.4,1,2,1,0,1,0
127045,2.4,1,2,1,0,1,0
127047,2.4,1,2,1,0,1,0
127049,2.4,1,2,1,0,1,0
127051,2.4,1,2,1,0,1,0
127053,2.4,1,2,1,0,1,0
127055,2.4,1,2,1,0,1,0
127057,2.4,1,2,1,0,1,0
127059,2.4,1,2,1,0,1,0
127061,2.4,1,2,1,0,1,0
127063,2.4,1,2,1,0,1,0
127065,2.4,1,2,1,0,1,0
127067,2.4,1,2,1,0,1,0
127069,2.4,1,2,1,0,1,0
127071,2.4,1,2,1,0,1,0
127073,2.4,1,2,1,0,1,0
127075,2.4,1,2,1,0,1,0
127077,2.4,1,2,1,0,1,0
127079,2.4,1,2,1,0,1,0
127081,2.4,1,2,1,0,1,0
127083,2.4,1,2,1,0,1,0
127085,2.4,1,2,1,0,1,0
127101,2.4,1,2,1,0,1,0
127103,2.4,1,2,1,0,1,0
127105,2.4,1,2,1,0,1,0
127107,2.4,1,2,1,0,1,0
127109,2.4,1,2,1,0,1,0
127111,2.4,1,2,1,0,1,0
127113,2.4,1,2,1,0,1,0
127115,2.4,1,2,1,0,1,0
127117,2.4,1,2,1,0,1,0
127119,2.4,1,2,1,0,1,0
127121,2.4,1,2,1,0,1,0
127123,2.4,1,2,1,0,1,0
127125,2.4,1,2,1,0,1,0
127127,2.4,1,2,1,0,1,0
127128,2.4,1,2,1,0,1,0
127129,2.4,1,2,1,0,1,0
127130,2.4,1,2,1,0,1,0
127131,2.4,1,2,1,0,1,0
127132,2.4,1,2,1,0,1,0
127133,2.4,1,2,1,0,1,0
127134,2.4,1,2,1,0,1,0
127135,2.4,1,2,1,0,1,0
127136,2.4,1,2,1,0,1,0
127137,2.4,1,2,1,0,1,0
127138,2.4,1,2,1,0,1,0
127139,2.4,1,2,1,0,1,0
127140,2.4,1,2,1,0,1,0
127141,2.4,1,2,1,0,1,0
127142,2.4,1,2,1,0,1,0
127143,2.4,1,2,1,0,1,0
127144,2.4,1,2,1,0,1,0
127145,2.4,1,2,1,0,1,0
127146,2.4,1,2,1,0,1,0
127147,2.4,1,2,1,0,1,0
127148,2.4,1,2,1,0,1,0
127149,2.4,1,2,1,0,1,0
127150,2.4,1,2,1,0,1,0
127151,2.4,1,2,1,0,1,0
127152,2.4,1,2,1,0,1,0
127153,2.4,1,2,1,0,1,0
127154,2.4,1,2,1,0,1,0
127155,2.4,1,2,1,0,1,0
127156,2.4,1,2,1,0,1,0
127157,2.4,1,2,1,0,1,0
127158,2.4,1,2,1,0,1,0
127159,2.4,1,2,1,0,1,0
127160,2.4,1,2,1,0,1,0
127161,2.4,1,2,1,0,1,0
127162,2.4,1,2,1,0,1,0
127163,2.4,1,2,1,0,1,0
127164,2.4,1,2,1,0,1,0
127165,2.4,1,2,1,0,1,0
127166,2.4,1,2,1,0,1,0
127167,2.4,1,2,1,0,1,0
127168,2.4,1,2,1,0,1,0
127169,2.4,1,2,1,0,1,0
127170,2.4,1,2,1,0,1,0
127171,2.4,1,2,1,0,1,0
127172,2.4,1,2,1,0,1,0
127173,2.4,1,2,1,0,1,0
127174,2.4,1,2,1,0,1,0
127175,2.4,1,2,1,0,1,0
127176,2.4,1,2,1,0,1,0
127177,2.4,1,2,1,0,1,0
127178,2.4,1,2,1,0,1,0
127180,2.4,1,2,1,0,1,0
127182,2.4,1,2,1,0,1,0
127184,2.4,1,2,1,0,1,0
127186,2.4,1,2,1,0,1,0
127188,2.4,1,2,1,0,1,0
127190,2.4,1,2,1,0,1,0
127192,2.4,1,2,1,0,1,0
127194,2.4,1,2,1,0,1,0
127196,2.4,1,2,1,0,1,0
127198,2.4,1,2,1,0,1,0
127200,2.4,1,2,1,0,1,0
127202,2.4,1,2,1,0,1,0
127204,2.4,1,2,1,0,1,0
127267,2.4,1,2,1,0,1,0
127269,2.4,1,2,1,0,1,0
127271,2.4,1,2,1,0,1,0
127273,2.4,1,2,1,0,1,0
127275,2.4,1,2,1,0,1,0
127277,2.4,1,2,1,0,1,0
127279,2.4,1,2,1,0,1,0
127280,2.4,1,2,1,0,1,0
127281,2.4,1,2,1,0,1,0
127282,2.4,1,2,1,0,1,0
127283,2.4,1,2,1,0,1,0
127284,2.4,1,2,1,0,1,0
127285,2.4,1,2,1,0,1,0
127286,2.4,1,2,1,0,1,0
127287,2.4,1,2,1,0,1,0
127288,2.4,1,2,1,0,1,0
127289,2.4,1,2,1,0,1,0
127290,2.4,1,2,1,0,1,0
127291,2.4,1,2,1,0,1,0
127292,2.4,1,2,1,0,1,0
127293,2.4,1,2,1,0,1,0
127294,2.4,1,2,1,0,1,0
127295,2.4,1,2,1,0,1,0
127296,2.4,1,2,1,0,1,0
127297,2.4,1,2,1,0,1,0
127298,2.4,1,2,1,0,1,0
127299,2.4,1,2,1,0,1,0
127300,2.4,1,2,1,0,1,0
127301,2.4,1,2,1,0,1,0
127302,2.4,1,2,1,0,1,0
127303,2.4,1,2,1,0,1,0
127304,2.4,1,2,1,0,1,0
127305,2.4,1,2,1,0,1,0
127306,2.4,1,2,1,0,1,0
127307,2.4,1,2,1,0,1,0
127308,2.4,1,2,1,0,1,0
127309,2.4,1,2,1,0,1,0
127310,2.4,1,2,1,0,1,0
127311,2.4,1,2,1,0,1,0
127312,2.4,1,2,1,0,1,0
127313,2.4,1,2,1,0,1,0
127314,2.4,1,2,1,0,1,0
127315,2.4,1,2,1,0,1,0
127316,2.4,1,2,1,0,1,0
127317,2.4,1,2,1,0,1,0
127318,2.4,1,2,1,0,1,0
127319,2.4,1,2,1,0,1,0
127320,2.4,1,2,1,0,1,0
127321,2.4,1,2,1,0,1,0
127322,2.4,1,2,1,0,1,0
127323,2.4,1,2,1,0,1,0
127324,2.4,1,2,1,0,1,0
127325,2.4,1,2,1,0,1,0
127326,2.4,1,2,1,0,1,0
127327,2.4,1,2,1,0,1,0
127328,2.4,1,2,1,0,1,0
127329,2.4,1,2,1,0,1,0
127330,2.4,1,2,1,0,1,0
127331,2.4,1,2,1,0,1,0
127332,2.4,1,2,1,0,1,0
127333,2.4,1,2,1,0,1,0
127334,2.4,1,2,1,0,1,0
127335,2.4,1,2,1,0,1,0
127336,2.4,1,2,1,0,1,0
127337,2.4,1,2,1,0,1,0
127338,2.4,1,2,1,0,1,0
127339,2.4,1,2,1,0,1,0
127340,2.4,1,2,1,0,1,0
127341,2.4,1,2,1,0,1,0
127342,2.4,1,2,1,0,1,0
127343,2.4,1,2,1,0,1,0
127344,2.4,1,2,1,0,1,0
127346,2.4,1,2,1,0,1,0
127348,2.4,1,2,1,0,1,0
127350,2.4,1,2,1,0,1,0
127352,2.4,1,2,1,0,1,0
127354,2.4,1,2,1,0,1,0
127356,2.4,1,2,1,0,1,0
127463,2.4,1,2,1,0,1,0
127465,2.4,1,2,1,0,1,0
127467,2.4,1,2,1,0,1,0
127469,2.4,1,2,1,0,1,0
127471,2.4,1,2,1,0,1,0
127473,2.4,1,2,1,0,1,0
127475,2.4,1,2,1,0,1,0
127477,2.4,1,2,1,0,1,0
127479,2.4,1,2,1,0,1,0
127481,2.4,1,2,1,0,1,0
127483,2.4,1,2,1,0,1,0
127485,2.4,1,2,1,0,1,0
127487,2.4,1,2,1,0,1,0
127489,2.4,1,2,1,0,1,0
127491,2.4,1,2,1,0,1,0
127493,2.4,1,2,1,0,1,0
127495,2.4,1,2,1,0,1,0
127497,2.4,1,2,1,0,1,0
127499,2.4,1,2,1,0,1,0
127501,2.4,1,2,1,0,1,0
127503,2.4,1,2,1,0,1,0
127505,2.4,1,2,1,0,1,0
127507,2.4,1,2,1,0,1,0
127509,2.4,1,2,1,0,1,0
127511,2.4,1,2,1,0,1,0
127513,2.4,1,2,1,0,1,0
127515,2.4,1,2,1,0,1,0
127517,2.4,1,2,1,0,1,0
127519,2.4,1,2,1,0,1,0
127521,2.4,1,2,1,0,1,0
127523,2.4,1,2,1,0,1,0
127525,2.4,1,2,1,0,1,0
127527,2.4,1,2,1,0,1,0
127529,2.4,1,2,1,0,1,0
127531,2.4,1,2,1,0,1,0
127533,2.4,1,2,1,0,1,0
127535,2.4,1,2,1,0,1,0
127537,2.4,1,2,1,0,1,0
127539,2.4,1,2,1,0,1,0
127645,2.4,1,2,1,0,1,0
127647,2.4,1,2,1,0,1,0
127649,2.4,1,2,1,0,1,0
127651,2.4,1,2,1,0,1,0
127653,2.4,1,2,1,0,1,0
127655,2.4,1,2,1,0,1,0
127657,2.4,1,2,1,0,1,0
127659,2.4,1,2,1,0,1,0
127661,2.4,1,2,1,0,1,0
127663,2.4,1,2,1,0,1,0
127665,2.4,1,2,1,0,1,0
127667,2.4,1,2,1,0,1,0
127669,2.4,1,2,1,0,1,0
127671,2.4,1,2,1,0,1,0
127673,2.4,1,2,1,0,1,0
127673,2.4,1,2,1,0,1,0
127675,2.4,1,2,1,0,1,0
127675,2.4,1,2,1,0,1,0
127677,2.4,1,2,1,0,1,0
127677,2.4,1,2,1,0,1,0
127679,2.4,1,2,1,0,1,0
127679,2.4,1,2,1,0,1,0
127681,2.4,1,2,1,0,1,0
127681,2.4,1,2,1,0,1,0
127683,2.4,1,2,1,0,1,0
127683,2.4,1,2,1,0,1,0
127685,2.4,1,2,1,0,1,0
127685,2.4,1,2,1,0,1,0
127687,2.4,1,2,1,0,1,0
127687,2.4,1,2,1,0,1,0
127689,2.4,1,2,1,0,1,0
127689,2.4,1,2,1,0,1,0
127691,2.4,1,2,1,0,1,0
127691,2.4,1,2,1,0,1,0
127693,2.4,1,2,1,0,1,0
127693,2.4,1,2,1,0,1,0
127695,2.4,1,2,1,0,1,0
127695,2.4,1,2,1,0,1,0
127697,2.4,1,2,1,0,1,0
127697,2.4,1,2,1,0,1,0
127699,2.4,1,2,1,0,1,0
127699,2.4,1,2,1,0,1,0
127701,2.4,1,2,1,0,1,0
127701,2.4,1,2,1,0,1,0
127703,2.4,1,2,1,0,1,0
127703,2.4,1,2,1,0,1,0
127705,2.4,1,2,1,0,1,0
127705,2.4,1,2,1,0,1,0
127707,2.4,1,2,1,0,1,0
127707,2.4,1,2,1,0,1,0
127709,2.4,1,2,1,0,1,0
127709,2.4,1,2,1,0,1,0
127711,2.4,1,2,1,0,1,0
127711,2.4,1,2,1,0,1,0
127713,2.4,1,2,1,0,1,0
127713,2.4,1,2,1,0,1,0
127715,2.4,1,2,1,0,1,0
127715,2.4,1,2,1,0,1,0
127717,2.4,1,2,1,0,1,0
127717,2.4,1,2,1,0,1,0
127719,2.4,1,2,1,0,1,0
127719,2.4,1,2,1,0,1,0
127721,2.4,1,2,1,0,1,0
127721,2.4,1,2,1,0,1,0
127723,2.4,1,2,1,0,1,0
127725,2.4,1,2,1,0,1,0
127727,2.4,1,2,1,0,1,0
127729,2.4,1,2,1,0,1,0
127731,2.4,1,2,1,0,1,0
127733,2.4,1,2,1,0,1,0
127735,2.4,1,2,1,0,1,0
127737,2.4,1,2,1,0,1,0
127739,2.4,1,2,1,0,1,0
127741,2.4,1,2,1,0,1,0
127743,2.4,1,2,1,0,1,0
127743,2.4,1,2,1,0,1,0
127745,2.4,1,2,1,0,1,0
127745,2.4,1,2,1,0,1,0
127747,2.4,1,2,1,0,1,0
127747,2.4,1,2,1,0,1,0
127749,2.4,1,2,1,0,1,0
127749,2.4,1,2,1,0,1,0
127751,2.4,1,2,1,0,1,0
127753,2.4,1,2,1,0,1,0
127755,2.4,1,2,1,0,1,0
127757,2.4,1,2,1,0,1,0
127759,2.4,1,2,1,0,1,0
127761,2.4,1,2,1,0,1,0
127763,2.4,1,2,1,0,1,0
127765,2.4,1,2,1,0,1,0
127767,2.4,1,2,1,0,1,0
127769,2.4,1,2,1,0,1,0
127771,2.4,1,2,1,0,1,0
127773,2.4,1,2,1,0,1,0
127775,2.4,1,2,1,0,1,0
127777,2.4,1,2,1,0,1,0
127779,2.4,1,2,1,0,1,0
127781,2.4,1,2,1,0,1,0
127783,2.4,1,2,1,0,1,0
127785,2.4,1,2,1,0,1,0
127787,2.4,1,2,1,0,1,0
127789,2.4,1,2,1,0,1,0
127791,2.4,1,2,1,0,1,0
127793,2.4,1,2,1,0,1,0
127795,2.4,1,2,1,0,1,0
127797,2.4,1,2,1,0,1,0
127799,2.4,1,2,1,0,1,0
127801,2.4,1,2,1,0,1,0
127803,2.4,1,2,1,0,1,0
127805,2.4,1,2,1,0,1,0
127807,2.4,1,2,1,0,1,0
127809,2.4,1,2,1,0,1,0
127811,2.4,1,2,1,0,1,0
127813,2.4,1,2,1,0,1,0
127815,2.4,1,2,1,0,1,0
127817,2.4,1,2,1,0,1,0
127819,2.4,1,2,1,0,1,0
127854,2.4,1,2,1,0,1,0
127856,2.4,1,2,1,0,1,0
127858,2.4,1,2,1,0,1,0
127860,2.4,1,2,1,0,1,0
127862,2.4,1,2,1,0,1,0
127864,2.4,1,2,1,0,1,0
127866,2.4,1,2,1,0,1,0
127868,2.4,1,2,1,0,1,0
127870,2.4,1,2,1,0,1,0
127872,2.4,1,2,1,0,1,0
127874,2.4,1,2,1,0,1,0
127876,2.4,1,2,1,0,1,0
127878,2.4,1,2,1,0,1,0
127880,2.4,1,2,1,0,1,0
127882,2.4,1,2,1,0,1,0
127884,2.4,1,2,1,0,1,0
127886,2.4,1,2,1,0,1,0
127888,2.4,1,2,1,0,1,0
127890,2.4,1,2,1,0,1,0
127892,2.4,1,2,1,0,1,0
127893,2.4,1,2,1,0,1,0
127894,2.4,1,2,1,0,1,0
127895,2.4,1,2,1,0,1,0
127896,2.4,1,2,1,0,1,0
127897,2.4,1,2,1,0,1,0
127898,2.4,1,2,1,0,1,0
127899,2.4,1,2,1,0,1,0
127900,2.4,1,2,1,0,1,0
127901,2.4,1,2,1,0,1,0
127902,2.4,1,2,1,0,1,0
127903,2.4,1,2,1,0,1,0
127904,2.4,1,2,1,0,1,0
127905,2.4,1,2,1,0,1,0
127906,2.4,1,2,1,0,1,0
127907,2.4,1,2,1,0,1,0
127908,2.4,1,2,1,0,1,0
127909,2.4,1,2,1,0,1,0
127910,2.4,1,2,1,0,1,0
127911,2.4,1,2,1,0,1,0
127912,2.4,1,2,1,0,1,0
127913,2.4,1,2,1,0,1,0
127914,2.4,1,2,1,0,1,0
127915,2.4,1,2,1,0,1,0
127916,2.4,1,2,1,0,1,0
127917,2.4,1,2,1,0,1,0
127918,2.4,1,2,1,0,1,0
127919,2.4,1,2,1,0,1,0
127920,2.4,1,2,1,0,1,0
127921,2.4,1,2,1,0,1,0
127922,2.4,1,2,1,0,1,0
127923,2.4,1,2,1,0,1,0
127924,2.4,1,2,1,0,1,0
127925,2.4,1,2,1,0,1,0
127926,2.4,1,2,1,0,1,0
127927,2.4,1,2,1,0,1,0
127928,2.4,1,2,1,0,1,0
127929,2.4,1,2,1,0,1,0
127930,2.4,1,2,1,0,1,0
127931,2.4,1,2,1,0,1,0
127933,2.4,1,2,1,0,1,0
127935,2.4,1,2,1,0,1,0
127937,2.4,1,2,1,0,1,0
127939,2.4,1,2,1,0,1,0
127941,2.4,1,2,1,0,1,0
127943,2.4,1,2,1,0,1,0
127945,2.4,1,2,1,0,1,0
127946,2.4,1,2,1,0,1,0
127947,2.4,1,2,1,0,1,0
127948,2.4,1,2,1,0,1,0
127949,2.4,1,2,1,0,1,0
127950,2.4,1,2,1,0,1,0
127951,2.4,1,2,1,0,1,0
127952,2.4,1,2,1,0,1,0
127953,2.4,1,2,1,0,1,0
127954,2.4,1,2,1,0,1,0
127955,2.4,1,2,1,0,1,0
127956,2.4,1,2,1,0,1,0
127957,2.4,1,2,1,0,1,0
127958,2.4,1,2,1,0,1,0
127959,2.4,1,2,1,0,1,0
127960,2.4,1,2,1,0,1,0
127961,2.4,1,2,1,0,1,0
127962,2.4,1,2,1,0,1,0
127963,2.4,1,2,1,0,1,0
127964,2.4,1,2,1,0,1,0
127965,2.4,1,2,1,0,1,0
127966,2.4,1,2,1,0,1,0
127967,2.4,1,2,1,0,1,0
127968,2.4,1,2,1,0,1,0
127969,2.4,1,2,1,0,1,0
127970,2.4,1,2,1,0,1,0
127972,2.4,1,2,1,0,1,0
127974,2.4,1,2,1,0,1,0
127976,2.4,1,2,1,0,1,0
127978,2.4,1,2,1,0,1,0
127980,2.4,1,2,1,0,1,0
127982,2.4,1,2,1,0,1,0
127984,2.4,1,2,1,0,1,0
127986,2.4,1,2,1,0,1,0
127988,2.4,1,2,1,0,1,0
127990,2.4,1,2,1,0,1,0
127992,2.4,1,2,1,0,1,0
127994,2.4,1,2,1,0,1,0
127996,2.4,1,2,1,0,1,0
127998,2.4,1,2,1,0,1,0
128000,2.4,1,2,1,0,1,0
128002,2.4,1,2,1,0,1,0
128004,2.4,1,2,1,0,1,0
128006,2.4,1,2,1,0,1,0
128008,2.4,1,2,1,0,1,0
128010,2.4,1,2,1,0,1,0
128012,2.4,1,2,1,0,1,0
128014,2.4,1,2,1,0,1,0
128016,2.4,1,2,1,0,1,0
128018,2.4,1,2,1,0,1,0
128020,2.4,1,2,1,0,1,0
128022,2.4,1,2,1,0,1,0
128063,2.4,1,2,1,0,1,0
128065,2.4,1,2,1,0,1,0
128067,2.4,1,2,1,0,1,0
128069,2.4,1,2,1,0,1,0
128071,2.4,1,2,1,0,1,0
128073,2.4,1,2,1,0,1,0
128075,2.4,1,2,1,0,1,0
128077,2.4,1,2,1,0,1,0
128079,2.4,1,2,1,0,1,0
128081,2.4,1,2,1,0,1,0
128083,2.4,1,2,1,0,1,0
128085,2.4,1,2,1,0,1,0
128087,2.4,1,2,1,0,1,0
128089,2.4,1,2,1,0,1,0
128091,2.4,1,2,1,0,1,0
128093,2.4,1,2,1,0,1,0
128095,2.4,1,2,1,0,1,0
128097,2.4,1,2,1,0,1,0
128099,2.4,1,2,1,0,1,0
128101,2.4,1,2,1,0,1,0
128103,2.4,1,2,1,0,1,0
128105,2.4,1,2,1,0,1,0
128107,2.4,1,2,1,0,1,0
128109,2.4,1,2,1,0,1,0
128111,2.4,1,2,1,0,1,0
128113,2.4,1,2,1,0,1,0
128115,2.4,1,2,1,0,1,0
128117,2.4,1,2,1,0,1,0
128119,2.4,1,2,1,0,1,0
128121,2.4,1,2,1,0,1,0
128123,2.4,1,2,1,0,1,0
128125,2.4,1,2,1,0,1,0
128127,2.4,1,2,1,0,1,0
128129,2.4,1,2,1,0,1,0
128131,2.4,1,2,1,0,1,0
128133,2.4,1,2,1,0,1,0
128135,2.4,1,2,1,0,1,0
128137,2.4,1,2,1,0,1,0
128139,2.4,1,2,1,0,1,0
128164,2.4,1,2,1,0,1,0
128166,2.4,1,2,1,0,1,0
128168,2.4,1,2,1,0,1,0
128170,2.4,1,2,1,0,1,0
128172,2.4,1,2,1,0,1,0
128174,2.4,1,2,1,0,1,0
128176,2.4,1,2,1,0,1,0
128178,2.4,1,2,1,0,1,0
128180,2.4,1,2,1,0,1,0
128182,2.4,1,2,1,0,1,0
128184,2.4,1,2,1,0,1,0
128186,2.4,1,2,1,0,1,0
128188,2.4,1,2,1,0,1,0
128190,2.4,1,2,1,0,1,0
128192,2.4,1,2,1,0,1,0
128194,2.4,1,2,1,0,1,0
128196,2.4,1,2,1,0,1,0
128198,2.4,1,2,1,0,1,0
128200,2.4,1,2,1,0,1,0
128202,2.4,1,2,1,0,1,0
128204,2.4,1,2,1,0,1,0
128206,2.4,1,2,1,0,1,0
128208,2.4,1,2,1,0,1,0
128210,2.4,1,2,1,0,1,0
128212,2.4,1,2,1,0,1,0
128214,2.4,1,2,1,0,1,0
128216,2.4,1,2,1,0,1,0
128218,2.4,1,2,1,0,1,0
128220,2.4,1,2,1,0,1,0
128222,2.4,1,2,1,0,1,0
128224,2.4,1,2,1,0,1,0
128226,2.4,1,2,1,0,1,0
128228,2.4,1,2,1,0,1,0
128230,2.4,1,2,1,0,1,0
128232,2.4,1,2,1,0,1,0
128234,2.4,1,2,1,0,1,0
128236,2.4,1,2,1,0,1,0
128238,2.4,1,2,1,0,1,0
128240,2.4,1,2,1,0,1,0
128372,2.4,1,2,1,0,1,0
128374,2.4,1,2,1,0,1,0
128376,2.4,1,2,1,0,1,0
128378,2.4,1,2,1,0,1,0
128380,2.4,1,2,1,0,1,0
128382,2.4,1,2,1,0,1,0
128384,2.4,1,2,1,0,1,0
128386,2.4,1,2,1,0,1,0
128388,2.4,1,2,1,0,1,0
128390,2.4,1,2,1,0,1,0
128392,2.4,1,2,1,0,1,0
128394,2.4,1,2,1,0,1,0
128396,2.4,1,2,1,0,1,0
128398,2.4,1,2,1,0,1,0
128400,2.4,1,2,1,0,1,0
128402,2.4,1,2,1,0,1,0
128404,2.4,1,2,1,0,1,0
128406,2.4,1,2,1,0,1,0
128408,2.4,1,2,1,0,1,0
128410,2.4,1,2,1,0,1,0
128412,2.4,1,2,1,0,1,0
128414,2.4,1,2,1,0,1,0
128416,2.4,1,2,1,0,1,0
128418,2.4,1,2,1,0,1,0
128420,2.4,1,2,1,0,1,0
128422,2.4,1,2,1,0,1,0
128424,2.4,1,2,1,0,1,0
128426,2.4,1,2,1,0,1,0
128428,2.4,1,2,1,0,1,0
128430,2.4,1,2,1,0,1,0
128432,2.4,1,2,1,0,1,0
128434,2.4,1,2,1,0,1,0
128436,2.4,1,2,1,0,1,0
128438,2.4,1,2,1,0,1,0
128440,2.4,1,2,1,0,1,0
128442,2.4,1,2,1,0,1,0
128444,2.4,1,2,1,0,1,0
128446,2.4,1,2,1,0,1,0
128448,2.4,1,2,1,0,1,0
128471,2.4,1,2,1,0,1,0
128473,2.4,1,2,1,0,1,0
128475,2.4,1,2,1,0,1,0
128477,2.4,1,2,1,0,1,0
128479,2.4,1,2,1,0,1,0
128481,2.4,1,2,1,0,1,0
128483,2.4,1,2,1,0,1,0
128485,2.4,1,2,1,0,1,0
128487,2.4,1,2,1,0,1,0
128489,2.4,1,2,1,0,1,0
128491,2.4,1,2,1,0,1,0
128491,2.4,1,2,1,0,1,0
128493,2.4,1,2,1,0,1,0
128493,2.4,1,2,1,0,1,0
128495,2.4,1,2,1,0,1,0
128495,2.4,1,2,1,0,1,0
128497,2.4,1,2,1,0,1,0
128497,2.4,1,2,1,0,1,0
128499,2.4,1,2,1,0,1,0
128499,2.4,1,2,1,0,1,0
128501,2.4,1,2,1,0,1,0
128501,2.4,1,2,1,0,1,0
128503,2.4,1,2,1,0,1,0
128503,2.4,1,2,1,0,1,0
128505,2.4,1,2,1,0,1,0
128505,2.4,1,2,1,0,1,0
128507,2.4,1,2,1,0,1,0
128507,2.4,1,2,1,0,1,0
128509,2.4,1,2,1,0,1,0
128509,2.4,1,2,1,0,1,0
128511,2.4,1,2,1,0,1,0
128511,2.4,1,2,1,0,1,0
128513,2.4,1,2,1,0,1,0
128513,2.4,1,2,1,0,1,0
128515,2.4,1,2,1,0,1,0
128515,2.4,1,2,1,0,1,0
128517,2.4,1,2,1,0,1,0
128517,2.4,1,2,1,0,1,0
128519,2.4,1,2,1,0,1,0
128519,2.4,1,2,1,0,1,0
128521,2.4,1,2,1,0,1,0
128521,2.4,1,2,1,0,1,0
128523,2.4,1,2,1,0,1,0
128523,2.4,1,2,1,0,1,0
128525,2.4,1,2,1,0,1,0
128525,2.4,1,2,1,0,1,0
128527,2.4,1,2,1,0,1,0
128527,2.4,1,2,1,0,1,0
128529,2.4,1,2,1,0,1,0
128529,2.4,1,2,1,0,1,0
128531,2.4,1,2,1,0,1,0
128531,2.4,1,2,1,0,1,0
128533,2.4,1,2,1,0,1,0
128533,2.4,1,2,1,0,1,0
128535,2.4,1,2,1,0,1,0
128535,2.4,1,2,1,0,1,0
128537,2.4,1,2,1,0,1,0
128537,2.4,1,2,1,0,1,0
128539,2.4,1,2,1,0,1,0
128539,2.4,1,2,1,0,1,0
128541,2.4,1,2,1,0,1,0
128541,2.4,1,2,1,0,1,0
128543,2.4,1,2,1,0,1,0
128543,2.4,1,2,1,0,1,0
128545,2.4,1,2,1,0,1,0
128545,2.4,1,2,1,0,1,0
128547,2.4,1,2,1,0,1,0
128547,2.4,1,2,1,0,1,0
128549,2.4,1,2,1,0,1,0
128551,2.4,1,2,1,0,1,0
128553,2.4,1,2,1,0,1,0
128555,2.4,1,2,1,0,1,0
128557,2.4,1,2,1,0,1,0
128559,2.4,1,2,1,0,1,0
128561,2.4,1,2,1,0,1,0
128563,2.4,1,2,1,0,1,0
128565,2.4,1,2,1,0,1,0
128567,2.4,1,2,1,0,1,0
128680,2.4,1,2,1,0,1,0
128682,2.4,1,2,1,0,1,0
128684,2.4,1,2,1,0,1,0
128686,2.4,1,2,1,0,1,0
128688,2.4,1,2,1,0,1,0
128690,2.4,1,2,1,0,1,0
128692,2.4,1,2,1,0,1,0
128694,2.4,1,2,1,0,1,0
128696,2.4,1,2,1,0,1,0
128698,2.4,1,2,1,0,1,0
128700,2.4,1,2,1,0,1,0
128702,2.4,1,2,1,0,1,0
128704,2.4,1,2,1,0,1,0
128706,2.4,1,2,1,0,1,0
128708,2.4,1,2,1,0,1,0
128710,2.4,1,2,1,0,1,0
128712,2.4,1,2,1,0,1,0
128714,2.4,1,2,1,0,1,0
128716,2.4,1,2,1,0,1,0
128716,2.4,1,2,1,0,1,0
128718,2.4,1,2,1,0,1,0
128718,2.4,1,2,1,0,1,0
128720,2.4,1,2,1,0,1,0
128720,2.4,1,2,1,0,1,0
128722,2.4,1,2,1,0,1,0
128722,2.4,1,2,1,0,1,0
128724,2.4,1,2,1,0,1,0
128724,2.4,1,2,1,0,1,0
128726,2.4,1,2,1,0,1,0
128726,2.4,1,2,1,0,1,0
128728,2.4,1,2,1,0,1,0
128728,2.4,1,2,1,0,1,0
128730,2.4,1,2,1,0,1,0
128730,2.4,1,2,1,0,1,0
128732,2.4,1,2,1,0,1,0
128732,2.4,1,2,1,0,1,0
128734,2.4,1,2,1,0,1,0
128734,2.4,1,2,1,0,1,0
128736,2.4,1,2,1,0,1,0
128736,2.4,1,2,1,0,1,0
128738,2.4,1,2,1,0,1,0
128738,2.4,1,2,1,0,1,0
128740,2.4,1,2,1,0,1,0
128740,2.4,1,2,1,0,1,0
128742,2.4,1,2,1,0,1,0
128742,2.4,1,2,1,0,1,0
128744,2.4,1,2,1,0,1,0
128744,2.4,1,2,1,0,1,0
128746,2.4,1,2,1,0,1,0
128746,2.4,1,2,1,0,1,0
128748,2.4,1,2,1,0,1,0
128748,2.4,1,2,1,0,1,0
128750,2.4,1,2,1,0,1,0
128750,2.4,1,2,1,0,1,0
128752,2.4,1,2,1,0,1,0
128752,2.4,1,2,1,0,1,0
128754,2.4,1,2,1,0,1,0
128754,2.4,1,2,1,0,1,0
128756,2.4,1,2,1,0,1,0
128756,2.4,1,2,1,0,1,0
128758,2.4,1,2,1,0,1,0
128760,2.4,1,2,1,0,1,0
128762,2.4,1,2,1,0,1,0
128764,2.4,1,2,1,0,1,0
128766,2.4,1,2,1,0,1,0
128768,2.4,1,2,1,0,1,0
128770,2.4,1,2,1,0,1,0
128772,2.4,1,2,1,0,1,0
128774,2.4,1,2,1,0,1,0
128776,2.4,1,2,1,0,1,0
128778,2.4,1,2,1,0,1,0
128780,2.4,1,2,1,0,1,0
128782,2.4,1,2,1,0,1,0
128784,2.4,1,2,1,0,1,0
128786,2.4,1,2,1,0,1,0
128788,2.4,1,2,1,0,1,0
128790,2.4,1,2,1,0,1,0
128792,2.4,1,2,1,0,1,0
128842,2.4,1,2,1,0,1,0
128844,2.4,1,2,1,0,1,0
128846,2.4,1,2,1,0,1,0
128848,2.4,1,2,1,0,1,0
128850,2.4,1,2,1,0,1,0
128852,2.4,1,2,1,0,1,0
128854,2.4,1,2,1,0,1,0
128856,2.4,1,2,1,0,1,0
128858,2.4,1,2,1,0,1,0
128860,2.4,1,2,1,0,1,0
128862,2.4,1,2,1,0,1,0
128864,2.4,1,2,1,0,1,0
128866,2.4,1,2,1,0,1,0
128868,2.4,1,2,1,0,1,0
128870,2.4,1,2,1,0,1,0
128872,2.4,1,2,1,0,1,0
128874,2.4,1,2,1,0,1,0
128876,2.4,1,2,1,0,1,0
128878,2.4,1,2,1,0,1,0
128880,2.4,1,2,1,0,1,0
128882,2.4,1,2,1,0,1,0
128884,2.4,1,2,1,0,1,0
128886,2.4,1,2,1,0,1,0
128888,2.4,1,2,1,0,1,0
128890,2.4,1,2,1,0,1,0
128892,2.4,1,2,1,0,1,0
128894,2.4,1,2,1,0,1,0
128896,2.4,1,2,1,0,1,0
128898,2.4,1,2,1,0,1,0
128900,2.4,1,2,1,0,1,0
128902,2.4,1,2,1,0,1,0
128904,2.4,1,2,1,0,1,0
128906,2.4,1,2,1,0,1,0
128908,2.4,1,2,1,0,1,0
128910,2.4,1,2,1,0,1,0
128912,2.4,1,2,1,0,1,0
128914,2.4,1,2,1,0,1,0
128916,2.4,1,2,1,0,1,0
128918,2.4,1,2,1,0,1,0
129058,2.4,1,2,1,0,1,0
129060,2.4,1,2,1,0,1,0
129062,2.4,1,2,1,0,1,0
129064,2.4,1,2,1,0,1,0
129066,2.4,1,2,1,0,1,0
129068,2.4,1,2,1,0,1,0
129070,2.4,1,2,1,0,1,0
129072,2.4,1,2,1,0,1,0
129074,2.4,1,2,1,0,1,0
129076,2.4,1,2,1,0,1,0
129078,2.4,1,2,1,0,1,0
129080,2.4,1,2,1,0,1,0
129082,2.4,1,2,1,0,1,0
129084,2.4,1,2,1,0,1,0
129086,2.4,1,2,1,0,1,0
129088,2.4,1,2,1,0,1,0
129090,2.4,1,2,1,0,1,0
129092,2.4,1,2,1,0,1,0
129094,2.4,1,2,1,0,1,0
129096,2.4,1,2,1,0,1,0
129098,2.4,1,2,1,0,1,0
129100,2.4,1,2,1,0,1,0
129102,2.4,1,2,1,0,1,0
129104,2.4,1,2,1,0,1,0
129106,2.4,1,2,1,0,1,0
129108,2.4,1,2,1,0,1,0
129110,2.4,1,2,1,0,1,0
129112,2.4,1,2,1,0,1,0
129114,2.4,1,2,1,0,1,0
129116,2.4,1,2,1,0,1,0
129118,2.4,1,2,1,0,1,0
129120,2.4,1,2,1,0,1,0
129122,2.4,1,2,1,0,1,0
129124,2.4,1,2,1,0,1,0
129126,2.4,1,2,1,0,1,0
129128,2.4,1,2,1,0,1,0
129130,2.4,1,2,1,0,1,0
129132,2.4,1,2,1,0,1,0
129134,2.4,1,2,1,0,1,0
129290,2.4,1,2,1,0,1,0
129292,2.4,1,2,1,0,1,0
129294,2.4,1,2,1,0,1,0
129296,2.4,1,2,1,0,1,0
129298,2.4,1,2,1,0,1,0
129300,2.4,1,2,1,0,1,0
129302,2.4,1,2,1,0,1,0
129304,2.4,1,2,1,0,1,0
129306,2.4,1,2,1,0,1,0
129308,2.4,1,2,1,0,1,0
129310,2.4,1,2,1,0,1,0
129312,2.4,1,2,1,0,1,0
129314,2.4,1,2,1,0,1,0
129316,2.4,1,2,1,0,1,0
129318,2.4,1,2,1,0,1,0
129320,2.4,1,2,1,0,1,0
129322,2.4,1,2,1,0,1,0
129324,2.4,1,2,1,0,1,0
129326,2.4,1,2,1,0,1,0
129328,2.4,1,2,1,0,1,0
129330,2.4,1,2,1,0,1,0
129332,2.4,1,2,1,0,1,0
129334,2.4,1,2,1,0,1,0
129336,2.4,1,2,1,0,1,0
129338,2.4,1,2,1,0,1,0
129340,2.4,1,2,1,0,1,0
129342,2.4,1,2,1,0,1,0
129344,2.4,1,2,1,0,1,0
129346,2.4,1,2,1,0,1,0
129348,2.4,1,2,1,0,1,0
129350,2.4,1,2,1,0,1,0
129352,2.4,1,2,1,0,1,0
129354,2.4,1,2,1,0,1,0
129356,2.4,1,2,1,0,1,0
129358,2.4,1,2,1,0,1,0
129360,2.4,1,2,1,0,1,0
129362,2.4,1,2,1,0,1,0
129364,2.4,1,2,1,0,1,0
129366,2.4,1,2,1,0,1,0
129379,2.4,1,2,1,0,1,0
129381,2.4,1,2,1,0,1,0
129383,2.4,1,2,1,0,1,0
129385,2.4,1,2,1,0,1,0
129387,2.4,1,2,1,0,1,0
129387,2.4,1,2,1,0,1,0
129389,2.4,1,2,1,0,1,0
129389,2.4,1,2,1,0,1,0
129391,2.4,1,2,1,0,1,0
129391,2.4,1,2,1,0,1,0
129393,2.4,1,2,1,0,1,0
129393,2.4,1,2,1,0,1,0
129395,2.4,1,2,1,0,1,0
129395,2.4,1,2,1,0,1,0
129397,2.4,1,2,1,0,1,0
129397,2.4,1,2,1,0,1,0
129399,2.4,1,2,1,0,1,0
129399,2.4,1,2,1,0,1,0
129401,2.4,1,2,1,0,1,0
129401,2.4,1,2,1,0,1,0
129403,2.4,1,2,1,0,1,0
129403,2.4,1,2,1,0,1,0
129405,2.4,1,2,1,0,1,0
129405,2.4,1,2,1,0,1,0
129407,2.4,1,2,1,0,1,0
129407,2.4,1,2,1,0,1,0
129409,2.4,1,2,1,0,1,0
129409,2.4,1,2,1,0,1,0
129411,2.4,1,2,1,0,1,0
129411,2.4,1,2,1,0,1,0
129413,2.4,1,2,1,0,1,0
129413,2.4,1,2,1,0,1,0
129415,2.4,1,2,1,0,1,0
129415,2.4,1,2,1,0,1,0
129417,2.4,1,2,1,0,1,0
129417,2.4,1,2,1,0,1,0
129419,2.4,1,2,1,0,1,0
129419,2.4,1,2,1,0,1,0
129421,2.4,1,2,1,0,1,0
129421,2.4,1,2,1,0,1,0
129423,2.4,1,2,1,0,1,0
129423,2.4,1,2,1,0,1,0
129425,2.4,1,2,1,0,1,0
129425,2.4,1,2,1,0,1,0
129427,2.4,1,2,1,0,1,0
129427,2.4,1,2,1,0,1,0
129429,2.4,1,2,1,0,1,0
129429,2.4,1,2,1,0,1,0
129431,2.4,1,2,1,0,1,0
129431,2.4,1,2,1,0,1,0
129433,2.4,1,2,1,0,1,0
129433,2.4,1,2,1,0,1,0
129435,2.4,1,2,1,0,1,0
129435,2.4,1,2,1,0,1,0
129437,2.4,1,2,1,0,1,0
129437,2.4,1,2,1,0,1,0
129439,2.4,1,2,1,0,1,0
129439,2.4,1,2,1,0,1,0
129441,2.4,1,2,1,0,1,0
129441,2.4,1,2,1,0,1,0
129443,2.4,1,2,1,0,1,0
129443,2.4,1,2,1,0,1,0
129445,2.4,1,2,1,0,1,0
129445,2.4,1,2,1,0,1,0
129447,2.4,1,2,1,0,1,0
129447,2.4,1,2,1,0,1,0
129449,2.4,1,2,1,0,1,0
129449,2.4,1,2,1,0,1,0
129451,2.4,1,2,1,0,1,0
129451,2.4,1,2,1,0,1,0
129453,2.4,1,2,1,0,1,0
129453,2.4,1,2,1,0,1,0
129455,2.4,1,2,1,0,1,0
129455,2.4,1,2,1,0,1,0
129457,2.4,1,2,1,0,1,0
129459,2.4,1,2,1,0,1,0
129461,2.4,1,2,1,0,1,0
129463,2.4,1,2,1,0,1,0
129589,2.4,1,2,1,0,1,0
129591,2.4,1,2,1,0,1,0
129593,2.4,1,2,1,0,1,0
129595,2.4,1,2,1,0,1,0
129597,2.4,1,2,1,0,1,0
129599,2.4,1,2,1,0,1,0
129601,2.4,1,2,1,0,1,0
129603,2.4,1,2,1,0,1,0
129605,2.4,1,2,1,0,1,0
129607,2.4,1,2,1,0,1,0
129609,2.4,1,2,1,0,1,0
129611,2.4,1,2,1,0,1,0
129613,2.4,1,2,1,0,1,0
129615,2.4,1,2,1,0,1,0
129617,2.4,1,2,1,0,1,0
129619,2.4,1,2,1,0,1,0
129621,2.4,1,2,1,0,1,0
129623,2.4,1,2,1,0,1,0
129625,2.4,1,2,1,0,1,0
129627,2.4,1,2,1,0,1,0
129629,2.4,1,2,1,0,1,0
129631,2.4,1,2,1,0,1,0
129633,2.4,1,2,1,0,1,0
129635,2.4,1,2,1,0,1,0
129637,2.4,1,2,1,0,1,0
129639,2.4,1,2,1,0,1,0
129641,2.4,1,2,1,0,1,0
129643,2.4,1,2,1,0,1,0
129645,2.4,1,2,1,0,1,0
129647,2.4,1,2,1,0,1,0
129649,2.4,1,2,1,0,1,0
129651,2.4,1,2,1,0,1,0
129653,2.4,1,2,1,0,1,0
129655,2.4,1,2,1,0,1,0
129657,2.4,1,2,1,0,1,0
129659,2.4,1,2,1,0,1,0
129661,2.4,1,2,1,0,1,0
129663,2.4,1,2,1,0,1,0
129665,2.4,1,2,1,0,1,0
129667,2.4,1,2,1,0,1,0
129669,2.4,1,2,1,0,1,0
129671,2.4,1,2,1,0,1,0
129673,2.4,1,2,1,0,1,0
129675,2.4,1,2,1,0,1,0
129677,2.4,1,2,1,0,1,0
129679,2.4,1,2,1,0,1,0
129681,2.4,1,2,1,0,1,0
129683,2.4,1,2,1,0,1,0
129685,2.4,1,2,1,0,1,0
129687,2.4,1,2,1,0,1,0
129689,2.4,1,2,1,0,1,0
129691,2.4,1,2,1,0,1,0
129693,2.4,1,2,1,0,1,0
129695,2.4,1,2,1,0,1,0
129697,2.4,1,2,1,0,1,0
129699,2.4,1,2,1,0,1,0
129701,2.4,1,2,1,0,1,0
129703,2.4,1,2,1,0,1,0
129705,2.4,1,2,1,0,1,0
129707,2.4,1,2,1,0,1,0
129709,2.4,1,2,1,0,1,0
129711,2.4,1,2,1,0,1,0
129713,2.4,1,2,1,0,1,0
129715,2.4,1,2,1,0,1,0
129717,2.4,1,2,1,0,1,0
129719,2.4,1,2,1,0,1,0
129721,2.4,1,2,1,0,1,0
129723,2.4,1,2,1,0,1,0
129725,2.4,1,2,1,0,1,0
129727,2.4,1,2,1,0,1,0
129729,2.4,1,2,1,0,1,0
129731,2.4,1,2,1,0,1,0
129733,2.4,1,2,1,0,1,0
129735,2.4,1,2,1,0,1,0
129737,2.4,1,2,1,0,1,0
129739,2.4,1,2,1,0,1,0
129741,2.4,1,2,1,0,1,0
129743,2.4,1,2,1,0,1,0
129836,2.4,1,2,1,0,1,0
129838,2.4,1,2,1,0,1,0
129840,2.4,1,2,1,0,1,0
129842,2.4,1,2,1,0,1,0
129844,2.4,1,2,1,0,1,0
129846,2.4,1,2,1,0,1,0
129848,2.4,1,2,1,0,1,0
129850,2.4,1,2,1,0,1,0
129852,2.4,1,2,1,0,1,0
129854,2.4,1,2,1,0,1,0
129856,2.4,1,2,1,0,1,0
129858,2.4,1,2,1,0,1,0
129860,2.4,1,2,1,0,1,0
129862,2.4,1,2,1,0,1,0
129864,2.4,1,2,1,0,1,0
129866,2.4,1,2,1,0,1,0
129868,2.4,1,2,1,0,1,0
129870,2.4,1,2,1,0,1,0
129872,2.4,1,2,1,0,1,0
129874,2.4,1,2,1,0,1,0
129876,2.4,1,2,1,0,1,0
129878,2.4,1,2,1,0,1,0
129880,2.4,1,2,1,0,1,0
129882,2.4,1,2,1,0,1,0
129884,2.4,1,2,1,0,1,0
129886,2.4,1,2,1,0,1,0
129888,2.4,1,2,1,0,1,0
129889,2.4,1,2,1,0,1,0
129890,2.4,1,2,1,0,1,0
129891,2.4,1,2,1,0,1,0
129892,2.4,1,2,1,0,1,0
129893,2.4,1,2,1,0,1,0
129894,2.4,1,2,1,0,1,0
129895,2.4,1,2,1,0,1,0
129896,2.4,1,2,1,0,1,0
129897,2.4,1,2,1,0,1,0
129898,2.4,1,2,1,0,1,0
129899,2.4,1,2,1,0,1,0
129900,2.4,1,2,1,0,1,0
129901,2.4,1,2,1,0,1,0
129902,2.4,1,2,1,0,1,0
129903,2.4,1,2,1,0,1,0
129904,2.4,1,2,1,0,1,0
129905,2.4,1,2,1,0,1,0
129906,2.4,1,2,1,0,1,0
129907,2.4,1,2,1,0,1,0
129908,2.4,1,2,1,0,1,0
129909,2.4,1,2,1,0,1,0
129910,2.4,1,2,1,0,1,0
129911,2.4,1,2,1,0,1,0
129912,2.4,1,2,1,0,1,0
129913,2.4,1,2,1,0,1,0
129915,2.4,1,2,1,0,1,0
129917,2.4,1,2,1,0,1,0
129919,2.4,1,2,1,0,1,0
129921,2.4,1,2,1,0,1,0
129923,2.4,1,2,1,0,1,0
129925,2.4,1,2,1,0,1,0
129927,2.4,1,2,1,0,1,0
129929,2.4,1,2,1,0,1,0
129931,2.4,1,2,1,0,1,0
129933,2.4,1,2,1,0,1,0
129935,2.4,1,2,1,0,1,0
129937,2.4,1,2,1,0,1,0
129939,2.4,1,2,1,0,1,0
129941,2.4,1,2,1,0,1,0
129943,2.4,1,2,1,0,1,0
129945,2.4,1,2,1,0,1,0
129947,2.4,1,2,1,0,1,0
129949,2.4,1,2,1,0,1,0
129951,2.4,1,2,1,0,1,0
129953,2.4,1,2,1,0,1,0
129955,2.4,1,2,1,0,1,0
129957,2.4,1,2,1,0,1,0
129959,2.4,1,2,1,0,1,0
129961,2.4,1,2,1,0,1,0
129963,2.4,1,2,1,0,1,0
129965,2.4,1,2,1,0,1,0
130005,2.4,1,2,1,0,1,0
130007,2.4,1,2,1,0,1,0
130009,2.4,1,2,1,0,1,0
130011,2.4,1,2,1,0,1,0
130013,2.4,1,2,1,0,1,0
130015,2.4,1,2,1,0,1,0
130017,2.4,1,2,1,0,1,0
130019,2.4,1,2,1,0,1,0
130021,2.4,1,2,1,0,1,0
130023,2.4,1,2,1,0,1,0
130025,2.4,1,2,1,0,1,0
130027,2.4,1,2,1,0,1,0
130029,2.4,1,2,1,0,1,0
130031,2.4,1,2,1,0,1,0
130033,2.4,1,2,1,0,1,0
130035,2.4,1,2,1,0,1,0
130037,2.4,1,2,1,0,1,0
130039,2.4,1,2,1,0,1,0
130041,2.4,1,2,1,0,1,0
130043,2.4,1,2,1,0,1,0
130045,2.4,1,2,1,0,1,0
130047,2.4,1,2,1,0,1,0
130049,2.4,1,2,1,0,1,0
130051,2.4,1,2,1,0,1,0
130053,2.4,1,2,1,0,1,0
130055,2.4,1,2,1,0,1,0
130057,2.4,1,2,1,0,1,0
130059,2.4,1,2,1,0,1,0
130061,2.4,1,2,1,0,1,0
130063,2.4,1,2,1,0,1,0
130065,2.4,1,2,1,0,1,0
130067,2.4,1,2,1,0,1,0
130069,2.4,1,2,1,0,1,0
130071,2.4,1,2,1,0,1,0
130073,2.4,1,2,1,0,1,0
130075,2.4,1,2,1,0,1,0
130077,2.4,1,2,1,0,1,0
130079,2.4,1,2,1,0,1,0
130081,2.4,1,2,1,0,1,0
130085,2.4,1,2,1,0,1,0
130087,2.4,1,2,1,0,1,0
130089,2.4,1,2,1,0,1,0
130090,2.4,1,2,1,0,1,0
130091,2.4,1,2,1,0,1,0
130092,2.4,1,2,1,0,1,0
130093,2.4,1,2,1,0,1,0
130094,2.4,1,2,1,0,1,0
130095,2.4,1,2,1,0,1,0
130096,2.4,1,2,1,0,1,0
130097,2.4,1,2,1,0,1,0
130098,2.4,1,2,1,0,1,0
130099,2.4,1,2,1,0,1,0
130100,2.4,1,2,1,0,1,0
130101,2.4,1,2,1,0,1,0
130102,2.4,1,2,1,0,1,0
130103,2.4,1,2,1,0,1,0
130104,2.4,1,2,1,0,1,0
130105,2.4,1,2,1,0,1,0
130106,2.4,1,2,1,0,1,0
130107,2.4,1,2,1,0,1,0
130108,2.4,1,2,1,0,1,0
130109,2.4,1,2,1,0,1,0
130110,2.4,1,2,1,0,1,0
130111,2.4,1,2,1,0,1,0
130112,2.4,1,2,1,0,1,0
130113,2.4,1,2,1,0,1,0
130114,2.4,1,2,1,0,1,0
130115,2.4,1,2,1,0,1,0
130116,2.4,1,2,1,0,1,0
130117,2.4,1,2,1,0,1,0
130118,2.4,1,2,1,0,1,0
130119,2.4,1,2,1,0,1,0
130120,2.4,1,2,1,0,1,0
130121,2.4,1,2,1,0,1,0
130122,2.4,1,2,1,0,1,0
130123,2.4,1,2,1,0,1,0
130124,2.4,1,2,1,0,1,0
130125,2.4,1,2,1,0,1,0
130126,2.4,1,2,1,0,1,0
130127,2.4,1,2,1,0,1,0
130128,2.4,1,2,1,0,1,0
130129,2.4,1,2,1,0,1,0
130130,2.4,1,2,1,0,1,0
130131,2.4,1,2,1,0,1,0
130132,2.4,1,2,1,0,1,0
130133,2.4,1,2,1,0,1,0
130134,2.4,1,2,1,0,1,0
130135,2.4,1,2,1,0,1,0
130136,2.4,1,2,1,0,1,0
130137,2.4,1,2,1,0,1,0
130138,2.4,1,2,1,0,1,0
130139,2.4,1,2,1,0,1,0
130140,2.4,1,2,1,0,1,0
130141,2.4,1,2,1,0,1,0
130142,2.4,1,2,1,0,1,0
130143,2.4,1,2,1,0,1,0
130144,2.4,1,2,1,0,1,0
130145,2.4,1,2,1,0,1,0
130146,2.4,1,2,1,0,1,0
130147,2.4,1,2,1,0,1,0
130148,2.4,1,2,1,0,1,0
130149,2.4,1,2,1,0,1,0
130150,2.4,1,2,1,0,1,0
130151,2.4,1,2,1,0,1,0
130152,2.4,1,2,1,0,1,0
130153,2.4,1,2,1,0,1,0
130154,2.4,1,2,1,0,1,0
130155,2.4,1,2,1,0,1,0
130156,2.4,1,2,1,0,1,0
130157,2.4,1,2,1,0,1,0
130158,2.4,1,2,1,0,1,0
130159,2.4,1,2,1,0,1,0
130160,2.4,1,2,1,0,1,0
130161,2.4,1,2,1,0,1,0
130162,2.4,1,2,1,0,1,0
130164,2.4,1,2,1,0,1,0
130166,2.4,1,2,1,0,1,0
130193,2.4,1,2,1,0,1,0
130195,2.4,1,2,1,0,1,0
130197,2.4,1,2,1,0,1,0
130199,2.4,1,2,1,0,1,0
130201,2.4,1,2,1,0,1,0
130203,2.4,1,2,1,0,1,0
130205,2.4,1,2,1,0,1,0
130207,2.4,1,2,1,0,1,0
130209,2.4,1,2,1,0,1,0
130211,2.4,1,2,1,0,1,0
130213,2.4,1,2,1,0,1,0
130215,2.4,1,2,1,0,1,0
130217,2.4,1,2,1,0,1,0
130219,2.4,1,2,1,0,1,0
130221,2.4,1,2,1,0,1,0
130223,2.4,1,2,1,0,1,0
130225,2.4,1,2,1,0,1,0
130227,2.4,1,2,1,0,1,0
130229,2.4,1,2,1,0,1,0
130231,2.4,1,2,1,0,1,0
130233,2.4,1,2,1,0,1,0
130235,2.4,1,2,1,0,1,0
130237,2.4,1,2,1,0,1,0
130239,2.4,1,2,1,0,1,0
130241,2.4,1,2,1,0,1,0
130243,2.4,1,2,1,0,1,0
130245,2.4,1,2,1,0,1,0
130247,2.4,1,2,1,0,1,0
130249,2.4,1,2,1,0,1,0
130251,2.4,1,2,1,0,1,0
130253,2.4,1,2,1,0,1,0
130255,2.4,1,2,1,0,1,0
130257,2.4,1,2,1,0,1,0
130259,2.4,1,2,1,0,1,0
130261,2.4,1,2,1,0,1,0
130263,2.4,1,2,1,0,1,0
130265,2.4,1,2,1,0,1,0
130267,2.4,1,2,1,0,1,0
130269,2.4,1,2,1,0,1,0
130300,2.4,1,2,1,0,1,0
130302,2.4,1,2,1,0,1,0
130304,2.4,1,2,1,0,1,0
130306,2.4,1,2,1,0,1,0
130308,2.4,1,2,1,0,1,0
130310,2.4,1,2,1,0,1,0
130312,2.4,1,2,1,0,1,0
130314,2.4,1,2,1,0,1,0
130316,2.4,1,2,1,0,1,0
130318,2.4,1,2,1,0,1,0
130320,2.4,1,2,1,0,1,0
130322,2.4,1,2,1,0,1,0
130324,2.4,1,2,1,0,1,0
130326,2.4,1,2,1,0,1,0
130328,2.4,1,2,1,0,1,0
130330,2.4,1,2,1,0,1,0
130332,2.4,1,2,1,0,1,0
130334,2.4,1,2,1,0,1,0
130336,2.4,1,2,1,0,1,0
130338,2.4,1,2,1,0,1,0
130340,2.4,1,2,1,0,1,0
130342,2.4,1,2,1,0,1,0
130344,2.4,1,2,1,0,1,0
130346,2.4,1,2,1,0,1,0
130348,2.4,1,2,1,0,1,0
130350,2.4,1,2,1,0,1,0
130351,2.4,1,2,1,0,1,0
130352,2.4,1,2,1,0,1,0
130353,2.4,1,2,1,0,1,0
130354,2.4,1,2,1,0,1,0
130355,2.4,1,2,1,0,1,0
130356,2.4,1,2,1,0,1,0
130357,2.4,1,2,1,0,1,0
130358,2.4,1,2,1,0,1,0
130359,2.4,1,2,1,0,1,0
130360,2.4,1,2,1,0,1,0
130361,2.4,1,2,1,0,1,0
130362,2.4,1,2,1,0,1,0
130363,2.4,1,2,1,0,1,0
130364,2.4,1,2,1,0,1,0
130365,2.4,1,2,1,0,1,0
130366,2.4,1,2,1,0,1,0
130367,2.4,1,2,1,0,1,0
130368,2.4,1,2,1,0,1,0
130369,2.4,1,2,1,0,1,0
130370,2.4,1,2,1,0,1,0
130371,2.4,1,2,1,0,1,0
130372,2.4,1,2,1,0,1,0
130373,2.4,1,2,1,0,1,0
130374,2.4,1,2,1,0,1,0
130375,2.4,1,2,1,0,1,0
130376,2.4,1,2,1,0,1,0
130377,2.4,1,2,1,0,1,0
130379,2.4,1,2,1,0,1,0
130381,2.4,1,2,1,0,1,0
130383,2.4,1,2,1,0,1,0
130385,2.4,1,2,1,0,1,0
130387,2.4,1,2,1,0,1,0
130389,2.4,1,2,1,0,1,0
130391,2.4,1,2,1,0,1,0
130393,2.4,1,2,1,0,1,0
130395,2.4,1,2,1,0,1,0
130397,2.4,1,2,1,0,1,0
130399,2.4,1,2,1,0,1,0
130401,2.4,1,2,1,0,1,0
130403,2.4,1,2,1,0,1,0
130405,2.4,1,2,1,0,1,0
130407,2.4,1,2,1,0,1,0
130409,2.4,1,2,1,0,1,0
130411,2.4,1,2,1,0,1,0
130413,2.4,1,2,1,0,1,0
130413,2.4,1,2,1,0,1,0
130415,2.4,1,2,1,0,1,0
130415,2.4,1,2,1,0,1,0
130417,2.4,1,2,1,0,1,0
130417,2.4,1,2,1,0,1,0
130419,2.4,1,2,1,0,1,0
130419,2.4,1,2,1,0,1,0
130421,2.4,1,2,1,0,1,0
130421,2.4,1,2,1,0,1,0
130423,2.4,1,2,1,0,1,0
130423,2.4,1,2,1,0,1,0
130425,2.4,1,2,1,0,1,0
130425,2.4,1,2,1,0,1,0
130427,2.4,1,2,1,0,1,0
130427,2.4,1,2,1,0,1,0
130429,2.4,1,2,1,0,1,0
130431,2.4,1,2,1,0,1,0
130433,2.4,1,2,1,0,1,0
130435,2.4,1,2,1,0,1,0
130437,2.4,1,2,1,0,1,0
130439,2.4,1,2,1,0,1,0
130441,2.4,1,2,1,0,1,0
130443,2.4,1,2,1,0,1,0
130445,2.4,1,2,1,0,1,0
130447,2.4,1,2,1,0,1,0
130449,2.4,1,2,1,0,1,0
130451,2.4,1,2,1,0,1,0
130453,2.4,1,2,1,0,1,0
130455,2.4,1,2,1,0,1,0
130457,2.4,1,2,1,0,1,0
130459,2.4,1,2,1,0,1,0
130461,2.4,1,2,1,0,1,0
130463,2.4,1,2,1,0,1,0
130465,2.4,1,2,1,0,1,0
130467,2.4,1,2,1,0,1,0
130469,2.4,1,2,1,0,1,0
130471,2.4,1,2,1,0,1,0
130473,2.4,1,2,1,0,1,0
130475,2.4,1,2,1,0,1,0
130477,2.4,1,2,1,0,1,0
130479,2.4,1,2,1,0,1,0
130481,2.4,1,2,1,0,1,0
130483,2.4,1,2,1,0,1,0
130485,2.4,1,2,1,0,1,0
130487,2.4,1,2,1,0,1,0
130489,2.4,1,2,1,0,1,0
130544,2.4,1,2,1,0,1,0
130546,2.4,1,2,1,0,1,0
130548,2.4,1,2,1,0,1,0
130550,2.4,1,2,1,0,1,0
130552,2.4,1,2,1,0,1,0
130554,2.4,1,2,1,0,1,0
130556,2.4,1,2,1,0,1,0
130558,2.4,1,2,1,0,1,0
130560,2.4,1,2,1,0,1,0
130562,2.4,1,2,1,0,1,0
130564,2.4,1,2,1,0,1,0
130566,2.4,1,2,1,0,1,0
130568,2.4,1,2,1,0,1,0
130570,2.4,1,2,1,0,1,0
130572,2.4,1,2,1,0,1,0
130574,2.4,1,2,1,0,1,0
130576,2.4,1,2,1,0,1,0
130578,2.4,1,2,1,0,1,0
130580,2.4,1,2,1,0,1,0
130582,2.4,1,2,1,0,1,0
130583,2.4,1,2,1,0,1,0
130584,2.4,1,2,1,0,1,0
130585,2.4,1,2,1,0,1,0
130586,2.4,1,2,1,0,1,0
130587,2.4,1,2,1,0,1,0
130588,2.4,1,2,1,0,1,0
130589,2.4,1,2,1,0,1,0
130590,2.4,1,2,1,0,1,0
130591,2.4,1,2,1,0,1,0
130592,2.4,1,2,1,0,1,0
130593,2.4,1,2,1,0,1,0
130594,2.4,1,2,1,0,1,0
130595,2.4,1,2,1,0,1,0
130596,2.4,1,2,1,0,1,0
130597,2.4,1,2,1,0,1,0
130598,2.4,1,2,1,0,1,0
130599,2.4,1,2,1,0,1,0
130600,2.4,1,2,1,0,1,0
130601,2.4,1,2,1,0,1,0
130602,2.4,1,2,1,0,1,0
130603,2.4,1,2,1,0,1,0
130604,2.4,1,2,1,0,1,0
130605,2.4,1,2,1,0,1,0
130606,2.4,1,2,1,0,1,0
130607,2.4,1,2,1,0,1,0
130608,2.4,1,2,1,0,1,0
130609,2.4,1,2,1,0,1,0
130610,2.4,1,2,1,0,1,0
130611,2.4,1,2,1,0,1,0
130612,2.4,1,2,1,0,1,0
130613,2.4,1,2,1,0,1,0
130614,2.4,1,2,1,0,1,0
130615,2.4,1,2,1,0,1,0
130616,2.4,1,2,1,0,1,0
130617,2.4,1,2,1,0,1,0
130618,2.4,1,2,1,0,1,0
130619,2.4,1,2,1,0,1,0
130620,2.4,1,2,1,0,1,0
130621,2.4,1,2,1,0,1,0
130623,2.4,1,2,1,0,1,0
130625,2.4,1,2,1,0,1,0
130627,2.4,1,2,1,0,1,0
130629,2.4,1,2,1,0,1,0
130631,2.4,1,2,1,0,1,0
130633,2.4,1,2,1,0,1,0
130635,2.4,1,2,1,0,1,0
130637,2.4,1,2,1,0,1,0
130639,2.4,1,2,1,0,1,0
130641,2.4,1,2,1,0,1,0
130643,2.4,1,2,1,0,1,0
130645,2.4,1,2,1,0,1,0
130647,2.4,1,2,1,0,1,0
130649,2.4,1,2,1,0,1,0
130651,2.4,1,2,1,0,1,0
130653,2.4,1,2,1,0,1,0
130655,2.4,1,2,1,0,1,0
130657,2.4,1,2,1,0,1,0
130659,2.4,1,2,1,0,1,0
130703,2.4,1,2,1,0,1,0
130705,2.4,1,2,1,0,1,0
130707,2.4,1,2,1,0,1,0
130709,2.4,1,2,1,0,1,0
130711,2.4,1,2,1,0,1,0
130713,2.4,1,2,1,0,1,0
130715,2.4,1,2,1,0,1,0
130717,2.4,1,2,1,0,1,0
130719,2.4,1,2,1,0,1,0
130721,2.4,1,2,1,0,1,0
130723,2.4,1,2,1,0,1,0
130725,2.4,1,2,1,0,1,0
130727,2.4,1,2,1,0,1,0
130729,2.4,1,2,1,0,1,0
130731,2.4,1,2,1,0,1,0
130733,2.4,1,2,1,0,1,0
130735,2.4,1,2,1,0,1,0
130737,2.4,1,2,1,0,1,0
130739,2.4,1,2,1,0,1,0
130741,2.4,1,2,1,0,1,0
130743,2.4,1,2,1,0,1,0
130745,2.4,1,2,1,0,1,0
130747,2.4,1,2,1,0,1,0
130749,2.4,1,2,1,0,1,0
130751,2.4,1,2,1,0,1,0
130753,2.4,1,2,1,0,1,0
130755,2.4,1,2,1,0,1,0
130757,2.4,1,2,1,0,1,0
130759,2.4,1,2,1,0,1,0
130761,2.4,1,2,1,0,1,0
130763,2.4,1,2,1,0,1,0
130765,2.4,1,2,1,0,1,0
130767,2.4,1,2,1,0,1,0
130767,2.4,1,2,1,0,1,0
130769,2.4,1,2,1,0,1,0
130769,2.4,1,2,1,0,1,0
130771,2.4,1,2,1,0,1,0
130771,2.4,1,2,1,0,1,0
130773,2.4,1,2,1,0,1,0
130773,2.4,1,2,1,0,1,0
130775,2.4,1,2,1,0,1,0
130775,2.4,1,2,1,0,1,0
130777,2.4,1,2,1,0,1,0
130777,2.4,1,2,1,0,1,0
130779,2.4,1,2,1,0,1,0
130779,2.4,1,2,1,0,1,0
130781,2.4,1,2,1,0,1,0
130783,2.4,1,2,1,0,1,0
130785,2.4,1,2,1,0,1,0
130787,2.4,1,2,1,0,1,0
130789,2.4,1,2,1,0,1,0
130791,2.4,1,2,1,0,1,0
130793,2.4,1,2,1,0,1,0
130795,2.4,1,2,1,0,1,0
130797,2.4,1,2,1,0,1,0
130799,2.4,1,2,1,0,1,0
130801,2.4,1,2,1,0,1,0
130803,2.4,1,2,1,0,1,0
130805,2.4,1,2,1,0,1,0
130807,2.4,1,2,1,0,1,0
130809,2.4,1,2,1,0,1,0
130811,2.4,1,2,1,0,1,0
130813,2.4,1,2,1,0,1,0
130815,2.4,1,2,1,0,1,0
130817,2.4,1,2,1,0,1,0
130819,2.4,1,2,1,0,1,0
130821,2.4,1,2,1,0,1,0
130823,2.4,1,2,1,0,1,0
130825,2.4,1,2,1,0,1,0
130827,2.4,1,2,1,0,1,0
130829,2.4,1,2,1,0,1,0
130831,2.4,1,2,1,0,1,0
130833,2.4,1,2,1,0,1,0
130835,2.4,1,2,1,0,1,0
130837,2.4,1,2,1,0,1,0
130839,2.4,1,2,1,0,1,0
130841,2.4,1,2,1,0,1,0
130843,2.4,1,2,1,0,1,0
130870,2.4,1,2,1,0,1,0
130871,2.4,1,2,1,0,1,0
130872,2.4,1,2,1,0,1,0
130873,2.4,1,2,1,0,1,0
130874,2.4,1,2,1,0,1,0
130875,2.4,1,2,1,0,1,0
130876,2.4,1,2,1,0,1,0
130877,2.4,1,2,1,0,1,0
130878,2.4,1,2,1,0,1,0
130879,2.4,1,2,1,0,1,0
130880,2.4,1,2,1,0,1,0
130881,2.4,1,2,1,0,1,0
130882,2.4,1,2,1,0,1,0
130883,2.4,1,2,1,0,1,0
130884,2.4,1,2,1,0,1,0
130885,2.4,1,2,1,0,1,0
130886,2.4,1,2,1,0,1,0
130887,2.4,1,2,1,0,1,0
130888,2.4,1,2,1,0,1,0
130889,2.4,1,2,1,0,1,0
130890,2.4,1,2,1,0,1,0
130891,2.4,1,2,1,0,1,0
130892,2.4,1,2,1,0,1,0
130893,2.4,1,2,1,0,1,0
130894,2.4,1,2,1,0,1,0
130895,2.4,1,2,1,0,1,0
130896,2.4,1,2,1,0,1,0
130897,2.4,1,2,1,0,1,0
130898,2.4,1,2,1,0,1,0
130899,2.4,1,2,1,0,1,0
130900,2.4,1,2,1,0,1,0
130901,2.4,1,2,1,0,1,0
130902,2.4,1,2,1,0,1,0
130903,2.4,1,2,1,0,1,0
130904,2.4,1,2,1,0,1,0
130905,2.4,1,2,1,0,1,0
130906,2.4,1,2,1,0,1,0
130907,2.4,1,2,1,0,1,0
130908,2.4,1,2,1,0,1,0
130909,2.4,1,2,1,0,1,0
130910,2.4,1,2,1,0,1,0
130911,2.4,1,2,1,0,1,0
130912,2.4,1,2,1,0,1,0
130913,2.4,1,2,1,0,1,0
130914,2.4,1,2,1,0,1,0
130915,2.4,1,2,1,0,1,0
130916,2.4,1,2,1,0,1,0
130917,2.4,1,2,1,0,1,0
130918,2.4,1,2,1,0,1,0
130919,2.4,1,2,1,0,1,0
130920,2.4,1,2,1,0,1,0
130921,2.4,1,2,1,0,1,0
130922,2.4,1,2,1,0,1,0
130923,2.4,1,2,1,0,1,0
130924,2.4,1,2,1,0,1,0
130925,2.4,1,2,1,0,1,0
130926,2.4,1,2,1,0,1,0
130927,2.4,1,2,1,0,1,0
130928,2.4,1,2,1,0,1,0
130929,2.4,1,2,1,0,1,0
130930,2.4,1,2,1,0,1,0
130931,2.4,1,2,1,0,1,0
130932,2.4,1,2,1,0,1,0
130933,2.4,1,2,1,0,1,0
130934,2.4,1,2,1,0,1,0
130935,2.4,1,2,1,0,1,0
130936,2.4,1,2,1,0,1,0
130937,2.4,1,2,1,0,1,0
130938,2.4,1,2,1,0,1,0
130939,2.4,1,2,1,0,1,0
130940,2.4,1,2,1,0,1,0
130941,2.4,1,2,1,0,1,0
130942,2.4,1,2,1,0,1,0
130943,2.4,1,2,1,0,1,0
130944,2.4,1,2,1,0,1,0
130945,2.4,1,2,1,0,1,0
130946,2.4,1,2,1,0,1,0
130947,2.4,1,2,1,0,1,0
131087,2.4,1,2,1,0,1,0
131089,2.4,1,2,1,0,1,0
131091,2.4,1,2,1,0,1,0
131093,2.4,1,2,1,0,1,0
131095,2.4,1,2,1,0,1,0
131097,2.4,1,2,1,0,1,0
131099,2.4,1,2,1,0,1,0
131101,2.4,1,2,1,0,1,0
131103,2.4,1,2,1,0,1,0
131105,2.4,1,2,1,0,1,0
131107,2.4,1,2,1,0,1,0
131109,2.4,1,2,1,0,1,0
131111,2.4,1,2,1,0,1,0
131113,2.4,1,2,1,0,1,0
131115,2.4,1,2,1,0,1,0
131117,2.4,1,2,1,0,1,0
131119,2.4,1,2,1,0,1,0
131121,2.4,1,2,1,0,1,0
131123,2.4,1,2,1,0,1,0
131125,2.4,1,2,1,0,1,0
131127,2.4,1,2,1,0,1,0
131129,2.4,1,2,1,0,1,0
131131,2.4,1,2,1,0,1,0
131133,2.4,1,2,1,0,1,0
131135,2.4,1,2,1,0,1,0
131137,2.4,1,2,1,0,1,0
131139,2.4,1,2,1,0,1,0
131141,2.4,1,2,1,0,1,0
131143,2.4,1,2,1,0,1,0
131145,2.4,1,2,1,0,1,0
131147,2.4,1,2,1,0,1,0
131149,2.4,1,2,1,0,1,0
131151,2.4,1,2,1,0,1,0
131153,2.4,1,2,1,0,1,0
131155,2.4,1,2,1,0,1,0
131157,2.4,1,2,1,0,1,0
131159,2.4,1,2,1,0,1,0
131161,2.4,1,2,1,0,1,0
131163,2.4,1,2,1,0,1,0
131292,2.4,1,2,1,0,1,0
131294,2.4,1,2,1,0,1,0
131296,2.4,1,2,1,0,1,0
131298,2.4,1,2,1,0,1,0
131300,2.4,1,2,1,0,1,0
131302,2.4,1,2,1,0,1,0
131304,2.4,1,2,1,0,1,0
131306,2.4,1,2,1,0,1,0
131308,2.4,1,2,1,0,1,0
131310,2.4,1,2,1,0,1,0
131312,2.4,1,2,1,0,1,0
131314,2.4,1,2,1,0,1,0
131316,2.4,1,2,1,0,1,0
131318,2.4,1,2,1,0,1,0
131320,2.4,1,2,1,0,1,0
131322,2.4,1,2,1,0,1,0
131324,2.4,1,2,1,0,1,0
131326,2.4,1,2,1,0,1,0
131328,2.4,1,2,1,0,1,0
131330,2.4,1,2,1,0,1,0
131332,2.4,1,2,1,0,1,0
131334,2.4,1,2,1,0,1,0
131336,2.4,1,2,1,0,1,0
131338,2.4,1,2,1,0,1,0
131340,2.4,1,2,1,0,1,0
131342,2.4,1,2,1,0,1,0
131344,2.4,1,2,1,0,1,0
131346,2.4,1,2,1,0,1,0
131348,2.4,1,2,1,0,1,0
131350,2.4,1,2,1,0,1,0
131352,2.4,1,2,1,0,1,0
131354,2.4,1,2,1,0,1,0
131356,2.4,1,2,1,0,1,0
131358,2.4,1,2,1,0,1,0
131360,2.4,1,2,1,0,1,0
131362,2.4,1,2,1,0,1,0
131364,2.4,1,2,1,0,1,0
131366,2.4,1,2,1,0,1,0
131368,2.4,1,2,1,0,1,0
131463,2.4,1,2,1,0,1,0
131465,2.4,1,2,1,0,1,0
131467,2.4,1,2,1,0,1,0
131469,2.4,1,2,1,0,1,0
131471,2.4,1,2,1,0,1,0
131473,2.4,1,2,1,0,1,0
131475,2.4,1,2,1,0,1,0
131477,2.4,1,2,1,0,1,0
131479,2.4,1,2,1,0,1,0
131481,2.4,1,2,1,0,1,0
131483,2.4,1,2,1,0,1,0
131485,2.4,1,2,1,0,1,0
131487,2.4,1,2,1,0,1,0
131489,2.4,1,2,1,0,1,0
131491,2.4,1,2,1,0,1,0
131493,2.4,1,2,1,0,1,0
131495,2.4,1,2,1,0,1,0
131497,2.4,1,2,1,0,1,0
131499,2.4,1,2,1,0,1,0
131501,2.4,1,2,1,0,1,0
131503,2.4,1,2,1,0,1,0
131505,2.4,1,2,1,0,1,0
131507,2.4,1,2,1,0,1,0
131509,2.4,1,2,1,0,1,0
131511,2.4,1,2,1,0,1,0
131513,2.4,1,2,1,0,1,0
131515,2.4,1,2,1,0,1,0
131517,2.4,1,2,1,0,1,0
131519,2.4,1,2,1,0,1,0
131521,2.4,1,2,1,0,1,0
131523,2.4,1,2,1,0,1,0
131525,2.4,1,2,1,0,1,0
131527,2.4,1,2,1,0,1,0
131529,2.4,1,2,1,0,1,0
131531,2.4,1,2,1,0,1,0
131533,2.4,1,2,1,0,1,0
131535,2.4,1,2,1,0,1,0
131537,2.4,1,2,1,0,1,0
131539,2.4,1,2,1,0,1,0
131562,2.4,1,2,1,0,1,0
131564,2.4,1,2,1,0,1,0
131566,2.4,1,2,1,0,1,0
131568,2.4,1,2,1,0,1,0
131570,2.4,1,2,1,0,1,0
131572,2.4,1,2,1,0,1,0
131574,2.4,1,2,1,0,1,0
131576,2.4,1,2,1,0,1,0
131578,2.4,1,2,1,0,1,0
131580,2.4,1,2,1,0,1,0
131582,2.4,1,2,1,0,1,0
131584,2.4,1,2,1,0,1,0
131586,2.4,1,2,1,0,1,0
131588,2.4,1,2,1,0,1,0
131590,2.4,1,2,1,0,1,0
131592,2.4,1,2,1,0,1,0
131594,2.4,1,2,1,0,1,0
131596,2.4,1,2,1,0,1,0
131598,2.4,1,2,1,0,1,0
131600,2.4,1,2,1,0,1,0
131602,2.4,1,2,1,0,1,0
131604,2.4,1,2,1,0,1,0
131606,2.4,1,2,1,0,1,0
131608,2.4,1,2,1,0,1,0
131610,2.4,1,2,1,0,1,0
131612,2.4,1,2,1,0,1,0
131614,2.4,1,2,1,0,1,0
131616,2.4,1,2,1,0,1,0
131618,2.4,1,2,1,0,1,0
131620,2.4,1,2,1,0,1,0
131622,2.4,1,2,1,0,1,0
131624,2.4,1,2,1,0,1,0
131626,2.4,1,2,1,0,1,0
131628,2.4,1,2,1,0,1,0
131630,2.4,1,2,1,0,1,0
131632,2.4,1,2,1,0,1,0
131634,2.4,1,2,1,0,1,0
131636,2.4,1,2,1,0,1,0
131638,2.4,1,2,1,0,1,0
131688,2.4,1,2,1,0,1,0
131690,2.4,1,2,1,0,1,0
131692,2.4,1,2,1,0,1,0
131692,2.4,1,2,1,0,1,0
131694,2.4,1,2,1,0,1,0
131694,2.4,1,2,1,0,1,0
131696,2.4,1,2,1,0,1,0
131696,2.4,1,2,1,0,1,0
131698,2.4,1,2,1,0,1,0
131698,2.4,1,2,1,0,1,0
131700,2.4,1,2,1,0,1,0
131700,2.4,1,2,1,0,1,0
131702,2.4,1,2,1,0,1,0
131702,2.4,1,2,1,0,1,0
131704,2.4,1,2,1,0,1,0
131704,2.4,1,2,1,0,1,0
131706,2.4,1,2,1,0,1,0
131706,2.4,1,2,1,0,1,0
131708,2.4,1,2,1,0,1,0
131708,2.4,1,2,1,0,1,0
131710,2.4,1,2,1,0,1,0
131710,2.4,1,2,1,0,1,0
131712,2.4,1,2,1,0,1,0
131712,2.4,1,2,1,0,1,0
131714,2.4,1,2,1,0,1,0
131714,2.4,1,2,1,0,1,0
131716,2.4,1,2,1,0,1,0
131716,2.4,1,2,1,0,1,0
131718,2.4,1,2,1,0,1,0
131718,2.4,1,2,1,0,1,0
131720,2.4,1,2,1,0,1,0
131720,2.4,1,2,1,0,1,0
131722,2.4,1,2,1,0,1,0
131722,2.4,1,2,1,0,1,0
131724,2.4,1,2,1,0,1,0
131724,2.4,1,2,1,0,1,0
131726,2.4,1,2,1,0,1,0
131726,2.4,1,2,1,0,1,0
131728,2.4,1,2,1,0,1,0
131728,2.4,1,2,1,0,1,0
131730,2.4,1,2,1,0,1,0
131730,2.4,1,2,1,0,1,0
131732,2.4,1,2,1,0,1,0
131732,2.4,1,2,1,0,1,0
131734,2.4,1,2,1,0,1,0
131734,2.4,1,2,1,0,1,0
131736,2.4,1,2,1,0,1,0
131736,2.4,1,2,1,0,1,0
131738,2.4,1,2,1,0,1,0
131738,2.4,1,2,1,0,1,0
131740,2.4,1,2,1,0,1,0
131740,2.4,1,2,1,0,1,0
131742,2.4,1,2,1,0,1,0
131742,2.4,1,2,1,0,1,0
131744,2.4,1,2,1,0,1,0
131744,2.4,1,2,1,0,1,0
131746,2.4,1,2,1,0,1,0
131746,2.4,1,2,1,0,1,0
131748,2.4,1,2,1,0,1,0
131748,2.4,1,2,1,0,1,0
131750,2.4,1,2,1,0,1,0
131750,2.4,1,2,1,0,1,0
131752,2.4,1,2,1,0,1,0
131752,2.4,1,2,1,0,1,0
131754,2.4,1,2,1,0,1,0
131754,2.4,1,2,1,0,1,0
131756,2.4,1,2,1,0,1,0
131756,2.4,1,2,1,0,1,0
131758,2.4,1,2,1,0,1,0
131758,2.4,1,2,1,0,1,0
131760,2.4,1,2,1,0,1,0
131760,2.4,1,2,1,0,1,0
131762,2.4,1,2,1,0,1,0
131762,2.4,1,2,1,0,1,0
131764,2.4,1,2,1,0,1,0
131764,2.4,1,2,1,0,1,0
131766,2.4,1,2,1,0,1,0
131768,2.4,1,2,1,0,1,0
131846,2.4,1,2,1,0,1,0
131848,2.4,1,2,1,0,1,0
131850,2.4,1,2,1,0,1,0
131852,2.4,1,2,1,0,1,0
131854,2.4,1,2,1,0,1,0
131856,2.4,1,2,1,0,1,0
131858,2.4,1,2,1,0,1,0
131860,2.4,1,2,1,0,1,0
131862,2.4,1,2,1,0,1,0
131864,2.4,1,2,1,0,1,0
131866,2.4,1,2,1,0,1,0
131868,2.4,1,2,1,0,1,0
131870,2.4,1,2,1,0,1,0
131872,2.4,1,2,1,0,1,0
131874,2.4,1,2,1,0,1,0
131876,2.4,1,2,1,0,1,0
131878,2.4,1,2,1,0,1,0
131880,2.4,1,2,1,0,1,0
131882,2.4,1,2,1,0,1,0
131884,2.4,1,2,1,0,1,0
131886,2.4,1,2,1,0,1,0
131888,2.4,1,2,1,0,1,0
131890,2.4,1,2,1,0,1,0
131892,2.4,1,2,1,0,1,0
131894,2.4,1,2,1,0,1,0
131896,2.4,1,2,1,0,1,0
131898,2.4,1,2,1,0,1,0
131900,2.4,1,2,1,0,1,0
131902,2.4,1,2,1,0,1,0
131904,2.4,1,2,1,0,1,0
131906,2.4,1,2,1,0,1,0
131908,2.4,1,2,1,0,1,0
131910,2.4,1,2,1,0,1,0
131912,2.4,1,2,1,0,1,0
131914,2.4,1,2,1,0,1,0
131916,2.4,1,2,1,0,1,0
131918,2.4,1,2,1,0,1,0
131920,2.4,1,2,1,0,1,0
131922,2.4,1,2,1,0,1,0
131952,-4E+36,4,2,1,0,1,0

[HitObjects]
232,192,960,5,0,0:0:0:0:
256,192,975,5,0,0:0:0:0:
280,192,990,5,0,0:0:0:0:
256,192,1005,5,0,0:0:0:0:
232,192,1020,5,0,0:0:0:0:
256,192,1035,5,0,0:0:0:0:
280,192,1050,5,0,0:0:0:0:
256,192,1065,5,0,0:0:0:0:
232,192,1080,5,0,0:0:0:0:
256,192,1095,5,0,0:0:0:0:
280,192,1110,5,0,0:0:0:0:
256,192,1125,5,0,0:0:0:0:
232,192,1140,5,0,0:0:0:0:
256,192,1155,5,0,0:0:0:0:
280,192,1170,5,0,0:0:0:0:
256,192,1185,5,0,0:0:0:0:
232,192,1200,5,0,0:0:0:0:
256,192,1215,5,0,0:0:0:0:
280,192,1230,5,0,0:0:0:0:
256,192,1245,5,0,0:0:0:0:
232,192,1260,5,0,0:0:0:0:
256,192,1275,5,0,0:0:0:0:
280,192,1290,5,0,0:0:0:0:
256,192,1305,5,0,0:0:0:0:
232,192,1320,5,0,0:0:0:0:
256,192,1335,5,0,0:0:0:0:
280,192,1350,5,0,0:0:0:0:
256,192,1365,5,0,0:0:0:0:
232,192,1380,5,0,0:0:0:0:
256,192,1395,5,0,0:0:0:0:
280,192,1410,5,0,0:0:0:0:
256,192,1425,5,0,0:0:0:0:
232,192,1440,5,0,0:0:0:0:
256,192,1455,5,0,0:0:0:0:
280,192,1470,5,0,0:0:0:0:
256,192,1485,5,0,0:0:0:0:
232,192,1500,5,0,0:0:0:0:
256,192,1515,5,0,0:0:0:0:
280,192,1530,5,0,0:0:0:0:
256,192,1545,5,0,0:0:0:0:
232,192,1560,5,0,0:0:0:0:
256,192,1575,5,0,0:0:0:0:
280,192,1590,5,0,0:0:0:0:
256,192,1605,5,0,0:0:0:0:
232,192,1620,5,0,0:0:0:0:
256,192,1635,5,0,0:0:0:0:
280,192,1650,5,0,0:0:0:0:
256,192,1665,5,0,0:0:0:0:
232,192,1680,5,0,0:0:0:0:
256,192,1695,5,0,0:0:0:0:
280,192,1710,5,0,0:0:0:0:
256,192,1725,5,0,0:0:0:0:
232,192,1740,5,0,0:0:0:0:
256,192,1755,5,0,0:0:0:0:
280,192,1770,5,0,0:0:0:0:
256,192,1785,5,0,0:0:0:0:
232,192,1800,5,0,0:0:0:0:
256,192,1815,5,0,0:0:0:0:
280,192,1830,5,0,0:0:0:0:
256,192,1845,5,0,0:0:0:0:
232,192,1860,5,0,0:0:0:0:
256,192,1875,5,0,0:0:0:0:
280,192,1890,5,0,0:0:0:0:
256,192,1905,5,0,0:0:0:0:
232,192,1920,5,0,0:0:0:0:
256,192,1935,5,0,0:0:0:0:
280,192,1950,5,0,0:0:0:0:
256,192,1965,5,0,0:0:0:0:
232,192,1980,5,0,0:0:0:0:
256,192,1995,5,0,0:0:0:0:
280,192,2010,5,0,0:0:0:0:
256,192,2025,5,0,0:0:0:0:
232,192,2040,5,0,0:0:0:0:
256,192,2055,5,0,0:0:0:0:
280,192,2070,5,0,0:0:0:0:
256,192,2085,5,0,0:0:0:0:
232,192,2100,5,0,0:0:0:0:
256,192,2115,5,0,0:0:0:0:
280,192,2130,5,0,0:0:0:0:
256,192,2145,5,0,0:0:0:0:
232,192,2160,5,0,0:0:0:0:
256,192,2175,5,0,0:0:0:0:
280,192,2190,5,0,0:0:0:0:
256,192,2205,5,0,0:0:0:0:
232,192,2220,5,0,0:0:0:0:
256,192,2235,5,0,0:0:0:0:
280,192,2250,5,0,0:0:0:0:
256,192,2265,5,0,0:0:0:0:
232,192,2280,5,0,0:0:0:0:
256,192,2295,5,0,0:0:0:0:
280,192,2310,5,0,0:0:0:0:
256,192,2325,5,0,0:0:0:0:
232,192,2340,5,0,0:0:0:0:
256,192,2355,5,0,0:0:0:0:
280,192,2370,5,0,0:0:0:0:
256,192,2385,5,0,0:0:0:0:
232,192,2400,5,0,0:0:0:0:
256,192,2415,5,0,0:0:0:0:
280,192,2430,5,0,0:0:0:0:
256,192,2445,5,0,0:0:0:0:
232,192,2460,5,0,0:0:0:0:
256,192,2475,5,0,0:0:0:0:
280,192,2490,5,0,0:0:0:0:
256,192,2505,5,0,0:0:0:0:
232,192,2520,5,0,0:0:0:0:
256,192,2535,5,0,0:0:0:0:
280,192,2550,5,0,0:0:0:0:
256,192,2565,5,0,0:0:0:0:
232,192,2580,5,0,0:0:0:0:
256,192,2595,5,0,0:0:0:0:
280,192,2610,5,0,0:0:0:0:
256,192,2625,5,0,0:0:0:0:
232,192,2640,5,0,0:0:0:0:
256,192,2655,5,0,0:0:0:0:
280,192,2670,5,0,0:0:0:0:
256,192,2685,5,0,0:0:0:0:
232,192,2700,5,0,0:0:0:0:
256,192,2715,5,0,0:0:0:0:
280,192,2730,5,0,0:0:0:0:
256,192,2745,5,0,0:0:0:0:
232,192,2760,5,0,0:0:0:0:
256,192,2775,5,0,0:0:0:0:
280,192,2790,5,0,0:0:0:0:
256,192,2805,5,0,0:0:0:0:
232,192,2820,5,0,0:0:0:0:
256,192,2835,5,0,0:0:0:0:
280,192,2850,5,0,0:0:0:0:
256,192,2865,5,0,0:0:0:0:
232,192,2880,5,0,0:0:0:0:
256,192,2895,5,0,0:0:0:0:
280,192,2910,5,0,0:0:0:0:
256,192,2925,5,0,0:0:0:0:
232,192,2940,5,0,0:0:0:0:
256,192,2955,5,0,0:0:0:0:
280,192,2970,5,0,0:0:0:0:
256,192,2985,5,0,0:0:0:0:
232,192,3000,5,0,0:0:0:0:
256,192,3015,5,0,0:0:0:0:
280,192,3030,5,0,0:0:0:0:
256,192,3045,5,0,0:0:0:0:
232,192,3060,5,0,0:0:0:0:
256,192,3075,5,0,0:0:0:0:
280,192,3090,5,0,0:0:0:0:
256,192,3105,5,0,0:0:0:0:
232,192,3120,5,0,0:0:0:0:
256,192,3135,5,0,0:0:0:0:
280,192,3150,5,0,0:0:0:0:
256,192,3165,5,0,0:0:0:0:
232,192,3180,5,0,0:0:0:0:
256,192,3195,5,0,0:0:0:0:
280,192,3210,5,0,0:0:0:0:
256,192,3225,5,0,0:0:0:0:
232,192,3240,5,0,0:0:0:0:
256,192,3255,5,0,0:0:0:0:
280,192,3270,5,0,0:0:0:0:
256,192,3285,5,0,0:0:0:0:
232,192,3300,5,0,0:0:0:0:
256,192,3315,5,0,0:0:0:0:
280,192,3330,5,0,0:0:0:0:
256,192,3345,5,0,0:0:0:0:
232,192,3360,5,0,0:0:0:0:
256,192,3375,5,0,0:0:0:0:
280,192,3390,5,0,0:0:0:0:
256,192,3405,5,0,0:0:0:0:
232,192,3420,5,0,0:0:0:0:
256,192,3435,5,0,0:0:0:0:
280,192,3450,5,0,0:0:0:0:
256,192,3465,5,0,0:0:0:0:
232,192,3480,5,0,0:0:0:0:
256,192,3495,5,0,0:0:0:0:
280,192,3510,5,0,0:0:0:0:
256,192,3525,5,0,0:0:0:0:
232,192,3540,5,0,0:0:0:0:
256,192,3555,5,0,0:0:0:0:
280,192,3570,5,0,0:0:0:0:
256,192,3585,5,0,0:0:0:0:
232,192,3600,5,0,0:0:0:0:
256,192,3615,5,0,0:0:0:0:
280,192,3630,5,0,0:0:0:0:
256,192,3645,5,0,0:0:0:0:
232,192,3660,5,0,0:0:0:0:
256,192,3675,5,0,0:0:0:0:
280,192,3690,5,0,0:0:0:0:
256,192,3705,5,0,0:0:0:0:
232,192,3720,5,0,0:0:0:0:
256,192,3735,5,0,0:0:0:0:
280,192,3750,5,0,0:0:0:0:
256,192,3765,5,0,0:0:0:0:
232,192,3780,5,0,0:0:0:0:
256,192,3795,5,0,0:0:0:0:
280,192,3810,5,0,0:0:0:0:
256,192,3825,5,0,0:0:0:0:
232,192,3840,5,0,0:0:0:0:
256,192,3855,5,0,0:0:0:0:
280,192,3870,5,0,0:0:0:0:
256,192,3885,5,0,0:0:0:0:
232,192,3900,5,0,0:0:0:0:
256,192,3915,5,0,0:0:0:0:
280,192,3930,5,0,0:0:0:0:
256,192,3945,5,0,0:0:0:0:
232,192,3960,5,0,0:0:0:0:
256,192,3975,5,0,0:0:0:0:
280,192,3990,5,0,0:0:0:0:
256,192,4005,5,0,0:0:0:0:
232,192,4020,5,0,0:0:0:0:
256,192,4035,5,0,0:0:0:0:
280,192,4050,5,0,0:0:0:0:
256,192,4065,5,0,0:0:0:0:
232,192,4080,5,0,0:0:0:0:
256,192,4095,5,0,0:0:0:0:
280,192,4110,5,0,0:0:0:0:
256,192,4125,5,0,0:0:0:0:
232,192,4140,5,0,0:0:0:0:
256,192,4155,5,0,0:0:0:0:
280,192,4170,5,0,0:0:0:0:
256,192,4185,5,0,0:0:0:0:
232,192,4200,5,0,0:0:0:0:
256,192,4215,5,0,0:0:0:0:
280,192,4230,5,0,0:0:0:0:
256,192,4245,5,0,0:0:0:0:
232,192,4260,5,0,0:0:0:0:
256,192,4275,5,0,0:0:0:0:
280,192,4290,5,0,0:0:0:0:
256,192,4305,5,0,0:0:0:0:
232,192,4320,5,0,0:0:0:0:
256,192,4335,5,0,0:0:0:0:
280,192,4350,5,0,0:0:0:0:
256,192,4365,5,0,0:0:0:0:
232,192,4380,5,0,0:0:0:0:
256,192,4395,5,0,0:0:0:0:
280,192,4410,5,0,0:0:0:0:
256,192,4425,5,0,0:0:0:0:
232,192,4440,5,0,0:0:0:0:
256,192,4455,5,0,0:0:0:0:
280,192,4470,5,0,0:0:0:0:
256,192,4485,5,0,0:0:0:0:
232,192,4500,5,0,0:0:0:0:
256,192,4515,5,0,0:0:0:0:
280,192,4530,5,0,0:0:0:0:
256,192,4545,5,0,0:0:0:0:
232,192,4560,5,0,0:0:0:0:
256,192,4575,5,0,0:0:0:0:
280,192,4590,5,0,0:0:0:0:
256,192,4605,5,0,0:0:0:0:
232,192,4620,5,0,0:0:0:0:
256,192,4635,5,0,0:0:0:0:
280,192,4650,5,0,0:0:0:0:
256,192,4665,5,0,0:0:0:0:
232,192,4680,5,0,0:0:0:0:
256,192,4695,5,0,0:0:0:0:
280,192,4710,5,0,0:0:0:0:
256,192,4725,5,0,0:0:0:0:
232,192,4740,5,0,0:0:0:0:
256,192,4755,5,0,0:0:0:0:
280,192,4770,5,0,0:0:0:0:
256,192,4785,5,0,0:0:0:0:
232,192,4800,5,0,0:0:0:0:
256,192,4815,5,0,0:0:0:0:
280,192,4830,5,0,0:0:0:0:
256,192,4845,5,0,0:0:0:0:
232,192,4860,5,0,0:0:0:0:
256,192,4875,5,0,0:0:0:0:
280,192,4890,5,0,0:0:0:0:
256,192,4905,5,0,0:0:0:0:
232,192,4920,5,0,0:0:0:0:
256,192,4935,5,0,0:0:0:0:
280,192,4950,5,0,0:0:0:0:
256,192,4965,5,0,0:0:0:0:
232,192,4980,5,0,0:0:0:0:
256,192,4995,5,0,0:0:0:0:
280,192,5010,5,0,0:0:0:0:
256,192,5025,5,0,0:0:0:0:
232,192,5040,5,0,0:0:0:0:
256,192,5055,5,0,0:0:0:0:
280,192,5070,5,0,0:0:0:0:
256,192,5085,5,0,0:0:0:0:
232,192,5100,5,0,0:0:0:0:
256,192,5115,5,0,0:0:0:0:
280,192,5130,5,0,0:0:0:0:
256,192,5145,5,0,0:0:0:0:
232,192,5160,5,0,0:0:0:0:
256,192,5175,5,0,0:0:0:0:
280,192,5190,5,0,0:0:0:0:
256,192,5205,5,0,0:0:0:0:
232,192,5220,5,0,0:0:0:0:
256,192,5235,5,0,0:0:0:0:
280,192,5250,5,0,0:0:0:0:
256,192,5265,5,0,0:0:0:0:
232,192,5280,5,0,0:0:0:0:
256,192,5295,5,0,0:0:0:0:
280,192,5310,5,0,0:0:0:0:
256,192,5325,5,0,0:0:0:0:
232,192,5340,5,0,0:0:0:0:
256,192,5355,5,0,0:0:0:0:
280,192,5370,5,0,0:0:0:0:
256,192,5385,5,0,0:0:0:0:
232,192,5400,5,0,0:0:0:0:
256,192,5415,5,0,0:0:0:0:
280,192,5430,5,0,0:0:0:0:
256,192,5445,5,0,0:0:0:0:
232,192,5460,5,0,0:0:0:0:
256,192,5475,5,0,0:0:0:0:
280,192,5490,5,0,0:0:0:0:
256,192,5505,5,0,0:0:0:0:
232,192,5520,5,0,0:0:0:0:
256,192,5535,5,0,0:0:0:0:
280,192,5550,5,0,0:0:0:0:
256,192,5565,5,0,0:0:0:0:
232,192,5580,5,0,0:0:0:0:
256,192,5595,5,0,0:0:0:0:
280,192,5610,5,0,0:0:0:0:
256,192,5625,5,0,0:0:0:0:
232,192,5640,5,0,0:0:0:0:
256,192,5655,5,0,0:0:0:0:
280,192,5670,5,0,0:0:0:0:
256,192,5685,5,0,0:0:0:0:
232,192,5700,5,0,0:0:0:0:
256,192,5715,5,0,0:0:0:0:
280,192,5730,5,0,0:0:0:0:
256,192,5745,5,0,0:0:0:0:
232,192,5760,5,0,0:0:0:0:
256,192,5775,5,0,0:0:0:0:
280,192,5790,5,0,0:0:0:0:
256,192,5805,5,0,0:0:0:0:
232,192,5820,5,0,0:0:0:0:
256,192,5835,5,0,0:0:0:0:
280,192,5850,5,0,0:0:0:0:
256,192,5865,5,0,0:0:0:0:
232,192,5880,5,0,0:0:0:0:
256,192,5895,5,0,0:0:0:0:
280,192,5910,5,0,0:0:0:0:
256,192,5925,5,0,0:0:0:0:
232,192,5940,5,0,0:0:0:0:
256,192,5955,5,0,0:0:0:0:
280,192,5970,5,0,0:0:0:0:
256,192,5985,5,0,0:0:0:0:
232,192,6000,5,0,0:0:0:0:
256,192,6015,5,0,0:0:0:0:
280,192,6030,5,0,0:0:0:0:
256,192,6045,5,0,0:0:0:0:
232,192,6060,5,0,0:0:0:0:
256,192,6075,5,0,0:0:0:0:
280,192,6090,5,0,0:0:0:0:
256,192,6105,5,0,0:0:0:0:
232,192,6120,5,0,0:0:0:0:
256,192,6135,5,0,0:0:0:0:
280,192,6150,5,0,0:0:0:0:
256,192,6165,5,0,0:0:0:0:
232,192,6180,5,0,0:0:0:0:
256,192,6195,5,0,0:0:0:0:
280,192,6210,5,0,0:0:0:0:
256,192,6225,5,0,0:0:0:0:
232,192,6240,5,0,0:0:0:0:
256,192,6255,5,0,0:0:0:0:
280,192,6270,5,0,0:0:0:0:
256,192,6285,5,0,0:0:0:0:
232,192,6300,5,0,0:0:0:0:
256,192,6315,5,0,0:0:0:0:
280,192,6330,5,0,0:0:0:0:
256,192,6345,5,0,0:0:0:0:
232,192,6360,5,0,0:0:0:0:
256,192,6375,5,0,0:0:0:0:
280,192,6390,5,0,0:0:0:0:
256,192,6405,5,0,0:0:0:0:
232,192,6420,5,0,0:0:0:0:
256,192,6435,5,0,0:0:0:0:
280,192,6450,5,0,0:0:0:0:
256,192,6465,5,0,0:0:0:0:
232,192,6480,5,0,0:0:0:0:
256,192,6495,5,0,0:0:0:0:
280,192,6510,5,0,0:0:0:0:
256,192,6525,5,0,0:0:0:0:
232,192,6540,5,0,0:0:0:0:
256,192,6555,5,0,0:0:0:0:
280,192,6570,5,0,0:0:0:0:
256,192,6585,5,0,0:0:0:0:
232,192,6600,5,0,0:0:0:0:
256,192,6615,5,0,0:0:0:0:
280,192,6630,5,0,0:0:0:0:
256,192,6645,5,0,0:0:0:0:
232,192,6660,5,0,0:0:0:0:
256,192,6675,5,0,0:0:0:0:
280,192,6690,5,0,0:0:0:0:
256,192,6705,5,0,0:0:0:0:
256,72,6720,5,4,0:0:0:0:
232,192,6960,5,2,3:0:0:0:
256,192,6975,5,2,3:0:0:0:
280,192,6990,5,2,3:0:0:0:
256,192,7005,5,2,3:0:0:0:
232,192,7020,5,2,3:0:0:0:
256,192,7035,5,2,3:0:0:0:
280,192,7050,5,2,3:0:0:0:
256,192,7065,5,2,3:0:0:0:
232,192,7080,5,2,3:0:0:0:
256,192,7095,5,2,3:0:0:0:
280,192,7110,5,2,3:0:0:0:
256,192,7125,5,2,3:0:0:0:
232,192,7140,5,2,3:0:0:0:
256,192,7155,5,2,3:0:0:0:
280,192,7170,5,2,3:0:0:0:
256,192,7185,5,2,3:0:0:0:
232,192,7440,5,2,0:0:0:0:
256,192,7455,5,2,0:0:0:0:
280,192,7470,5,2,0:0:0:0:
256,192,7485,5,2,0:0:0:0:
232,192,7500,5,2,0:0:0:0:
256,192,7515,5,2,0:0:0:0:
280,192,7530,5,2,0:0:0:0:
256,192,7545,5,2,0:0:0:0:
232,192,7560,5,2,0:0:0:0:
256,192,7575,5,2,0:0:0:0:
280,192,7590,5,2,0:0:0:0:
256,192,7605,5,2,0:0:0:0:
232,192,7620,5,2,0:0:0:0:
256,192,7635,5,2,0:0:0:0:
280,192,7650,5,2,0:0:0:0:
256,192,7665,5,2,0:0:0:0:
0,192,9100,5,8,0:0:0:0:
416,192,9340,6,8,L|480:192,4,40,8|8|8|8|0,0:1|0:1|0:1|0:1|1:1,0:1:0:0:
64,128,9820,5,8,0:0:0:0:
320,128,10060,2,0,L|416:128,2,80,0|8|0,0:0|0:0|0:0,0:0:0:0:
128,192,10540,1,8,0:0:0:0:
352,256,10780,6,0,L|416:256,4,40,0|0|0|0|8,0:0|0:0|0:0|0:0|0:0,0:0:0:0:
192,160,11260,6,0,L|128:160,2,40,0|0|8,0:0|0:0|0:0,0:0:0:0:
64,320,11500,6,0,P|64:192|64:128,1,160,8|0,0:0|0:0,0:0:0:0:
416,64,11980,2,0,L|416:256,1,160,8|0,0:0|0:0,0:0:0:0:
256,192,12340,1,8,0:0:0:0:
256,128,12460,6,8,L|0:128,1,240
16,128,12820,2,8,L|256:128,1,240
384,320,13420,6,0,B|448:192|448:192|416:160,2,160,8|0|8,0:0|0:0|0:0,0:0:0:0:
192,160,14020,2,0,L|128:160,1,40,8|0,0:0|0:0,0:0:0:0:
96,160,14140,6,0,B|96:96|96:96|96:128|96:128|96:64,1,160,12|8,0:0|0:0,0:0:0:0:
352,192,14500,5,8,0:0:0:0:
96,224,14620,1,8,0:0:0:0:
224,224,14740,1,8,0:0:0:0:
352,224,14860,1,8,0:0:0:0:
480,224,14980,1,8,0:0:0:0:
480,128,15100,2,8,L|384:128,1,80
96,320,15340,6,0,P|64:224|96:160,1,160,8|0,0:0|0:0,0:0:0:0:
384,96,15820,2,0,P|416:224|384:256,1,160,8|0,0:0|0:0,0:0:0:0:
32,288,16300,5,8,0:0:0:0:
17,273,16330,1,0,0:0:0:0:
3,259,16360,1,0,0:0:0:0:
10,245,16390,1,0,0:0:0:0:
24,231,16420,1,0,0:0:0:0:
25,217,16450,1,0,0:0:0:0:
11,203,16480,1,0,0:0:0:0:
2,189,16510,1,0,0:0:0:0:
17,174,16540,1,0,0:0:0:0:
31,160,16570,1,0,0:0:0:0:
18,146,16600,1,0,0:0:0:0:
4,132,16630,1,0,0:0:0:0:
480,288,16660,5,8,0:0:0:0:
494,273,16690,1,0,0:0:0:0:
508,259,16720,1,0,0:0:0:0:
501,245,16750,1,0,0:0:0:0:
487,231,16780,1,0,0:0:0:0:
486,217,16810,1,0,0:0:0:0:
500,203,16840,1,0,0:0:0:0:
509,189,16870,1,0,0:0:0:0:
494,174,16900,1,0,0:0:0:0:
480,160,16930,1,0,0:0:0:0:
493,146,16960,1,0,0:0:0:0:
507,132,16990,1,0,0:0:0:0:
32,288,17020,5,8,0:0:0:0:
17,273,17050,1,0,0:0:0:0:
3,259,17080,1,0,0:0:0:0:
10,245,17110,1,0,0:0:0:0:
24,231,17140,1,0,0:0:0:0:
25,217,17170,1,0,0:0:0:0:
11,203,17200,1,0,0:0:0:0:
2,189,17230,1,0,0:0:0:0:
32,128,17260,6,0,L|128:128,1,80,8|0,0:0|0:0,0:0:0:0:
384,128,17500,2,0,L|288:128,1,80
128,96,17740,6,0,P|160:256|192:352,1,240,8|8,0:0|0:0,0:0:0:0:
183,328,18220,6,4,B|0:96|0:96|203:352,1,600
183,328,18220,6,4,B|90:47|90:47|193:357,1,600
183,328,18220,6,4,B|293:53|293:53|173:357,1,600
183,328,18220,6,4,B|192:32|192:32|183:359,1,600
192,320,18220,6,4,B|467:430|467:430|163:309,1,600
192,319,18220,6,4,B|488:328|488:328|161:319,1,600
191,319,18220,6,4,B|423:135|423:135|167:338,1,600
192,319,18220,6,4,B|473:226|473:226|163:329,1,600
182,319,18220,6,4,B|191:23|191:23|182:350,1,600
183,319,18220,6,4,B|293:44|293:44|172:348,1,600
182,319,18220,6,4,B|89:38|89:38|192:348,1,600
182,320,18220,6,4,B|-1:88|-1:88|201:344,1,600
191,328,18220,6,4,B|-89:421|-89:421|220:318,1,600
191,328,18220,6,4,B|-40:511|-40:511|215:308,1,600
191,328,18220,6,4,B|-104:319|-104:319|222:328,1,600
191,328,18220,6,4,B|-83:218|-83:218|220:338,1,600
183,318,18220,6,4,B|140:25|140:25|188:348,1,600
183,319,18220,6,4,B|42:58|42:58|197:346,1,600
183,318,18220,6,4,B|243:28|243:28|178:348,1,600
184,318,18220,6,4,B|340:66|340:66|168:345,1,600
190,328,18220,6,4,B|-99:268|-99:268|221:334,1,600
190,328,18220,6,4,B|-60:172|-60:172|217:343,1,600
190,328,18220,6,4,B|-101:371|-101:371|221:323,1,600
190,328,18220,6,4,B|-69:468|-69:468|218:313,1,600
182,327,18220,6,4,B|338:75|338:75|167:353,1,600
182,327,18220,6,4,B|242:37|242:37|176:357,1,600
182,327,18220,6,4,B|42:66|42:66|197:354,1,600
182,327,18220,6,4,B|139:34|139:34|187:357,1,600
191,319,18220,6,4,B|452:178|452:178|164:334,1,600
192,319,18220,6,4,B|485:277|485:277|162:324,1,600
192,320,18220,6,4,B|444:476|444:476|165:304,1,600
192,319,18220,6,4,B|482:380|482:380|162:314,1,600
96,192,19180,6,0,L|160:192,1,40,8|0,0:0|0:0,0:0:0:0:
192,192,19300,2,0,L|256:192,1,40
288,192,19420,2,0,L|352:192,1,40,8|0,0:0|0:0,0:0:0:0:
384,192,19540,2,0,L|448:192,1,40
448,192,19660,6,0,L|384:192,1,40,8|0,0:0|0:0,0:0:0:0:
352,192,19780,2,0,L|288:192,1,40
288,192,19900,2,0,L|224:192,1,40,8|0,0:0|0:0,0:0:0:0:
224,192,20020,2,0,L|160:192,1,40
416,64,20140,6,8,L|160:64,1,240
176,64,20500,2,8,L|416:64,1,240
416,64,20860,2,8,L|320:64,1,80,8|0,0:0|0:0,0:0:0:0:
128,288,21100,6,0,L|96:224,1,40,8|0,0:0|0:0,0:0:0:0:
352,288,21220,2,0,L|384:224,1,40
96,224,21340,2,0,L|64:160,1,40,8|0,0:0|0:0,0:0:0:0:
384,224,21460,2,0,L|416:160,1,40
64,160,21580,2,0,L|32:96,1,40,8|0,0:0|0:0,0:0:0:0:
416,160,21700,2,0,L|448:96,1,40
32,96,21820,2,0,L|0:32,1,40,8|0,0:0|0:0,0:0:0:0:
448,96,21940,2,0,L|480:32,1,40
128,160,22060,6,8,L|320:160,1,160
288,160,22420,1,8,0:0:0:0:
288,160,22540,2,8,L|128:160,1,160
160,256,23020,5,8,0:0:0:0:
128,256,23080,1,0,0:0:0:0:
96,256,23140,1,0,0:0:0:0:
64,256,23200,1,0,0:0:0:0:
352,224,23260,5,8,0:0:0:0:
384,224,23320,1,0,0:0:0:0:
416,224,23380,1,0,0:0:0:0:
448,224,23440,1,0,0:0:0:0:
128,192,23500,5,8,0:0:0:0:
96,192,23560,1,0,0:0:0:0:
64,192,23620,1,0,0:0:0:0:
32,192,23680,1,0,0:0:0:0:
384,160,23740,5,8,0:0:0:0:
416,160,23800,1,0,0:0:0:0:
448,160,23860,1,0,0:0:0:0:
480,160,23920,1,0,0:0:0:0:
96,64,23980,6,8,L|96:320,1,240
96,304,24340,2,8,L|96:64,1,240
96,64,24700,2,8,L|96:160,1,80,8|0,0:0|0:0,0:0:0:0:
96,144,24820,2,8,L|96:64,1,80,0|8,0:0|0:0,0:0:0:0:
256,192,25000,12,4,25900,0:0:0:0:
0,384,26860,6,0,L|0:192,1,160,8|8,0:0|0:1,0:0:0:0:
64,320,27074,6,0,L|64:160,1,160
128,288,27288,6,0,L|128:128,1,160
192,256,27502,6,0,L|192:96,1,160
256,192,28413,12,0,28520,0:0:0:0:
256,288,28574,6,0,L|256:128,1,160
320,256,28788,6,0,L|320:96,1,160,0|8,0:0|0:0,0:0:0:0:
256,224,29002,6,0,L|256:64,1,160,8|0,0:0|0:0,0:0:0:0:
320,160,29217,6,0,L|320:0,1,160
256,192,30127,12,0,30235,0:0:0:0:
512,384,30288,6,0,L|512:192,1,160,8|8,0:0|0:1,0:0:0:0:
448,320,30502,6,0,L|448:160,1,160
384,288,30716,6,0,L|384:128,1,160
320,256,30930,6,0,L|320:96,1,160
256,192,31841,12,0,31948,0:0:0:0:
256,288,32002,6,0,L|256:128,1,160
192,256,32216,6,0,L|192:96,1,160,0|8,0:0|0:0,0:0:0:0:
256,224,32430,6,0,L|256:64,1,160,8|0,0:0|0:0,0:0:0:0:
192,160,32645,6,0,L|192:0,1,160
256,192,33555,12,0,33663,0:0:0:0:
256,192,33663,5,4,0:0:0:0:
256,192,33708,12,0,33734,0:0:0:0:
256,192,33708,12,0,33734,0:0:0:0:
256,192,33708,12,0,33734,0:0:0:0:
256,192,33708,12,0,33734,0:0:0:0:
256,192,33708,12,0,33734,0:0:0:0:
256,192,33708,12,0,33734,0:0:0:0:
256,192,33708,12,0,33734,0:0:0:0:
256,192,33708,12,0,33734,0:0:0:0:
256,192,33708,12,0,33734,0:0:0:0:
256,192,33708,12,0,33734,0:0:0:0:
256,192,33708,12,0,33734,0:0:0:0:
256,192,33708,12,0,33734,0:0:0:0:
256,192,33708,12,0,33734,0:0:0:0:
256,192,33708,12,0,33734,0:0:0:0:
256,192,33708,12,0,33734,0:0:0:0:
256,192,33708,12,0,33734,0:0:0:0:
256,192,33708,12,0,33734,0:0:0:0:
256,192,33708,12,0,33734,0:0:0:0:
256,192,33708,12,0,33734,0:0:0:0:
256,192,33708,12,0,33734,0:0:0:0:
256,192,33708,12,0,33734,0:0:0:0:
256,192,33708,12,0,33734,0:0:0:0:
256,192,33708,12,0,33734,0:0:0:0:
256,192,33708,12,0,33734,0:0:0:0:
256,192,33708,12,0,33734,0:0:0:0:
256,192,33708,12,0,33734,0:0:0:0:
256,192,33708,12,0,33734,0:0:0:0:
256,192,33708,12,0,33734,0:0:0:0:
256,192,33708,12,0,33734,0:0:0:0:
256,192,33708,12,0,33734,0:0:0:0:
256,192,33708,12,0,33734,0:0:0:0:
256,192,33708,12,0,33734,0:0:0:0:
256,192,33708,12,0,33734,0:0:0:0:
256,192,33708,12,0,33734,0:0:0:0:
256,192,33708,12,0,33734,0:0:0:0:
256,192,33708,12,0,33734,0:0:0:0:
256,192,33815,5,0,0:0:0:0:
256,192,33922,12,0,33948,0:0:0:0:
256,192,33922,12,0,33948,0:0:0:0:
256,192,33922,12,0,33948,0:0:0:0:
256,192,33922,12,0,33948,0:0:0:0:
256,192,33922,12,0,33948,0:0:0:0:
256,192,33922,12,0,33948,0:0:0:0:
256,192,33922,12,0,33948,0:0:0:0:
256,192,33922,12,0,33948,0:0:0:0:
256,192,33922,12,0,33948,0:0:0:0:
256,192,33922,12,0,33948,0:0:0:0:
256,192,33922,12,0,33948,0:0:0:0:
256,192,33922,12,0,33948,0:0:0:0:
256,192,33922,12,0,33948,0:0:0:0:
256,192,33922,12,0,33948,0:0:0:0:
256,192,33922,12,0,33948,0:0:0:0:
256,192,33922,12,0,33948,0:0:0:0:
256,192,33922,12,0,33948,0:0:0:0:
256,192,33922,12,0,33948,0:0:0:0:
256,192,33922,12,0,33948,0:0:0:0:
256,192,33922,12,0,33948,0:0:0:0:
256,192,33922,12,0,33948,0:0:0:0:
256,192,33922,12,0,33948,0:0:0:0:
256,192,33922,12,0,33948,0:0:0:0:
256,192,33922,12,0,33948,0:0:0:0:
256,192,33922,12,0,33948,0:0:0:0:
256,192,33922,12,0,33948,0:0:0:0:
256,192,33922,12,0,33948,0:0:0:0:
256,192,33922,12,0,33948,0:0:0:0:
256,192,33922,12,0,33948,0:0:0:0:
256,192,33922,12,0,33948,0:0:0:0:
256,192,33922,12,0,33948,0:0:0:0:
256,192,33922,12,0,33948,0:0:0:0:
256,192,33922,12,0,33948,0:0:0:0:
256,192,33922,12,0,33948,0:0:0:0:
256,192,33922,12,0,33948,0:0:0:0:
256,192,33922,12,0,33948,0:0:0:0:
256,192,34029,5,0,0:0:0:0:
256,192,34136,12,0,34162,0:0:0:0:
256,192,34136,12,0,34162,0:0:0:0:
256,192,34136,12,0,34162,0:0:0:0:
256,192,34136,12,0,34162,0:0:0:0:
256,192,34136,12,0,34162,0:0:0:0:
256,192,34136,12,0,34162,0:0:0:0:
256,192,34136,12,0,34162,0:0:0:0:
256,192,34136,12,0,34162,0:0:0:0:
256,192,34136,12,0,34162,0:0:0:0:
256,192,34136,12,0,34162,0:0:0:0:
256,192,34136,12,0,34162,0:0:0:0:
256,192,34136,12,0,34162,0:0:0:0:
256,192,34136,12,0,34162,0:0:0:0:
256,192,34136,12,0,34162,0:0:0:0:
256,192,34136,12,0,34162,0:0:0:0:
256,192,34136,12,0,34162,0:0:0:0:
256,192,34136,12,0,34162,0:0:0:0:
256,192,34136,12,0,34162,0:0:0:0:
256,192,34136,12,0,34162,0:0:0:0:
256,192,34136,12,0,34162,0:0:0:0:
256,192,34136,12,0,34162,0:0:0:0:
256,192,34136,12,0,34162,0:0:0:0:
256,192,34136,12,0,34162,0:0:0:0:
256,192,34136,12,0,34162,0:0:0:0:
256,192,34136,12,0,34162,0:0:0:0:
256,192,34136,12,0,34162,0:0:0:0:
256,192,34136,12,0,34162,0:0:0:0:
256,192,34136,12,0,34162,0:0:0:0:
256,192,34136,12,0,34162,0:0:0:0:
256,192,34136,12,0,34162,0:0:0:0:
256,192,34136,12,0,34162,0:0:0:0:
256,192,34136,12,0,34162,0:0:0:0:
256,192,34136,12,0,34162,0:0:0:0:
256,192,34136,12,0,34162,0:0:0:0:
256,192,34136,12,0,34162,0:0:0:0:
256,192,34136,12,0,34162,0:0:0:0:
256,192,34243,5,0,0:0:0:0:
256,192,34350,12,0,34376,0:0:0:0:
256,192,34350,12,0,34376,0:0:0:0:
256,192,34350,12,0,34376,0:0:0:0:
256,192,34350,12,0,34376,0:0:0:0:
256,192,34350,12,0,34376,0:0:0:0:
256,192,34350,12,0,34376,0:0:0:0:
256,192,34350,12,0,34376,0:0:0:0:
256,192,34350,12,0,34376,0:0:0:0:
256,192,34350,12,0,34376,0:0:0:0:
256,192,34350,12,0,34376,0:0:0:0:
256,192,34350,12,0,34376,0:0:0:0:
256,192,34350,12,0,34376,0:0:0:0:
256,192,34350,12,0,34376,0:0:0:0:
256,192,34350,12,0,34376,0:0:0:0:
256,192,34350,12,0,34376,0:0:0:0:
256,192,34350,12,0,34376,0:0:0:0:
256,192,34350,12,0,34376,0:0:0:0:
256,192,34350,12,0,34376,0:0:0:0:
256,192,34350,12,0,34376,0:0:0:0:
256,192,34350,12,0,34376,0:0:0:0:
256,192,34350,12,0,34376,0:0:0:0:
256,192,34350,12,0,34376,0:0:0:0:
256,192,34350,12,0,34376,0:0:0:0:
256,192,34350,12,0,34376,0:0:0:0:
256,192,34350,12,0,34376,0:0:0:0:
256,192,34350,12,0,34376,0:0:0:0:
256,192,34350,12,0,34376,0:0:0:0:
256,192,34350,12,0,34376,0:0:0:0:
256,192,34350,12,0,34376,0:0:0:0:
256,192,34350,12,0,34376,0:0:0:0:
256,192,34350,12,0,34376,0:0:0:0:
256,192,34350,12,0,34376,0:0:0:0:
256,192,34350,12,0,34376,0:0:0:0:
256,192,34350,12,0,34376,0:0:0:0:
256,192,34350,12,0,34376,0:0:0:0:
256,192,34350,12,0,34376,0:0:0:0:
256,192,34457,5,0,0:0:0:0:
256,192,34564,12,0,34590,0:0:0:0:
256,192,34564,12,0,34590,0:0:0:0:
256,192,34564,12,0,34590,0:0:0:0:
256,192,34564,12,0,34590,0:0:0:0:
256,192,34564,12,0,34590,0:0:0:0:
256,192,34564,12,0,34590,0:0:0:0:
256,192,34564,12,0,34590,0:0:0:0:
256,192,34564,12,0,34590,0:0:0:0:
256,192,34564,12,0,34590,0:0:0:0:
256,192,34564,12,0,34590,0:0:0:0:
256,192,34564,12,0,34590,0:0:0:0:
256,192,34564,12,0,34590,0:0:0:0:
256,192,34564,12,0,34590,0:0:0:0:
256,192,34564,12,0,34590,0:0:0:0:
256,192,34564,12,0,34590,0:0:0:0:
256,192,34564,12,0,34590,0:0:0:0:
256,192,34564,12,0,34590,0:0:0:0:
256,192,34564,12,0,34590,0:0:0:0:
256,192,34564,12,0,34590,0:0:0:0:
256,192,34564,12,0,34590,0:0:0:0:
256,192,34564,12,0,34590,0:0:0:0:
256,192,34564,12,0,34590,0:0:0:0:
256,192,34564,12,0,34590,0:0:0:0:
256,192,34564,12,0,34590,0:0:0:0:
256,192,34564,12,0,34590,0:0:0:0:
256,192,34564,12,0,34590,0:0:0:0:
256,192,34564,12,0,34590,0:0:0:0:
256,192,34564,12,0,34590,0:0:0:0:
256,192,34564,12,0,34590,0:0:0:0:
256,192,34564,12,0,34590,0:0:0:0:
256,192,34564,12,0,34590,0:0:0:0:
256,192,34564,12,0,34590,0:0:0:0:
256,192,34564,12,0,34590,0:0:0:0:
256,192,34564,12,0,34590,0:0:0:0:
256,192,34564,12,0,34590,0:0:0:0:
256,192,34564,12,0,34590,0:0:0:0:
256,192,34671,5,0,0:0:0:0:
256,192,34778,12,0,34804,0:0:0:0:
256,192,34778,12,0,34804,0:0:0:0:
256,192,34778,12,0,34804,0:0:0:0:
256,192,34778,12,0,34804,0:0:0:0:
256,192,34778,12,0,34804,0:0:0:0:
256,192,34778,12,0,34804,0:0:0:0:
256,192,34778,12,0,34804,0:0:0:0:
256,192,34778,12,0,34804,0:0:0:0:
256,192,34778,12,0,34804,0:0:0:0:
256,192,34778,12,0,34804,0:0:0:0:
256,192,34778,12,0,34804,0:0:0:0:
256,192,34778,12,0,34804,0:0:0:0:
256,192,34778,12,0,34804,0:0:0:0:
256,192,34778,12,0,34804,0:0:0:0:
256,192,34778,12,0,34804,0:0:0:0:
256,192,34778,12,0,34804,0:0:0:0:
256,192,34778,12,0,34804,0:0:0:0:
256,192,34778,12,0,34804,0:0:0:0:
256,192,34778,12,0,34804,0:0:0:0:
256,192,34778,12,0,34804,0:0:0:0:
256,192,34778,12,0,34804,0:0:0:0:
256,192,34778,12,0,34804,0:0:0:0:
256,192,34778,12,0,34804,0:0:0:0:
256,192,34778,12,0,34804,0:0:0:0:
256,192,34778,12,0,34804,0:0:0:0:
256,192,34778,12,0,34804,0:0:0:0:
256,192,34778,12,0,34804,0:0:0:0:
256,192,34778,12,0,34804,0:0:0:0:
256,192,34778,12,0,34804,0:0:0:0:
256,192,34778,12,0,34804,0:0:0:0:
256,192,34778,12,0,34804,0:0:0:0:
256,192,34778,12,0,34804,0:0:0:0:
256,192,34778,12,0,34804,0:0:0:0:
256,192,34778,12,0,34804,0:0:0:0:
256,192,34778,12,0,34804,0:0:0:0:
256,192,34778,12,0,34804,0:0:0:0:
256,192,34885,5,0,0:0:0:0:
256,192,34992,12,0,35018,0:0:0:0:
256,192,34992,12,0,35018,0:0:0:0:
256,192,34992,12,0,35018,0:0:0:0:
256,192,34992,12,0,35018,0:0:0:0:
256,192,34992,12,0,35018,0:0:0:0:
256,192,34992,12,0,35018,0:0:0:0:
256,192,34992,12,0,35018,0:0:0:0:
256,192,34992,12,0,35018,0:0:0:0:
256,192,34992,12,0,35018,0:0:0:0:
256,192,34992,12,0,35018,0:0:0:0:
256,192,34992,12,0,35018,0:0:0:0:
256,192,34992,12,0,35018,0:0:0:0:
256,192,34992,12,0,35018,0:0:0:0:
256,192,34992,12,0,35018,0:0:0:0:
256,192,34992,12,0,35018,0:0:0:0:
256,192,34992,12,0,35018,0:0:0:0:
256,192,34992,12,0,35018,0:0:0:0:
256,192,34992,12,0,35018,0:0:0:0:
256,192,34992,12,0,35018,0:0:0:0:
256,192,34992,12,0,35018,0:0:0:0:
256,192,34992,12,0,35018,0:0:0:0:
256,192,34992,12,0,35018,0:0:0:0:
256,192,34992,12,0,35018,0:0:0:0:
256,192,34992,12,0,35018,0:0:0:0:
256,192,34992,12,0,35018,0:0:0:0:
256,192,34992,12,0,35018,0:0:0:0:
256,192,34992,12,0,35018,0:0:0:0:
256,192,34992,12,0,35018,0:0:0:0:
256,192,34992,12,0,35018,0:0:0:0:
256,192,34992,12,0,35018,0:0:0:0:
256,192,34992,12,0,35018,0:0:0:0:
256,192,34992,12,0,35018,0:0:0:0:
256,192,34992,12,0,35018,0:0:0:0:
256,192,34992,12,0,35018,0:0:0:0:
256,192,34992,12,0,35018,0:0:0:0:
256,192,34992,12,0,35018,0:0:0:0:
256,192,35099,5,0,0:0:0:0:
256,192,35206,12,0,35232,0:0:0:0:
256,192,35206,12,0,35232,0:0:0:0:
256,192,35206,12,0,35232,0:0:0:0:
256,192,35206,12,0,35232,0:0:0:0:
256,192,35206,12,0,35232,0:0:0:0:
256,192,35206,12,0,35232,0:0:0:0:
256,192,35206,12,0,35232,0:0:0:0:
256,192,35206,12,0,35232,0:0:0:0:
256,192,35206,12,0,35232,0:0:0:0:
256,192,35206,12,0,35232,0:0:0:0:
256,192,35206,12,0,35232,0:0:0:0:
256,192,35206,12,0,35232,0:0:0:0:
256,192,35206,12,0,35232,0:0:0:0:
256,192,35206,12,0,35232,0:0:0:0:
256,192,35206,12,0,35232,0:0:0:0:
256,192,35206,12,0,35232,0:0:0:0:
256,192,35206,12,0,35232,0:0:0:0:
256,192,35206,12,0,35232,0:0:0:0:
256,192,35206,12,0,35232,0:0:0:0:
256,192,35206,12,0,35232,0:0:0:0:
256,192,35206,12,0,35232,0:0:0:0:
256,192,35206,12,0,35232,0:0:0:0:
256,192,35206,12,0,35232,0:0:0:0:
256,192,35206,12,0,35232,0:0:0:0:
256,192,35206,12,0,35232,0:0:0:0:
256,192,35206,12,0,35232,0:0:0:0:
256,192,35206,12,0,35232,0:0:0:0:
256,192,35206,12,0,35232,0:0:0:0:
256,192,35206,12,0,35232,0:0:0:0:
256,192,35206,12,0,35232,0:0:0:0:
256,192,35206,12,0,35232,0:0:0:0:
256,192,35206,12,0,35232,0:0:0:0:
256,192,35206,12,0,35232,0:0:0:0:
256,192,35206,12,0,35232,0:0:0:0:
256,192,35206,12,0,35232,0:0:0:0:
256,192,35206,12,0,35232,0:0:0:0:
256,192,35313,5,0,0:0:0:0:
256,192,35420,12,0,35446,0:0:0:0:
256,192,35420,12,0,35446,0:0:0:0:
256,192,35420,12,0,35446,0:0:0:0:
256,192,35420,12,0,35446,0:0:0:0:
256,192,35420,12,0,35446,0:0:0:0:
256,192,35420,12,0,35446,0:0:0:0:
256,192,35420,12,0,35446,0:0:0:0:
256,192,35420,12,0,35446,0:0:0:0:
256,192,35420,12,0,35446,0:0:0:0:
256,192,35420,12,0,35446,0:0:0:0:
256,192,35420,12,0,35446,0:0:0:0:
256,192,35420,12,0,35446,0:0:0:0:
256,192,35420,12,0,35446,0:0:0:0:
256,192,35420,12,0,35446,0:0:0:0:
256,192,35420,12,0,35446,0:0:0:0:
256,192,35420,12,0,35446,0:0:0:0:
256,192,35420,12,0,35446,0:0:0:0:
256,192,35420,12,0,35446,0:0:0:0:
256,192,35420,12,0,35446,0:0:0:0:
256,192,35420,12,0,35446,0:0:0:0:
256,192,35420,12,0,35446,0:0:0:0:
256,192,35420,12,0,35446,0:0:0:0:
256,192,35420,12,0,35446,0:0:0:0:
256,192,35420,12,0,35446,0:0:0:0:
256,192,35420,12,0,35446,0:0:0:0:
256,192,35420,12,0,35446,0:0:0:0:
256,192,35420,12,0,35446,0:0:0:0:
256,192,35420,12,0,35446,0:0:0:0:
256,192,35420,12,0,35446,0:0:0:0:
256,192,35420,12,0,35446,0:0:0:0:
256,192,35420,12,0,35446,0:0:0:0:
256,192,35420,12,0,35446,0:0:0:0:
256,192,35420,12,0,35446,0:0:0:0:
256,192,35420,12,0,35446,0:0:0:0:
256,192,35420,12,0,35446,0:0:0:0:
256,192,35420,12,0,35446,0:0:0:0:
256,192,35527,5,0,0:0:0:0:
256,192,35634,12,0,35660,0:0:0:0:
256,192,35634,12,0,35660,0:0:0:0:
256,192,35634,12,0,35660,0:0:0:0:
256,192,35634,12,0,35660,0:0:0:0:
256,192,35634,12,0,35660,0:0:0:0:
256,192,35634,12,0,35660,0:0:0:0:
256,192,35634,12,0,35660,0:0:0:0:
256,192,35634,12,0,35660,0:0:0:0:
256,192,35634,12,0,35660,0:0:0:0:
256,192,35634,12,0,35660,0:0:0:0:
256,192,35634,12,0,35660,0:0:0:0:
256,192,35634,12,0,35660,0:0:0:0:
256,192,35634,12,0,35660,0:0:0:0:
256,192,35634,12,0,35660,0:0:0:0:
256,192,35634,12,0,35660,0:0:0:0:
256,192,35634,12,0,35660,0:0:0:0:
256,192,35634,12,0,35660,0:0:0:0:
256,192,35634,12,0,35660,0:0:0:0:
256,192,35634,12,0,35660,0:0:0:0:
256,192,35634,12,0,35660,0:0:0:0:
256,192,35634,12,0,35660,0:0:0:0:
256,192,35634,12,0,35660,0:0:0:0:
256,192,35634,12,0,35660,0:0:0:0:
256,192,35634,12,0,35660,0:0:0:0:
256,192,35634,12,0,35660,0:0:0:0:
256,192,35634,12,0,35660,0:0:0:0:
256,192,35634,12,0,35660,0:0:0:0:
256,192,35634,12,0,35660,0:0:0:0:
256,192,35634,12,0,35660,0:0:0:0:
256,192,35634,12,0,35660,0:0:0:0:
256,192,35634,12,0,35660,0:0:0:0:
256,192,35634,12,0,35660,0:0:0:0:
256,192,35634,12,0,35660,0:0:0:0:
256,192,35634,12,0,35660,0:0:0:0:
256,192,35634,12,0,35660,0:0:0:0:
256,192,35634,12,0,35660,0:0:0:0:
256,192,35741,5,0,0:0:0:0:
256,192,35848,12,0,35874,0:0:0:0:
256,192,35848,12,0,35874,0:0:0:0:
256,192,35848,12,0,35874,0:0:0:0:
256,192,35848,12,0,35874,0:0:0:0:
256,192,35848,12,0,35874,0:0:0:0:
256,192,35848,12,0,35874,0:0:0:0:
256,192,35848,12,0,35874,0:0:0:0:
256,192,35848,12,0,35874,0:0:0:0:
256,192,35848,12,0,35874,0:0:0:0:
256,192,35848,12,0,35874,0:0:0:0:
256,192,35848,12,0,35874,0:0:0:0:
256,192,35848,12,0,35874,0:0:0:0:
256,192,35848,12,0,35874,0:0:0:0:
256,192,35848,12,0,35874,0:0:0:0:
256,192,35848,12,0,35874,0:0:0:0:
256,192,35848,12,0,35874,0:0:0:0:
256,192,35848,12,0,35874,0:0:0:0:
256,192,35848,12,0,35874,0:0:0:0:
256,192,35848,12,0,35874,0:0:0:0:
256,192,35848,12,0,35874,0:0:0:0:
256,192,35848,12,0,35874,0:0:0:0:
256,192,35848,12,0,35874,0:0:0:0:
256,192,35848,12,0,35874,0:0:0:0:
256,192,35848,12,0,35874,0:0:0:0:
256,192,35848,12,0,35874,0:0:0:0:
256,192,35848,12,0,35874,0:0:0:0:
256,192,35848,12,0,35874,0:0:0:0:
256,192,35848,12,0,35874,0:0:0:0:
256,192,35848,12,0,35874,0:0:0:0:
256,192,35848,12,0,35874,0:0:0:0:
256,192,35848,12,0,35874,0:0:0:0:
256,192,35848,12,0,35874,0:0:0:0:
256,192,35848,12,0,35874,0:0:0:0:
256,192,35848,12,0,35874,0:0:0:0:
256,192,35848,12,0,35874,0:0:0:0:
256,192,35848,12,0,35874,0:0:0:0:
256,192,35955,5,0,0:0:0:0:
256,192,36062,12,0,36088,0:0:0:0:
256,192,36062,12,0,36088,0:0:0:0:
256,192,36062,12,0,36088,0:0:0:0:
256,192,36062,12,0,36088,0:0:0:0:
256,192,36062,12,0,36088,0:0:0:0:
256,192,36062,12,0,36088,0:0:0:0:
256,192,36062,12,0,36088,0:0:0:0:
256,192,36062,12,0,36088,0:0:0:0:
256,192,36062,12,0,36088,0:0:0:0:
256,192,36062,12,0,36088,0:0:0:0:
256,192,36062,12,0,36088,0:0:0:0:
256,192,36062,12,0,36088,0:0:0:0:
256,192,36062,12,0,36088,0:0:0:0:
256,192,36062,12,0,36088,0:0:0:0:
256,192,36062,12,0,36088,0:0:0:0:
256,192,36062,12,0,36088,0:0:0:0:
256,192,36062,12,0,36088,0:0:0:0:
256,192,36062,12,0,36088,0:0:0:0:
256,192,36062,12,0,36088,0:0:0:0:
256,192,36062,12,0,36088,0:0:0:0:
256,192,36062,12,0,36088,0:0:0:0:
256,192,36062,12,0,36088,0:0:0:0:
256,192,36062,12,0,36088,0:0:0:0:
256,192,36062,12,0,36088,0:0:0:0:
256,192,36062,12,0,36088,0:0:0:0:
256,192,36062,12,0,36088,0:0:0:0:
256,192,36062,12,0,36088,0:0:0:0:
256,192,36062,12,0,36088,0:0:0:0:
256,192,36062,12,0,36088,0:0:0:0:
256,192,36062,12,0,36088,0:0:0:0:
256,192,36062,12,0,36088,0:0:0:0:
256,192,36062,12,0,36088,0:0:0:0:
256,192,36062,12,0,36088,0:0:0:0:
256,192,36062,12,0,36088,0:0:0:0:
256,192,36062,12,0,36088,0:0:0:0:
256,192,36062,12,0,36088,0:0:0:0:
256,192,36169,5,0,0:0:0:0:
256,192,36276,12,0,36302,0:0:0:0:
256,192,36276,12,0,36302,0:0:0:0:
256,192,36276,12,0,36302,0:0:0:0:
256,192,36276,12,0,36302,0:0:0:0:
256,192,36276,12,0,36302,0:0:0:0:
256,192,36276,12,0,36302,0:0:0:0:
256,192,36276,12,0,36302,0:0:0:0:
256,192,36276,12,0,36302,0:0:0:0:
256,192,36276,12,0,36302,0:0:0:0:
256,192,36276,12,0,36302,0:0:0:0:
256,192,36276,12,0,36302,0:0:0:0:
256,192,36276,12,0,36302,0:0:0:0:
256,192,36276,12,0,36302,0:0:0:0:
256,192,36276,12,0,36302,0:0:0:0:
256,192,36276,12,0,36302,0:0:0:0:
256,192,36276,12,0,36302,0:0:0:0:
256,192,36276,12,0,36302,0:0:0:0:
256,192,36276,12,0,36302,0:0:0:0:
256,192,36276,12,0,36302,0:0:0:0:
256,192,36276,12,0,36302,0:0:0:0:
256,192,36276,12,0,36302,0:0:0:0:
256,192,36276,12,0,36302,0:0:0:0:
256,192,36276,12,0,36302,0:0:0:0:
256,192,36276,12,0,36302,0:0:0:0:
256,192,36276,12,0,36302,0:0:0:0:
256,192,36276,12,0,36302,0:0:0:0:
256,192,36276,12,0,36302,0:0:0:0:
256,192,36276,12,0,36302,0:0:0:0:
256,192,36276,12,0,36302,0:0:0:0:
256,192,36276,12,0,36302,0:0:0:0:
256,192,36276,12,0,36302,0:0:0:0:
256,192,36276,12,0,36302,0:0:0:0:
256,192,36276,12,0,36302,0:0:0:0:
256,192,36276,12,0,36302,0:0:0:0:
256,192,36276,12,0,36302,0:0:0:0:
256,192,36276,12,0,36302,0:0:0:0:
256,192,36383,5,0,0:0:0:0:
256,192,36490,12,0,36516,0:0:0:0:
256,192,36490,12,0,36516,0:0:0:0:
256,192,36490,12,0,36516,0:0:0:0:
256,192,36490,12,0,36516,0:0:0:0:
256,192,36490,12,0,36516,0:0:0:0:
256,192,36490,12,0,36516,0:0:0:0:
256,192,36490,12,0,36516,0:0:0:0:
256,192,36490,12,0,36516,0:0:0:0:
256,192,36490,12,0,36516,0:0:0:0:
256,192,36490,12,0,36516,0:0:0:0:
256,192,36490,12,0,36516,0:0:0:0:
256,192,36490,12,0,36516,0:0:0:0:
256,192,36490,12,0,36516,0:0:0:0:
256,192,36490,12,0,36516,0:0:0:0:
256,192,36490,12,0,36516,0:0:0:0:
256,192,36490,12,0,36516,0:0:0:0:
256,192,36490,12,0,36516,0:0:0:0:
256,192,36490,12,0,36516,0:0:0:0:
256,192,36490,12,0,36516,0:0:0:0:
256,192,36490,12,0,36516,0:0:0:0:
256,192,36490,12,0,36516,0:0:0:0:
256,192,36490,12,0,36516,0:0:0:0:
256,192,36490,12,0,36516,0:0:0:0:
256,192,36490,12,0,36516,0:0:0:0:
256,192,36490,12,0,36516,0:0:0:0:
256,192,36490,12,0,36516,0:0:0:0:
256,192,36490,12,0,36516,0:0:0:0:
256,192,36490,12,0,36516,0:0:0:0:
256,192,36490,12,0,36516,0:0:0:0:
256,192,36490,12,0,36516,0:0:0:0:
256,192,36490,12,0,36516,0:0:0:0:
256,192,36490,12,0,36516,0:0:0:0:
256,192,36490,12,0,36516,0:0:0:0:
256,192,36490,12,0,36516,0:0:0:0:
256,192,36490,12,0,36516,0:0:0:0:
256,192,36490,12,0,36516,0:0:0:0:
256,192,36597,5,0,0:0:0:0:
256,192,36704,12,0,36730,0:0:0:0:
256,192,36704,12,0,36730,0:0:0:0:
256,192,36704,12,0,36730,0:0:0:0:
256,192,36704,12,0,36730,0:0:0:0:
256,192,36704,12,0,36730,0:0:0:0:
256,192,36704,12,0,36730,0:0:0:0:
256,192,36704,12,0,36730,0:0:0:0:
256,192,36704,12,0,36730,0:0:0:0:
256,192,36704,12,0,36730,0:0:0:0:
256,192,36704,12,0,36730,0:0:0:0:
256,192,36704,12,0,36730,0:0:0:0:
256,192,36704,12,0,36730,0:0:0:0:
256,192,36704,12,0,36730,0:0:0:0:
256,192,36704,12,0,36730,0:0:0:0:
256,192,36704,12,0,36730,0:0:0:0:
256,192,36704,12,0,36730,0:0:0:0:
256,192,36704,12,0,36730,0:0:0:0:
256,192,36704,12,0,36730,0:0:0:0:
256,192,36704,12,0,36730,0:0:0:0:
256,192,36704,12,0,36730,0:0:0:0:
256,192,36704,12,0,36730,0:0:0:0:
256,192,36704,12,0,36730,0:0:0:0:
256,192,36704,12,0,36730,0:0:0:0:
256,192,36704,12,0,36730,0:0:0:0:
256,192,36704,12,0,36730,0:0:0:0:
256,192,36704,12,0,36730,0:0:0:0:
256,192,36704,12,0,36730,0:0:0:0:
256,192,36704,12,0,36730,0:0:0:0:
256,192,36704,12,0,36730,0:0:0:0:
256,192,36704,12,0,36730,0:0:0:0:
256,192,36704,12,0,36730,0:0:0:0:
256,192,36704,12,0,36730,0:0:0:0:
256,192,36704,12,0,36730,0:0:0:0:
256,192,36704,12,0,36730,0:0:0:0:
256,192,36704,12,0,36730,0:0:0:0:
256,192,36704,12,0,36730,0:0:0:0:
256,192,36811,5,0,0:0:0:0:
256,192,36918,12,0,36944,0:0:0:0:
256,192,36918,12,0,36944,0:0:0:0:
256,192,36918,12,0,36944,0:0:0:0:
256,192,36918,12,0,36944,0:0:0:0:
256,192,36918,12,0,36944,0:0:0:0:
256,192,36918,12,0,36944,0:0:0:0:
256,192,36918,12,0,36944,0:0:0:0:
256,192,36918,12,0,36944,0:0:0:0:
256,192,36918,12,0,36944,0:0:0:0:
256,192,36918,12,0,36944,0:0:0:0:
256,192,36918,12,0,36944,0:0:0:0:
256,192,36918,12,0,36944,0:0:0:0:
256,192,36918,12,0,36944,0:0:0:0:
256,192,36918,12,0,36944,0:0:0:0:
256,192,36918,12,0,36944,0:0:0:0:
256,192,36918,12,0,36944,0:0:0:0:
256,192,36918,12,0,36944,0:0:0:0:
256,192,36918,12,0,36944,0:0:0:0:
256,192,36918,12,0,36944,0:0:0:0:
256,192,36918,12,0,36944,0:0:0:0:
256,192,36918,12,0,36944,0:0:0:0:
256,192,36918,12,0,36944,0:0:0:0:
256,192,36918,12,0,36944,0:0:0:0:
256,192,36918,12,0,36944,0:0:0:0:
256,192,36918,12,0,36944,0:0:0:0:
256,192,36918,12,0,36944,0:0:0:0:
256,192,36918,12,0,36944,0:0:0:0:
256,192,36918,12,0,36944,0:0:0:0:
256,192,36918,12,0,36944,0:0:0:0:
256,192,36918,12,0,36944,0:0:0:0:
256,192,36918,12,0,36944,0:0:0:0:
256,192,36918,12,0,36944,0:0:0:0:
256,192,36918,12,0,36944,0:0:0:0:
256,192,36918,12,0,36944,0:0:0:0:
256,192,36918,12,0,36944,0:0:0:0:
256,192,36918,12,0,36944,0:0:0:0:
256,192,37025,5,0,0:0:0:0:
256,192,37132,12,0,37158,0:0:0:0:
256,192,37132,12,0,37158,0:0:0:0:
256,192,37132,12,0,37158,0:0:0:0:
256,192,37132,12,0,37158,0:0:0:0:
256,192,37132,12,0,37158,0:0:0:0:
256,192,37132,12,0,37158,0:0:0:0:
256,192,37132,12,0,37158,0:0:0:0:
256,192,37132,12,0,37158,0:0:0:0:
256,192,37132,12,0,37158,0:0:0:0:
256,192,37132,12,0,37158,0:0:0:0:
256,192,37132,12,0,37158,0:0:0:0:
256,192,37132,12,0,37158,0:0:0:0:
256,192,37132,12,0,37158,0:0:0:0:
256,192,37132,12,0,37158,0:0:0:0:
256,192,37132,12,0,37158,0:0:0:0:
256,192,37132,12,0,37158,0:0:0:0:
256,192,37132,12,0,37158,0:0:0:0:
256,192,37132,12,0,37158,0:0:0:0:
256,192,37132,12,0,37158,0:0:0:0:
256,192,37132,12,0,37158,0:0:0:0:
256,192,37132,12,0,37158,0:0:0:0:
256,192,37132,12,0,37158,0:0:0:0:
256,192,37132,12,0,37158,0:0:0:0:
256,192,37132,12,0,37158,0:0:0:0:
256,192,37132,12,0,37158,0:0:0:0:
256,192,37132,12,0,37158,0:0:0:0:
256,192,37132,12,0,37158,0:0:0:0:
256,192,37132,12,0,37158,0:0:0:0:
256,192,37132,12,0,37158,0:0:0:0:
256,192,37132,12,0,37158,0:0:0:0:
256,192,37132,12,0,37158,0:0:0:0:
256,192,37132,12,0,37158,0:0:0:0:
256,192,37132,12,0,37158,0:0:0:0:
256,192,37132,12,0,37158,0:0:0:0:
256,192,37132,12,0,37158,0:0:0:0:
256,192,37132,12,0,37158,0:0:0:0:
256,192,37239,5,0,0:0:0:0:
256,192,37346,12,0,37372,0:0:0:0:
256,192,37346,12,0,37372,0:0:0:0:
256,192,37346,12,0,37372,0:0:0:0:
256,192,37346,12,0,37372,0:0:0:0:
256,192,37346,12,0,37372,0:0:0:0:
256,192,37346,12,0,37372,0:0:0:0:
256,192,37346,12,0,37372,0:0:0:0:
256,192,37346,12,0,37372,0:0:0:0:
256,192,37346,12,0,37372,0:0:0:0:
256,192,37346,12,0,37372,0:0:0:0:
256,192,37346,12,0,37372,0:0:0:0:
256,192,37346,12,0,37372,0:0:0:0:
256,192,37346,12,0,37372,0:0:0:0:
256,192,37346,12,0,37372,0:0:0:0:
256,192,37346,12,0,37372,0:0:0:0:
256,192,37346,12,0,37372,0:0:0:0:
256,192,37346,12,0,37372,0:0:0:0:
256,192,37346,12,0,37372,0:0:0:0:
256,192,37346,12,0,37372,0:0:0:0:
256,192,37346,12,0,37372,0:0:0:0:
256,192,37346,12,0,37372,0:0:0:0:
256,192,37346,12,0,37372,0:0:0:0:
256,192,37346,12,0,37372,0:0:0:0:
256,192,37346,12,0,37372,0:0:0:0:
256,192,37346,12,0,37372,0:0:0:0:
256,192,37346,12,0,37372,0:0:0:0:
256,192,37346,12,0,37372,0:0:0:0:
256,192,37346,12,0,37372,0:0:0:0:
256,192,37346,12,0,37372,0:0:0:0:
256,192,37346,12,0,37372,0:0:0:0:
256,192,37346,12,0,37372,0:0:0:0:
256,192,37346,12,0,37372,0:0:0:0:
256,192,37346,12,0,37372,0:0:0:0:
256,192,37346,12,0,37372,0:0:0:0:
256,192,37346,12,0,37372,0:0:0:0:
256,192,37346,12,0,37372,0:0:0:0:
256,192,37453,5,0,0:0:0:0:
256,192,37560,12,0,37586,0:0:0:0:
256,192,37560,12,0,37586,0:0:0:0:
256,192,37560,12,0,37586,0:0:0:0:
256,192,37560,12,0,37586,0:0:0:0:
256,192,37560,12,0,37586,0:0:0:0:
256,192,37560,12,0,37586,0:0:0:0:
256,192,37560,12,0,37586,0:0:0:0:
256,192,37560,12,0,37586,0:0:0:0:
256,192,37560,12,0,37586,0:0:0:0:
256,192,37560,12,0,37586,0:0:0:0:
256,192,37560,12,0,37586,0:0:0:0:
256,192,37560,12,0,37586,0:0:0:0:
256,192,37560,12,0,37586,0:0:0:0:
256,192,37560,12,0,37586,0:0:0:0:
256,192,37560,12,0,37586,0:0:0:0:
256,192,37560,12,0,37586,0:0:0:0:
256,192,37560,12,0,37586,0:0:0:0:
256,192,37560,12,0,37586,0:0:0:0:
256,192,37560,12,0,37586,0:0:0:0:
256,192,37560,12,0,37586,0:0:0:0:
256,192,37560,12,0,37586,0:0:0:0:
256,192,37560,12,0,37586,0:0:0:0:
256,192,37560,12,0,37586,0:0:0:0:
256,192,37560,12,0,37586,0:0:0:0:
256,192,37560,12,0,37586,0:0:0:0:
256,192,37560,12,0,37586,0:0:0:0:
256,192,37560,12,0,37586,0:0:0:0:
256,192,37560,12,0,37586,0:0:0:0:
256,192,37560,12,0,37586,0:0:0:0:
256,192,37560,12,0,37586,0:0:0:0:
256,192,37560,12,0,37586,0:0:0:0:
256,192,37560,12,0,37586,0:0:0:0:
256,192,37560,12,0,37586,0:0:0:0:
256,192,37560,12,0,37586,0:0:0:0:
256,192,37560,12,0,37586,0:0:0:0:
256,192,37560,12,0,37586,0:0:0:0:
256,192,37667,5,0,0:0:0:0:
256,192,37774,12,0,37800,0:0:0:0:
256,192,37774,12,0,37800,0:0:0:0:
256,192,37774,12,0,37800,0:0:0:0:
256,192,37774,12,0,37800,0:0:0:0:
256,192,37774,12,0,37800,0:0:0:0:
256,192,37774,12,0,37800,0:0:0:0:
256,192,37774,12,0,37800,0:0:0:0:
256,192,37774,12,0,37800,0:0:0:0:
256,192,37774,12,0,37800,0:0:0:0:
256,192,37774,12,0,37800,0:0:0:0:
256,192,37774,12,0,37800,0:0:0:0:
256,192,37774,12,0,37800,0:0:0:0:
256,192,37774,12,0,37800,0:0:0:0:
256,192,37774,12,0,37800,0:0:0:0:
256,192,37774,12,0,37800,0:0:0:0:
256,192,37774,12,0,37800,0:0:0:0:
256,192,37774,12,0,37800,0:0:0:0:
256,192,37774,12,0,37800,0:0:0:0:
256,192,37774,12,0,37800,0:0:0:0:
256,192,37774,12,0,37800,0:0:0:0:
256,192,37774,12,0,37800,0:0:0:0:
256,192,37774,12,0,37800,0:0:0:0:
256,192,37774,12,0,37800,0:0:0:0:
256,192,37774,12,0,37800,0:0:0:0:
256,192,37774,12,0,37800,0:0:0:0:
256,192,37774,12,0,37800,0:0:0:0:
256,192,37774,12,0,37800,0:0:0:0:
256,192,37774,12,0,37800,0:0:0:0:
256,192,37774,12,0,37800,0:0:0:0:
256,192,37774,12,0,37800,0:0:0:0:
256,192,37774,12,0,37800,0:0:0:0:
256,192,37774,12,0,37800,0:0:0:0:
256,192,37774,12,0,37800,0:0:0:0:
256,192,37774,12,0,37800,0:0:0:0:
256,192,37774,12,0,37800,0:0:0:0:
256,192,37774,12,0,37800,0:0:0:0:
256,192,37881,5,0,0:0:0:0:
256,192,37988,12,0,38014,0:0:0:0:
256,192,37988,12,0,38014,0:0:0:0:
256,192,37988,12,0,38014,0:0:0:0:
256,192,37988,12,0,38014,0:0:0:0:
256,192,37988,12,0,38014,0:0:0:0:
256,192,37988,12,0,38014,0:0:0:0:
256,192,37988,12,0,38014,0:0:0:0:
256,192,37988,12,0,38014,0:0:0:0:
256,192,37988,12,0,38014,0:0:0:0:
256,192,37988,12,0,38014,0:0:0:0:
256,192,37988,12,0,38014,0:0:0:0:
256,192,37988,12,0,38014,0:0:0:0:
256,192,37988,12,0,38014,0:0:0:0:
256,192,37988,12,0,38014,0:0:0:0:
256,192,37988,12,0,38014,0:0:0:0:
256,192,37988,12,0,38014,0:0:0:0:
256,192,37988,12,0,38014,0:0:0:0:
256,192,37988,12,0,38014,0:0:0:0:
256,192,37988,12,0,38014,0:0:0:0:
256,192,37988,12,0,38014,0:0:0:0:
256,192,37988,12,0,38014,0:0:0:0:
256,192,37988,12,0,38014,0:0:0:0:
256,192,37988,12,0,38014,0:0:0:0:
256,192,37988,12,0,38014,0:0:0:0:
256,192,37988,12,0,38014,0:0:0:0:
256,192,37988,12,0,38014,0:0:0:0:
256,192,37988,12,0,38014,0:0:0:0:
256,192,37988,12,0,38014,0:0:0:0:
256,192,37988,12,0,38014,0:0:0:0:
256,192,37988,12,0,38014,0:0:0:0:
256,192,37988,12,0,38014,0:0:0:0:
256,192,37988,12,0,38014,0:0:0:0:
256,192,37988,12,0,38014,0:0:0:0:
256,192,37988,12,0,38014,0:0:0:0:
256,192,37988,12,0,38014,0:0:0:0:
256,192,37988,12,0,38014,0:0:0:0:
256,192,38095,5,0,0:0:0:0:
256,192,38202,12,0,38228,0:0:0:0:
256,192,38202,12,0,38228,0:0:0:0:
256,192,38202,12,0,38228,0:0:0:0:
256,192,38202,12,0,38228,0:0:0:0:
256,192,38202,12,0,38228,0:0:0:0:
256,192,38202,12,0,38228,0:0:0:0:
256,192,38202,12,0,38228,0:0:0:0:
256,192,38202,12,0,38228,0:0:0:0:
256,192,38202,12,0,38228,0:0:0:0:
256,192,38202,12,0,38228,0:0:0:0:
256,192,38202,12,0,38228,0:0:0:0:
256,192,38202,12,0,38228,0:0:0:0:
256,192,38202,12,0,38228,0:0:0:0:
256,192,38202,12,0,38228,0:0:0:0:
256,192,38202,12,0,38228,0:0:0:0:
256,192,38202,12,0,38228,0:0:0:0:
256,192,38202,12,0,38228,0:0:0:0:
256,192,38202,12,0,38228,0:0:0:0:
256,192,38202,12,0,38228,0:0:0:0:
256,192,38202,12,0,38228,0:0:0:0:
256,192,38202,12,0,38228,0:0:0:0:
256,192,38202,12,0,38228,0:0:0:0:
256,192,38202,12,0,38228,0:0:0:0:
256,192,38202,12,0,38228,0:0:0:0:
256,192,38202,12,0,38228,0:0:0:0:
256,192,38202,12,0,38228,0:0:0:0:
256,192,38202,12,0,38228,0:0:0:0:
256,192,38202,12,0,38228,0:0:0:0:
256,192,38202,12,0,38228,0:0:0:0:
256,192,38202,12,0,38228,0:0:0:0:
256,192,38202,12,0,38228,0:0:0:0:
256,192,38202,12,0,38228,0:0:0:0:
256,192,38202,12,0,38228,0:0:0:0:
256,192,38202,12,0,38228,0:0:0:0:
256,192,38202,12,0,38228,0:0:0:0:
256,192,38202,12,0,38228,0:0:0:0:
256,192,38309,5,0,0:0:0:0:
256,192,38416,12,0,38442,0:0:0:0:
256,192,38416,12,0,38442,0:0:0:0:
256,192,38416,12,0,38442,0:0:0:0:
256,192,38416,12,0,38442,0:0:0:0:
256,192,38416,12,0,38442,0:0:0:0:
256,192,38416,12,0,38442,0:0:0:0:
256,192,38416,12,0,38442,0:0:0:0:
256,192,38416,12,0,38442,0:0:0:0:
256,192,38416,12,0,38442,0:0:0:0:
256,192,38416,12,0,38442,0:0:0:0:
256,192,38416,12,0,38442,0:0:0:0:
256,192,38416,12,0,38442,0:0:0:0:
256,192,38416,12,0,38442,0:0:0:0:
256,192,38416,12,0,38442,0:0:0:0:
256,192,38416,12,0,38442,0:0:0:0:
256,192,38416,12,0,38442,0:0:0:0:
256,192,38416,12,0,38442,0:0:0:0:
256,192,38416,12,0,38442,0:0:0:0:
256,192,38416,12,0,38442,0:0:0:0:
256,192,38416,12,0,38442,0:0:0:0:
256,192,38416,12,0,38442,0:0:0:0:
256,192,38416,12,0,38442,0:0:0:0:
256,192,38416,12,0,38442,0:0:0:0:
256,192,38416,12,0,38442,0:0:0:0:
256,192,38416,12,0,38442,0:0:0:0:
256,192,38416,12,0,38442,0:0:0:0:
256,192,38416,12,0,38442,0:0:0:0:
256,192,38416,12,0,38442,0:0:0:0:
256,192,38416,12,0,38442,0:0:0:0:
256,192,38416,12,0,38442,0:0:0:0:
256,192,38416,12,0,38442,0:0:0:0:
256,192,38416,12,0,38442,0:0:0:0:
256,192,38416,12,0,38442,0:0:0:0:
256,192,38416,12,0,38442,0:0:0:0:
256,192,38416,12,0,38442,0:0:0:0:
256,192,38416,12,0,38442,0:0:0:0:
256,192,38523,5,0,0:0:0:0:
256,192,38630,12,0,38656,0:0:0:0:
256,192,38630,12,0,38656,0:0:0:0:
256,192,38630,12,0,38656,0:0:0:0:
256,192,38630,12,0,38656,0:0:0:0:
256,192,38630,12,0,38656,0:0:0:0:
256,192,38630,12,0,38656,0:0:0:0:
256,192,38630,12,0,38656,0:0:0:0:
256,192,38630,12,0,38656,0:0:0:0:
256,192,38630,12,0,38656,0:0:0:0:
256,192,38630,12,0,38656,0:0:0:0:
256,192,38630,12,0,38656,0:0:0:0:
256,192,38630,12,0,38656,0:0:0:0:
256,192,38630,12,0,38656,0:0:0:0:
256,192,38630,12,0,38656,0:0:0:0:
256,192,38630,12,0,38656,0:0:0:0:
256,192,38630,12,0,38656,0:0:0:0:
256,192,38630,12,0,38656,0:0:0:0:
256,192,38630,12,0,38656,0:0:0:0:
256,192,38630,12,0,38656,0:0:0:0:
256,192,38630,12,0,38656,0:0:0:0:
256,192,38630,12,0,38656,0:0:0:0:
256,192,38630,12,0,38656,0:0:0:0:
256,192,38630,12,0,38656,0:0:0:0:
256,192,38630,12,0,38656,0:0:0:0:
256,192,38630,12,0,38656,0:0:0:0:
256,192,38630,12,0,38656,0:0:0:0:
256,192,38630,12,0,38656,0:0:0:0:
256,192,38630,12,0,38656,0:0:0:0:
256,192,38630,12,0,38656,0:0:0:0:
256,192,38630,12,0,38656,0:0:0:0:
256,192,38630,12,0,38656,0:0:0:0:
256,192,38630,12,0,38656,0:0:0:0:
256,192,38630,12,0,38656,0:0:0:0:
256,192,38630,12,0,38656,0:0:0:0:
256,192,38630,12,0,38656,0:0:0:0:
256,192,38630,12,0,38656,0:0:0:0:
256,192,38737,5,0,0:0:0:0:
256,192,38844,12,0,38870,0:0:0:0:
256,192,38844,12,0,38870,0:0:0:0:
256,192,38844,12,0,38870,0:0:0:0:
256,192,38844,12,0,38870,0:0:0:0:
256,192,38844,12,0,38870,0:0:0:0:
256,192,38844,12,0,38870,0:0:0:0:
256,192,38844,12,0,38870,0:0:0:0:
256,192,38844,12,0,38870,0:0:0:0:
256,192,38844,12,0,38870,0:0:0:0:
256,192,38844,12,0,38870,0:0:0:0:
256,192,38844,12,0,38870,0:0:0:0:
256,192,38844,12,0,38870,0:0:0:0:
256,192,38844,12,0,38870,0:0:0:0:
256,192,38844,12,0,38870,0:0:0:0:
256,192,38844,12,0,38870,0:0:0:0:
256,192,38844,12,0,38870,0:0:0:0:
256,192,38844,12,0,38870,0:0:0:0:
256,192,38844,12,0,38870,0:0:0:0:
256,192,38844,12,0,38870,0:0:0:0:
256,192,38844,12,0,38870,0:0:0:0:
256,192,38844,12,0,38870,0:0:0:0:
256,192,38844,12,0,38870,0:0:0:0:
256,192,38844,12,0,38870,0:0:0:0:
256,192,38844,12,0,38870,0:0:0:0:
256,192,38844,12,0,38870,0:0:0:0:
256,192,38844,12,0,38870,0:0:0:0:
256,192,38844,12,0,38870,0:0:0:0:
256,192,38844,12,0,38870,0:0:0:0:
256,192,38844,12,0,38870,0:0:0:0:
256,192,38844,12,0,38870,0:0:0:0:
256,192,38844,12,0,38870,0:0:0:0:
256,192,38844,12,0,38870,0:0:0:0:
256,192,38844,12,0,38870,0:0:0:0:
256,192,38844,12,0,38870,0:0:0:0:
256,192,38844,12,0,38870,0:0:0:0:
256,192,38844,12,0,38870,0:0:0:0:
256,192,38951,5,0,0:0:0:0:
256,192,39058,12,0,39084,0:0:0:0:
256,192,39058,12,0,39084,0:0:0:0:
256,192,39058,12,0,39084,0:0:0:0:
256,192,39058,12,0,39084,0:0:0:0:
256,192,39058,12,0,39084,0:0:0:0:
256,192,39058,12,0,39084,0:0:0:0:
256,192,39058,12,0,39084,0:0:0:0:
256,192,39058,12,0,39084,0:0:0:0:
256,192,39058,12,0,39084,0:0:0:0:
256,192,39058,12,0,39084,0:0:0:0:
256,192,39058,12,0,39084,0:0:0:0:
256,192,39058,12,0,39084,0:0:0:0:
256,192,39058,12,0,39084,0:0:0:0:
256,192,39058,12,0,39084,0:0:0:0:
256,192,39058,12,0,39084,0:0:0:0:
256,192,39058,12,0,39084,0:0:0:0:
256,192,39058,12,0,39084,0:0:0:0:
256,192,39058,12,0,39084,0:0:0:0:
256,192,39058,12,0,39084,0:0:0:0:
256,192,39058,12,0,39084,0:0:0:0:
256,192,39058,12,0,39084,0:0:0:0:
256,192,39058,12,0,39084,0:0:0:0:
256,192,39058,12,0,39084,0:0:0:0:
256,192,39058,12,0,39084,0:0:0:0:
256,192,39058,12,0,39084,0:0:0:0:
256,192,39058,12,0,39084,0:0:0:0:
256,192,39058,12,0,39084,0:0:0:0:
256,192,39058,12,0,39084,0:0:0:0:
256,192,39058,12,0,39084,0:0:0:0:
256,192,39058,12,0,39084,0:0:0:0:
256,192,39058,12,0,39084,0:0:0:0:
256,192,39058,12,0,39084,0:0:0:0:
256,192,39058,12,0,39084,0:0:0:0:
256,192,39058,12,0,39084,0:0:0:0:
256,192,39058,12,0,39084,0:0:0:0:
256,192,39058,12,0,39084,0:0:0:0:
256,192,39165,5,0,0:0:0:0:
256,192,39272,12,0,39298,0:0:0:0:
256,192,39272,12,0,39298,0:0:0:0:
256,192,39272,12,0,39298,0:0:0:0:
256,192,39272,12,0,39298,0:0:0:0:
256,192,39272,12,0,39298,0:0:0:0:
256,192,39272,12,0,39298,0:0:0:0:
256,192,39272,12,0,39298,0:0:0:0:
256,192,39272,12,0,39298,0:0:0:0:
256,192,39272,12,0,39298,0:0:0:0:
256,192,39272,12,0,39298,0:0:0:0:
256,192,39272,12,0,39298,0:0:0:0:
256,192,39272,12,0,39298,0:0:0:0:
256,192,39272,12,0,39298,0:0:0:0:
256,192,39272,12,0,39298,0:0:0:0:
256,192,39272,12,0,39298,0:0:0:0:
256,192,39272,12,0,39298,0:0:0:0:
256,192,39272,12,0,39298,0:0:0:0:
256,192,39272,12,0,39298,0:0:0:0:
256,192,39272,12,0,39298,0:0:0:0:
256,192,39272,12,0,39298,0:0:0:0:
256,192,39272,12,0,39298,0:0:0:0:
256,192,39272,12,0,39298,0:0:0:0:
256,192,39272,12,0,39298,0:0:0:0:
256,192,39272,12,0,39298,0:0:0:0:
256,192,39272,12,0,39298,0:0:0:0:
256,192,39272,12,0,39298,0:0:0:0:
256,192,39272,12,0,39298,0:0:0:0:
256,192,39272,12,0,39298,0:0:0:0:
256,192,39272,12,0,39298,0:0:0:0:
256,192,39272,12,0,39298,0:0:0:0:
256,192,39272,12,0,39298,0:0:0:0:
256,192,39272,12,0,39298,0:0:0:0:
256,192,39272,12,0,39298,0:0:0:0:
256,192,39272,12,0,39298,0:0:0:0:
256,192,39272,12,0,39298,0:0:0:0:
256,192,39272,12,0,39298,0:0:0:0:
256,192,39379,5,0,0:0:0:0:
256,192,39486,12,0,39512,0:0:0:0:
256,192,39486,12,0,39512,0:0:0:0:
256,192,39486,12,0,39512,0:0:0:0:
256,192,39486,12,0,39512,0:0:0:0:
256,192,39486,12,0,39512,0:0:0:0:
256,192,39486,12,0,39512,0:0:0:0:
256,192,39486,12,0,39512,0:0:0:0:
256,192,39486,12,0,39512,0:0:0:0:
256,192,39486,12,0,39512,0:0:0:0:
256,192,39486,12,0,39512,0:0:0:0:
256,192,39486,12,0,39512,0:0:0:0:
256,192,39486,12,0,39512,0:0:0:0:
256,192,39486,12,0,39512,0:0:0:0:
256,192,39486,12,0,39512,0:0:0:0:
256,192,39486,12,0,39512,0:0:0:0:
256,192,39486,12,0,39512,0:0:0:0:
256,192,39486,12,0,39512,0:0:0:0:
256,192,39486,12,0,39512,0:0:0:0:
256,192,39486,12,0,39512,0:0:0:0:
256,192,39486,12,0,39512,0:0:0:0:
256,192,39486,12,0,39512,0:0:0:0:
256,192,39486,12,0,39512,0:0:0:0:
256,192,39486,12,0,39512,0:0:0:0:
256,192,39486,12,0,39512,0:0:0:0:
256,192,39486,12,0,39512,0:0:0:0:
256,192,39486,12,0,39512,0:0:0:0:
256,192,39486,12,0,39512,0:0:0:0:
256,192,39486,12,0,39512,0:0:0:0:
256,192,39486,12,0,39512,0:0:0:0:
256,192,39486,12,0,39512,0:0:0:0:
256,192,39486,12,0,39512,0:0:0:0:
256,192,39486,12,0,39512,0:0:0:0:
256,192,39486,12,0,39512,0:0:0:0:
256,192,39486,12,0,39512,0:0:0:0:
256,192,39486,12,0,39512,0:0:0:0:
256,192,39486,12,0,39512,0:0:0:0:
256,192,39593,5,0,0:0:0:0:
256,192,39700,12,0,39726,0:0:0:0:
256,192,39700,12,0,39726,0:0:0:0:
256,192,39700,12,0,39726,0:0:0:0:
256,192,39700,12,0,39726,0:0:0:0:
256,192,39700,12,0,39726,0:0:0:0:
256,192,39700,12,0,39726,0:0:0:0:
256,192,39700,12,0,39726,0:0:0:0:
256,192,39700,12,0,39726,0:0:0:0:
256,192,39700,12,0,39726,0:0:0:0:
256,192,39700,12,0,39726,0:0:0:0:
256,192,39700,12,0,39726,0:0:0:0:
256,192,39700,12,0,39726,0:0:0:0:
256,192,39700,12,0,39726,0:0:0:0:
256,192,39700,12,0,39726,0:0:0:0:
256,192,39700,12,0,39726,0:0:0:0:
256,192,39700,12,0,39726,0:0:0:0:
256,192,39700,12,0,39726,0:0:0:0:
256,192,39700,12,0,39726,0:0:0:0:
256,192,39700,12,0,39726,0:0:0:0:
256,192,39700,12,0,39726,0:0:0:0:
256,192,39700,12,0,39726,0:0:0:0:
256,192,39700,12,0,39726,0:0:0:0:
256,192,39700,12,0,39726,0:0:0:0:
256,192,39700,12,0,39726,0:0:0:0:
256,192,39700,12,0,39726,0:0:0:0:
256,192,39700,12,0,39726,0:0:0:0:
256,192,39700,12,0,39726,0:0:0:0:
256,192,39700,12,0,39726,0:0:0:0:
256,192,39700,12,0,39726,0:0:0:0:
256,192,39700,12,0,39726,0:0:0:0:
256,192,39700,12,0,39726,0:0:0:0:
256,192,39700,12,0,39726,0:0:0:0:
256,192,39700,12,0,39726,0:0:0:0:
256,192,39700,12,0,39726,0:0:0:0:
256,192,39700,12,0,39726,0:0:0:0:
256,192,39700,12,0,39726,0:0:0:0:
256,192,39807,5,0,0:0:0:0:
256,192,39914,12,0,39940,0:0:0:0:
256,192,39914,12,0,39940,0:0:0:0:
256,192,39914,12,0,39940,0:0:0:0:
256,192,39914,12,0,39940,0:0:0:0:
256,192,39914,12,0,39940,0:0:0:0:
256,192,39914,12,0,39940,0:0:0:0:
256,192,39914,12,0,39940,0:0:0:0:
256,192,39914,12,0,39940,0:0:0:0:
256,192,39914,12,0,39940,0:0:0:0:
256,192,39914,12,0,39940,0:0:0:0:
256,192,39914,12,0,39940,0:0:0:0:
256,192,39914,12,0,39940,0:0:0:0:
256,192,39914,12,0,39940,0:0:0:0:
256,192,39914,12,0,39940,0:0:0:0:
256,192,39914,12,0,39940,0:0:0:0:
256,192,39914,12,0,39940,0:0:0:0:
256,192,39914,12,0,39940,0:0:0:0:
256,192,39914,12,0,39940,0:0:0:0:
256,192,39914,12,0,39940,0:0:0:0:
256,192,39914,12,0,39940,0:0:0:0:
256,192,39914,12,0,39940,0:0:0:0:
256,192,39914,12,0,39940,0:0:0:0:
256,192,39914,12,0,39940,0:0:0:0:
256,192,39914,12,0,39940,0:0:0:0:
256,192,39914,12,0,39940,0:0:0:0:
256,192,39914,12,0,39940,0:0:0:0:
256,192,39914,12,0,39940,0:0:0:0:
256,192,39914,12,0,39940,0:0:0:0:
256,192,39914,12,0,39940,0:0:0:0:
256,192,39914,12,0,39940,0:0:0:0:
256,192,39914,12,0,39940,0:0:0:0:
256,192,39914,12,0,39940,0:0:0:0:
256,192,39914,12,0,39940,0:0:0:0:
256,192,39914,12,0,39940,0:0:0:0:
256,192,39914,12,0,39940,0:0:0:0:
256,192,39914,12,0,39940,0:0:0:0:
256,192,40021,5,0,0:0:0:0:
256,192,40128,12,0,40154,0:0:0:0:
256,192,40128,12,0,40154,0:0:0:0:
256,192,40128,12,0,40154,0:0:0:0:
256,192,40128,12,0,40154,0:0:0:0:
256,192,40128,12,0,40154,0:0:0:0:
256,192,40128,12,0,40154,0:0:0:0:
256,192,40128,12,0,40154,0:0:0:0:
256,192,40128,12,0,40154,0:0:0:0:
256,192,40128,12,0,40154,0:0:0:0:
256,192,40128,12,0,40154,0:0:0:0:
256,192,40128,12,0,40154,0:0:0:0:
256,192,40128,12,0,40154,0:0:0:0:
256,192,40128,12,0,40154,0:0:0:0:
256,192,40128,12,0,40154,0:0:0:0:
256,192,40128,12,0,40154,0:0:0:0:
256,192,40128,12,0,40154,0:0:0:0:
256,192,40128,12,0,40154,0:0:0:0:
256,192,40128,12,0,40154,0:0:0:0:
256,192,40128,12,0,40154,0:0:0:0:
256,192,40128,12,0,40154,0:0:0:0:
256,192,40128,12,0,40154,0:0:0:0:
256,192,40128,12,0,40154,0:0:0:0:
256,192,40128,12,0,40154,0:0:0:0:
256,192,40128,12,0,40154,0:0:0:0:
256,192,40128,12,0,40154,0:0:0:0:
256,192,40128,12,0,40154,0:0:0:0:
256,192,40128,12,0,40154,0:0:0:0:
256,192,40128,12,0,40154,0:0:0:0:
256,192,40128,12,0,40154,0:0:0:0:
256,192,40128,12,0,40154,0:0:0:0:
256,192,40128,12,0,40154,0:0:0:0:
256,192,40128,12,0,40154,0:0:0:0:
256,192,40128,12,0,40154,0:0:0:0:
256,192,40128,12,0,40154,0:0:0:0:
256,192,40128,12,0,40154,0:0:0:0:
256,192,40128,12,0,40154,0:0:0:0:
256,192,40235,5,0,0:0:0:0:
256,192,40342,12,0,40368,0:0:0:0:
256,192,40342,12,0,40368,0:0:0:0:
256,192,40342,12,0,40368,0:0:0:0:
256,192,40342,12,0,40368,0:0:0:0:
256,192,40342,12,0,40368,0:0:0:0:
256,192,40342,12,0,40368,0:0:0:0:
256,192,40342,12,0,40368,0:0:0:0:
256,192,40342,12,0,40368,0:0:0:0:
256,192,40342,12,0,40368,0:0:0:0:
256,192,40342,12,0,40368,0:0:0:0:
256,192,40342,12,0,40368,0:0:0:0:
256,192,40342,12,0,40368,0:0:0:0:
256,192,40342,12,0,40368,0:0:0:0:
256,192,40342,12,0,40368,0:0:0:0:
256,192,40342,12,0,40368,0:0:0:0:
256,192,40342,12,0,40368,0:0:0:0:
256,192,40342,12,0,40368,0:0:0:0:
256,192,40342,12,0,40368,0:0:0:0:
256,192,40342,12,0,40368,0:0:0:0:
256,192,40342,12,0,40368,0:0:0:0:
256,192,40342,12,0,40368,0:0:0:0:
256,192,40342,12,0,40368,0:0:0:0:
256,192,40342,12,0,40368,0:0:0:0:
256,192,40342,12,0,40368,0:0:0:0:
256,192,40342,12,0,40368,0:0:0:0:
256,192,40342,12,0,40368,0:0:0:0:
256,192,40342,12,0,40368,0:0:0:0:
256,192,40342,12,0,40368,0:0:0:0:
256,192,40342,12,0,40368,0:0:0:0:
256,192,40342,12,0,40368,0:0:0:0:
256,192,40342,12,0,40368,0:0:0:0:
256,192,40342,12,0,40368,0:0:0:0:
256,192,40342,12,0,40368,0:0:0:0:
256,192,40342,12,0,40368,0:0:0:0:
256,192,40342,12,0,40368,0:0:0:0:
256,192,40342,12,0,40368,0:0:0:0:
256,192,40449,5,0,0:0:0:0:
256,192,41413,5,4,0:0:0:0:
232,192,42133,5,2,0:0:0:0:
256,192,42148,5,2,0:0:0:0:
280,192,42163,5,2,0:0:0:0:
256,192,42178,5,2,0:0:0:0:
232,192,42193,5,2,0:0:0:0:
256,192,42208,5,2,0:0:0:0:
280,192,42223,5,2,0:0:0:0:
256,192,42238,5,2,0:0:0:0:
232,192,42253,5,2,0:0:0:0:
256,192,42268,5,2,0:0:0:0:
280,192,42283,5,2,0:0:0:0:
256,192,42298,5,2,0:0:0:0:
232,192,42313,5,2,0:0:0:0:
256,192,42328,5,2,0:0:0:0:
280,192,42343,5,2,0:0:0:0:
256,192,42358,5,2,0:0:0:0:
232,192,42373,5,0,0:0:0:0:
256,192,42388,5,0,0:0:0:0:
280,192,42403,5,0,0:0:0:0:
256,192,42418,5,0,0:0:0:0:
232,192,42433,5,0,0:0:0:0:
256,192,42448,5,0,0:0:0:0:
280,192,42463,5,0,0:0:0:0:
256,192,42478,5,0,0:0:0:0:
232,192,42493,5,0,0:0:0:0:
256,192,42508,5,0,0:0:0:0:
280,192,42523,5,0,0:0:0:0:
256,192,42538,5,0,0:0:0:0:
232,192,42553,5,0,0:0:0:0:
256,192,42568,5,0,0:0:0:0:
280,192,42583,5,0,0:0:0:0:
256,192,42598,5,0,0:0:0:0:
232,192,42853,5,2,0:0:0:0:
256,192,42868,5,2,0:0:0:0:
280,192,42883,5,2,0:0:0:0:
256,192,42898,5,2,0:0:0:0:
232,192,42913,5,2,0:0:0:0:
256,192,42928,5,2,0:0:0:0:
280,192,42943,5,2,0:0:0:0:
256,192,42958,5,2,0:0:0:0:
232,192,42973,5,2,0:0:0:0:
256,192,42988,5,2,0:0:0:0:
280,192,43003,5,2,0:0:0:0:
256,192,43018,5,2,0:0:0:0:
232,192,43033,5,2,0:0:0:0:
256,192,43048,5,2,0:0:0:0:
280,192,43063,5,2,0:0:0:0:
256,192,43078,5,2,0:0:0:0:
256,192,45899,12,0,45914,0:0:0:0:
256,192,45929,12,0,45944,0:0:0:0:
256,192,45944,12,0,46004,0:0:0:0:
256,192,45959,12,0,45974,0:0:0:0:
256,192,45989,12,0,46004,0:0:0:0:
256,192,46004,12,0,46064,0:0:0:0:
256,192,46019,12,0,46034,0:0:0:0:
256,192,46049,12,0,46064,0:0:0:0:
256,192,46064,12,0,46124,0:0:0:0:
256,192,46079,12,0,46094,0:0:0:0:
256,192,46109,12,0,46124,0:0:0:0:
256,192,46124,12,0,46184,0:0:0:0:
256,192,46139,12,0,46154,0:0:0:0:
256,192,46169,12,0,46184,0:0:0:0:
256,192,46184,12,0,46244,0:0:0:0:
256,192,46199,12,0,46214,0:0:0:0:
256,192,46229,12,0,46244,0:0:0:0:
256,192,46244,12,0,46304,0:0:0:0:
256,192,46259,12,0,46274,0:0:0:0:
256,192,46289,12,0,46304,0:0:0:0:
256,192,46304,12,0,46364,0:0:0:0:
256,192,46319,12,0,46334,0:0:0:0:
256,192,46349,12,0,46364,0:0:0:0:
256,192,46364,12,0,46424,0:0:0:0:
256,192,46379,12,0,46394,0:0:0:0:
256,192,46409,12,0,46424,0:0:0:0:
256,192,46424,12,0,46484,0:0:0:0:
256,192,46439,12,0,46454,0:0:0:0:
256,192,46469,12,0,46484,0:0:0:0:
256,192,46484,12,0,46499,0:0:0:0:
256,192,46499,12,0,46514,0:0:0:0:
256,192,46529,12,0,46544,0:0:0:0:
256,192,46544,12,0,46559,0:0:0:0:
256,192,46559,12,0,46574,0:0:0:0:
256,192,46574,12,0,46589,0:0:0:0:
256,192,46589,12,0,46604,0:0:0:0:
256,192,46604,12,0,46619,0:0:0:0:
256,192,46619,12,0,46634,0:0:0:0:
256,192,46634,12,0,46649,0:0:0:0:
256,192,46649,12,0,46664,0:0:0:0:
256,192,46664,12,0,46724,0:0:0:0:
256,192,46724,12,0,46784,0:0:0:0:
256,192,46844,5,12,0:0:0:0:
256,192,47084,5,8,0:0:0:0:
256,192,47438,1,8,0:0:0:0:
256,192,47796,1,8,0:0:0:0:
256,192,48033,1,8,0:0:0:0:
256,192,48269,1,8,0:0:0:0:
256,192,48504,1,8,0:0:0:0:
256,192,48738,1,8,0:0:0:0:
256,192,48971,1,8,0:0:0:0:
256,192,49087,1,8,0:0:0:0:
256,192,49318,1,8,0:0:0:0:
256,192,49434,1,8,0:0:0:0:
256,192,49664,1,8,0:0:0:0:
0,376,49893,6,0,B|72:376|72:376|-8:376,1,150,4|0,0:0|0:0,0:0:0:0:
0,376,49893,6,0,B|50:325|50:325|-5:381,1,150
0,376,49893,6,0,B|0:304|0:304|0:384,1,150,4|4,0:0|0:0,0:0:0:0:
512,8,50122,6,0,B|512:80|512:80|512:0,1,150,4|4,0:0|0:0,0:0:0:0:
512,8,50122,6,0,B|461:58|461:58|517:2,1,150
512,8,50122,6,0,B|439:8|439:8|520:8,1,150,4|0,0:0|0:0,0:0:0:0:
0,8,50350,6,0,B|72:8|72:8|-8:8,1,150,4|0,0:0|0:0,0:0:0:0:
0,8,50350,6,0,B|50:58|50:58|-5:2,1,150
0,8,50350,6,0,B|0:80|0:80|0:0,1,150,4|4,0:0|0:0,0:0:0:0:
512,376,50579,6,0,B|439:376|439:376|520:376,1,150,4|0,0:0|0:0,0:0:0:0:
512,376,50579,6,0,B|461:325|461:325|517:381,1,150
512,376,50579,6,0,B|512:304|512:304|512:384,1,150,4|4,0:0|0:0,0:0:0:0:
224,192,50804,5,12,0:0:0:0:
288,192,51141,1,8,0:0:0:0:
224,192,51476,1,8,0:0:0:0:
224,192,51699,1,8,0:0:0:0:
288,192,51921,1,8,0:0:0:0:
224,192,52142,1,8,0:0:0:0:
288,192,52362,1,8,0:0:0:0:
224,192,52581,1,8,0:0:0:0:
288,192,52690,1,8,0:0:0:0:
224,192,52908,1,8,0:0:0:0:
288,192,53017,1,8,0:0:0:0:
224,192,53234,1,8,0:0:0:0:
64,24,53450,6,0,P|24:80|72:136,1,150,4|0,0:0|0:0,0:0:0:0:
24,88,53557,1,0,0:0:0:0:
448,360,53665,6,0,P|488:304|448:240,1,150,4|0,0:0|0:0,0:0:0:0:
488,296,53772,1,0,0:0:0:0:
160,272,53880,6,0,B|160:192|160:192|152:192|152:192|168:192|168:192|160:184|160:184|160:144,1,150,4|0,0:0|0:0,0:0:0:0:
160,200,53987,1,0,0:0:0:0:
464,40,54094,6,0,L|616:40,1,150,4|0,0:0|0:0,0:0:0:0:
512,40,54200,1,0,0:0:0:0:
160,192,54309,5,12,0:0:0:0:
352,192,54627,1,8,0:0:0:0:
160,192,54944,1,8,0:0:0:0:
352,192,55154,1,8,0:0:0:0:
160,192,55363,1,8,0:0:0:0:
352,192,55572,1,8,0:0:0:0:
160,192,55780,1,8,0:0:0:0:
352,192,55987,1,8,0:0:0:0:
160,192,56090,1,8,0:0:0:0:
160,192,56296,1,8,0:0:0:0:
352,192,56399,1,8,0:0:0:0:
160,192,56604,1,8,0:0:0:0:
72,272,56808,6,0,L|-80:272,1,150,4|0,0:0|0:0,0:0:0:0:
416,280,57013,6,0,L|568:280,1,150,4|0,0:0|0:0,0:0:0:0:
256,64,57216,6,0,B|256:-64|256:-64|256:-40,1,150,4|0,0:0|0:0,0:0:0:0:
512,192,57418,6,0,B|584:192|584:192|584:128|584:128|568:128,1,150,4|0,0:0|0:0,0:0:0:0:
96,192,57622,5,12,0:0:0:0:
256,192,57923,1,8,0:0:0:0:
96,192,58223,1,8,0:0:0:0:
416,192,58422,1,8,0:0:0:0:
96,192,58620,1,8,0:0:0:0:
416,192,58818,1,8,0:0:0:0:
96,192,59015,1,8,0:0:0:0:
416,192,59211,1,8,0:0:0:0:
96,192,59310,1,8,0:0:0:0:
96,192,59505,1,8,0:0:0:0:
416,192,59603,1,8,0:0:0:0:
96,192,59797,1,8,0:0:0:0:
0,112,59991,6,0,L|-12:112,15,10,4|0|0|0|0|0|0|0|0|0|0|0|0|0|0|0,0:0|0:0|0:0|0:0|0:0|0:0|0:0|0:0|0:0|0:0|0:0|0:0|0:0|0:0|0:0|0:0,0:0:0:0:
512,192,60184,6,0,L|524:192,15,10,4|0|0|0|0|0|0|0|0|0|0|0|0|0|0|0,0:0|0:0|0:0|0:0|0:0|0:0|0:0|0:0|0:0|0:0|0:0|0:0|0:0|0:0|0:0|0:0,0:0:0:0:
0,328,60376,6,0,L|-8:336,15,10,4|0|0|0|0|0|0|0|4|0|0|0|0|0|0|0,1:0|0:0|0:0|0:0|0:0|0:0|0:0|0:0|1:0|0:0|0:0|0:0|0:0|0:0|0:0|0:0,0:0:0:0:
440,336,60568,6,0,P|468:216|456:200,1,150,4|0,1:0|0:0,0:0:0:0:
480,269,60663,1,4,1:0:0:0:
256,96,60761,5,12,0:0:0:0:
256,96,61047,1,8,0:0:0:0:
256,96,61331,1,8,0:0:0:0:
256,96,61522,1,8,0:0:0:0:
256,96,61710,1,8,0:0:0:0:
256,96,61898,1,8,0:0:0:0:
256,96,62085,1,8,0:0:0:0:
256,96,62271,1,8,0:0:0:0:
256,96,62366,1,8,0:0:0:0:
256,96,62551,1,8,0:0:0:0:
256,96,62644,1,8,0:0:0:0:
256,96,62829,1,8,0:0:0:0:
64,192,63015,5,4,0:0:0:0:
64,192,63015,5,4,0:0:0:0:
64,192,63015,5,4,0:0:0:0:
64,192,63015,5,4,0:0:0:0:
64,192,63015,5,4,0:0:0:0:
192,192,63199,5,4,0:0:0:0:
192,192,63199,5,4,0:0:0:0:
192,192,63199,5,4,0:0:0:0:
192,192,63199,5,4,0:0:0:0:
192,192,63199,5,4,0:0:0:0:
192,192,63199,5,4,0:0:0:0:
192,192,63199,5,4,0:0:0:0:
192,192,63199,5,4,0:0:0:0:
192,192,63199,5,4,0:0:0:0:
192,192,63199,5,4,0:0:0:0:
320,192,63382,5,4,0:0:0:0:
320,192,63382,5,4,0:0:0:0:
320,192,63382,5,4,0:0:0:0:
320,192,63382,5,4,0:0:0:0:
320,192,63382,5,4,0:0:0:0:
320,192,63382,5,4,0:0:0:0:
320,192,63382,5,4,0:0:0:0:
320,192,63382,5,4,0:0:0:0:
320,192,63382,5,4,0:0:0:0:
320,192,63382,5,4,0:0:0:0:
320,192,63382,5,4,0:0:0:0:
320,192,63382,5,4,0:0:0:0:
320,192,63382,5,4,0:0:0:0:
320,192,63382,5,4,0:0:0:0:
320,192,63382,5,4,0:0:0:0:
320,192,63382,5,4,0:0:0:0:
320,192,63382,5,4,0:0:0:0:
320,192,63382,5,4,0:0:0:0:
320,192,63382,5,4,0:0:0:0:
320,192,63382,5,4,0:0:0:0:
448,192,63564,5,4,0:0:0:0:
448,192,63564,5,4,0:0:0:0:
448,192,63564,5,4,0:0:0:0:
448,192,63564,5,4,0:0:0:0:
448,192,63564,5,4,0:0:0:0:
448,192,63564,5,4,0:0:0:0:
448,192,63564,5,4,0:0:0:0:
448,192,63564,5,4,0:0:0:0:
448,192,63564,5,4,0:0:0:0:
448,192,63564,5,4,0:0:0:0:
448,192,63564,5,4,0:0:0:0:
448,192,63564,5,4,0:0:0:0:
448,192,63564,5,4,0:0:0:0:
448,192,63564,5,4,0:0:0:0:
448,192,63564,5,4,0:0:0:0:
448,192,63564,5,4,0:0:0:0:
448,192,63564,5,4,0:0:0:0:
448,192,63564,5,4,0:0:0:0:
448,192,63564,5,4,0:0:0:0:
448,192,63564,5,4,0:0:0:0:
256,96,63753,5,12,0:0:0:0:
256,96,63753,5,12,0:0:0:0:
256,96,64024,5,8,0:0:0:0:
256,96,64024,5,8,0:0:0:0:
256,96,64295,5,8,0:0:0:0:
256,96,64295,5,8,0:0:0:0:
256,96,64475,5,8,0:0:0:0:
256,96,64475,5,8,0:0:0:0:
256,96,64654,5,8,0:0:0:0:
256,96,64654,5,8,0:0:0:0:
256,96,64833,5,8,0:0:0:0:
256,96,64833,5,8,0:0:0:0:
256,96,65011,5,8,0:0:0:0:
256,96,65011,5,8,0:0:0:0:
256,96,65193,5,8,0:0:0:0:
256,96,65193,5,8,0:0:0:0:
256,96,65281,5,8,0:0:0:0:
256,96,65281,5,8,0:0:0:0:
256,96,65458,5,8,0:0:0:0:
256,96,65458,5,8,0:0:0:0:
256,96,65546,5,8,0:0:0:0:
256,96,65546,5,8,0:0:0:0:
256,96,65722,5,8,0:0:0:0:
256,96,65722,5,8,0:0:0:0:
64,192,65897,5,4,0:0:0:0:
64,192,65897,5,4,0:0:0:0:
64,192,65897,5,4,0:0:0:0:
64,192,65897,5,4,0:0:0:0:
64,192,65897,5,4,0:0:0:0:
64,192,65897,5,4,0:0:0:0:
64,192,65897,5,4,0:0:0:0:
64,192,65897,5,4,0:0:0:0:
64,192,65897,5,4,0:0:0:0:
64,192,65897,5,4,0:0:0:0:
192,192,66072,5,4,0:0:0:0:
192,192,66072,5,4,0:0:0:0:
192,192,66072,5,4,0:0:0:0:
192,192,66072,5,4,0:0:0:0:
192,192,66072,5,4,0:0:0:0:
192,192,66072,5,4,0:0:0:0:
192,192,66072,5,4,0:0:0:0:
192,192,66072,5,4,0:0:0:0:
192,192,66072,5,4,0:0:0:0:
192,192,66072,5,4,0:0:0:0:
192,192,66072,5,4,0:0:0:0:
192,192,66072,5,4,0:0:0:0:
192,192,66072,5,4,0:0:0:0:
192,192,66072,5,4,0:0:0:0:
192,192,66072,5,4,0:0:0:0:
192,192,66072,5,4,0:0:0:0:
192,192,66072,5,4,0:0:0:0:
192,192,66072,5,4,0:0:0:0:
192,192,66072,5,4,0:0:0:0:
192,192,66072,5,4,0:0:0:0:
320,192,66246,5,4,0:0:0:0:
320,192,66246,5,4,0:0:0:0:
320,192,66246,5,4,0:0:0:0:
320,192,66246,5,4,0:0:0:0:
320,192,66246,5,4,0:0:0:0:
320,192,66246,5,4,0:0:0:0:
320,192,66246,5,4,0:0:0:0:
320,192,66246,5,4,0:0:0:0:
320,192,66246,5,4,0:0:0:0:
320,192,66246,5,4,0:0:0:0:
320,192,66246,5,4,0:0:0:0:
320,192,66246,5,4,0:0:0:0:
320,192,66246,5,4,0:0:0:0:
320,192,66246,5,4,0:0:0:0:
320,192,66246,5,4,0:0:0:0:
320,192,66246,5,4,0:0:0:0:
320,192,66246,5,4,0:0:0:0:
320,192,66246,5,4,0:0:0:0:
320,192,66246,5,4,0:0:0:0:
320,192,66246,5,4,0:0:0:0:
320,192,66246,5,4,0:0:0:0:
320,192,66246,5,4,0:0:0:0:
320,192,66246,5,4,0:0:0:0:
320,192,66246,5,4,0:0:0:0:
320,192,66246,5,4,0:0:0:0:
320,192,66246,5,4,0:0:0:0:
320,192,66246,5,4,0:0:0:0:
320,192,66246,5,4,0:0:0:0:
320,192,66246,5,4,0:0:0:0:
320,192,66246,5,4,0:0:0:0:
320,192,66246,5,4,0:0:0:0:
320,192,66246,5,4,0:0:0:0:
320,192,66246,5,4,0:0:0:0:
320,192,66246,5,4,0:0:0:0:
320,192,66246,5,4,0:0:0:0:
320,192,66246,5,4,0:0:0:0:
320,192,66246,5,4,0:0:0:0:
320,192,66246,5,4,0:0:0:0:
320,192,66246,5,4,0:0:0:0:
320,192,66246,5,4,0:0:0:0:
448,192,66420,5,4,0:0:0:0:
448,192,66420,5,4,0:0:0:0:
448,192,66420,5,4,0:0:0:0:
448,192,66420,5,4,0:0:0:0:
448,192,66420,5,4,0:0:0:0:
448,192,66420,5,4,0:0:0:0:
448,192,66420,5,4,0:0:0:0:
448,192,66420,5,4,0:0:0:0:
448,192,66420,5,4,0:0:0:0:
448,192,66420,5,4,0:0:0:0:
448,192,66420,5,4,0:0:0:0:
448,192,66420,5,4,0:0:0:0:
448,192,66420,5,4,0:0:0:0:
448,192,66420,5,4,0:0:0:0:
448,192,66420,5,4,0:0:0:0:
448,192,66420,5,4,0:0:0:0:
448,192,66420,5,4,0:0:0:0:
448,192,66420,5,4,0:0:0:0:
448,192,66420,5,4,0:0:0:0:
448,192,66420,5,4,0:0:0:0:
448,192,66420,5,4,0:0:0:0:
448,192,66420,5,4,0:0:0:0:
448,192,66420,5,4,0:0:0:0:
448,192,66420,5,4,0:0:0:0:
448,192,66420,5,4,0:0:0:0:
448,192,66420,5,4,0:0:0:0:
448,192,66420,5,4,0:0:0:0:
448,192,66420,5,4,0:0:0:0:
448,192,66420,5,4,0:0:0:0:
448,192,66420,5,4,0:0:0:0:
448,192,66420,5,4,0:0:0:0:
448,192,66420,5,4,0:0:0:0:
448,192,66420,5,4,0:0:0:0:
448,192,66420,5,4,0:0:0:0:
448,192,66420,5,4,0:0:0:0:
448,192,66420,5,4,0:0:0:0:
448,192,66420,5,4,0:0:0:0:
448,192,66420,5,4,0:0:0:0:
448,192,66420,5,4,0:0:0:0:
448,192,66420,5,4,0:0:0:0:
256,96,66595,5,12,0:0:0:0:
256,96,66595,5,12,0:0:0:0:
256,96,66595,5,12,0:0:0:0:
256,96,66854,5,8,0:0:0:0:
256,96,66854,5,8,0:0:0:0:
256,96,66854,5,8,0:0:0:0:
256,96,67112,5,8,0:0:0:0:
256,96,67112,5,8,0:0:0:0:
256,96,67112,5,8,0:0:0:0:
256,96,67283,5,8,0:0:0:0:
256,96,67283,5,8,0:0:0:0:
256,96,67283,5,8,0:0:0:0:
256,96,67454,5,8,0:0:0:0:
256,96,67454,5,8,0:0:0:0:
256,96,67454,5,8,0:0:0:0:
256,96,67624,5,8,0:0:0:0:
256,96,67624,5,8,0:0:0:0:
256,96,67624,5,8,0:0:0:0:
256,96,67794,5,8,0:0:0:0:
256,96,67794,5,8,0:0:0:0:
256,96,67794,5,8,0:0:0:0:
256,96,67969,5,8,0:0:0:0:
256,96,67969,5,8,0:0:0:0:
256,96,67969,5,8,0:0:0:0:
256,96,68053,5,8,0:0:0:0:
256,96,68053,5,8,0:0:0:0:
256,96,68053,5,8,0:0:0:0:
256,96,68221,5,8,0:0:0:0:
256,96,68221,5,8,0:0:0:0:
256,96,68221,5,8,0:0:0:0:
256,96,68306,5,8,0:0:0:0:
256,96,68306,5,8,0:0:0:0:
256,96,68306,5,8,0:0:0:0:
256,96,68476,5,8,0:0:0:0:
256,96,68476,5,8,0:0:0:0:
256,96,68476,5,8,0:0:0:0:
64,192,68644,5,4,0:0:0:0:
64,192,68644,5,4,0:0:0:0:
64,192,68644,5,4,0:0:0:0:
64,192,68644,5,4,0:0:0:0:
64,192,68644,5,4,0:0:0:0:
64,192,68644,5,4,0:0:0:0:
64,192,68644,5,4,0:0:0:0:
64,192,68644,5,4,0:0:0:0:
64,192,68644,5,4,0:0:0:0:
64,192,68644,5,4,0:0:0:0:
64,192,68644,5,4,0:0:0:0:
64,192,68644,5,4,0:0:0:0:
64,192,68644,5,4,0:0:0:0:
64,192,68644,5,4,0:0:0:0:
64,192,68644,5,4,0:0:0:0:
64,192,68644,5,4,0:0:0:0:
64,192,68644,5,4,0:0:0:0:
64,192,68644,5,4,0:0:0:0:
64,192,68644,5,4,0:0:0:0:
64,192,68644,5,4,0:0:0:0:
192,192,68811,5,4,0:0:0:0:
192,192,68811,5,4,0:0:0:0:
192,192,68811,5,4,0:0:0:0:
192,192,68811,5,4,0:0:0:0:
192,192,68811,5,4,0:0:0:0:
192,192,68811,5,4,0:0:0:0:
192,192,68811,5,4,0:0:0:0:
192,192,68811,5,4,0:0:0:0:
192,192,68811,5,4,0:0:0:0:
192,192,68811,5,4,0:0:0:0:
192,192,68811,5,4,0:0:0:0:
192,192,68811,5,4,0:0:0:0:
192,192,68811,5,4,0:0:0:0:
192,192,68811,5,4,0:0:0:0:
192,192,68811,5,4,0:0:0:0:
192,192,68811,5,4,0:0:0:0:
192,192,68811,5,4,0:0:0:0:
192,192,68811,5,4,0:0:0:0:
192,192,68811,5,4,0:0:0:0:
192,192,68811,5,4,0:0:0:0:
192,192,68811,5,4,0:0:0:0:
192,192,68811,5,4,0:0:0:0:
192,192,68811,5,4,0:0:0:0:
192,192,68811,5,4,0:0:0:0:
192,192,68811,5,4,0:0:0:0:
192,192,68811,5,4,0:0:0:0:
192,192,68811,5,4,0:0:0:0:
192,192,68811,5,4,0:0:0:0:
192,192,68811,5,4,0:0:0:0:
192,192,68811,5,4,0:0:0:0:
192,192,68811,5,4,0:0:0:0:
192,192,68811,5,4,0:0:0:0:
192,192,68811,5,4,0:0:0:0:
192,192,68811,5,4,0:0:0:0:
192,192,68811,5,4,0:0:0:0:
192,192,68811,5,4,0:0:0:0:
192,192,68811,5,4,0:0:0:0:
192,192,68811,5,4,0:0:0:0:
192,192,68811,5,4,0:0:0:0:
192,192,68811,5,4,0:0:0:0:
320,192,68978,5,4,0:0:0:0:
320,192,68978,5,4,0:0:0:0:
320,192,68978,5,4,0:0:0:0:
320,192,68978,5,4,0:0:0:0:
320,192,68978,5,4,0:0:0:0:
320,192,68978,5,4,0:0:0:0:
320,192,68978,5,4,0:0:0:0:
320,192,68978,5,4,0:0:0:0:
320,192,68978,5,4,0:0:0:0:
320,192,68978,5,4,0:0:0:0:
320,192,68978,5,4,0:0:0:0:
320,192,68978,5,4,0:0:0:0:
320,192,68978,5,4,0:0:0:0:
320,192,68978,5,4,0:0:0:0:
320,192,68978,5,4,0:0:0:0:
320,192,68978,5,4,0:0:0:0:
320,192,68978,5,4,0:0:0:0:
320,192,68978,5,4,0:0:0:0:
320,192,68978,5,4,0:0:0:0:
320,192,68978,5,4,0:0:0:0:
320,192,68978,5,4,0:0:0:0:
320,192,68978,5,4,0:0:0:0:
320,192,68978,5,4,0:0:0:0:
320,192,68978,5,4,0:0:0:0:
320,192,68978,5,4,0:0:0:0:
320,192,68978,5,4,0:0:0:0:
320,192,68978,5,4,0:0:0:0:
320,192,68978,5,4,0:0:0:0:
320,192,68978,5,4,0:0:0:0:
320,192,68978,5,4,0:0:0:0:
320,192,68978,5,4,0:0:0:0:
320,192,68978,5,4,0:0:0:0:
320,192,68978,5,4,0:0:0:0:
320,192,68978,5,4,0:0:0:0:
320,192,68978,5,4,0:0:0:0:
320,192,68978,5,4,0:0:0:0:
320,192,68978,5,4,0:0:0:0:
320,192,68978,5,4,0:0:0:0:
320,192,68978,5,4,0:0:0:0:
320,192,68978,5,4,0:0:0:0:
320,192,68978,5,4,0:0:0:0:
320,192,68978,5,4,0:0:0:0:
320,192,68978,5,4,0:0:0:0:
320,192,68978,5,4,0:0:0:0:
320,192,68978,5,4,0:0:0:0:
320,192,68978,5,4,0:0:0:0:
320,192,68978,5,4,0:0:0:0:
320,192,68978,5,4,0:0:0:0:
320,192,68978,5,4,0:0:0:0:
320,192,68978,5,4,0:0:0:0:
320,192,68978,5,4,0:0:0:0:
320,192,68978,5,4,0:0:0:0:
320,192,68978,5,4,0:0:0:0:
320,192,68978,5,4,0:0:0:0:
320,192,68978,5,4,0:0:0:0:
320,192,68978,5,4,0:0:0:0:
320,192,68978,5,4,0:0:0:0:
320,192,68978,5,4,0:0:0:0:
320,192,68978,5,4,0:0:0:0:
320,192,68978,5,4,0:0:0:0:
320,192,68978,5,4,0:0:0:0:
320,192,68978,5,4,0:0:0:0:
320,192,68978,5,4,0:0:0:0:
320,192,68978,5,4,0:0:0:0:
320,192,68978,5,4,0:0:0:0:
320,192,68978,5,4,0:0:0:0:
320,192,68978,5,4,0:0:0:0:
320,192,68978,5,4,0:0:0:0:
320,192,68978,5,4,0:0:0:0:
320,192,68978,5,4,0:0:0:0:
320,192,68978,5,4,0:0:0:0:
320,192,68978,5,4,0:0:0:0:
320,192,68978,5,4,0:0:0:0:
320,192,68978,5,4,0:0:0:0:
320,192,68978,5,4,0:0:0:0:
320,192,68978,5,4,0:0:0:0:
320,192,68978,5,4,0:0:0:0:
320,192,68978,5,4,0:0:0:0:
320,192,68978,5,4,0:0:0:0:
320,192,68978,5,4,0:0:0:0:
448,192,69144,5,4,0:0:0:0:
448,192,69144,5,4,0:0:0:0:
448,192,69144,5,4,0:0:0:0:
448,192,69144,5,4,0:0:0:0:
448,192,69144,5,4,0:0:0:0:
448,192,69144,5,4,0:0:0:0:
448,192,69144,5,4,0:0:0:0:
448,192,69144,5,4,0:0:0:0:
448,192,69144,5,4,0:0:0:0:
448,192,69144,5,4,0:0:0:0:
448,192,69144,5,4,0:0:0:0:
448,192,69144,5,4,0:0:0:0:
448,192,69144,5,4,0:0:0:0:
448,192,69144,5,4,0:0:0:0:
448,192,69144,5,4,0:0:0:0:
448,192,69144,5,4,0:0:0:0:
448,192,69144,5,4,0:0:0:0:
448,192,69144,5,4,0:0:0:0:
448,192,69144,5,4,0:0:0:0:
448,192,69144,5,4,0:0:0:0:
448,192,69144,5,4,0:0:0:0:
448,192,69144,5,4,0:0:0:0:
448,192,69144,5,4,0:0:0:0:
448,192,69144,5,4,0:0:0:0:
448,192,69144,5,4,0:0:0:0:
448,192,69144,5,4,0:0:0:0:
448,192,69144,5,4,0:0:0:0:
448,192,69144,5,4,0:0:0:0:
448,192,69144,5,4,0:0:0:0:
448,192,69144,5,4,0:0:0:0:
448,192,69144,5,4,0:0:0:0:
448,192,69144,5,4,0:0:0:0:
448,192,69144,5,4,0:0:0:0:
448,192,69144,5,4,0:0:0:0:
448,192,69144,5,4,0:0:0:0:
448,192,69144,5,4,0:0:0:0:
448,192,69144,5,4,0:0:0:0:
448,192,69144,5,4,0:0:0:0:
448,192,69144,5,4,0:0:0:0:
448,192,69144,5,4,0:0:0:0:
448,192,69144,5,4,0:0:0:0:
448,192,69144,5,4,0:0:0:0:
448,192,69144,5,4,0:0:0:0:
448,192,69144,5,4,0:0:0:0:
448,192,69144,5,4,0:0:0:0:
448,192,69144,5,4,0:0:0:0:
448,192,69144,5,4,0:0:0:0:
448,192,69144,5,4,0:0:0:0:
448,192,69144,5,4,0:0:0:0:
448,192,69144,5,4,0:0:0:0:
448,192,69144,5,4,0:0:0:0:
448,192,69144,5,4,0:0:0:0:
448,192,69144,5,4,0:0:0:0:
448,192,69144,5,4,0:0:0:0:
448,192,69144,5,4,0:0:0:0:
448,192,69144,5,4,0:0:0:0:
448,192,69144,5,4,0:0:0:0:
448,192,69144,5,4,0:0:0:0:
448,192,69144,5,4,0:0:0:0:
448,192,69144,5,4,0:0:0:0:
448,192,69144,5,4,0:0:0:0:
448,192,69144,5,4,0:0:0:0:
448,192,69144,5,4,0:0:0:0:
448,192,69144,5,4,0:0:0:0:
448,192,69144,5,4,0:0:0:0:
448,192,69144,5,4,0:0:0:0:
448,192,69144,5,4,0:0:0:0:
448,192,69144,5,4,0:0:0:0:
448,192,69144,5,4,0:0:0:0:
448,192,69144,5,4,0:0:0:0:
448,192,69144,5,4,0:0:0:0:
448,192,69144,5,4,0:0:0:0:
448,192,69144,5,4,0:0:0:0:
448,192,69144,5,4,0:0:0:0:
448,192,69144,5,4,0:0:0:0:
448,192,69144,5,4,0:0:0:0:
448,192,69144,5,4,0:0:0:0:
448,192,69144,5,4,0:0:0:0:
448,192,69144,5,4,0:0:0:0:
448,192,69144,5,4,0:0:0:0:
256,64,69319,5,12,0:0:0:0:
256,64,69319,5,12,0:0:0:0:
256,64,69319,5,12,0:0:0:0:
256,64,69319,5,12,0:0:0:0:
256,64,69319,5,12,0:0:0:0:
256,64,69566,5,8,0:0:0:0:
256,64,69566,5,8,0:0:0:0:
256,64,69566,5,8,0:0:0:0:
256,64,69566,5,8,0:0:0:0:
256,64,69566,5,8,0:0:0:0:
256,64,69813,5,8,0:0:0:0:
256,64,69813,5,8,0:0:0:0:
256,64,69813,5,8,0:0:0:0:
256,64,69813,5,8,0:0:0:0:
256,64,69813,5,8,0:0:0:0:
256,64,69981,5,8,0:0:0:0:
256,64,69981,5,8,0:0:0:0:
256,64,69981,5,8,0:0:0:0:
256,64,69981,5,8,0:0:0:0:
256,64,69981,5,8,0:0:0:0:
256,64,70144,5,8,0:0:0:0:
256,64,70144,5,8,0:0:0:0:
256,64,70144,5,8,0:0:0:0:
256,64,70144,5,8,0:0:0:0:
256,64,70144,5,8,0:0:0:0:
256,64,70307,5,8,0:0:0:0:
256,64,70307,5,8,0:0:0:0:
256,64,70307,5,8,0:0:0:0:
256,64,70307,5,8,0:0:0:0:
256,64,70307,5,8,0:0:0:0:
256,64,70470,5,8,0:0:0:0:
256,64,70470,5,8,0:0:0:0:
256,64,70470,5,8,0:0:0:0:
256,64,70470,5,8,0:0:0:0:
256,64,70470,5,8,0:0:0:0:
256,64,70632,5,8,0:0:0:0:
256,64,70632,5,8,0:0:0:0:
256,64,70632,5,8,0:0:0:0:
256,64,70632,5,8,0:0:0:0:
256,64,70632,5,8,0:0:0:0:
256,64,70713,5,8,0:0:0:0:
256,64,70713,5,8,0:0:0:0:
256,64,70713,5,8,0:0:0:0:
256,64,70713,5,8,0:0:0:0:
256,64,70713,5,8,0:0:0:0:
256,64,70874,5,8,0:0:0:0:
256,64,70874,5,8,0:0:0:0:
256,64,70874,5,8,0:0:0:0:
256,64,70874,5,8,0:0:0:0:
256,64,70874,5,8,0:0:0:0:
256,64,70955,5,8,0:0:0:0:
256,64,70955,5,8,0:0:0:0:
256,64,70955,5,8,0:0:0:0:
256,64,70955,5,8,0:0:0:0:
256,64,70955,5,8,0:0:0:0:
256,64,71116,5,8,0:0:0:0:
256,64,71116,5,8,0:0:0:0:
256,64,71116,5,8,0:0:0:0:
256,64,71116,5,8,0:0:0:0:
256,64,71116,5,8,0:0:0:0:
64,192,71276,5,4,0:0:0:0:
64,192,71276,5,4,0:0:0:0:
64,192,71276,5,4,0:0:0:0:
64,192,71276,5,4,0:0:0:0:
64,192,71276,5,4,0:0:0:0:
64,192,71276,5,4,0:0:0:0:
64,192,71276,5,4,0:0:0:0:
64,192,71276,5,4,0:0:0:0:
64,192,71276,5,4,0:0:0:0:
64,192,71276,5,4,0:0:0:0:
64,192,71276,5,4,0:0:0:0:
64,192,71276,5,4,0:0:0:0:
64,192,71276,5,4,0:0:0:0:
64,192,71276,5,4,0:0:0:0:
64,192,71276,5,4,0:0:0:0:
64,192,71276,5,4,0:0:0:0:
64,192,71276,5,4,0:0:0:0:
64,192,71276,5,4,0:0:0:0:
64,192,71276,5,4,0:0:0:0:
64,192,71276,5,4,0:0:0:0:
64,192,71276,5,4,0:0:0:0:
64,192,71276,5,4,0:0:0:0:
64,192,71276,5,4,0:0:0:0:
64,192,71276,5,4,0:0:0:0:
64,192,71276,5,4,0:0:0:0:
64,192,71276,5,4,0:0:0:0:
64,192,71276,5,4,0:0:0:0:
64,192,71276,5,4,0:0:0:0:
64,192,71276,5,4,0:0:0:0:
64,192,71276,5,4,0:0:0:0:
64,192,71276,5,4,0:0:0:0:
64,192,71276,5,4,0:0:0:0:
64,192,71276,5,4,0:0:0:0:
64,192,71276,5,4,0:0:0:0:
64,192,71276,5,4,0:0:0:0:
64,192,71276,5,4,0:0:0:0:
64,192,71276,5,4,0:0:0:0:
64,192,71276,5,4,0:0:0:0:
64,192,71276,5,4,0:0:0:0:
64,192,71276,5,4,0:0:0:0:
192,192,71436,5,4,0:0:0:0:
192,192,71436,5,4,0:0:0:0:
192,192,71436,5,4,0:0:0:0:
192,192,71436,5,4,0:0:0:0:
192,192,71436,5,4,0:0:0:0:
192,192,71436,5,4,0:0:0:0:
192,192,71436,5,4,0:0:0:0:
192,192,71436,5,4,0:0:0:0:
192,192,71436,5,4,0:0:0:0:
192,192,71436,5,4,0:0:0:0:
192,192,71436,5,4,0:0:0:0:
192,192,71436,5,4,0:0:0:0:
192,192,71436,5,4,0:0:0:0:
192,192,71436,5,4,0:0:0:0:
192,192,71436,5,4,0:0:0:0:
192,192,71436,5,4,0:0:0:0:
192,192,71436,5,4,0:0:0:0:
192,192,71436,5,4,0:0:0:0:
192,192,71436,5,4,0:0:0:0:
192,192,71436,5,4,0:0:0:0:
192,192,71436,5,4,0:0:0:0:
192,192,71436,5,4,0:0:0:0:
192,192,71436,5,4,0:0:0:0:
192,192,71436,5,4,0:0:0:0:
192,192,71436,5,4,0:0:0:0:
192,192,71436,5,4,0:0:0:0:
192,192,71436,5,4,0:0:0:0:
192,192,71436,5,4,0:0:0:0:
192,192,71436,5,4,0:0:0:0:
192,192,71436,5,4,0:0:0:0:
192,192,71436,5,4,0:0:0:0:
192,192,71436,5,4,0:0:0:0:
192,192,71436,5,4,0:0:0:0:
192,192,71436,5,4,0:0:0:0:
192,192,71436,5,4,0:0:0:0:
192,192,71436,5,4,0:0:0:0:
192,192,71436,5,4,0:0:0:0:
192,192,71436,5,4,0:0:0:0:
192,192,71436,5,4,0:0:0:0:
192,192,71436,5,4,0:0:0:0:
192,192,71436,5,4,0:0:0:0:
192,192,71436,5,4,0:0:0:0:
192,192,71436,5,4,0:0:0:0:
192,192,71436,5,4,0:0:0:0:
192,192,71436,5,4,0:0:0:0:
192,192,71436,5,4,0:0:0:0:
192,192,71436,5,4,0:0:0:0:
192,192,71436,5,4,0:0:0:0:
192,192,71436,5,4,0:0:0:0:
192,192,71436,5,4,0:0:0:0:
192,192,71436,5,4,0:0:0:0:
192,192,71436,5,4,0:0:0:0:
192,192,71436,5,4,0:0:0:0:
192,192,71436,5,4,0:0:0:0:
192,192,71436,5,4,0:0:0:0:
192,192,71436,5,4,0:0:0:0:
192,192,71436,5,4,0:0:0:0:
192,192,71436,5,4,0:0:0:0:
192,192,71436,5,4,0:0:0:0:
192,192,71436,5,4,0:0:0:0:
192,192,71436,5,4,0:0:0:0:
192,192,71436,5,4,0:0:0:0:
192,192,71436,5,4,0:0:0:0:
192,192,71436,5,4,0:0:0:0:
192,192,71436,5,4,0:0:0:0:
192,192,71436,5,4,0:0:0:0:
192,192,71436,5,4,0:0:0:0:
192,192,71436,5,4,0:0:0:0:
192,192,71436,5,4,0:0:0:0:
192,192,71436,5,4,0:0:0:0:
192,192,71436,5,4,0:0:0:0:
192,192,71436,5,4,0:0:0:0:
192,192,71436,5,4,0:0:0:0:
192,192,71436,5,4,0:0:0:0:
192,192,71436,5,4,0:0:0:0:
192,192,71436,5,4,0:0:0:0:
192,192,71436,5,4,0:0:0:0:
192,192,71436,5,4,0:0:0:0:
192,192,71436,5,4,0:0:0:0:
192,192,71436,5,4,0:0:0:0:
320,192,71596,5,4,0:0:0:0:
320,192,71596,5,4,0:0:0:0:
320,192,71596,5,4,0:0:0:0:
320,192,71596,5,4,0:0:0:0:
320,192,71596,5,4,0:0:0:0:
320,192,71596,5,4,0:0:0:0:
320,192,71596,5,4,0:0:0:0:
320,192,71596,5,4,0:0:0:0:
320,192,71596,5,4,0:0:0:0:
320,192,71596,5,4,0:0:0:0:
320,192,71596,5,4,0:0:0:0:
320,192,71596,5,4,0:0:0:0:
320,192,71596,5,4,0:0:0:0:
320,192,71596,5,4,0:0:0:0:
320,192,71596,5,4,0:0:0:0:
320,192,71596,5,4,0:0:0:0:
320,192,71596,5,4,0:0:0:0:
320,192,71596,5,4,0:0:0:0:
320,192,71596,5,4,0:0:0:0:
320,192,71596,5,4,0:0:0:0:
320,192,71596,5,4,0:0:0:0:
320,192,71596,5,4,0:0:0:0:
320,192,71596,5,4,0:0:0:0:
320,192,71596,5,4,0:0:0:0:
320,192,71596,5,4,0:0:0:0:
320,192,71596,5,4,0:0:0:0:
320,192,71596,5,4,0:0:0:0:
320,192,71596,5,4,0:0:0:0:
320,192,71596,5,4,0:0:0:0:
320,192,71596,5,4,0:0:0:0:
320,192,71596,5,4,0:0:0:0:
320,192,71596,5,4,0:0:0:0:
320,192,71596,5,4,0:0:0:0:
320,192,71596,5,4,0:0:0:0:
320,192,71596,5,4,0:0:0:0:
320,192,71596,5,4,0:0:0:0:
320,192,71596,5,4,0:0:0:0:
320,192,71596,5,4,0:0:0:0:
320,192,71596,5,4,0:0:0:0:
320,192,71596,5,4,0:0:0:0:
320,192,71596,5,4,0:0:0:0:
320,192,71596,5,4,0:0:0:0:
320,192,71596,5,4,0:0:0:0:
320,192,71596,5,4,0:0:0:0:
320,192,71596,5,4,0:0:0:0:
320,192,71596,5,4,0:0:0:0:
320,192,71596,5,4,0:0:0:0:
320,192,71596,5,4,0:0:0:0:
320,192,71596,5,4,0:0:0:0:
320,192,71596,5,4,0:0:0:0:
320,192,71596,5,4,0:0:0:0:
320,192,71596,5,4,0:0:0:0:
320,192,71596,5,4,0:0:0:0:
320,192,71596,5,4,0:0:0:0:
320,192,71596,5,4,0:0:0:0:
320,192,71596,5,4,0:0:0:0:
320,192,71596,5,4,0:0:0:0:
320,192,71596,5,4,0:0:0:0:
320,192,71596,5,4,0:0:0:0:
320,192,71596,5,4,0:0:0:0:
320,192,71596,5,4,0:0:0:0:
320,192,71596,5,4,0:0:0:0:
320,192,71596,5,4,0:0:0:0:
320,192,71596,5,4,0:0:0:0:
320,192,71596,5,4,0:0:0:0:
320,192,71596,5,4,0:0:0:0:
320,192,71596,5,4,0:0:0:0:
320,192,71596,5,4,0:0:0:0:
320,192,71596,5,4,0:0:0:0:
320,192,71596,5,4,0:0:0:0:
320,192,71596,5,4,0:0:0:0:
320,192,71596,5,4,0:0:0:0:
320,192,71596,5,4,0:0:0:0:
320,192,71596,5,4,0:0:0:0:
320,192,71596,5,4,0:0:0:0:
320,192,71596,5,4,0:0:0:0:
320,192,71596,5,4,0:0:0:0:
320,192,71596,5,4,0:0:0:0:
320,192,71596,5,4,0:0:0:0:
320,192,71596,5,4,0:0:0:0:
320,192,71596,5,4,0:0:0:0:
320,192,71596,5,4,0:0:0:0:
320,192,71596,5,4,0:0:0:0:
320,192,71596,5,4,0:0:0:0:
320,192,71596,5,4,0:0:0:0:
320,192,71596,5,4,0:0:0:0:
320,192,71596,5,4,0:0:0:0:
320,192,71596,5,4,0:0:0:0:
320,192,71596,5,4,0:0:0:0:
320,192,71596,5,4,0:0:0:0:
320,192,71596,5,4,0:0:0:0:
320,192,71596,5,4,0:0:0:0:
320,192,71596,5,4,0:0:0:0:
320,192,71596,5,4,0:0:0:0:
320,192,71596,5,4,0:0:0:0:
320,192,71596,5,4,0:0:0:0:
320,192,71596,5,4,0:0:0:0:
320,192,71596,5,4,0:0:0:0:
320,192,71596,5,4,0:0:0:0:
320,192,71596,5,4,0:0:0:0:
320,192,71596,5,4,0:0:0:0:
320,192,71596,5,4,0:0:0:0:
320,192,71596,5,4,0:0:0:0:
320,192,71596,5,4,0:0:0:0:
320,192,71596,5,4,0:0:0:0:
320,192,71596,5,4,0:0:0:0:
320,192,71596,5,4,0:0:0:0:
320,192,71596,5,4,0:0:0:0:
320,192,71596,5,4,0:0:0:0:
320,192,71596,5,4,0:0:0:0:
320,192,71596,5,4,0:0:0:0:
320,192,71596,5,4,0:0:0:0:
320,192,71596,5,4,0:0:0:0:
320,192,71596,5,4,0:0:0:0:
320,192,71596,5,4,0:0:0:0:
320,192,71596,5,4,0:0:0:0:
320,192,71596,5,4,0:0:0:0:
320,192,71596,5,4,0:0:0:0:
320,192,71596,5,4,0:0:0:0:
320,192,71596,5,4,0:0:0:0:
320,192,71596,5,4,0:0:0:0:
320,192,71596,5,4,0:0:0:0:
320,192,71596,5,4,0:0:0:0:
320,192,71596,5,4,0:0:0:0:
320,192,71596,5,4,0:0:0:0:
320,192,71596,5,4,0:0:0:0:
320,192,71596,5,4,0:0:0:0:
320,192,71596,5,4,0:0:0:0:
320,192,71596,5,4,0:0:0:0:
320,192,71596,5,4,0:0:0:0:
320,192,71596,5,4,0:0:0:0:
320,192,71596,5,4,0:0:0:0:
320,192,71596,5,4,0:0:0:0:
320,192,71596,5,4,0:0:0:0:
320,192,71596,5,4,0:0:0:0:
320,192,71596,5,4,0:0:0:0:
320,192,71596,5,4,0:0:0:0:
320,192,71596,5,4,0:0:0:0:
320,192,71596,5,4,0:0:0:0:
320,192,71596,5,4,0:0:0:0:
320,192,71596,5,4,0:0:0:0:
320,192,71596,5,4,0:0:0:0:
320,192,71596,5,4,0:0:0:0:
320,192,71596,5,4,0:0:0:0:
320,192,71596,5,4,0:0:0:0:
320,192,71596,5,4,0:0:0:0:
320,192,71596,5,4,0:0:0:0:
320,192,71596,5,4,0:0:0:0:
320,192,71596,5,4,0:0:0:0:
320,192,71596,5,4,0:0:0:0:
320,192,71596,5,4,0:0:0:0:
320,192,71596,5,4,0:0:0:0:
320,192,71596,5,4,0:0:0:0:
320,192,71596,5,4,0:0:0:0:
320,192,71596,5,4,0:0:0:0:
320,192,71596,5,4,0:0:0:0:
320,192,71596,5,4,0:0:0:0:
320,192,71596,5,4,0:0:0:0:
320,192,71596,5,4,0:0:0:0:
320,192,71596,5,4,0:0:0:0:
448,192,71755,5,4,0:0:0:0:
448,192,71755,5,4,0:0:0:0:
448,192,71755,5,4,0:0:0:0:
448,192,71755,5,4,0:0:0:0:
448,192,71755,5,4,0:0:0:0:
448,192,71755,5,4,0:0:0:0:
448,192,71755,5,4,0:0:0:0:
448,192,71755,5,4,0:0:0:0:
448,192,71755,5,4,0:0:0:0:
448,192,71755,5,4,0:0:0:0:
448,192,71755,5,4,0:0:0:0:
448,192,71755,5,4,0:0:0:0:
448,192,71755,5,4,0:0:0:0:
448,192,71755,5,4,0:0:0:0:
448,192,71755,5,4,0:0:0:0:
448,192,71755,5,4,0:0:0:0:
448,192,71755,5,4,0:0:0:0:
448,192,71755,5,4,0:0:0:0:
448,192,71755,5,4,0:0:0:0:
448,192,71755,5,4,0:0:0:0:
448,192,71755,5,4,0:0:0:0:
448,192,71755,5,4,0:0:0:0:
448,192,71755,5,4,0:0:0:0:
448,192,71755,5,4,0:0:0:0:
448,192,71755,5,4,0:0:0:0:
448,192,71755,5,4,0:0:0:0:
448,192,71755,5,4,0:0:0:0:
448,192,71755,5,4,0:0:0:0:
448,192,71755,5,4,0:0:0:0:
448,192,71755,5,4,0:0:0:0:
448,192,71755,5,4,0:0:0:0:
448,192,71755,5,4,0:0:0:0:
448,192,71755,5,4,0:0:0:0:
448,192,71755,5,4,0:0:0:0:
448,192,71755,5,4,0:0:0:0:
448,192,71755,5,4,0:0:0:0:
448,192,71755,5,4,0:0:0:0:
448,192,71755,5,4,0:0:0:0:
448,192,71755,5,4,0:0:0:0:
448,192,71755,5,4,0:0:0:0:
448,192,71755,5,4,0:0:0:0:
448,192,71755,5,4,0:0:0:0:
448,192,71755,5,4,0:0:0:0:
448,192,71755,5,4,0:0:0:0:
448,192,71755,5,4,0:0:0:0:
448,192,71755,5,4,0:0:0:0:
448,192,71755,5,4,0:0:0:0:
448,192,71755,5,4,0:0:0:0:
448,192,71755,5,4,0:0:0:0:
448,192,71755,5,4,0:0:0:0:
448,192,71755,5,4,0:0:0:0:
448,192,71755,5,4,0:0:0:0:
448,192,71755,5,4,0:0:0:0:
448,192,71755,5,4,0:0:0:0:
448,192,71755,5,4,0:0:0:0:
448,192,71755,5,4,0:0:0:0:
448,192,71755,5,4,0:0:0:0:
448,192,71755,5,4,0:0:0:0:
448,192,71755,5,4,0:0:0:0:
448,192,71755,5,4,0:0:0:0:
448,192,71755,5,4,0:0:0:0:
448,192,71755,5,4,0:0:0:0:
448,192,71755,5,4,0:0:0:0:
448,192,71755,5,4,0:0:0:0:
448,192,71755,5,4,0:0:0:0:
448,192,71755,5,4,0:0:0:0:
448,192,71755,5,4,0:0:0:0:
448,192,71755,5,4,0:0:0:0:
448,192,71755,5,4,0:0:0:0:
448,192,71755,5,4,0:0:0:0:
448,192,71755,5,4,0:0:0:0:
448,192,71755,5,4,0:0:0:0:
448,192,71755,5,4,0:0:0:0:
448,192,71755,5,4,0:0:0:0:
448,192,71755,5,4,0:0:0:0:
448,192,71755,5,4,0:0:0:0:
448,192,71755,5,4,0:0:0:0:
448,192,71755,5,4,0:0:0:0:
448,192,71755,5,4,0:0:0:0:
448,192,71755,5,4,0:0:0:0:
448,192,71755,5,4,0:0:0:0:
448,192,71755,5,4,0:0:0:0:
448,192,71755,5,4,0:0:0:0:
448,192,71755,5,4,0:0:0:0:
448,192,71755,5,4,0:0:0:0:
448,192,71755,5,4,0:0:0:0:
448,192,71755,5,4,0:0:0:0:
448,192,71755,5,4,0:0:0:0:
448,192,71755,5,4,0:0:0:0:
448,192,71755,5,4,0:0:0:0:
448,192,71755,5,4,0:0:0:0:
448,192,71755,5,4,0:0:0:0:
448,192,71755,5,4,0:0:0:0:
448,192,71755,5,4,0:0:0:0:
448,192,71755,5,4,0:0:0:0:
448,192,71755,5,4,0:0:0:0:
448,192,71755,5,4,0:0:0:0:
448,192,71755,5,4,0:0:0:0:
448,192,71755,5,4,0:0:0:0:
448,192,71755,5,4,0:0:0:0:
448,192,71755,5,4,0:0:0:0:
448,192,71755,5,4,0:0:0:0:
448,192,71755,5,4,0:0:0:0:
448,192,71755,5,4,0:0:0:0:
448,192,71755,5,4,0:0:0:0:
448,192,71755,5,4,0:0:0:0:
448,192,71755,5,4,0:0:0:0:
448,192,71755,5,4,0:0:0:0:
448,192,71755,5,4,0:0:0:0:
448,192,71755,5,4,0:0:0:0:
448,192,71755,5,4,0:0:0:0:
448,192,71755,5,4,0:0:0:0:
448,192,71755,5,4,0:0:0:0:
448,192,71755,5,4,0:0:0:0:
448,192,71755,5,4,0:0:0:0:
448,192,71755,5,4,0:0:0:0:
448,192,71755,5,4,0:0:0:0:
448,192,71755,5,4,0:0:0:0:
448,192,71755,5,4,0:0:0:0:
448,192,71755,5,4,0:0:0:0:
448,192,71755,5,4,0:0:0:0:
448,192,71755,5,4,0:0:0:0:
448,192,71755,5,4,0:0:0:0:
448,192,71755,5,4,0:0:0:0:
448,192,71755,5,4,0:0:0:0:
448,192,71755,5,4,0:0:0:0:
448,192,71755,5,4,0:0:0:0:
448,192,71755,5,4,0:0:0:0:
448,192,71755,5,4,0:0:0:0:
448,192,71755,5,4,0:0:0:0:
448,192,71755,5,4,0:0:0:0:
448,192,71755,5,4,0:0:0:0:
448,192,71755,5,4,0:0:0:0:
448,192,71755,5,4,0:0:0:0:
448,192,71755,5,4,0:0:0:0:
448,192,71755,5,4,0:0:0:0:
448,192,71755,5,4,0:0:0:0:
448,192,71755,5,4,0:0:0:0:
448,192,71755,5,4,0:0:0:0:
448,192,71755,5,4,0:0:0:0:
448,192,71755,5,4,0:0:0:0:
448,192,71755,5,4,0:0:0:0:
448,192,71755,5,4,0:0:0:0:
448,192,71755,5,4,0:0:0:0:
448,192,71755,5,4,0:0:0:0:
448,192,71755,5,4,0:0:0:0:
448,192,71755,5,4,0:0:0:0:
448,192,71755,5,4,0:0:0:0:
448,192,71755,5,4,0:0:0:0:
448,192,71755,5,4,0:0:0:0:
448,192,71755,5,4,0:0:0:0:
448,192,71755,5,4,0:0:0:0:
448,192,71755,5,4,0:0:0:0:
448,192,71755,5,4,0:0:0:0:
448,192,71755,5,4,0:0:0:0:
448,192,71755,5,4,0:0:0:0:
448,192,71755,5,4,0:0:0:0:
448,192,71755,5,4,0:0:0:0:
448,192,71755,5,4,0:0:0:0:
448,192,71755,5,4,0:0:0:0:
0,192,71924,5,8,0:0:0:0:
0,192,72003,5,8,0:0:0:0:
0,192,72082,5,8,0:0:0:0:
0,192,72161,5,8,0:0:0:0:
0,192,72240,5,8,0:0:0:0:
128,192,72397,5,8,0:0:0:0:
128,192,72397,5,8,0:0:0:0:
128,192,72397,5,8,0:0:0:0:
128,192,72397,5,8,0:0:0:0:
128,192,72397,5,8,0:0:0:0:
128,192,72475,5,8,0:0:0:0:
128,192,72475,5,8,0:0:0:0:
128,192,72475,5,8,0:0:0:0:
128,192,72475,5,8,0:0:0:0:
128,192,72475,5,8,0:0:0:0:
128,192,72554,5,8,0:0:0:0:
128,192,72554,5,8,0:0:0:0:
128,192,72554,5,8,0:0:0:0:
128,192,72554,5,8,0:0:0:0:
128,192,72554,5,8,0:0:0:0:
128,192,72632,5,8,0:0:0:0:
128,192,72632,5,8,0:0:0:0:
128,192,72632,5,8,0:0:0:0:
128,192,72632,5,8,0:0:0:0:
128,192,72632,5,8,0:0:0:0:
128,192,72711,5,8,0:0:0:0:
128,192,72711,5,8,0:0:0:0:
128,192,72711,5,8,0:0:0:0:
128,192,72711,5,8,0:0:0:0:
128,192,72711,5,8,0:0:0:0:
256,192,72867,5,8,0:0:0:0:
256,192,72867,5,8,0:0:0:0:
256,192,72867,5,8,0:0:0:0:
256,192,72867,5,8,0:0:0:0:
256,192,72867,5,8,0:0:0:0:
256,192,72867,5,8,0:0:0:0:
256,192,72867,5,8,0:0:0:0:
256,192,72867,5,8,0:0:0:0:
256,192,72867,5,8,0:0:0:0:
256,192,72867,5,8,0:0:0:0:
256,192,72945,5,8,0:0:0:0:
256,192,72945,5,8,0:0:0:0:
256,192,72945,5,8,0:0:0:0:
256,192,72945,5,8,0:0:0:0:
256,192,72945,5,8,0:0:0:0:
256,192,72945,5,8,0:0:0:0:
256,192,72945,5,8,0:0:0:0:
256,192,72945,5,8,0:0:0:0:
256,192,72945,5,8,0:0:0:0:
256,192,72945,5,8,0:0:0:0:
256,192,73023,5,8,0:0:0:0:
256,192,73023,5,8,0:0:0:0:
256,192,73023,5,8,0:0:0:0:
256,192,73023,5,8,0:0:0:0:
256,192,73023,5,8,0:0:0:0:
256,192,73023,5,8,0:0:0:0:
256,192,73023,5,8,0:0:0:0:
256,192,73023,5,8,0:0:0:0:
256,192,73023,5,8,0:0:0:0:
256,192,73023,5,8,0:0:0:0:
256,192,73100,5,8,0:0:0:0:
256,192,73100,5,8,0:0:0:0:
256,192,73100,5,8,0:0:0:0:
256,192,73100,5,8,0:0:0:0:
256,192,73100,5,8,0:0:0:0:
256,192,73100,5,8,0:0:0:0:
256,192,73100,5,8,0:0:0:0:
256,192,73100,5,8,0:0:0:0:
256,192,73100,5,8,0:0:0:0:
256,192,73100,5,8,0:0:0:0:
256,192,73178,5,8,0:0:0:0:
256,192,73178,5,8,0:0:0:0:
256,192,73178,5,8,0:0:0:0:
256,192,73178,5,8,0:0:0:0:
256,192,73178,5,8,0:0:0:0:
256,192,73178,5,8,0:0:0:0:
256,192,73178,5,8,0:0:0:0:
256,192,73178,5,8,0:0:0:0:
256,192,73178,5,8,0:0:0:0:
256,192,73178,5,8,0:0:0:0:
384,192,73333,5,8,0:0:0:0:
384,192,73333,5,8,0:0:0:0:
384,192,73333,5,8,0:0:0:0:
384,192,73333,5,8,0:0:0:0:
384,192,73333,5,8,0:0:0:0:
384,192,73333,5,8,0:0:0:0:
384,192,73333,5,8,0:0:0:0:
384,192,73333,5,8,0:0:0:0:
384,192,73333,5,8,0:0:0:0:
384,192,73333,5,8,0:0:0:0:
384,192,73333,5,8,0:0:0:0:
384,192,73333,5,8,0:0:0:0:
384,192,73333,5,8,0:0:0:0:
384,192,73333,5,8,0:0:0:0:
384,192,73333,5,8,0:0:0:0:
384,192,73333,5,8,0:0:0:0:
384,192,73333,5,8,0:0:0:0:
384,192,73333,5,8,0:0:0:0:
384,192,73333,5,8,0:0:0:0:
384,192,73333,5,8,0:0:0:0:
384,192,73410,5,8,0:0:0:0:
384,192,73410,5,8,0:0:0:0:
384,192,73410,5,8,0:0:0:0:
384,192,73410,5,8,0:0:0:0:
384,192,73410,5,8,0:0:0:0:
384,192,73410,5,8,0:0:0:0:
384,192,73410,5,8,0:0:0:0:
384,192,73410,5,8,0:0:0:0:
384,192,73410,5,8,0:0:0:0:
384,192,73410,5,8,0:0:0:0:
384,192,73410,5,8,0:0:0:0:
384,192,73410,5,8,0:0:0:0:
384,192,73410,5,8,0:0:0:0:
384,192,73410,5,8,0:0:0:0:
384,192,73410,5,8,0:0:0:0:
384,192,73410,5,8,0:0:0:0:
384,192,73410,5,8,0:0:0:0:
384,192,73410,5,8,0:0:0:0:
384,192,73410,5,8,0:0:0:0:
384,192,73410,5,8,0:0:0:0:
384,192,73488,5,8,0:0:0:0:
384,192,73488,5,8,0:0:0:0:
384,192,73488,5,8,0:0:0:0:
384,192,73488,5,8,0:0:0:0:
384,192,73488,5,8,0:0:0:0:
384,192,73488,5,8,0:0:0:0:
384,192,73488,5,8,0:0:0:0:
384,192,73488,5,8,0:0:0:0:
384,192,73488,5,8,0:0:0:0:
384,192,73488,5,8,0:0:0:0:
384,192,73488,5,8,0:0:0:0:
384,192,73488,5,8,0:0:0:0:
384,192,73488,5,8,0:0:0:0:
384,192,73488,5,8,0:0:0:0:
384,192,73488,5,8,0:0:0:0:
384,192,73488,5,8,0:0:0:0:
384,192,73488,5,8,0:0:0:0:
384,192,73488,5,8,0:0:0:0:
384,192,73488,5,8,0:0:0:0:
384,192,73488,5,8,0:0:0:0:
384,192,73565,5,8,0:0:0:0:
384,192,73565,5,8,0:0:0:0:
384,192,73565,5,8,0:0:0:0:
384,192,73565,5,8,0:0:0:0:
384,192,73565,5,8,0:0:0:0:
384,192,73565,5,8,0:0:0:0:
384,192,73565,5,8,0:0:0:0:
384,192,73565,5,8,0:0:0:0:
384,192,73565,5,8,0:0:0:0:
384,192,73565,5,8,0:0:0:0:
384,192,73565,5,8,0:0:0:0:
384,192,73565,5,8,0:0:0:0:
384,192,73565,5,8,0:0:0:0:
384,192,73565,5,8,0:0:0:0:
384,192,73565,5,8,0:0:0:0:
384,192,73565,5,8,0:0:0:0:
384,192,73565,5,8,0:0:0:0:
384,192,73565,5,8,0:0:0:0:
384,192,73565,5,8,0:0:0:0:
384,192,73565,5,8,0:0:0:0:
384,192,73642,5,8,0:0:0:0:
384,192,73642,5,8,0:0:0:0:
384,192,73642,5,8,0:0:0:0:
384,192,73642,5,8,0:0:0:0:
384,192,73642,5,8,0:0:0:0:
384,192,73642,5,8,0:0:0:0:
384,192,73642,5,8,0:0:0:0:
384,192,73642,5,8,0:0:0:0:
384,192,73642,5,8,0:0:0:0:
384,192,73642,5,8,0:0:0:0:
384,192,73642,5,8,0:0:0:0:
384,192,73642,5,8,0:0:0:0:
384,192,73642,5,8,0:0:0:0:
384,192,73642,5,8,0:0:0:0:
384,192,73642,5,8,0:0:0:0:
384,192,73642,5,8,0:0:0:0:
384,192,73642,5,8,0:0:0:0:
384,192,73642,5,8,0:0:0:0:
384,192,73642,5,8,0:0:0:0:
384,192,73642,5,8,0:0:0:0:
512,192,73796,5,8,0:0:0:0:
512,192,73796,5,8,0:0:0:0:
512,192,73796,5,8,0:0:0:0:
512,192,73796,5,8,0:0:0:0:
512,192,73796,5,8,0:0:0:0:
512,192,73796,5,8,0:0:0:0:
512,192,73796,5,8,0:0:0:0:
512,192,73796,5,8,0:0:0:0:
512,192,73796,5,8,0:0:0:0:
512,192,73796,5,8,0:0:0:0:
512,192,73796,5,8,0:0:0:0:
512,192,73796,5,8,0:0:0:0:
512,192,73796,5,8,0:0:0:0:
512,192,73796,5,8,0:0:0:0:
512,192,73796,5,8,0:0:0:0:
512,192,73796,5,8,0:0:0:0:
512,192,73796,5,8,0:0:0:0:
512,192,73796,5,8,0:0:0:0:
512,192,73796,5,8,0:0:0:0:
512,192,73796,5,8,0:0:0:0:
512,192,73796,5,8,0:0:0:0:
512,192,73796,5,8,0:0:0:0:
512,192,73796,5,8,0:0:0:0:
512,192,73796,5,8,0:0:0:0:
512,192,73796,5,8,0:0:0:0:
512,192,73796,5,8,0:0:0:0:
512,192,73796,5,8,0:0:0:0:
512,192,73796,5,8,0:0:0:0:
512,192,73796,5,8,0:0:0:0:
512,192,73796,5,8,0:0:0:0:
512,192,73796,5,8,0:0:0:0:
512,192,73796,5,8,0:0:0:0:
512,192,73796,5,8,0:0:0:0:
512,192,73796,5,8,0:0:0:0:
512,192,73796,5,8,0:0:0:0:
512,192,73796,5,8,0:0:0:0:
512,192,73796,5,8,0:0:0:0:
512,192,73796,5,8,0:0:0:0:
512,192,73796,5,8,0:0:0:0:
512,192,73796,5,8,0:0:0:0:
512,192,73872,5,8,0:0:0:0:
512,192,73872,5,8,0:0:0:0:
512,192,73872,5,8,0:0:0:0:
512,192,73872,5,8,0:0:0:0:
512,192,73872,5,8,0:0:0:0:
512,192,73872,5,8,0:0:0:0:
512,192,73872,5,8,0:0:0:0:
512,192,73872,5,8,0:0:0:0:
512,192,73872,5,8,0:0:0:0:
512,192,73872,5,8,0:0:0:0:
512,192,73872,5,8,0:0:0:0:
512,192,73872,5,8,0:0:0:0:
512,192,73872,5,8,0:0:0:0:
512,192,73872,5,8,0:0:0:0:
512,192,73872,5,8,0:0:0:0:
512,192,73872,5,8,0:0:0:0:
512,192,73872,5,8,0:0:0:0:
512,192,73872,5,8,0:0:0:0:
512,192,73872,5,8,0:0:0:0:
512,192,73872,5,8,0:0:0:0:
512,192,73872,5,8,0:0:0:0:
512,192,73872,5,8,0:0:0:0:
512,192,73872,5,8,0:0:0:0:
512,192,73872,5,8,0:0:0:0:
512,192,73872,5,8,0:0:0:0:
512,192,73872,5,8,0:0:0:0:
512,192,73872,5,8,0:0:0:0:
512,192,73872,5,8,0:0:0:0:
512,192,73872,5,8,0:0:0:0:
512,192,73872,5,8,0:0:0:0:
512,192,73872,5,8,0:0:0:0:
512,192,73872,5,8,0:0:0:0:
512,192,73872,5,8,0:0:0:0:
512,192,73872,5,8,0:0:0:0:
512,192,73872,5,8,0:0:0:0:
512,192,73872,5,8,0:0:0:0:
512,192,73872,5,8,0:0:0:0:
512,192,73872,5,8,0:0:0:0:
512,192,73872,5,8,0:0:0:0:
512,192,73872,5,8,0:0:0:0:
512,192,73949,5,8,0:0:0:0:
512,192,73949,5,8,0:0:0:0:
512,192,73949,5,8,0:0:0:0:
512,192,73949,5,8,0:0:0:0:
512,192,73949,5,8,0:0:0:0:
512,192,73949,5,8,0:0:0:0:
512,192,73949,5,8,0:0:0:0:
512,192,73949,5,8,0:0:0:0:
512,192,73949,5,8,0:0:0:0:
512,192,73949,5,8,0:0:0:0:
512,192,73949,5,8,0:0:0:0:
512,192,73949,5,8,0:0:0:0:
512,192,73949,5,8,0:0:0:0:
512,192,73949,5,8,0:0:0:0:
512,192,73949,5,8,0:0:0:0:
512,192,73949,5,8,0:0:0:0:
512,192,73949,5,8,0:0:0:0:
512,192,73949,5,8,0:0:0:0:
512,192,73949,5,8,0:0:0:0:
512,192,73949,5,8,0:0:0:0:
512,192,73949,5,8,0:0:0:0:
512,192,73949,5,8,0:0:0:0:
512,192,73949,5,8,0:0:0:0:
512,192,73949,5,8,0:0:0:0:
512,192,73949,5,8,0:0:0:0:
512,192,73949,5,8,0:0:0:0:
512,192,73949,5,8,0:0:0:0:
512,192,73949,5,8,0:0:0:0:
512,192,73949,5,8,0:0:0:0:
512,192,73949,5,8,0:0:0:0:
512,192,73949,5,8,0:0:0:0:
512,192,73949,5,8,0:0:0:0:
512,192,73949,5,8,0:0:0:0:
512,192,73949,5,8,0:0:0:0:
512,192,73949,5,8,0:0:0:0:
512,192,73949,5,8,0:0:0:0:
512,192,73949,5,8,0:0:0:0:
512,192,73949,5,8,0:0:0:0:
512,192,73949,5,8,0:0:0:0:
512,192,73949,5,8,0:0:0:0:
512,192,74025,5,8,0:0:0:0:
512,192,74025,5,8,0:0:0:0:
512,192,74025,5,8,0:0:0:0:
512,192,74025,5,8,0:0:0:0:
512,192,74025,5,8,0:0:0:0:
512,192,74025,5,8,0:0:0:0:
512,192,74025,5,8,0:0:0:0:
512,192,74025,5,8,0:0:0:0:
512,192,74025,5,8,0:0:0:0:
512,192,74025,5,8,0:0:0:0:
512,192,74025,5,8,0:0:0:0:
512,192,74025,5,8,0:0:0:0:
512,192,74025,5,8,0:0:0:0:
512,192,74025,5,8,0:0:0:0:
512,192,74025,5,8,0:0:0:0:
512,192,74025,5,8,0:0:0:0:
512,192,74025,5,8,0:0:0:0:
512,192,74025,5,8,0:0:0:0:
512,192,74025,5,8,0:0:0:0:
512,192,74025,5,8,0:0:0:0:
512,192,74025,5,8,0:0:0:0:
512,192,74025,5,8,0:0:0:0:
512,192,74025,5,8,0:0:0:0:
512,192,74025,5,8,0:0:0:0:
512,192,74025,5,8,0:0:0:0:
512,192,74025,5,8,0:0:0:0:
512,192,74025,5,8,0:0:0:0:
512,192,74025,5,8,0:0:0:0:
512,192,74025,5,8,0:0:0:0:
512,192,74025,5,8,0:0:0:0:
512,192,74025,5,8,0:0:0:0:
512,192,74025,5,8,0:0:0:0:
512,192,74025,5,8,0:0:0:0:
512,192,74025,5,8,0:0:0:0:
512,192,74025,5,8,0:0:0:0:
512,192,74025,5,8,0:0:0:0:
512,192,74025,5,8,0:0:0:0:
512,192,74025,5,8,0:0:0:0:
512,192,74025,5,8,0:0:0:0:
512,192,74025,5,8,0:0:0:0:
512,192,74102,5,8,0:0:0:0:
512,192,74102,5,8,0:0:0:0:
512,192,74102,5,8,0:0:0:0:
512,192,74102,5,8,0:0:0:0:
512,192,74102,5,8,0:0:0:0:
512,192,74102,5,8,0:0:0:0:
512,192,74102,5,8,0:0:0:0:
512,192,74102,5,8,0:0:0:0:
512,192,74102,5,8,0:0:0:0:
512,192,74102,5,8,0:0:0:0:
512,192,74102,5,8,0:0:0:0:
512,192,74102,5,8,0:0:0:0:
512,192,74102,5,8,0:0:0:0:
512,192,74102,5,8,0:0:0:0:
512,192,74102,5,8,0:0:0:0:
512,192,74102,5,8,0:0:0:0:
512,192,74102,5,8,0:0:0:0:
512,192,74102,5,8,0:0:0:0:
512,192,74102,5,8,0:0:0:0:
512,192,74102,5,8,0:0:0:0:
512,192,74102,5,8,0:0:0:0:
512,192,74102,5,8,0:0:0:0:
512,192,74102,5,8,0:0:0:0:
512,192,74102,5,8,0:0:0:0:
512,192,74102,5,8,0:0:0:0:
512,192,74102,5,8,0:0:0:0:
512,192,74102,5,8,0:0:0:0:
512,192,74102,5,8,0:0:0:0:
512,192,74102,5,8,0:0:0:0:
512,192,74102,5,8,0:0:0:0:
512,192,74102,5,8,0:0:0:0:
512,192,74102,5,8,0:0:0:0:
512,192,74102,5,8,0:0:0:0:
512,192,74102,5,8,0:0:0:0:
512,192,74102,5,8,0:0:0:0:
512,192,74102,5,8,0:0:0:0:
512,192,74102,5,8,0:0:0:0:
512,192,74102,5,8,0:0:0:0:
512,192,74102,5,8,0:0:0:0:
512,192,74102,5,8,0:0:0:0:
384,192,74255,5,8,0:0:0:0:
384,192,74255,5,8,0:0:0:0:
384,192,74255,5,8,0:0:0:0:
384,192,74255,5,8,0:0:0:0:
384,192,74255,5,8,0:0:0:0:
384,192,74255,5,8,0:0:0:0:
384,192,74255,5,8,0:0:0:0:
384,192,74255,5,8,0:0:0:0:
384,192,74255,5,8,0:0:0:0:
384,192,74255,5,8,0:0:0:0:
384,192,74255,5,8,0:0:0:0:
384,192,74255,5,8,0:0:0:0:
384,192,74255,5,8,0:0:0:0:
384,192,74255,5,8,0:0:0:0:
384,192,74255,5,8,0:0:0:0:
384,192,74255,5,8,0:0:0:0:
384,192,74255,5,8,0:0:0:0:
384,192,74255,5,8,0:0:0:0:
384,192,74255,5,8,0:0:0:0:
384,192,74255,5,8,0:0:0:0:
384,192,74331,5,8,0:0:0:0:
384,192,74331,5,8,0:0:0:0:
384,192,74331,5,8,0:0:0:0:
384,192,74331,5,8,0:0:0:0:
384,192,74331,5,8,0:0:0:0:
384,192,74331,5,8,0:0:0:0:
384,192,74331,5,8,0:0:0:0:
384,192,74331,5,8,0:0:0:0:
384,192,74331,5,8,0:0:0:0:
384,192,74331,5,8,0:0:0:0:
384,192,74331,5,8,0:0:0:0:
384,192,74331,5,8,0:0:0:0:
384,192,74331,5,8,0:0:0:0:
384,192,74331,5,8,0:0:0:0:
384,192,74331,5,8,0:0:0:0:
384,192,74331,5,8,0:0:0:0:
384,192,74331,5,8,0:0:0:0:
384,192,74331,5,8,0:0:0:0:
384,192,74331,5,8,0:0:0:0:
384,192,74331,5,8,0:0:0:0:
384,192,74407,5,8,0:0:0:0:
384,192,74407,5,8,0:0:0:0:
384,192,74407,5,8,0:0:0:0:
384,192,74407,5,8,0:0:0:0:
384,192,74407,5,8,0:0:0:0:
384,192,74407,5,8,0:0:0:0:
384,192,74407,5,8,0:0:0:0:
384,192,74407,5,8,0:0:0:0:
384,192,74407,5,8,0:0:0:0:
384,192,74407,5,8,0:0:0:0:
384,192,74407,5,8,0:0:0:0:
384,192,74407,5,8,0:0:0:0:
384,192,74407,5,8,0:0:0:0:
384,192,74407,5,8,0:0:0:0:
384,192,74407,5,8,0:0:0:0:
384,192,74407,5,8,0:0:0:0:
384,192,74407,5,8,0:0:0:0:
384,192,74407,5,8,0:0:0:0:
384,192,74407,5,8,0:0:0:0:
384,192,74407,5,8,0:0:0:0:
384,192,74483,5,8,0:0:0:0:
384,192,74483,5,8,0:0:0:0:
384,192,74483,5,8,0:0:0:0:
384,192,74483,5,8,0:0:0:0:
384,192,74483,5,8,0:0:0:0:
384,192,74483,5,8,0:0:0:0:
384,192,74483,5,8,0:0:0:0:
384,192,74483,5,8,0:0:0:0:
384,192,74483,5,8,0:0:0:0:
384,192,74483,5,8,0:0:0:0:
384,192,74483,5,8,0:0:0:0:
384,192,74483,5,8,0:0:0:0:
384,192,74483,5,8,0:0:0:0:
384,192,74483,5,8,0:0:0:0:
384,192,74483,5,8,0:0:0:0:
384,192,74483,5,8,0:0:0:0:
384,192,74483,5,8,0:0:0:0:
384,192,74483,5,8,0:0:0:0:
384,192,74483,5,8,0:0:0:0:
384,192,74483,5,8,0:0:0:0:
384,192,74559,5,8,0:0:0:0:
384,192,74559,5,8,0:0:0:0:
384,192,74559,5,8,0:0:0:0:
384,192,74559,5,8,0:0:0:0:
384,192,74559,5,8,0:0:0:0:
384,192,74559,5,8,0:0:0:0:
384,192,74559,5,8,0:0:0:0:
384,192,74559,5,8,0:0:0:0:
384,192,74559,5,8,0:0:0:0:
384,192,74559,5,8,0:0:0:0:
384,192,74559,5,8,0:0:0:0:
384,192,74559,5,8,0:0:0:0:
384,192,74559,5,8,0:0:0:0:
384,192,74559,5,8,0:0:0:0:
384,192,74559,5,8,0:0:0:0:
384,192,74559,5,8,0:0:0:0:
384,192,74559,5,8,0:0:0:0:
384,192,74559,5,8,0:0:0:0:
384,192,74559,5,8,0:0:0:0:
384,192,74559,5,8,0:0:0:0:
256,192,74710,5,8,0:0:0:0:
256,192,74785,5,8,0:0:0:0:
256,192,74785,5,8,0:0:0:0:
256,192,74861,5,8,0:0:0:0:
256,192,74861,5,8,0:0:0:0:
256,192,74861,5,8,0:0:0:0:
256,192,74936,5,8,0:0:0:0:
256,192,74936,5,8,0:0:0:0:
256,192,74936,5,8,0:0:0:0:
256,192,74936,5,8,0:0:0:0:
256,192,74936,5,8,0:0:0:0:
256,192,75012,5,8,0:0:0:0:
256,192,75012,5,8,0:0:0:0:
256,192,75012,5,8,0:0:0:0:
256,192,75012,5,8,0:0:0:0:
256,192,75012,5,8,0:0:0:0:
256,192,75012,5,8,0:0:0:0:
256,192,75087,5,8,0:0:0:0:
256,192,75087,5,8,0:0:0:0:
256,192,75087,5,8,0:0:0:0:
256,192,75087,5,8,0:0:0:0:
256,192,75087,5,8,0:0:0:0:
256,192,75087,5,8,0:0:0:0:
256,192,75087,5,8,0:0:0:0:
256,192,75162,5,8,0:0:0:0:
256,192,75162,5,8,0:0:0:0:
256,192,75162,5,8,0:0:0:0:
256,192,75162,5,8,0:0:0:0:
256,192,75162,5,8,0:0:0:0:
256,192,75162,5,8,0:0:0:0:
256,192,75162,5,8,0:0:0:0:
256,192,75237,5,8,0:0:0:0:
256,192,75237,5,8,0:0:0:0:
256,192,75237,5,8,0:0:0:0:
256,192,75237,5,8,0:0:0:0:
256,192,75237,5,8,0:0:0:0:
256,192,75237,5,8,0:0:0:0:
256,192,75237,5,8,0:0:0:0:
256,192,75237,5,8,0:0:0:0:
256,192,75312,5,12,1:0:0:0:
256,192,75312,5,12,1:0:0:0:
256,192,75312,5,12,1:0:0:0:
256,192,75312,5,12,1:0:0:0:
256,192,75312,5,12,1:0:0:0:
256,192,75312,5,12,1:0:0:0:
256,192,75312,5,12,1:0:0:0:
256,192,75312,5,12,1:0:0:0:
256,192,75312,5,12,1:0:0:0:
256,192,75312,5,12,1:0:0:0:
256,192,75312,5,12,1:0:0:0:
256,192,75312,5,12,1:0:0:0:
256,192,75312,5,12,1:0:0:0:
256,192,75312,5,12,1:0:0:0:
256,192,75312,5,12,1:0:0:0:
256,192,75312,5,12,1:0:0:0:
256,192,75312,5,12,1:0:0:0:
256,192,75312,5,12,1:0:0:0:
256,192,75312,5,12,1:0:0:0:
256,192,75312,5,12,1:0:0:0:
0,192,77712,5,8,0:0:0:0:
0,192,77712,5,8,0:0:0:0:
0,192,77787,5,8,0:0:0:0:
0,192,77787,5,8,0:0:0:0:
0,192,77862,5,8,0:0:0:0:
0,192,77862,5,8,0:0:0:0:
0,192,77937,5,8,0:0:0:0:
0,192,77937,5,8,0:0:0:0:
64,192,78012,5,8,0:0:0:0:
64,192,78012,5,8,0:0:0:0:
64,192,78087,5,8,0:0:0:0:
64,192,78087,5,8,0:0:0:0:
64,192,78162,5,8,0:0:0:0:
64,192,78162,5,8,0:0:0:0:
64,192,78237,5,8,0:0:0:0:
64,192,78237,5,8,0:0:0:0:
128,192,78312,5,8,0:0:0:0:
128,192,78312,5,8,0:0:0:0:
128,192,78387,5,8,0:0:0:0:
128,192,78387,5,8,0:0:0:0:
128,192,78462,5,8,0:0:0:0:
128,192,78462,5,8,0:0:0:0:
128,192,78537,5,8,0:0:0:0:
128,192,78537,5,8,0:0:0:0:
192,192,78612,5,8,0:0:0:0:
192,192,78612,5,8,0:0:0:0:
192,192,78687,5,8,0:0:0:0:
192,192,78687,5,8,0:0:0:0:
192,192,78762,5,8,0:0:0:0:
192,192,78762,5,8,0:0:0:0:
192,192,78837,5,8,0:0:0:0:
192,192,78837,5,8,0:0:0:0:
512,192,78912,5,8,0:0:0:0:
512,192,78912,5,8,0:0:0:0:
512,192,78987,5,8,0:0:0:0:
512,192,78987,5,8,0:0:0:0:
512,192,79062,5,8,0:0:0:0:
512,192,79062,5,8,0:0:0:0:
512,192,79062,5,8,0:0:0:0:
512,192,79062,5,8,0:0:0:0:
512,192,79137,5,8,0:0:0:0:
512,192,79137,5,8,0:0:0:0:
512,192,79137,5,8,0:0:0:0:
512,192,79137,5,8,0:0:0:0:
448,192,79212,5,8,0:0:0:0:
448,192,79212,5,8,0:0:0:0:
448,192,79212,5,8,0:0:0:0:
448,192,79212,5,8,0:0:0:0:
448,192,79287,5,8,0:0:0:0:
448,192,79287,5,8,0:0:0:0:
448,192,79287,5,8,0:0:0:0:
448,192,79287,5,8,0:0:0:0:
448,192,79362,5,8,0:0:0:0:
448,192,79362,5,8,0:0:0:0:
448,192,79362,5,8,0:0:0:0:
448,192,79362,5,8,0:0:0:0:
448,192,79437,5,8,0:0:0:0:
448,192,79437,5,8,0:0:0:0:
448,192,79437,5,8,0:0:0:0:
448,192,79437,5,8,0:0:0:0:
384,192,79512,5,8,0:0:0:0:
384,192,79512,5,8,0:0:0:0:
384,192,79512,5,8,0:0:0:0:
384,192,79512,5,8,0:0:0:0:
384,192,79587,5,8,0:0:0:0:
384,192,79587,5,8,0:0:0:0:
384,192,79587,5,8,0:0:0:0:
384,192,79587,5,8,0:0:0:0:
384,192,79662,5,8,0:0:0:0:
384,192,79662,5,8,0:0:0:0:
384,192,79662,5,8,0:0:0:0:
384,192,79662,5,8,0:0:0:0:
384,192,79737,5,8,0:0:0:0:
384,192,79737,5,8,0:0:0:0:
384,192,79737,5,8,0:0:0:0:
384,192,79737,5,8,0:0:0:0:
320,192,79812,5,8,0:0:0:0:
320,192,79812,5,8,0:0:0:0:
320,192,79812,5,8,0:0:0:0:
320,192,79812,5,8,0:0:0:0:
320,192,79887,5,8,0:0:0:0:
320,192,79887,5,8,0:0:0:0:
320,192,79887,5,8,0:0:0:0:
320,192,79887,5,8,0:0:0:0:
320,192,79962,5,8,0:0:0:0:
320,192,79962,5,8,0:0:0:0:
320,192,79962,5,8,0:0:0:0:
320,192,79962,5,8,0:0:0:0:
320,192,80037,5,8,0:0:0:0:
320,192,80037,5,8,0:0:0:0:
320,192,80037,5,8,0:0:0:0:
320,192,80037,5,8,0:0:0:0:
256,192,80112,5,4,1:0:0:0:
256,192,80112,5,4,1:0:0:0:
256,192,80112,5,4,1:0:0:0:
256,192,80112,5,4,1:0:0:0:
256,192,80112,5,4,1:0:0:0:
256,192,80112,5,4,1:0:0:0:
256,192,80112,5,4,1:0:0:0:
256,192,80112,5,4,1:0:0:0:
256,192,80112,5,4,1:0:0:0:
256,192,80112,5,4,1:0:0:0:
128,288,82032,6,0,L|96:192,1,80,8|0,0:0|0:0,0:0:0:0:
384,224,82272,2,0,L|416:128,1,80,8|0,0:0|0:0,0:0:0:0:
128,128,82512,1,8,0:0:0:0:
352,128,82632,1,0,0:0:0:0:
256,192,82752,5,6,1:0:0:0:
256,192,82752,5,6,1:0:0:0:
256,192,82752,5,6,1:0:0:0:
256,192,82752,5,6,1:0:0:0:
256,192,82752,5,6,1:0:0:0:
256,192,82752,5,6,1:0:0:0:
256,192,82752,5,6,1:0:0:0:
256,192,82752,5,6,1:0:0:0:
256,192,82752,5,6,1:0:0:0:
256,192,82752,5,6,1:0:0:0:
256,192,82752,5,6,1:0:0:0:
256,192,82752,5,6,1:0:0:0:
256,192,82752,5,6,1:0:0:0:
256,192,82752,5,6,1:0:0:0:
256,192,82752,5,6,1:0:0:0:
256,192,82752,5,6,1:0:0:0:
256,192,82752,5,6,1:0:0:0:
256,192,82752,5,6,1:0:0:0:
256,192,82752,5,6,1:0:0:0:
256,192,82752,5,6,1:0:0:0:
256,192,82752,5,6,1:0:0:0:
256,192,82752,5,6,1:0:0:0:
256,192,82752,5,6,1:0:0:0:
256,192,82752,5,6,1:0:0:0:
256,192,82752,5,6,1:0:0:0:
256,192,82752,5,6,1:0:0:0:
256,192,82752,5,6,1:0:0:0:
256,192,82752,5,6,1:0:0:0:
256,192,82752,5,6,1:0:0:0:
256,192,82752,5,6,1:0:0:0:
256,192,82752,5,6,1:0:0:0:
256,192,82752,5,6,1:0:0:0:
256,192,82752,5,6,1:0:0:0:
256,192,82752,5,6,1:0:0:0:
256,192,82752,5,6,1:0:0:0:
256,192,82752,5,6,1:0:0:0:
256,192,82752,5,6,1:0:0:0:
256,192,82752,5,6,1:0:0:0:
256,192,82752,5,6,1:0:0:0:
256,192,82752,5,6,1:0:0:0:
256,192,82752,5,6,1:0:0:0:
256,192,82752,5,6,1:0:0:0:
256,192,82752,5,6,1:0:0:0:
256,192,82752,5,6,1:0:0:0:
256,192,82752,5,6,1:0:0:0:
256,192,82752,5,6,1:0:0:0:
256,192,82752,5,6,1:0:0:0:
256,192,82752,5,6,1:0:0:0:
256,192,82752,5,6,1:0:0:0:
256,192,82752,5,6,1:0:0:0:
256,192,82752,5,6,1:0:0:0:
256,192,82752,5,6,1:0:0:0:
256,192,82752,5,6,1:0:0:0:
256,192,82752,5,6,1:0:0:0:
256,192,82752,5,6,1:0:0:0:
256,192,82752,5,6,1:0:0:0:
256,192,82752,5,6,1:0:0:0:
256,192,82752,5,6,1:0:0:0:
256,192,82752,5,6,1:0:0:0:
256,192,82752,5,6,1:0:0:0:
256,192,82752,5,6,1:0:0:0:
256,192,82752,5,6,1:0:0:0:
256,192,82752,5,6,1:0:0:0:
256,192,82752,5,6,1:0:0:0:
256,192,82752,5,6,1:0:0:0:
256,192,82752,5,6,1:0:0:0:
256,192,82752,5,6,1:0:0:0:
256,192,82752,5,6,1:0:0:0:
256,192,82752,5,6,1:0:0:0:
256,192,82752,5,6,1:0:0:0:
256,192,82752,5,6,1:0:0:0:
256,192,82752,5,6,1:0:0:0:
256,192,82752,5,6,1:0:0:0:
256,192,82752,5,6,1:0:0:0:
256,192,82752,5,6,1:0:0:0:
256,192,82752,5,6,1:0:0:0:
256,192,82752,5,6,1:0:0:0:
256,192,82752,5,6,1:0:0:0:
256,192,82752,5,6,1:0:0:0:
256,192,82752,5,6,1:0:0:0:
256,192,82752,5,6,1:0:0:0:
256,192,82752,5,6,1:0:0:0:
256,192,82752,5,6,1:0:0:0:
256,192,82752,5,6,1:0:0:0:
256,192,82752,5,6,1:0:0:0:
256,192,82752,5,6,1:0:0:0:
256,192,82752,5,6,1:0:0:0:
256,192,82752,5,6,1:0:0:0:
256,192,82752,5,6,1:0:0:0:
256,192,82752,5,6,1:0:0:0:
256,192,82752,5,6,1:0:0:0:
256,192,82752,5,6,1:0:0:0:
256,192,82752,5,6,1:0:0:0:
256,192,82752,5,6,1:0:0:0:
256,192,82752,5,6,1:0:0:0:
256,192,82752,5,6,1:0:0:0:
256,192,82752,5,6,1:0:0:0:
256,192,82752,5,6,1:0:0:0:
256,192,82752,5,6,1:0:0:0:
256,192,82752,5,6,1:0:0:0:
256,192,82752,5,6,1:0:0:0:
256,192,82752,5,6,1:0:0:0:
256,192,82752,5,6,1:0:0:0:
256,192,82752,5,6,1:0:0:0:
256,192,82752,5,6,1:0:0:0:
256,192,82752,5,6,1:0:0:0:
256,192,82752,5,6,1:0:0:0:
256,192,82752,5,6,1:0:0:0:
256,192,82752,5,6,1:0:0:0:
256,192,82752,5,6,1:0:0:0:
256,192,82752,5,6,1:0:0:0:
256,192,82752,5,6,1:0:0:0:
256,192,82752,5,6,1:0:0:0:
256,192,82752,5,6,1:0:0:0:
256,192,82752,5,6,1:0:0:0:
256,192,82752,5,6,1:0:0:0:
256,192,82752,5,6,1:0:0:0:
256,192,82752,5,6,1:0:0:0:
256,192,82752,5,6,1:0:0:0:
256,192,82752,5,6,1:0:0:0:
256,192,82752,5,6,1:0:0:0:
256,192,82752,5,6,1:0:0:0:
256,192,82752,5,6,1:0:0:0:
256,192,82752,5,6,1:0:0:0:
256,192,82752,5,6,1:0:0:0:
256,192,82752,5,6,1:0:0:0:
256,192,82752,5,6,1:0:0:0:
256,192,82752,5,6,1:0:0:0:
256,192,82752,5,6,1:0:0:0:
256,192,82752,5,6,1:0:0:0:
256,192,82752,5,6,1:0:0:0:
256,192,82752,5,6,1:0:0:0:
256,192,82752,5,6,1:0:0:0:
256,192,82752,5,6,1:0:0:0:
256,192,82752,5,6,1:0:0:0:
256,192,82752,5,6,1:0:0:0:
256,192,82752,5,6,1:0:0:0:
256,192,82752,5,6,1:0:0:0:
256,192,82752,5,6,1:0:0:0:
256,192,82752,5,6,1:0:0:0:
256,192,82752,5,6,1:0:0:0:
256,192,82752,5,6,1:0:0:0:
256,192,82752,5,6,1:0:0:0:
256,192,82752,5,6,1:0:0:0:
256,192,82752,5,6,1:0:0:0:
256,192,82752,5,6,1:0:0:0:
256,192,82752,5,6,1:0:0:0:
256,192,82752,5,6,1:0:0:0:
256,192,82752,5,6,1:0:0:0:
256,192,82752,5,6,1:0:0:0:
256,192,82752,5,6,1:0:0:0:
256,192,82752,5,6,1:0:0:0:
256,192,82752,5,6,1:0:0:0:
256,192,82752,5,6,1:0:0:0:
256,192,82752,5,6,1:0:0:0:
256,192,82752,5,6,1:0:0:0:
256,192,82752,5,6,1:0:0:0:
256,192,82752,5,6,1:0:0:0:
256,192,82752,5,6,1:0:0:0:
256,192,82752,5,6,1:0:0:0:
128,192,83952,5,8,0:0:0:0:
384,256,84072,6,0,P|416:224|416:160,1,80,8|0,0:0|0:0,0:0:0:0:
160,192,84312,2,0,P|128:160|128:128,1,80,0|8,0:0|0:0,0:0:0:0:
256,128,84552,1,8,0:0:0:0:
256,192,84672,5,6,1:0:0:0:
256,192,84672,5,6,1:0:0:0:
256,192,84672,5,6,1:0:0:0:
256,192,84672,5,6,1:0:0:0:
256,192,84672,5,6,1:0:0:0:
256,192,84672,5,6,1:0:0:0:
256,192,84672,5,6,1:0:0:0:
256,192,84672,5,6,1:0:0:0:
256,192,84672,5,6,1:0:0:0:
256,192,84672,5,6,1:0:0:0:
256,192,84672,5,6,1:0:0:0:
256,192,84672,5,6,1:0:0:0:
256,192,84672,5,6,1:0:0:0:
256,192,84672,5,6,1:0:0:0:
256,192,84672,5,6,1:0:0:0:
256,192,84672,5,6,1:0:0:0:
256,192,84672,5,6,1:0:0:0:
256,192,84672,5,6,1:0:0:0:
256,192,84672,5,6,1:0:0:0:
256,192,84672,5,6,1:0:0:0:
256,192,84672,5,6,1:0:0:0:
256,192,84672,5,6,1:0:0:0:
256,192,84672,5,6,1:0:0:0:
256,192,84672,5,6,1:0:0:0:
256,192,84672,5,6,1:0:0:0:
256,192,84672,5,6,1:0:0:0:
256,192,84672,5,6,1:0:0:0:
256,192,84672,5,6,1:0:0:0:
256,192,84672,5,6,1:0:0:0:
256,192,84672,5,6,1:0:0:0:
256,192,84672,5,6,1:0:0:0:
256,192,84672,5,6,1:0:0:0:
256,192,84672,5,6,1:0:0:0:
256,192,84672,5,6,1:0:0:0:
256,192,84672,5,6,1:0:0:0:
256,192,84672,5,6,1:0:0:0:
256,192,84672,5,6,1:0:0:0:
256,192,84672,5,6,1:0:0:0:
256,192,84672,5,6,1:0:0:0:
256,192,84672,5,6,1:0:0:0:
256,192,84672,5,6,1:0:0:0:
256,192,84672,5,6,1:0:0:0:
256,192,84672,5,6,1:0:0:0:
256,192,84672,5,6,1:0:0:0:
256,192,84672,5,6,1:0:0:0:
256,192,84672,5,6,1:0:0:0:
256,192,84672,5,6,1:0:0:0:
256,192,84672,5,6,1:0:0:0:
256,192,84672,5,6,1:0:0:0:
256,192,84672,5,6,1:0:0:0:
256,192,84672,5,6,1:0:0:0:
256,192,84672,5,6,1:0:0:0:
256,192,84672,5,6,1:0:0:0:
256,192,84672,5,6,1:0:0:0:
256,192,84672,5,6,1:0:0:0:
256,192,84672,5,6,1:0:0:0:
256,192,84672,5,6,1:0:0:0:
256,192,84672,5,6,1:0:0:0:
256,192,84672,5,6,1:0:0:0:
256,192,84672,5,6,1:0:0:0:
256,192,84672,5,6,1:0:0:0:
256,192,84672,5,6,1:0:0:0:
256,192,84672,5,6,1:0:0:0:
256,192,84672,5,6,1:0:0:0:
256,192,84672,5,6,1:0:0:0:
256,192,84672,5,6,1:0:0:0:
256,192,84672,5,6,1:0:0:0:
256,192,84672,5,6,1:0:0:0:
256,192,84672,5,6,1:0:0:0:
256,192,84672,5,6,1:0:0:0:
256,192,84672,5,6,1:0:0:0:
256,192,84672,5,6,1:0:0:0:
256,192,84672,5,6,1:0:0:0:
256,192,84672,5,6,1:0:0:0:
256,192,84672,5,6,1:0:0:0:
256,192,84672,5,6,1:0:0:0:
256,192,84672,5,6,1:0:0:0:
256,192,84672,5,6,1:0:0:0:
256,192,84672,5,6,1:0:0:0:
256,192,84672,5,6,1:0:0:0:
256,192,84672,5,6,1:0:0:0:
256,192,84672,5,6,1:0:0:0:
256,192,84672,5,6,1:0:0:0:
256,192,84672,5,6,1:0:0:0:
256,192,84672,5,6,1:0:0:0:
256,192,84672,5,6,1:0:0:0:
256,192,84672,5,6,1:0:0:0:
256,192,84672,5,6,1:0:0:0:
256,192,84672,5,6,1:0:0:0:
256,192,84672,5,6,1:0:0:0:
256,192,84672,5,6,1:0:0:0:
256,192,84672,5,6,1:0:0:0:
256,192,84672,5,6,1:0:0:0:
256,192,84672,5,6,1:0:0:0:
256,192,84672,5,6,1:0:0:0:
256,192,84672,5,6,1:0:0:0:
256,192,84672,5,6,1:0:0:0:
256,192,84672,5,6,1:0:0:0:
256,192,84672,5,6,1:0:0:0:
256,192,84672,5,6,1:0:0:0:
256,192,84672,5,6,1:0:0:0:
256,192,84672,5,6,1:0:0:0:
256,192,84672,5,6,1:0:0:0:
256,192,84672,5,6,1:0:0:0:
256,192,84672,5,6,1:0:0:0:
256,192,84672,5,6,1:0:0:0:
256,192,84672,5,6,1:0:0:0:
256,192,84672,5,6,1:0:0:0:
256,192,84672,5,6,1:0:0:0:
256,192,84672,5,6,1:0:0:0:
256,192,84672,5,6,1:0:0:0:
256,192,84672,5,6,1:0:0:0:
256,192,84672,5,6,1:0:0:0:
256,192,84672,5,6,1:0:0:0:
256,192,84672,5,6,1:0:0:0:
256,192,84672,5,6,1:0:0:0:
256,192,84672,5,6,1:0:0:0:
256,192,84672,5,6,1:0:0:0:
256,192,84672,5,6,1:0:0:0:
256,192,84672,5,6,1:0:0:0:
256,192,84672,5,6,1:0:0:0:
256,192,84672,5,6,1:0:0:0:
256,192,84672,5,6,1:0:0:0:
256,192,84672,5,6,1:0:0:0:
256,192,84672,5,6,1:0:0:0:
256,192,84672,5,6,1:0:0:0:
256,192,84672,5,6,1:0:0:0:
256,192,84672,5,6,1:0:0:0:
256,192,84672,5,6,1:0:0:0:
256,192,84672,5,6,1:0:0:0:
256,192,84672,5,6,1:0:0:0:
256,192,84672,5,6,1:0:0:0:
256,192,84672,5,6,1:0:0:0:
256,192,84672,5,6,1:0:0:0:
256,192,84672,5,6,1:0:0:0:
256,192,84672,5,6,1:0:0:0:
256,192,84672,5,6,1:0:0:0:
256,192,84672,5,6,1:0:0:0:
256,192,84672,5,6,1:0:0:0:
256,192,84672,5,6,1:0:0:0:
256,192,84672,5,6,1:0:0:0:
256,192,84672,5,6,1:0:0:0:
256,192,84672,5,6,1:0:0:0:
256,192,84672,5,6,1:0:0:0:
256,192,84672,5,6,1:0:0:0:
256,192,84672,5,6,1:0:0:0:
256,192,84672,5,6,1:0:0:0:
256,192,84672,5,6,1:0:0:0:
256,192,84672,5,6,1:0:0:0:
256,192,84672,5,6,1:0:0:0:
256,192,84672,5,6,1:0:0:0:
256,192,84672,5,6,1:0:0:0:
256,192,84672,5,6,1:0:0:0:
256,192,84672,5,6,1:0:0:0:
256,192,84672,5,6,1:0:0:0:
256,192,84672,5,6,1:0:0:0:
256,192,84672,5,6,1:0:0:0:
256,192,84672,5,6,1:0:0:0:
256,192,84672,5,6,1:0:0:0:
256,192,84672,5,6,1:0:0:0:
192,160,85152,6,0,L|96:160,2,80,8|0|0,0:0|0:0|0:0,0:0:0:0:
352,160,85512,2,0,L|512:160,1,160,8|0,0:0|0:0,0:0:0:0:
192,256,85872,6,0,L|32:256,1,160,8|0,0:0|0:0,0:0:0:0:
352,288,86232,2,0,L|448:288,2,80,8|0|0,0:0|0:0|0:0,0:0:0:0:
256,192,86592,5,6,1:0:0:0:
256,192,86592,5,6,1:0:0:0:
256,192,86592,5,6,1:0:0:0:
256,192,86592,5,6,1:0:0:0:
256,192,86592,5,6,1:0:0:0:
256,192,86592,5,6,1:0:0:0:
256,192,86592,5,6,1:0:0:0:
256,192,86592,5,6,1:0:0:0:
256,192,86592,5,6,1:0:0:0:
256,192,86592,5,6,1:0:0:0:
256,192,86592,5,6,1:0:0:0:
256,192,86592,5,6,1:0:0:0:
256,192,86592,5,6,1:0:0:0:
256,192,86592,5,6,1:0:0:0:
256,192,86592,5,6,1:0:0:0:
256,192,86592,5,6,1:0:0:0:
256,192,86592,5,6,1:0:0:0:
256,192,86592,5,6,1:0:0:0:
256,192,86592,5,6,1:0:0:0:
256,192,86592,5,6,1:0:0:0:
256,192,86592,5,6,1:0:0:0:
256,192,86592,5,6,1:0:0:0:
256,192,86592,5,6,1:0:0:0:
256,192,86592,5,6,1:0:0:0:
256,192,86592,5,6,1:0:0:0:
256,192,86592,5,6,1:0:0:0:
256,192,86592,5,6,1:0:0:0:
256,192,86592,5,6,1:0:0:0:
256,192,86592,5,6,1:0:0:0:
256,192,86592,5,6,1:0:0:0:
256,192,86592,5,6,1:0:0:0:
256,192,86592,5,6,1:0:0:0:
256,192,86592,5,6,1:0:0:0:
256,192,86592,5,6,1:0:0:0:
256,192,86592,5,6,1:0:0:0:
256,192,86592,5,6,1:0:0:0:
256,192,86592,5,6,1:0:0:0:
256,192,86592,5,6,1:0:0:0:
256,192,86592,5,6,1:0:0:0:
256,192,86592,5,6,1:0:0:0:
256,192,86592,5,6,1:0:0:0:
256,192,86592,5,6,1:0:0:0:
256,192,86592,5,6,1:0:0:0:
256,192,86592,5,6,1:0:0:0:
256,192,86592,5,6,1:0:0:0:
256,192,86592,5,6,1:0:0:0:
256,192,86592,5,6,1:0:0:0:
256,192,86592,5,6,1:0:0:0:
256,192,86592,5,6,1:0:0:0:
256,192,86592,5,6,1:0:0:0:
256,192,86592,5,6,1:0:0:0:
256,192,86592,5,6,1:0:0:0:
256,192,86592,5,6,1:0:0:0:
256,192,86592,5,6,1:0:0:0:
256,192,86592,5,6,1:0:0:0:
256,192,86592,5,6,1:0:0:0:
256,192,86592,5,6,1:0:0:0:
256,192,86592,5,6,1:0:0:0:
256,192,86592,5,6,1:0:0:0:
256,192,86592,5,6,1:0:0:0:
256,192,86592,5,6,1:0:0:0:
256,192,86592,5,6,1:0:0:0:
256,192,86592,5,6,1:0:0:0:
256,192,86592,5,6,1:0:0:0:
256,192,86592,5,6,1:0:0:0:
256,192,86592,5,6,1:0:0:0:
256,192,86592,5,6,1:0:0:0:
256,192,86592,5,6,1:0:0:0:
256,192,86592,5,6,1:0:0:0:
256,192,86592,5,6,1:0:0:0:
256,192,86592,5,6,1:0:0:0:
256,192,86592,5,6,1:0:0:0:
256,192,86592,5,6,1:0:0:0:
256,192,86592,5,6,1:0:0:0:
256,192,86592,5,6,1:0:0:0:
256,192,86592,5,6,1:0:0:0:
256,192,86592,5,6,1:0:0:0:
256,192,86592,5,6,1:0:0:0:
256,192,86592,5,6,1:0:0:0:
256,192,86592,5,6,1:0:0:0:
256,192,86592,5,6,1:0:0:0:
256,192,86592,5,6,1:0:0:0:
256,192,86592,5,6,1:0:0:0:
256,192,86592,5,6,1:0:0:0:
256,192,86592,5,6,1:0:0:0:
256,192,86592,5,6,1:0:0:0:
256,192,86592,5,6,1:0:0:0:
256,192,86592,5,6,1:0:0:0:
256,192,86592,5,6,1:0:0:0:
256,192,86592,5,6,1:0:0:0:
256,192,86592,5,6,1:0:0:0:
256,192,86592,5,6,1:0:0:0:
256,192,86592,5,6,1:0:0:0:
256,192,86592,5,6,1:0:0:0:
256,192,86592,5,6,1:0:0:0:
256,192,86592,5,6,1:0:0:0:
256,192,86592,5,6,1:0:0:0:
256,192,86592,5,6,1:0:0:0:
256,192,86592,5,6,1:0:0:0:
256,192,86592,5,6,1:0:0:0:
256,192,86592,5,6,1:0:0:0:
256,192,86592,5,6,1:0:0:0:
256,192,86592,5,6,1:0:0:0:
256,192,86592,5,6,1:0:0:0:
256,192,86592,5,6,1:0:0:0:
256,192,86592,5,6,1:0:0:0:
256,192,86592,5,6,1:0:0:0:
256,192,86592,5,6,1:0:0:0:
256,192,86592,5,6,1:0:0:0:
256,192,86592,5,6,1:0:0:0:
256,192,86592,5,6,1:0:0:0:
256,192,86592,5,6,1:0:0:0:
256,192,86592,5,6,1:0:0:0:
256,192,86592,5,6,1:0:0:0:
256,192,86592,5,6,1:0:0:0:
256,192,86592,5,6,1:0:0:0:
256,192,86592,5,6,1:0:0:0:
256,192,86592,5,6,1:0:0:0:
256,192,86592,5,6,1:0:0:0:
256,192,86592,5,6,1:0:0:0:
256,192,86592,5,6,1:0:0:0:
256,192,86592,5,6,1:0:0:0:
256,192,86592,5,6,1:0:0:0:
256,192,86592,5,6,1:0:0:0:
256,192,86592,5,6,1:0:0:0:
256,192,86592,5,6,1:0:0:0:
256,192,86592,5,6,1:0:0:0:
256,192,86592,5,6,1:0:0:0:
256,192,86592,5,6,1:0:0:0:
256,192,86592,5,6,1:0:0:0:
256,192,86592,5,6,1:0:0:0:
256,192,86592,5,6,1:0:0:0:
256,192,86592,5,6,1:0:0:0:
256,192,86592,5,6,1:0:0:0:
256,192,86592,5,6,1:0:0:0:
256,192,86592,5,6,1:0:0:0:
256,192,86592,5,6,1:0:0:0:
256,192,86592,5,6,1:0:0:0:
256,192,86592,5,6,1:0:0:0:
256,192,86592,5,6,1:0:0:0:
256,192,86592,5,6,1:0:0:0:
256,192,86592,5,6,1:0:0:0:
256,192,86592,5,6,1:0:0:0:
256,192,86592,5,6,1:0:0:0:
256,192,86592,5,6,1:0:0:0:
256,192,86592,5,6,1:0:0:0:
256,192,86592,5,6,1:0:0:0:
256,192,86592,5,6,1:0:0:0:
256,192,86592,5,6,1:0:0:0:
256,192,86592,5,6,1:0:0:0:
256,192,86592,5,6,1:0:0:0:
256,192,86592,5,6,1:0:0:0:
256,192,86592,5,6,1:0:0:0:
256,192,86592,5,6,1:0:0:0:
256,192,86592,5,6,1:0:0:0:
256,192,86592,5,6,1:0:0:0:
256,192,86592,5,6,1:0:0:0:
256,192,86592,5,6,1:0:0:0:
256,192,86592,5,6,1:0:0:0:
256,192,86592,5,6,1:0:0:0:
96,192,87552,5,8,0:0:0:0:
384,192,87672,6,0,L|480:192,1,80,8|0,0:0|0:0,0:0:0:0:
160,192,87912,2,0,L|64:192,1,80,0|8,0:0|0:0,0:0:0:0:
256,192,88152,1,8,0:0:0:0:
224,128,88272,6,0,L|128:128,1,80,8|0,0:0|0:0,0:0:0:0:
256,192,88512,5,6,1:0:0:0:
256,192,88512,5,6,1:0:0:0:
256,192,88512,5,6,1:0:0:0:
256,192,88512,5,6,1:0:0:0:
256,192,88512,5,6,1:0:0:0:
256,192,88512,5,6,1:0:0:0:
256,192,88512,5,6,1:0:0:0:
256,192,88512,5,6,1:0:0:0:
256,192,88512,5,6,1:0:0:0:
256,192,88512,5,6,1:0:0:0:
256,192,88512,5,6,1:0:0:0:
256,192,88512,5,6,1:0:0:0:
256,192,88512,5,6,1:0:0:0:
256,192,88512,5,6,1:0:0:0:
256,192,88512,5,6,1:0:0:0:
256,192,88512,5,6,1:0:0:0:
256,192,88512,5,6,1:0:0:0:
256,192,88512,5,6,1:0:0:0:
256,192,88512,5,6,1:0:0:0:
256,192,88512,5,6,1:0:0:0:
256,192,88512,5,6,1:0:0:0:
256,192,88512,5,6,1:0:0:0:
256,192,88512,5,6,1:0:0:0:
256,192,88512,5,6,1:0:0:0:
256,192,88512,5,6,1:0:0:0:
256,192,88512,5,6,1:0:0:0:
256,192,88512,5,6,1:0:0:0:
256,192,88512,5,6,1:0:0:0:
256,192,88512,5,6,1:0:0:0:
256,192,88512,5,6,1:0:0:0:
256,192,88512,5,6,1:0:0:0:
256,192,88512,5,6,1:0:0:0:
256,192,88512,5,6,1:0:0:0:
256,192,88512,5,6,1:0:0:0:
256,192,88512,5,6,1:0:0:0:
256,192,88512,5,6,1:0:0:0:
256,192,88512,5,6,1:0:0:0:
256,192,88512,5,6,1:0:0:0:
256,192,88512,5,6,1:0:0:0:
256,192,88512,5,6,1:0:0:0:
256,192,88512,5,6,1:0:0:0:
256,192,88512,5,6,1:0:0:0:
256,192,88512,5,6,1:0:0:0:
256,192,88512,5,6,1:0:0:0:
256,192,88512,5,6,1:0:0:0:
256,192,88512,5,6,1:0:0:0:
256,192,88512,5,6,1:0:0:0:
256,192,88512,5,6,1:0:0:0:
256,192,88512,5,6,1:0:0:0:
256,192,88512,5,6,1:0:0:0:
256,192,88512,5,6,1:0:0:0:
256,192,88512,5,6,1:0:0:0:
256,192,88512,5,6,1:0:0:0:
256,192,88512,5,6,1:0:0:0:
256,192,88512,5,6,1:0:0:0:
256,192,88512,5,6,1:0:0:0:
256,192,88512,5,6,1:0:0:0:
256,192,88512,5,6,1:0:0:0:
256,192,88512,5,6,1:0:0:0:
256,192,88512,5,6,1:0:0:0:
256,192,88512,5,6,1:0:0:0:
256,192,88512,5,6,1:0:0:0:
256,192,88512,5,6,1:0:0:0:
256,192,88512,5,6,1:0:0:0:
256,192,88512,5,6,1:0:0:0:
256,192,88512,5,6,1:0:0:0:
256,192,88512,5,6,1:0:0:0:
256,192,88512,5,6,1:0:0:0:
256,192,88512,5,6,1:0:0:0:
256,192,88512,5,6,1:0:0:0:
256,192,88512,5,6,1:0:0:0:
256,192,88512,5,6,1:0:0:0:
256,192,88512,5,6,1:0:0:0:
256,192,88512,5,6,1:0:0:0:
256,192,88512,5,6,1:0:0:0:
256,192,88512,5,6,1:0:0:0:
256,192,88512,5,6,1:0:0:0:
256,192,88512,5,6,1:0:0:0:
256,192,88512,5,6,1:0:0:0:
256,192,88512,5,6,1:0:0:0:
256,192,88512,5,6,1:0:0:0:
256,192,88512,5,6,1:0:0:0:
256,192,88512,5,6,1:0:0:0:
256,192,88512,5,6,1:0:0:0:
256,192,88512,5,6,1:0:0:0:
256,192,88512,5,6,1:0:0:0:
256,192,88512,5,6,1:0:0:0:
256,192,88512,5,6,1:0:0:0:
256,192,88512,5,6,1:0:0:0:
256,192,88512,5,6,1:0:0:0:
256,192,88512,5,6,1:0:0:0:
256,192,88512,5,6,1:0:0:0:
256,192,88512,5,6,1:0:0:0:
256,192,88512,5,6,1:0:0:0:
256,192,88512,5,6,1:0:0:0:
256,192,88512,5,6,1:0:0:0:
256,192,88512,5,6,1:0:0:0:
256,192,88512,5,6,1:0:0:0:
256,192,88512,5,6,1:0:0:0:
256,192,88512,5,6,1:0:0:0:
256,192,88512,5,6,1:0:0:0:
256,192,88512,5,6,1:0:0:0:
256,192,88512,5,6,1:0:0:0:
256,192,88512,5,6,1:0:0:0:
256,192,88512,5,6,1:0:0:0:
256,192,88512,5,6,1:0:0:0:
256,192,88512,5,6,1:0:0:0:
256,192,88512,5,6,1:0:0:0:
256,192,88512,5,6,1:0:0:0:
256,192,88512,5,6,1:0:0:0:
256,192,88512,5,6,1:0:0:0:
256,192,88512,5,6,1:0:0:0:
256,192,88512,5,6,1:0:0:0:
256,192,88512,5,6,1:0:0:0:
256,192,88512,5,6,1:0:0:0:
256,192,88512,5,6,1:0:0:0:
256,192,88512,5,6,1:0:0:0:
256,192,88512,5,6,1:0:0:0:
256,192,88512,5,6,1:0:0:0:
256,192,88512,5,6,1:0:0:0:
256,192,88512,5,6,1:0:0:0:
256,192,88512,5,6,1:0:0:0:
256,192,88512,5,6,1:0:0:0:
256,192,88512,5,6,1:0:0:0:
256,192,88512,5,6,1:0:0:0:
256,192,88512,5,6,1:0:0:0:
256,192,88512,5,6,1:0:0:0:
256,192,88512,5,6,1:0:0:0:
256,192,88512,5,6,1:0:0:0:
256,192,88512,5,6,1:0:0:0:
256,192,88512,5,6,1:0:0:0:
256,192,88512,5,6,1:0:0:0:
256,192,88512,5,6,1:0:0:0:
256,192,88512,5,6,1:0:0:0:
256,192,88512,5,6,1:0:0:0:
256,192,88512,5,6,1:0:0:0:
256,192,88512,5,6,1:0:0:0:
256,192,88512,5,6,1:0:0:0:
256,192,88512,5,6,1:0:0:0:
256,192,88512,5,6,1:0:0:0:
256,192,88512,5,6,1:0:0:0:
256,192,88512,5,6,1:0:0:0:
256,192,88512,5,6,1:0:0:0:
256,192,88512,5,6,1:0:0:0:
256,192,88512,5,6,1:0:0:0:
256,192,88512,5,6,1:0:0:0:
256,192,88512,5,6,1:0:0:0:
256,192,88512,5,6,1:0:0:0:
256,192,88512,5,6,1:0:0:0:
256,192,88512,5,6,1:0:0:0:
256,192,88512,5,6,1:0:0:0:
256,192,88512,5,6,1:0:0:0:
256,192,88512,5,6,1:0:0:0:
256,192,88512,5,6,1:0:0:0:
256,192,88512,5,6,1:0:0:0:
256,192,88512,5,6,1:0:0:0:
256,192,88512,5,6,1:0:0:0:
256,192,88512,5,6,1:0:0:0:
256,192,88512,5,6,1:0:0:0:
256,192,88512,5,6,1:0:0:0:
128,96,88992,5,8,0:0:0:0:
128,96,89052,1,8,0:0:0:0:
288,96,89172,1,8,0:0:0:0:
288,96,89232,1,8,0:0:0:0:
416,96,89352,1,8,0:0:0:0:
416,96,89472,1,8,0:0:0:0:
512,96,89592,1,8,0:0:0:0:
512,96,89712,1,8,0:0:0:0:
256,192,91632,5,4,1:0:0:0:
0,192,93552,5,2,0:0:0:0:
96,192,94032,5,2,0:0:0:0:
96,192,94032,5,2,0:0:0:0:
192,192,94512,5,2,0:0:0:0:
192,192,94512,5,2,0:0:0:0:
192,192,94512,5,2,0:0:0:0:
192,192,94512,5,2,0:0:0:0:
288,192,94992,5,2,0:0:0:0:
288,192,94992,5,2,0:0:0:0:
288,192,94992,5,2,0:0:0:0:
288,192,94992,5,2,0:0:0:0:
288,192,94992,5,2,0:0:0:0:
288,192,94992,5,2,0:0:0:0:
288,192,94992,5,2,0:0:0:0:
288,192,94992,5,2,0:0:0:0:
384,192,95472,6,2,B|384:32|384:32|384:64|384:64|384:0|384:0|384:96,2,320
384,192,95472,6,2,B|384:32|384:32|384:64|384:64|384:0|384:0|384:96,2,320
384,192,95472,6,2,B|384:32|384:32|384:64|384:64|384:0|384:0|384:96,2,320
384,192,95472,6,2,B|384:32|384:32|384:64|384:64|384:0|384:0|384:96,2,320
384,192,95472,6,2,B|384:32|384:32|384:64|384:64|384:0|384:0|384:96,2,320
384,192,95472,6,2,B|384:32|384:32|384:64|384:64|384:0|384:0|384:96,2,320
384,192,95472,6,2,B|384:32|384:32|384:64|384:64|384:0|384:0|384:96,2,320
384,192,95472,6,2,B|384:32|384:32|384:64|384:64|384:0|384:0|384:96,2,320
480,192,96912,5,2,0:0:0:0:
480,192,96912,5,2,0:0:0:0:
480,192,96912,5,2,0:0:0:0:
480,192,96912,5,2,0:0:0:0:
480,192,96912,5,2,0:0:0:0:
480,192,96912,5,2,0:0:0:0:
480,192,96912,5,2,0:0:0:0:
480,192,96912,5,2,0:0:0:0:
480,192,96912,5,2,0:0:0:0:
480,192,96912,5,2,0:0:0:0:
384,192,97392,6,2,B|384:32|384:32|384:64|384:64|384:0|384:0|384:96,2,320
384,192,97392,6,2,B|384:32|384:32|384:64|384:64|384:0|384:0|384:96,2,320
384,192,97392,6,2,B|384:32|384:32|384:64|384:64|384:0|384:0|384:96,2,320
384,192,97392,6,2,B|384:32|384:32|384:64|384:64|384:0|384:0|384:96,2,320
384,192,97392,6,2,B|384:32|384:32|384:64|384:64|384:0|384:0|384:96,2,320
384,192,97392,6,2,B|384:32|384:32|384:64|384:64|384:0|384:0|384:96,2,320
384,192,97392,6,2,B|384:32|384:32|384:64|384:64|384:0|384:0|384:96,2,320
384,192,97392,6,2,B|384:32|384:32|384:64|384:64|384:0|384:0|384:96,2,320
384,192,97392,6,2,B|384:32|384:32|384:64|384:64|384:0|384:0|384:96,2,320
384,192,97392,6,2,B|384:32|384:32|384:64|384:64|384:0|384:0|384:96,2,320
384,192,97392,6,2,B|384:32|384:32|384:64|384:64|384:0|384:0|384:96,2,320
384,192,97392,6,2,B|384:32|384:32|384:64|384:64|384:0|384:0|384:96,2,320
384,192,97392,6,2,B|384:32|384:32|384:64|384:64|384:0|384:0|384:96,2,320
384,192,97392,6,2,B|384:32|384:32|384:64|384:64|384:0|384:0|384:96,2,320
384,192,97392,6,2,B|384:32|384:32|384:64|384:64|384:0|384:0|384:96,2,320
384,192,97392,6,2,B|384:32|384:32|384:64|384:64|384:0|384:0|384:96,2,320
256,192,98832,5,2,0:0:0:0:
256,192,98832,5,2,0:0:0:0:
256,192,98832,5,2,0:0:0:0:
256,192,98832,5,2,0:0:0:0:
256,192,98832,5,2,0:0:0:0:
256,192,98832,5,2,0:0:0:0:
256,192,98832,5,2,0:0:0:0:
256,192,98832,5,2,0:0:0:0:
256,192,98832,5,2,0:0:0:0:
256,192,98832,5,2,0:0:0:0:
256,192,98832,5,2,0:0:0:0:
256,192,98832,5,2,0:0:0:0:
256,192,98832,5,2,0:0:0:0:
256,192,98832,5,2,0:0:0:0:
256,192,98832,5,2,0:0:0:0:
256,192,98832,5,2,0:0:0:0:
256,192,98832,5,2,0:0:0:0:
256,192,98832,5,2,0:0:0:0:
256,192,98832,5,2,0:0:0:0:
256,192,98832,5,2,0:0:0:0:
384,192,99312,6,2,B|384:32|384:32|384:64|384:64|384:0|384:0|384:96,2,320
384,192,99312,6,2,B|384:32|384:32|384:64|384:64|384:0|384:0|384:96,2,320
384,192,99312,6,2,B|384:32|384:32|384:64|384:64|384:0|384:0|384:96,2,320
384,192,99312,6,2,B|384:32|384:32|384:64|384:64|384:0|384:0|384:96,2,320
384,192,99312,6,2,B|384:32|384:32|384:64|384:64|384:0|384:0|384:96,2,320
384,192,99312,6,2,B|384:32|384:32|384:64|384:64|384:0|384:0|384:96,2,320
384,192,99312,6,2,B|384:32|384:32|384:64|384:64|384:0|384:0|384:96,2,320
384,192,99312,6,2,B|384:32|384:32|384:64|384:64|384:0|384:0|384:96,2,320
384,192,99312,6,2,B|384:32|384:32|384:64|384:64|384:0|384:0|384:96,2,320
384,192,99312,6,2,B|384:32|384:32|384:64|384:64|384:0|384:0|384:96,2,320
384,192,99312,6,2,B|384:32|384:32|384:64|384:64|384:0|384:0|384:96,2,320
384,192,99312,6,2,B|384:32|384:32|384:64|384:64|384:0|384:0|384:96,2,320
384,192,99312,6,2,B|384:32|384:32|384:64|384:64|384:0|384:0|384:96,2,320
384,192,99312,6,2,B|384:32|384:32|384:64|384:64|384:0|384:0|384:96,2,320
384,192,99312,6,2,B|384:32|384:32|384:64|384:64|384:0|384:0|384:96,2,320
384,192,99312,6,2,B|384:32|384:32|384:64|384:64|384:0|384:0|384:96,2,320
384,192,99792,6,2,B|384:32|384:32|384:64|384:64|384:0|384:0|384:96,2,320
384,192,99792,6,2,B|384:32|384:32|384:64|384:64|384:0|384:0|384:96,2,320
384,192,99792,6,2,B|384:32|384:32|384:64|384:64|384:0|384:0|384:96,2,320
384,192,99792,6,2,B|384:32|384:32|384:64|384:64|384:0|384:0|384:96,2,320
384,192,99792,6,2,B|384:32|384:32|384:64|384:64|384:0|384:0|384:96,2,320
384,192,99792,6,2,B|384:32|384:32|384:64|384:64|384:0|384:0|384:96,2,320
384,192,99792,6,2,B|384:32|384:32|384:64|384:64|384:0|384:0|384:96,2,320
384,192,99792,6,2,B|384:32|384:32|384:64|384:64|384:0|384:0|384:96,2,320
384,192,99792,6,2,B|384:32|384:32|384:64|384:64|384:0|384:0|384:96,2,320
384,192,99792,6,2,B|384:32|384:32|384:64|384:64|384:0|384:0|384:96,2,320
384,192,99792,6,2,B|384:32|384:32|384:64|384:64|384:0|384:0|384:96,2,320
384,192,99792,6,2,B|384:32|384:32|384:64|384:64|384:0|384:0|384:96,2,320
384,192,99792,6,2,B|384:32|384:32|384:64|384:64|384:0|384:0|384:96,2,320
384,192,99792,6,2,B|384:32|384:32|384:64|384:64|384:0|384:0|384:96,2,320
384,192,99792,6,2,B|384:32|384:32|384:64|384:64|384:0|384:0|384:96,2,320
384,192,99792,6,2,B|384:32|384:32|384:64|384:64|384:0|384:0|384:96,2,320
256,192,101232,5,4,0:0:0:0:
160,192,108912,5,0,1:0:0:0:
64,192,109032,1,0,1:0:0:0:
352,192,109152,1,0,1:0:0:0:
448,192,109272,1,0,1:0:0:0:
96,192,109392,5,0,1:0:0:0:
0,192,109512,1,0,1:0:0:0:
416,192,109632,1,0,1:0:0:0:
512,192,109752,1,0,1:0:0:0:
160,192,109872,5,0,1:0:0:0:
64,192,109992,1,0,1:0:0:0:
352,192,110112,1,0,1:0:0:0:
448,192,110232,1,0,1:0:0:0:
96,192,110352,5,0,1:0:0:0:
0,192,110472,1,0,1:0:0:0:
416,192,110592,1,0,1:0:0:0:
512,192,110712,1,0,1:0:0:0:
256,192,110832,6,0,B|256:32|256:32|256:256|256:256|256:160|256:160|256:64|256:64,1,560
160,192,111792,5,0,1:0:0:0:
160,192,111792,5,0,1:0:0:0:
64,192,111912,5,0,1:0:0:0:
64,192,111912,5,0,1:0:0:0:
352,192,112032,5,0,1:0:0:0:
352,192,112032,5,0,1:0:0:0:
448,192,112152,5,0,1:0:0:0:
448,192,112152,5,0,1:0:0:0:
96,192,112272,5,0,1:0:0:0:
96,192,112272,5,0,1:0:0:0:
0,192,112392,5,0,1:0:0:0:
0,192,112392,5,0,1:0:0:0:
416,192,112512,5,0,1:0:0:0:
416,192,112512,5,0,1:0:0:0:
512,192,112632,5,0,1:0:0:0:
512,192,112632,5,0,1:0:0:0:
160,192,112752,5,0,1:0:0:0:
160,192,112752,5,0,1:0:0:0:
64,192,112872,5,0,1:0:0:0:
64,192,112872,5,0,1:0:0:0:
352,192,112992,5,0,1:0:0:0:
352,192,112992,5,0,1:0:0:0:
448,192,113112,5,0,1:0:0:0:
448,192,113112,5,0,1:0:0:0:
96,192,113232,5,0,1:0:0:0:
96,192,113232,5,0,1:0:0:0:
0,192,113352,5,0,1:0:0:0:
0,192,113352,5,0,1:0:0:0:
416,192,113472,5,0,1:0:0:0:
416,192,113472,5,0,1:0:0:0:
512,192,113592,5,0,1:0:0:0:
512,192,113592,5,0,1:0:0:0:
160,192,113712,5,0,1:0:0:0:
160,192,113712,5,0,1:0:0:0:
160,192,113712,5,0,1:0:0:0:
160,192,113712,5,0,1:0:0:0:
64,192,113832,5,0,1:0:0:0:
64,192,113832,5,0,1:0:0:0:
64,192,113832,5,0,1:0:0:0:
64,192,113832,5,0,1:0:0:0:
352,192,113952,5,0,1:0:0:0:
352,192,113952,5,0,1:0:0:0:
352,192,113952,5,0,1:0:0:0:
352,192,113952,5,0,1:0:0:0:
448,192,114072,5,0,1:0:0:0:
448,192,114072,5,0,1:0:0:0:
448,192,114072,5,0,1:0:0:0:
448,192,114072,5,0,1:0:0:0:
96,192,114192,5,0,1:0:0:0:
96,192,114192,5,0,1:0:0:0:
96,192,114192,5,0,1:0:0:0:
96,192,114192,5,0,1:0:0:0:
0,192,114312,5,0,1:0:0:0:
0,192,114312,5,0,1:0:0:0:
0,192,114312,5,0,1:0:0:0:
0,192,114312,5,0,1:0:0:0:
416,192,114432,5,0,1:0:0:0:
416,192,114432,5,0,1:0:0:0:
416,192,114432,5,0,1:0:0:0:
416,192,114432,5,0,1:0:0:0:
512,192,114552,5,0,1:0:0:0:
512,192,114552,5,0,1:0:0:0:
512,192,114552,5,0,1:0:0:0:
512,192,114552,5,0,1:0:0:0:
160,192,114672,5,0,1:0:0:0:
160,192,114672,5,0,1:0:0:0:
160,192,114672,5,0,1:0:0:0:
160,192,114672,5,0,1:0:0:0:
64,192,114792,5,0,1:0:0:0:
64,192,114792,5,0,1:0:0:0:
64,192,114792,5,0,1:0:0:0:
64,192,114792,5,0,1:0:0:0:
352,192,114912,5,0,1:0:0:0:
352,192,114912,5,0,1:0:0:0:
352,192,114912,5,0,1:0:0:0:
352,192,114912,5,0,1:0:0:0:
448,192,115032,5,0,1:0:0:0:
448,192,115032,5,0,1:0:0:0:
448,192,115032,5,0,1:0:0:0:
448,192,115032,5,0,1:0:0:0:
96,192,115152,5,0,1:0:0:0:
96,192,115152,5,0,1:0:0:0:
96,192,115152,5,0,1:0:0:0:
96,192,115152,5,0,1:0:0:0:
0,192,115272,5,0,1:0:0:0:
0,192,115272,5,0,1:0:0:0:
0,192,115272,5,0,1:0:0:0:
0,192,115272,5,0,1:0:0:0:
416,192,115392,5,0,1:0:0:0:
416,192,115392,5,0,1:0:0:0:
416,192,115392,5,0,1:0:0:0:
416,192,115392,5,0,1:0:0:0:
512,192,115512,5,0,1:0:0:0:
512,192,115512,5,0,1:0:0:0:
512,192,115512,5,0,1:0:0:0:
512,192,115512,5,0,1:0:0:0:
256,320,115632,6,0,B|256:64|256:64|256:192|256:192|256:32|256:32|256:96,1,560
160,192,116592,5,0,1:0:0:0:
160,192,116592,5,0,1:0:0:0:
160,192,116592,5,0,1:0:0:0:
160,192,116592,5,0,1:0:0:0:
160,192,116592,5,0,1:0:0:0:
160,192,116592,5,0,1:0:0:0:
160,192,116592,5,0,1:0:0:0:
160,192,116592,5,0,1:0:0:0:
64,192,116712,5,0,1:0:0:0:
64,192,116712,5,0,1:0:0:0:
64,192,116712,5,0,1:0:0:0:
64,192,116712,5,0,1:0:0:0:
64,192,116712,5,0,1:0:0:0:
64,192,116712,5,0,1:0:0:0:
64,192,116712,5,0,1:0:0:0:
64,192,116712,5,0,1:0:0:0:
352,192,116832,5,0,1:0:0:0:
352,192,116832,5,0,1:0:0:0:
352,192,116832,5,0,1:0:0:0:
352,192,116832,5,0,1:0:0:0:
352,192,116832,5,0,1:0:0:0:
352,192,116832,5,0,1:0:0:0:
352,192,116832,5,0,1:0:0:0:
352,192,116832,5,0,1:0:0:0:
448,192,116952,5,0,1:0:0:0:
448,192,116952,5,0,1:0:0:0:
448,192,116952,5,0,1:0:0:0:
448,192,116952,5,0,1:0:0:0:
448,192,116952,5,0,1:0:0:0:
448,192,116952,5,0,1:0:0:0:
448,192,116952,5,0,1:0:0:0:
448,192,116952,5,0,1:0:0:0:
96,192,117072,5,0,1:0:0:0:
96,192,117072,5,0,1:0:0:0:
96,192,117072,5,0,1:0:0:0:
96,192,117072,5,0,1:0:0:0:
96,192,117072,5,0,1:0:0:0:
96,192,117072,5,0,1:0:0:0:
96,192,117072,5,0,1:0:0:0:
96,192,117072,5,0,1:0:0:0:
0,192,117192,5,0,1:0:0:0:
0,192,117192,5,0,1:0:0:0:
0,192,117192,5,0,1:0:0:0:
0,192,117192,5,0,1:0:0:0:
0,192,117192,5,0,1:0:0:0:
0,192,117192,5,0,1:0:0:0:
0,192,117192,5,0,1:0:0:0:
0,192,117192,5,0,1:0:0:0:
416,192,117312,5,0,1:0:0:0:
416,192,117312,5,0,1:0:0:0:
416,192,117312,5,0,1:0:0:0:
416,192,117312,5,0,1:0:0:0:
416,192,117312,5,0,1:0:0:0:
416,192,117312,5,0,1:0:0:0:
416,192,117312,5,0,1:0:0:0:
416,192,117312,5,0,1:0:0:0:
512,192,117432,5,0,1:0:0:0:
512,192,117432,5,0,1:0:0:0:
512,192,117432,5,0,1:0:0:0:
512,192,117432,5,0,1:0:0:0:
512,192,117432,5,0,1:0:0:0:
512,192,117432,5,0,1:0:0:0:
512,192,117432,5,0,1:0:0:0:
512,192,117432,5,0,1:0:0:0:
160,192,117552,5,0,1:0:0:0:
160,192,117552,5,0,1:0:0:0:
160,192,117552,5,0,1:0:0:0:
160,192,117552,5,0,1:0:0:0:
160,192,117552,5,0,1:0:0:0:
160,192,117552,5,0,1:0:0:0:
160,192,117552,5,0,1:0:0:0:
160,192,117552,5,0,1:0:0:0:
64,192,117672,5,0,1:0:0:0:
64,192,117672,5,0,1:0:0:0:
64,192,117672,5,0,1:0:0:0:
64,192,117672,5,0,1:0:0:0:
64,192,117672,5,0,1:0:0:0:
64,192,117672,5,0,1:0:0:0:
64,192,117672,5,0,1:0:0:0:
64,192,117672,5,0,1:0:0:0:
352,192,117792,5,0,1:0:0:0:
352,192,117792,5,0,1:0:0:0:
352,192,117792,5,0,1:0:0:0:
352,192,117792,5,0,1:0:0:0:
352,192,117792,5,0,1:0:0:0:
352,192,117792,5,0,1:0:0:0:
352,192,117792,5,0,1:0:0:0:
352,192,117792,5,0,1:0:0:0:
448,192,117912,5,0,1:0:0:0:
448,192,117912,5,0,1:0:0:0:
448,192,117912,5,0,1:0:0:0:
448,192,117912,5,0,1:0:0:0:
448,192,117912,5,0,1:0:0:0:
448,192,117912,5,0,1:0:0:0:
448,192,117912,5,0,1:0:0:0:
448,192,117912,5,0,1:0:0:0:
96,192,118032,5,0,1:0:0:0:
96,192,118032,5,0,1:0:0:0:
96,192,118032,5,0,1:0:0:0:
96,192,118032,5,0,1:0:0:0:
96,192,118032,5,0,1:0:0:0:
96,192,118032,5,0,1:0:0:0:
96,192,118032,5,0,1:0:0:0:
96,192,118032,5,0,1:0:0:0:
0,192,118152,5,0,1:0:0:0:
0,192,118152,5,0,1:0:0:0:
0,192,118152,5,0,1:0:0:0:
0,192,118152,5,0,1:0:0:0:
0,192,118152,5,0,1:0:0:0:
0,192,118152,5,0,1:0:0:0:
0,192,118152,5,0,1:0:0:0:
0,192,118152,5,0,1:0:0:0:
416,192,118272,5,0,1:0:0:0:
416,192,118272,5,0,1:0:0:0:
416,192,118272,5,0,1:0:0:0:
416,192,118272,5,0,1:0:0:0:
416,192,118272,5,0,1:0:0:0:
416,192,118272,5,0,1:0:0:0:
416,192,118272,5,0,1:0:0:0:
416,192,118272,5,0,1:0:0:0:
512,192,118392,5,0,1:0:0:0:
512,192,118392,5,0,1:0:0:0:
512,192,118392,5,0,1:0:0:0:
512,192,118392,5,0,1:0:0:0:
512,192,118392,5,0,1:0:0:0:
512,192,118392,5,0,1:0:0:0:
512,192,118392,5,0,1:0:0:0:
512,192,118392,5,0,1:0:0:0:
256,352,118512,6,0,B|256:32|256:32|256:288,1,560
160,192,119472,5,4,1:0:0:0:
160,192,119472,5,4,1:0:0:0:
160,192,119472,5,4,1:0:0:0:
160,192,119472,5,4,1:0:0:0:
160,192,119472,5,4,1:0:0:0:
160,192,119472,5,4,1:0:0:0:
160,192,119472,5,4,1:0:0:0:
160,192,119472,5,4,1:0:0:0:
160,192,119472,5,0,1:0:0:0:
160,192,119472,5,0,1:0:0:0:
160,192,119472,5,0,1:0:0:0:
160,192,119472,5,0,1:0:0:0:
160,192,119472,5,0,1:0:0:0:
160,192,119472,5,0,1:0:0:0:
160,192,119472,5,0,1:0:0:0:
160,192,119472,5,0,1:0:0:0:
64,192,119592,5,0,1:0:0:0:
64,192,119592,5,0,1:0:0:0:
64,192,119592,5,0,1:0:0:0:
64,192,119592,5,0,1:0:0:0:
64,192,119592,5,0,1:0:0:0:
64,192,119592,5,0,1:0:0:0:
64,192,119592,5,0,1:0:0:0:
64,192,119592,5,0,1:0:0:0:
64,192,119592,5,0,1:0:0:0:
64,192,119592,5,0,1:0:0:0:
64,192,119592,5,0,1:0:0:0:
64,192,119592,5,0,1:0:0:0:
64,192,119592,5,0,1:0:0:0:
64,192,119592,5,0,1:0:0:0:
64,192,119592,5,0,1:0:0:0:
64,192,119592,5,0,1:0:0:0:
352,192,119712,5,0,1:0:0:0:
352,192,119712,5,0,1:0:0:0:
352,192,119712,5,0,1:0:0:0:
352,192,119712,5,0,1:0:0:0:
352,192,119712,5,0,1:0:0:0:
352,192,119712,5,0,1:0:0:0:
352,192,119712,5,0,1:0:0:0:
352,192,119712,5,0,1:0:0:0:
352,192,119712,5,0,1:0:0:0:
352,192,119712,5,0,1:0:0:0:
352,192,119712,5,0,1:0:0:0:
352,192,119712,5,0,1:0:0:0:
352,192,119712,5,0,1:0:0:0:
352,192,119712,5,0,1:0:0:0:
352,192,119712,5,0,1:0:0:0:
352,192,119712,5,0,1:0:0:0:
448,192,119832,5,0,1:0:0:0:
448,192,119832,5,0,1:0:0:0:
448,192,119832,5,0,1:0:0:0:
448,192,119832,5,0,1:0:0:0:
448,192,119832,5,0,1:0:0:0:
448,192,119832,5,0,1:0:0:0:
448,192,119832,5,0,1:0:0:0:
448,192,119832,5,0,1:0:0:0:
448,192,119832,5,0,1:0:0:0:
448,192,119832,5,0,1:0:0:0:
448,192,119832,5,0,1:0:0:0:
448,192,119832,5,0,1:0:0:0:
448,192,119832,5,0,1:0:0:0:
448,192,119832,5,0,1:0:0:0:
448,192,119832,5,0,1:0:0:0:
448,192,119832,5,0,1:0:0:0:
96,192,119952,5,0,1:0:0:0:
96,192,119952,5,0,1:0:0:0:
96,192,119952,5,0,1:0:0:0:
96,192,119952,5,0,1:0:0:0:
96,192,119952,5,0,1:0:0:0:
96,192,119952,5,0,1:0:0:0:
96,192,119952,5,0,1:0:0:0:
96,192,119952,5,0,1:0:0:0:
96,192,119952,5,0,1:0:0:0:
96,192,119952,5,0,1:0:0:0:
96,192,119952,5,0,1:0:0:0:
96,192,119952,5,0,1:0:0:0:
96,192,119952,5,0,1:0:0:0:
96,192,119952,5,0,1:0:0:0:
96,192,119952,5,0,1:0:0:0:
96,192,119952,5,0,1:0:0:0:
0,192,120072,5,0,1:0:0:0:
0,192,120072,5,0,1:0:0:0:
0,192,120072,5,0,1:0:0:0:
0,192,120072,5,0,1:0:0:0:
0,192,120072,5,0,1:0:0:0:
0,192,120072,5,0,1:0:0:0:
0,192,120072,5,0,1:0:0:0:
0,192,120072,5,0,1:0:0:0:
0,192,120072,5,0,1:0:0:0:
0,192,120072,5,0,1:0:0:0:
0,192,120072,5,0,1:0:0:0:
0,192,120072,5,0,1:0:0:0:
0,192,120072,5,0,1:0:0:0:
0,192,120072,5,0,1:0:0:0:
0,192,120072,5,0,1:0:0:0:
0,192,120072,5,0,1:0:0:0:
416,192,120192,5,0,1:0:0:0:
416,192,120192,5,0,1:0:0:0:
416,192,120192,5,0,1:0:0:0:
416,192,120192,5,0,1:0:0:0:
416,192,120192,5,0,1:0:0:0:
416,192,120192,5,0,1:0:0:0:
416,192,120192,5,0,1:0:0:0:
416,192,120192,5,0,1:0:0:0:
416,192,120192,5,0,1:0:0:0:
416,192,120192,5,0,1:0:0:0:
416,192,120192,5,0,1:0:0:0:
416,192,120192,5,0,1:0:0:0:
416,192,120192,5,0,1:0:0:0:
416,192,120192,5,0,1:0:0:0:
416,192,120192,5,0,1:0:0:0:
416,192,120192,5,0,1:0:0:0:
512,192,120312,5,0,1:0:0:0:
512,192,120312,5,0,1:0:0:0:
512,192,120312,5,0,1:0:0:0:
512,192,120312,5,0,1:0:0:0:
512,192,120312,5,0,1:0:0:0:
512,192,120312,5,0,1:0:0:0:
512,192,120312,5,0,1:0:0:0:
512,192,120312,5,0,1:0:0:0:
512,192,120312,5,0,1:0:0:0:
512,192,120312,5,0,1:0:0:0:
512,192,120312,5,0,1:0:0:0:
512,192,120312,5,0,1:0:0:0:
512,192,120312,5,0,1:0:0:0:
512,192,120312,5,0,1:0:0:0:
512,192,120312,5,0,1:0:0:0:
512,192,120312,5,0,1:0:0:0:
160,192,120432,5,0,1:0:0:0:
160,192,120432,5,0,1:0:0:0:
160,192,120432,5,0,1:0:0:0:
160,192,120432,5,0,1:0:0:0:
160,192,120432,5,0,1:0:0:0:
160,192,120432,5,0,1:0:0:0:
160,192,120432,5,0,1:0:0:0:
160,192,120432,5,0,1:0:0:0:
160,192,120432,5,0,1:0:0:0:
160,192,120432,5,0,1:0:0:0:
160,192,120432,5,0,1:0:0:0:
160,192,120432,5,0,1:0:0:0:
160,192,120432,5,0,1:0:0:0:
160,192,120432,5,0,1:0:0:0:
160,192,120432,5,0,1:0:0:0:
160,192,120432,5,0,1:0:0:0:
64,192,120552,5,0,1:0:0:0:
64,192,120552,5,0,1:0:0:0:
64,192,120552,5,0,1:0:0:0:
64,192,120552,5,0,1:0:0:0:
64,192,120552,5,0,1:0:0:0:
64,192,120552,5,0,1:0:0:0:
64,192,120552,5,0,1:0:0:0:
64,192,120552,5,0,1:0:0:0:
64,192,120552,5,0,1:0:0:0:
64,192,120552,5,0,1:0:0:0:
64,192,120552,5,0,1:0:0:0:
64,192,120552,5,0,1:0:0:0:
64,192,120552,5,0,1:0:0:0:
64,192,120552,5,0,1:0:0:0:
64,192,120552,5,0,1:0:0:0:
64,192,120552,5,0,1:0:0:0:
352,192,120672,5,0,1:0:0:0:
352,192,120672,5,0,1:0:0:0:
352,192,120672,5,0,1:0:0:0:
352,192,120672,5,0,1:0:0:0:
352,192,120672,5,0,1:0:0:0:
352,192,120672,5,0,1:0:0:0:
352,192,120672,5,0,1:0:0:0:
352,192,120672,5,0,1:0:0:0:
352,192,120672,5,0,1:0:0:0:
352,192,120672,5,0,1:0:0:0:
352,192,120672,5,0,1:0:0:0:
352,192,120672,5,0,1:0:0:0:
352,192,120672,5,0,1:0:0:0:
352,192,120672,5,0,1:0:0:0:
352,192,120672,5,0,1:0:0:0:
352,192,120672,5,0,1:0:0:0:
448,192,120792,5,0,1:0:0:0:
448,192,120792,5,0,1:0:0:0:
448,192,120792,5,0,1:0:0:0:
448,192,120792,5,0,1:0:0:0:
448,192,120792,5,0,1:0:0:0:
448,192,120792,5,0,1:0:0:0:
448,192,120792,5,0,1:0:0:0:
448,192,120792,5,0,1:0:0:0:
448,192,120792,5,0,1:0:0:0:
448,192,120792,5,0,1:0:0:0:
448,192,120792,5,0,1:0:0:0:
448,192,120792,5,0,1:0:0:0:
448,192,120792,5,0,1:0:0:0:
448,192,120792,5,0,1:0:0:0:
448,192,120792,5,0,1:0:0:0:
448,192,120792,5,0,1:0:0:0:
96,192,120912,5,0,1:0:0:0:
96,192,120912,5,0,1:0:0:0:
96,192,120912,5,0,1:0:0:0:
96,192,120912,5,0,1:0:0:0:
96,192,120912,5,0,1:0:0:0:
96,192,120912,5,0,1:0:0:0:
96,192,120912,5,0,1:0:0:0:
96,192,120912,5,0,1:0:0:0:
96,192,120912,5,0,1:0:0:0:
96,192,120912,5,0,1:0:0:0:
96,192,120912,5,0,1:0:0:0:
96,192,120912,5,0,1:0:0:0:
96,192,120912,5,0,1:0:0:0:
96,192,120912,5,0,1:0:0:0:
96,192,120912,5,0,1:0:0:0:
96,192,120912,5,0,1:0:0:0:
0,192,121032,5,0,1:0:0:0:
0,192,121032,5,0,1:0:0:0:
0,192,121032,5,0,1:0:0:0:
0,192,121032,5,0,1:0:0:0:
0,192,121032,5,0,1:0:0:0:
0,192,121032,5,0,1:0:0:0:
0,192,121032,5,0,1:0:0:0:
0,192,121032,5,0,1:0:0:0:
0,192,121032,5,0,1:0:0:0:
0,192,121032,5,0,1:0:0:0:
0,192,121032,5,0,1:0:0:0:
0,192,121032,5,0,1:0:0:0:
0,192,121032,5,0,1:0:0:0:
0,192,121032,5,0,1:0:0:0:
0,192,121032,5,0,1:0:0:0:
0,192,121032,5,0,1:0:0:0:
416,192,121152,5,0,1:0:0:0:
416,192,121152,5,0,1:0:0:0:
416,192,121152,5,0,1:0:0:0:
416,192,121152,5,0,1:0:0:0:
416,192,121152,5,0,1:0:0:0:
416,192,121152,5,0,1:0:0:0:
416,192,121152,5,0,1:0:0:0:
416,192,121152,5,0,1:0:0:0:
416,192,121152,5,0,1:0:0:0:
416,192,121152,5,0,1:0:0:0:
416,192,121152,5,0,1:0:0:0:
416,192,121152,5,0,1:0:0:0:
416,192,121152,5,0,1:0:0:0:
416,192,121152,5,0,1:0:0:0:
416,192,121152,5,0,1:0:0:0:
416,192,121152,5,0,1:0:0:0:
512,192,121272,5,0,1:0:0:0:
512,192,121272,5,0,1:0:0:0:
512,192,121272,5,0,1:0:0:0:
512,192,121272,5,0,1:0:0:0:
512,192,121272,5,0,1:0:0:0:
512,192,121272,5,0,1:0:0:0:
512,192,121272,5,0,1:0:0:0:
512,192,121272,5,0,1:0:0:0:
512,192,121272,5,0,1:0:0:0:
512,192,121272,5,0,1:0:0:0:
512,192,121272,5,0,1:0:0:0:
512,192,121272,5,0,1:0:0:0:
512,192,121272,5,0,1:0:0:0:
512,192,121272,5,0,1:0:0:0:
512,192,121272,5,0,1:0:0:0:
512,192,121272,5,0,1:0:0:0:
160,192,121392,5,0,1:0:0:0:
160,192,121392,5,4,1:0:0:0:
160,192,121392,5,0,1:0:0:0:
160,192,121392,5,0,1:0:0:0:
160,192,121392,5,0,1:0:0:0:
160,192,121392,5,0,1:0:0:0:
160,192,121392,5,0,1:0:0:0:
160,192,121392,5,4,1:0:0:0:
160,192,121392,5,4,1:0:0:0:
160,192,121392,5,0,1:0:0:0:
160,192,121392,5,4,1:0:0:0:
160,192,121392,5,4,1:0:0:0:
160,192,121392,5,4,1:0:0:0:
160,192,121392,5,4,1:0:0:0:
160,192,121392,5,4,1:0:0:0:
160,192,121392,5,0,1:0:0:0:
160,192,121399,5,4,1:0:0:0:
160,192,121399,5,4,1:0:0:0:
160,192,121399,5,4,1:0:0:0:
160,192,121399,5,0,1:0:0:0:
160,192,121399,5,4,1:0:0:0:
160,192,121399,5,0,1:0:0:0:
160,192,121399,5,4,1:0:0:0:
160,192,121399,5,4,1:0:0:0:
160,192,121399,5,0,1:0:0:0:
160,192,121399,5,0,1:0:0:0:
160,192,121399,5,0,1:0:0:0:
160,192,121399,5,4,1:0:0:0:
160,192,121399,5,0,1:0:0:0:
160,192,121399,5,4,1:0:0:0:
160,192,121399,5,0,1:0:0:0:
160,192,121399,5,0,1:0:0:0:
64,192,121512,5,0,1:0:0:0:
64,192,121512,5,0,1:0:0:0:
64,192,121512,5,0,1:0:0:0:
64,192,121512,5,0,1:0:0:0:
64,192,121512,5,0,1:0:0:0:
64,192,121512,5,0,1:0:0:0:
64,192,121512,5,0,1:0:0:0:
64,192,121512,5,0,1:0:0:0:
64,192,121512,5,0,1:0:0:0:
64,192,121512,5,0,1:0:0:0:
64,192,121512,5,0,1:0:0:0:
64,192,121512,5,0,1:0:0:0:
64,192,121512,5,0,1:0:0:0:
64,192,121512,5,0,1:0:0:0:
64,192,121512,5,0,1:0:0:0:
64,192,121512,5,0,1:0:0:0:
64,192,121519,5,0,1:0:0:0:
64,192,121519,5,0,1:0:0:0:
64,192,121519,5,0,1:0:0:0:
64,192,121519,5,0,1:0:0:0:
64,192,121519,5,0,1:0:0:0:
64,192,121519,5,0,1:0:0:0:
64,192,121519,5,0,1:0:0:0:
64,192,121519,5,0,1:0:0:0:
64,192,121519,5,0,1:0:0:0:
64,192,121519,5,0,1:0:0:0:
64,192,121519,5,0,1:0:0:0:
64,192,121519,5,0,1:0:0:0:
64,192,121519,5,0,1:0:0:0:
64,192,121519,5,0,1:0:0:0:
64,192,121519,5,0,1:0:0:0:
64,192,121519,5,0,1:0:0:0:
352,192,121632,5,0,1:0:0:0:
352,192,121632,5,0,1:0:0:0:
352,192,121632,5,0,1:0:0:0:
352,192,121632,5,0,1:0:0:0:
352,192,121632,5,0,1:0:0:0:
352,192,121632,5,0,1:0:0:0:
352,192,121632,5,0,1:0:0:0:
352,192,121632,5,0,1:0:0:0:
352,192,121632,5,0,1:0:0:0:
352,192,121632,5,0,1:0:0:0:
352,192,121632,5,0,1:0:0:0:
352,192,121632,5,0,1:0:0:0:
352,192,121632,5,0,1:0:0:0:
352,192,121632,5,0,1:0:0:0:
352,192,121632,5,0,1:0:0:0:
352,192,121632,5,0,1:0:0:0:
352,192,121639,5,0,1:0:0:0:
352,192,121639,5,0,1:0:0:0:
352,192,121639,5,0,1:0:0:0:
352,192,121639,5,0,1:0:0:0:
352,192,121639,5,0,1:0:0:0:
352,192,121639,5,0,1:0:0:0:
352,192,121639,5,0,1:0:0:0:
352,192,121639,5,0,1:0:0:0:
352,192,121639,5,0,1:0:0:0:
352,192,121639,5,0,1:0:0:0:
352,192,121639,5,0,1:0:0:0:
352,192,121639,5,0,1:0:0:0:
352,192,121639,5,0,1:0:0:0:
352,192,121639,5,0,1:0:0:0:
352,192,121639,5,0,1:0:0:0:
352,192,121639,5,0,1:0:0:0:
448,192,121752,5,0,1:0:0:0:
448,192,121752,5,0,1:0:0:0:
448,192,121752,5,0,1:0:0:0:
448,192,121752,5,0,1:0:0:0:
448,192,121752,5,0,1:0:0:0:
448,192,121752,5,0,1:0:0:0:
448,192,121752,5,0,1:0:0:0:
448,192,121752,5,0,1:0:0:0:
448,192,121752,5,0,1:0:0:0:
448,192,121752,5,0,1:0:0:0:
448,192,121752,5,0,1:0:0:0:
448,192,121752,5,0,1:0:0:0:
448,192,121752,5,0,1:0:0:0:
448,192,121752,5,0,1:0:0:0:
448,192,121752,5,0,1:0:0:0:
448,192,121752,5,0,1:0:0:0:
448,192,121759,5,0,1:0:0:0:
448,192,121759,5,0,1:0:0:0:
448,192,121759,5,0,1:0:0:0:
448,192,121759,5,0,1:0:0:0:
448,192,121759,5,0,1:0:0:0:
448,192,121759,5,0,1:0:0:0:
448,192,121759,5,0,1:0:0:0:
448,192,121759,5,0,1:0:0:0:
448,192,121759,5,0,1:0:0:0:
448,192,121759,5,0,1:0:0:0:
448,192,121759,5,0,1:0:0:0:
448,192,121759,5,0,1:0:0:0:
448,192,121759,5,0,1:0:0:0:
448,192,121759,5,0,1:0:0:0:
448,192,121759,5,0,1:0:0:0:
448,192,121759,5,0,1:0:0:0:
96,192,121872,5,0,1:0:0:0:
96,192,121872,5,0,1:0:0:0:
96,192,121872,5,0,1:0:0:0:
96,192,121872,5,0,1:0:0:0:
96,192,121872,5,0,1:0:0:0:
96,192,121872,5,0,1:0:0:0:
96,192,121872,5,0,1:0:0:0:
96,192,121872,5,0,1:0:0:0:
96,192,121872,5,0,1:0:0:0:
96,192,121872,5,0,1:0:0:0:
96,192,121872,5,0,1:0:0:0:
96,192,121872,5,0,1:0:0:0:
96,192,121872,5,0,1:0:0:0:
96,192,121872,5,0,1:0:0:0:
96,192,121872,5,0,1:0:0:0:
96,192,121872,5,0,1:0:0:0:
96,192,121879,5,0,1:0:0:0:
96,192,121879,5,0,1:0:0:0:
96,192,121879,5,0,1:0:0:0:
96,192,121879,5,0,1:0:0:0:
96,192,121879,5,0,1:0:0:0:
96,192,121879,5,0,1:0:0:0:
96,192,121879,5,0,1:0:0:0:
96,192,121879,5,0,1:0:0:0:
96,192,121879,5,0,1:0:0:0:
96,192,121879,5,0,1:0:0:0:
96,192,121879,5,0,1:0:0:0:
96,192,121879,5,0,1:0:0:0:
96,192,121879,5,0,1:0:0:0:
96,192,121879,5,0,1:0:0:0:
96,192,121879,5,0,1:0:0:0:
96,192,121879,5,0,1:0:0:0:
0,192,121992,5,0,1:0:0:0:
0,192,121992,5,0,1:0:0:0:
0,192,121992,5,0,1:0:0:0:
0,192,121992,5,0,1:0:0:0:
0,192,121992,5,0,1:0:0:0:
0,192,121992,5,0,1:0:0:0:
0,192,121992,5,0,1:0:0:0:
0,192,121992,5,0,1:0:0:0:
0,192,121992,5,0,1:0:0:0:
0,192,121992,5,0,1:0:0:0:
0,192,121992,5,0,1:0:0:0:
0,192,121992,5,0,1:0:0:0:
0,192,121992,5,0,1:0:0:0:
0,192,121992,5,0,1:0:0:0:
0,192,121992,5,0,1:0:0:0:
0,192,121992,5,0,1:0:0:0:
0,192,121999,5,0,1:0:0:0:
0,192,121999,5,0,1:0:0:0:
0,192,121999,5,0,1:0:0:0:
0,192,121999,5,0,1:0:0:0:
0,192,121999,5,0,1:0:0:0:
0,192,121999,5,0,1:0:0:0:
0,192,121999,5,0,1:0:0:0:
0,192,121999,5,0,1:0:0:0:
0,192,121999,5,0,1:0:0:0:
0,192,121999,5,0,1:0:0:0:
0,192,121999,5,0,1:0:0:0:
0,192,121999,5,0,1:0:0:0:
0,192,121999,5,0,1:0:0:0:
0,192,121999,5,0,1:0:0:0:
0,192,121999,5,0,1:0:0:0:
0,192,121999,5,0,1:0:0:0:
416,192,122112,5,0,1:0:0:0:
416,192,122112,5,0,1:0:0:0:
416,192,122112,5,0,1:0:0:0:
416,192,122112,5,0,1:0:0:0:
416,192,122112,5,0,1:0:0:0:
416,192,122112,5,0,1:0:0:0:
416,192,122112,5,0,1:0:0:0:
416,192,122112,5,0,1:0:0:0:
416,192,122112,5,0,1:0:0:0:
416,192,122112,5,0,1:0:0:0:
416,192,122112,5,0,1:0:0:0:
416,192,122112,5,0,1:0:0:0:
416,192,122112,5,0,1:0:0:0:
416,192,122112,5,0,1:0:0:0:
416,192,122112,5,0,1:0:0:0:
416,192,122112,5,0,1:0:0:0:
416,192,122119,5,0,1:0:0:0:
416,192,122119,5,0,1:0:0:0:
416,192,122119,5,0,1:0:0:0:
416,192,122119,5,0,1:0:0:0:
416,192,122119,5,0,1:0:0:0:
416,192,122119,5,0,1:0:0:0:
416,192,122119,5,0,1:0:0:0:
416,192,122119,5,0,1:0:0:0:
416,192,122119,5,0,1:0:0:0:
416,192,122119,5,0,1:0:0:0:
416,192,122119,5,0,1:0:0:0:
416,192,122119,5,0,1:0:0:0:
416,192,122119,5,0,1:0:0:0:
416,192,122119,5,0,1:0:0:0:
416,192,122119,5,0,1:0:0:0:
416,192,122119,5,0,1:0:0:0:
512,192,122232,5,0,1:0:0:0:
512,192,122232,5,0,1:0:0:0:
512,192,122232,5,0,1:0:0:0:
512,192,122232,5,0,1:0:0:0:
512,192,122232,5,0,1:0:0:0:
512,192,122232,5,0,1:0:0:0:
512,192,122232,5,0,1:0:0:0:
512,192,122232,5,0,1:0:0:0:
512,192,122232,5,0,1:0:0:0:
512,192,122232,5,0,1:0:0:0:
512,192,122232,5,0,1:0:0:0:
512,192,122232,5,0,1:0:0:0:
512,192,122232,5,0,1:0:0:0:
512,192,122232,5,0,1:0:0:0:
512,192,122232,5,0,1:0:0:0:
512,192,122232,5,0,1:0:0:0:
512,192,122239,5,0,1:0:0:0:
512,192,122239,5,0,1:0:0:0:
512,192,122239,5,0,1:0:0:0:
512,192,122239,5,0,1:0:0:0:
512,192,122239,5,0,1:0:0:0:
512,192,122239,5,0,1:0:0:0:
512,192,122239,5,0,1:0:0:0:
512,192,122239,5,0,1:0:0:0:
512,192,122239,5,0,1:0:0:0:
512,192,122239,5,0,1:0:0:0:
512,192,122239,5,0,1:0:0:0:
512,192,122239,5,0,1:0:0:0:
512,192,122239,5,0,1:0:0:0:
512,192,122239,5,0,1:0:0:0:
512,192,122239,5,0,1:0:0:0:
512,192,122239,5,0,1:0:0:0:
160,192,122352,5,0,1:0:0:0:
160,192,122352,5,0,1:0:0:0:
160,192,122352,5,0,1:0:0:0:
160,192,122352,5,0,1:0:0:0:
160,192,122352,5,0,1:0:0:0:
160,192,122352,5,0,1:0:0:0:
160,192,122352,5,0,1:0:0:0:
160,192,122352,5,0,1:0:0:0:
160,192,122352,5,0,1:0:0:0:
160,192,122352,5,0,1:0:0:0:
160,192,122352,5,0,1:0:0:0:
160,192,122352,5,0,1:0:0:0:
160,192,122352,5,0,1:0:0:0:
160,192,122352,5,0,1:0:0:0:
160,192,122352,5,0,1:0:0:0:
160,192,122352,5,0,1:0:0:0:
160,192,122359,5,0,1:0:0:0:
160,192,122359,5,0,1:0:0:0:
160,192,122359,5,0,1:0:0:0:
160,192,122359,5,0,1:0:0:0:
160,192,122359,5,0,1:0:0:0:
160,192,122359,5,0,1:0:0:0:
160,192,122359,5,0,1:0:0:0:
160,192,122359,5,0,1:0:0:0:
160,192,122359,5,0,1:0:0:0:
160,192,122359,5,0,1:0:0:0:
160,192,122359,5,0,1:0:0:0:
160,192,122359,5,0,1:0:0:0:
160,192,122359,5,0,1:0:0:0:
160,192,122359,5,0,1:0:0:0:
160,192,122359,5,0,1:0:0:0:
160,192,122359,5,0,1:0:0:0:
64,192,122472,5,0,1:0:0:0:
64,192,122472,5,0,1:0:0:0:
64,192,122472,5,0,1:0:0:0:
64,192,122472,5,0,1:0:0:0:
64,192,122472,5,0,1:0:0:0:
64,192,122472,5,0,1:0:0:0:
64,192,122472,5,0,1:0:0:0:
64,192,122472,5,0,1:0:0:0:
64,192,122472,5,0,1:0:0:0:
64,192,122472,5,0,1:0:0:0:
64,192,122472,5,0,1:0:0:0:
64,192,122472,5,0,1:0:0:0:
64,192,122472,5,0,1:0:0:0:
64,192,122472,5,0,1:0:0:0:
64,192,122472,5,0,1:0:0:0:
64,192,122472,5,0,1:0:0:0:
64,192,122479,5,0,1:0:0:0:
64,192,122479,5,0,1:0:0:0:
64,192,122479,5,0,1:0:0:0:
64,192,122479,5,0,1:0:0:0:
64,192,122479,5,0,1:0:0:0:
64,192,122479,5,0,1:0:0:0:
64,192,122479,5,0,1:0:0:0:
64,192,122479,5,0,1:0:0:0:
64,192,122479,5,0,1:0:0:0:
64,192,122479,5,0,1:0:0:0:
64,192,122479,5,0,1:0:0:0:
64,192,122479,5,0,1:0:0:0:
64,192,122479,5,0,1:0:0:0:
64,192,122479,5,0,1:0:0:0:
64,192,122479,5,0,1:0:0:0:
64,192,122479,5,0,1:0:0:0:
352,192,122592,5,0,1:0:0:0:
352,192,122592,5,0,1:0:0:0:
352,192,122592,5,0,1:0:0:0:
352,192,122592,5,0,1:0:0:0:
352,192,122592,5,0,1:0:0:0:
352,192,122592,5,0,1:0:0:0:
352,192,122592,5,0,1:0:0:0:
352,192,122592,5,0,1:0:0:0:
352,192,122592,5,0,1:0:0:0:
352,192,122592,5,0,1:0:0:0:
352,192,122592,5,0,1:0:0:0:
352,192,122592,5,0,1:0:0:0:
352,192,122592,5,0,1:0:0:0:
352,192,122592,5,0,1:0:0:0:
352,192,122592,5,0,1:0:0:0:
352,192,122592,5,0,1:0:0:0:
352,192,122599,5,0,1:0:0:0:
352,192,122599,5,0,1:0:0:0:
352,192,122599,5,0,1:0:0:0:
352,192,122599,5,0,1:0:0:0:
352,192,122599,5,0,1:0:0:0:
352,192,122599,5,0,1:0:0:0:
352,192,122599,5,0,1:0:0:0:
352,192,122599,5,0,1:0:0:0:
352,192,122599,5,0,1:0:0:0:
352,192,122599,5,0,1:0:0:0:
352,192,122599,5,0,1:0:0:0:
352,192,122599,5,0,1:0:0:0:
352,192,122599,5,0,1:0:0:0:
352,192,122599,5,0,1:0:0:0:
352,192,122599,5,0,1:0:0:0:
352,192,122599,5,0,1:0:0:0:
448,192,122712,5,0,1:0:0:0:
448,192,122712,5,0,1:0:0:0:
448,192,122712,5,0,1:0:0:0:
448,192,122712,5,0,1:0:0:0:
448,192,122712,5,0,1:0:0:0:
448,192,122712,5,0,1:0:0:0:
448,192,122712,5,0,1:0:0:0:
448,192,122712,5,0,1:0:0:0:
448,192,122712,5,0,1:0:0:0:
448,192,122712,5,0,1:0:0:0:
448,192,122712,5,0,1:0:0:0:
448,192,122712,5,0,1:0:0:0:
448,192,122712,5,0,1:0:0:0:
448,192,122712,5,0,1:0:0:0:
448,192,122712,5,0,1:0:0:0:
448,192,122712,5,0,1:0:0:0:
448,192,122719,5,0,1:0:0:0:
448,192,122719,5,0,1:0:0:0:
448,192,122719,5,0,1:0:0:0:
448,192,122719,5,0,1:0:0:0:
448,192,122719,5,0,1:0:0:0:
448,192,122719,5,0,1:0:0:0:
448,192,122719,5,0,1:0:0:0:
448,192,122719,5,0,1:0:0:0:
448,192,122719,5,0,1:0:0:0:
448,192,122719,5,0,1:0:0:0:
448,192,122719,5,0,1:0:0:0:
448,192,122719,5,0,1:0:0:0:
448,192,122719,5,0,1:0:0:0:
448,192,122719,5,0,1:0:0:0:
448,192,122719,5,0,1:0:0:0:
448,192,122719,5,0,1:0:0:0:
96,192,122832,5,0,1:0:0:0:
96,192,122832,5,0,1:0:0:0:
96,192,122832,5,0,1:0:0:0:
96,192,122832,5,0,1:0:0:0:
96,192,122832,5,0,1:0:0:0:
96,192,122832,5,0,1:0:0:0:
96,192,122832,5,0,1:0:0:0:
96,192,122832,5,0,1:0:0:0:
96,192,122832,5,0,1:0:0:0:
96,192,122832,5,0,1:0:0:0:
96,192,122832,5,0,1:0:0:0:
96,192,122832,5,0,1:0:0:0:
96,192,122832,5,0,1:0:0:0:
96,192,122832,5,0,1:0:0:0:
96,192,122832,5,0,1:0:0:0:
96,192,122832,5,0,1:0:0:0:
96,192,122839,5,0,1:0:0:0:
96,192,122839,5,0,1:0:0:0:
96,192,122839,5,0,1:0:0:0:
96,192,122839,5,0,1:0:0:0:
96,192,122839,5,0,1:0:0:0:
96,192,122839,5,0,1:0:0:0:
96,192,122839,5,0,1:0:0:0:
96,192,122839,5,0,1:0:0:0:
96,192,122839,5,0,1:0:0:0:
96,192,122839,5,0,1:0:0:0:
96,192,122839,5,0,1:0:0:0:
96,192,122839,5,0,1:0:0:0:
96,192,122839,5,0,1:0:0:0:
96,192,122839,5,0,1:0:0:0:
96,192,122839,5,0,1:0:0:0:
96,192,122839,5,0,1:0:0:0:
0,192,122952,5,0,1:0:0:0:
0,192,122952,5,0,1:0:0:0:
0,192,122952,5,0,1:0:0:0:
0,192,122952,5,0,1:0:0:0:
0,192,122952,5,0,1:0:0:0:
0,192,122952,5,0,1:0:0:0:
0,192,122952,5,0,1:0:0:0:
0,192,122952,5,0,1:0:0:0:
0,192,122952,5,0,1:0:0:0:
0,192,122952,5,0,1:0:0:0:
0,192,122952,5,0,1:0:0:0:
0,192,122952,5,0,1:0:0:0:
0,192,122952,5,0,1:0:0:0:
0,192,122952,5,0,1:0:0:0:
0,192,122952,5,0,1:0:0:0:
0,192,122952,5,0,1:0:0:0:
0,192,122959,5,0,1:0:0:0:
0,192,122959,5,0,1:0:0:0:
0,192,122959,5,0,1:0:0:0:
0,192,122959,5,0,1:0:0:0:
0,192,122959,5,0,1:0:0:0:
0,192,122959,5,0,1:0:0:0:
0,192,122959,5,0,1:0:0:0:
0,192,122959,5,0,1:0:0:0:
0,192,122959,5,0,1:0:0:0:
0,192,122959,5,0,1:0:0:0:
0,192,122959,5,0,1:0:0:0:
0,192,122959,5,0,1:0:0:0:
0,192,122959,5,0,1:0:0:0:
0,192,122959,5,0,1:0:0:0:
0,192,122959,5,0,1:0:0:0:
0,192,122959,5,0,1:0:0:0:
416,192,123072,5,0,1:0:0:0:
416,192,123072,5,0,1:0:0:0:
416,192,123072,5,0,1:0:0:0:
416,192,123072,5,0,1:0:0:0:
416,192,123072,5,0,1:0:0:0:
416,192,123072,5,0,1:0:0:0:
416,192,123072,5,0,1:0:0:0:
416,192,123072,5,0,1:0:0:0:
416,192,123072,5,0,1:0:0:0:
416,192,123072,5,0,1:0:0:0:
416,192,123072,5,0,1:0:0:0:
416,192,123072,5,0,1:0:0:0:
416,192,123072,5,0,1:0:0:0:
416,192,123072,5,0,1:0:0:0:
416,192,123072,5,0,1:0:0:0:
416,192,123072,5,0,1:0:0:0:
416,192,123079,5,0,1:0:0:0:
416,192,123079,5,0,1:0:0:0:
416,192,123079,5,0,1:0:0:0:
416,192,123079,5,0,1:0:0:0:
416,192,123079,5,0,1:0:0:0:
416,192,123079,5,0,1:0:0:0:
416,192,123079,5,0,1:0:0:0:
416,192,123079,5,0,1:0:0:0:
416,192,123079,5,0,1:0:0:0:
416,192,123079,5,0,1:0:0:0:
416,192,123079,5,0,1:0:0:0:
416,192,123079,5,0,1:0:0:0:
416,192,123079,5,0,1:0:0:0:
416,192,123079,5,0,1:0:0:0:
416,192,123079,5,0,1:0:0:0:
416,192,123079,5,0,1:0:0:0:
512,192,123192,5,0,1:0:0:0:
512,192,123192,5,0,1:0:0:0:
512,192,123192,5,0,1:0:0:0:
512,192,123192,5,0,1:0:0:0:
512,192,123192,5,0,1:0:0:0:
512,192,123192,5,0,1:0:0:0:
512,192,123192,5,0,1:0:0:0:
512,192,123192,5,0,1:0:0:0:
512,192,123192,5,0,1:0:0:0:
512,192,123192,5,0,1:0:0:0:
512,192,123192,5,0,1:0:0:0:
512,192,123192,5,0,1:0:0:0:
512,192,123192,5,0,1:0:0:0:
512,192,123192,5,0,1:0:0:0:
512,192,123192,5,0,1:0:0:0:
512,192,123192,5,0,1:0:0:0:
512,192,123199,5,0,1:0:0:0:
512,192,123199,5,0,1:0:0:0:
512,192,123199,5,0,1:0:0:0:
512,192,123199,5,0,1:0:0:0:
512,192,123199,5,0,1:0:0:0:
512,192,123199,5,0,1:0:0:0:
512,192,123199,5,0,1:0:0:0:
512,192,123199,5,0,1:0:0:0:
512,192,123199,5,0,1:0:0:0:
512,192,123199,5,0,1:0:0:0:
512,192,123199,5,0,1:0:0:0:
512,192,123199,5,0,1:0:0:0:
512,192,123199,5,0,1:0:0:0:
512,192,123199,5,0,1:0:0:0:
512,192,123199,5,0,1:0:0:0:
512,192,123199,5,0,1:0:0:0:
240,320,123312,6,8,L|208:160,1,160
208,160,123552,2,8,L|240:320,1,160
240,320,123792,2,2,B|208:160|208:160|240:32,1,280
240,192,124272,5,0,0:0:0:0:
248,192,124274,5,0,0:0:0:0:
256,192,124276,5,0,0:0:0:0:
248,168,124279,5,0,0:0:0:0:
240,192,124281,5,0,0:0:0:0:
248,192,124283,5,0,0:0:0:0:
256,192,124285,5,0,0:0:0:0:
248,168,124288,5,0,0:0:0:0:
240,192,124291,5,0,0:0:0:0:
248,192,124293,5,0,0:0:0:0:
256,192,124295,5,0,0:0:0:0:
248,168,124298,5,0,0:0:0:0:
240,192,124300,5,0,0:0:0:0:
248,192,124302,5,0,0:0:0:0:
256,192,124304,5,0,0:0:0:0:
248,168,124307,5,0,0:0:0:0:
240,192,124310,5,0,0:0:0:0:
248,192,124312,5,0,0:0:0:0:
256,192,124314,5,0,0:0:0:0:
248,168,124317,5,0,0:0:0:0:
240,192,124319,5,0,0:0:0:0:
248,192,124321,5,0,0:0:0:0:
256,192,124323,5,0,0:0:0:0:
248,168,124326,5,0,0:0:0:0:
240,192,124329,5,0,0:0:0:0:
248,192,124331,5,0,0:0:0:0:
256,192,124333,5,0,0:0:0:0:
248,168,124336,5,0,0:0:0:0:
240,192,124338,5,0,0:0:0:0:
248,192,124340,5,0,0:0:0:0:
256,192,124342,5,0,0:0:0:0:
248,168,124345,5,0,0:0:0:0:
240,192,124348,5,0,0:0:0:0:
248,192,124350,5,0,0:0:0:0:
256,192,124352,5,0,0:0:0:0:
248,168,124355,5,0,0:0:0:0:
240,192,124357,5,0,0:0:0:0:
248,192,124359,5,0,0:0:0:0:
256,192,124361,5,0,0:0:0:0:
248,168,124364,5,0,0:0:0:0:
240,192,124367,5,0,0:0:0:0:
248,192,124369,5,0,0:0:0:0:
256,192,124371,5,0,0:0:0:0:
248,168,124374,5,0,0:0:0:0:
240,192,124376,5,0,0:0:0:0:
248,192,124378,5,0,0:0:0:0:
256,192,124380,5,0,0:0:0:0:
248,168,124383,5,0,0:0:0:0:
240,192,124386,5,0,0:0:0:0:
248,192,124388,5,0,0:0:0:0:
256,192,124390,5,0,0:0:0:0:
248,168,124393,5,0,0:0:0:0:
240,192,124395,5,0,0:0:0:0:
248,192,124397,5,0,0:0:0:0:
256,192,124399,5,0,0:0:0:0:
248,168,124402,5,0,0:0:0:0:
240,192,124405,5,0,0:0:0:0:
248,192,124407,5,0,0:0:0:0:
256,192,124409,5,0,0:0:0:0:
248,168,124412,5,0,0:0:0:0:
240,192,124414,5,0,0:0:0:0:
248,192,124416,5,0,0:0:0:0:
256,192,124418,5,0,0:0:0:0:
248,168,124421,5,0,0:0:0:0:
240,192,124423,5,0,0:0:0:0:
248,192,124425,5,0,0:0:0:0:
256,192,124427,5,0,0:0:0:0:
248,168,124430,5,0,0:0:0:0:
240,192,124432,5,0,0:0:0:0:
248,192,124434,5,0,0:0:0:0:
256,192,124436,5,0,0:0:0:0:
248,168,124439,5,0,0:0:0:0:
240,192,124442,5,0,0:0:0:0:
248,192,124444,5,0,0:0:0:0:
256,192,124446,5,0,0:0:0:0:
248,168,124449,5,0,0:0:0:0:
240,192,124451,5,0,0:0:0:0:
248,192,124453,5,0,0:0:0:0:
256,192,124455,5,0,0:0:0:0:
248,168,124458,5,0,0:0:0:0:
240,192,124461,5,0,0:0:0:0:
248,192,124463,5,0,0:0:0:0:
256,192,124465,5,0,0:0:0:0:
248,168,124468,5,0,0:0:0:0:
240,192,124470,5,0,0:0:0:0:
248,192,124472,5,0,0:0:0:0:
256,192,124474,5,0,0:0:0:0:
248,168,124477,5,0,0:0:0:0:
240,192,124480,5,0,0:0:0:0:
248,192,124482,5,0,0:0:0:0:
256,192,124484,5,0,0:0:0:0:
248,168,124487,5,0,0:0:0:0:
240,192,124489,5,0,0:0:0:0:
248,192,124491,5,0,0:0:0:0:
256,192,124493,5,0,0:0:0:0:
248,168,124496,5,0,0:0:0:0:
240,192,124499,5,0,0:0:0:0:
248,192,124501,5,0,0:0:0:0:
256,192,124503,5,0,0:0:0:0:
248,168,124506,5,0,0:0:0:0:
240,192,124508,5,0,0:0:0:0:
248,192,124510,5,0,0:0:0:0:
256,192,124512,5,0,0:0:0:0:
248,168,124515,5,0,0:0:0:0:
240,192,124518,5,0,0:0:0:0:
248,192,124520,5,0,0:0:0:0:
256,192,124522,5,0,0:0:0:0:
248,168,124525,5,0,0:0:0:0:
240,192,124527,5,0,0:0:0:0:
248,192,124529,5,0,0:0:0:0:
256,192,124531,5,0,0:0:0:0:
248,168,124534,5,0,0:0:0:0:
240,192,124537,5,0,0:0:0:0:
248,192,124539,5,0,0:0:0:0:
256,192,124541,5,0,0:0:0:0:
248,168,124544,5,0,0:0:0:0:
240,192,124546,5,0,0:0:0:0:
248,192,124548,5,0,0:0:0:0:
256,192,124550,5,0,0:0:0:0:
248,168,124553,5,0,0:0:0:0:
240,192,124556,5,0,0:0:0:0:
248,192,124558,5,0,0:0:0:0:
256,192,124560,5,0,0:0:0:0:
248,168,124563,5,0,0:0:0:0:
240,192,124565,5,0,0:0:0:0:
248,192,124567,5,0,0:0:0:0:
256,192,124569,5,0,0:0:0:0:
248,168,124572,5,0,0:0:0:0:
240,192,124574,5,0,0:0:0:0:
248,192,124576,5,0,0:0:0:0:
256,192,124578,5,0,0:0:0:0:
248,168,124581,5,0,0:0:0:0:
240,192,124583,5,0,0:0:0:0:
248,192,124585,5,0,0:0:0:0:
256,192,124587,5,0,0:0:0:0:
248,168,124590,5,0,0:0:0:0:
240,192,124593,5,0,0:0:0:0:
248,192,124595,5,0,0:0:0:0:
256,192,124597,5,0,0:0:0:0:
248,168,124600,5,0,0:0:0:0:
240,192,124602,5,0,0:0:0:0:
248,192,124604,5,0,0:0:0:0:
256,192,124606,5,0,0:0:0:0:
248,168,124609,5,0,0:0:0:0:
240,192,124612,5,0,0:0:0:0:
248,192,124614,5,0,0:0:0:0:
256,192,124616,5,0,0:0:0:0:
248,168,124619,5,0,0:0:0:0:
240,192,124621,5,0,0:0:0:0:
248,192,124623,5,0,0:0:0:0:
256,192,124625,5,0,0:0:0:0:
248,168,124628,5,0,0:0:0:0:
240,192,124631,5,0,0:0:0:0:
248,192,124633,5,0,0:0:0:0:
256,192,124635,5,0,0:0:0:0:
248,168,124638,5,0,0:0:0:0:
240,192,124640,5,0,0:0:0:0:
248,192,124642,5,0,0:0:0:0:
256,192,124644,5,0,0:0:0:0:
248,168,124647,5,0,0:0:0:0:
240,192,124650,5,0,0:0:0:0:
248,192,124652,5,0,0:0:0:0:
256,192,124654,5,0,0:0:0:0:
248,168,124657,5,0,0:0:0:0:
240,192,124659,5,0,0:0:0:0:
248,192,124661,5,0,0:0:0:0:
256,192,124663,5,0,0:0:0:0:
248,168,124666,5,0,0:0:0:0:
240,192,124669,5,0,0:0:0:0:
248,192,124671,5,0,0:0:0:0:
256,192,124673,5,0,0:0:0:0:
248,168,124676,5,0,0:0:0:0:
240,192,124678,5,0,0:0:0:0:
248,192,124680,5,0,0:0:0:0:
256,192,124682,5,0,0:0:0:0:
248,168,124685,5,0,0:0:0:0:
240,192,124688,5,0,0:0:0:0:
248,192,124690,5,0,0:0:0:0:
256,192,124692,5,0,0:0:0:0:
248,168,124695,5,0,0:0:0:0:
240,192,124697,5,0,0:0:0:0:
248,192,124699,5,0,0:0:0:0:
256,192,124701,5,0,0:0:0:0:
248,168,124704,5,0,0:0:0:0:
240,192,124707,5,0,0:0:0:0:
248,192,124709,5,0,0:0:0:0:
256,192,124711,5,0,0:0:0:0:
248,168,124714,5,0,0:0:0:0:
240,192,124716,5,0,0:0:0:0:
248,192,124718,5,0,0:0:0:0:
256,192,124720,5,0,0:0:0:0:
248,168,124723,5,0,0:0:0:0:
240,192,124725,5,0,0:0:0:0:
248,192,124727,5,0,0:0:0:0:
256,192,124729,5,0,0:0:0:0:
248,168,124732,5,0,0:0:0:0:
240,192,124734,5,0,0:0:0:0:
248,192,124736,5,0,0:0:0:0:
256,192,124738,5,0,0:0:0:0:
248,168,124741,5,0,0:0:0:0:
240,192,124744,5,0,0:0:0:0:
248,192,124746,5,0,0:0:0:0:
256,192,124748,5,0,0:0:0:0:
248,168,124751,5,0,0:0:0:0:
240,192,124753,5,0,0:0:0:0:
248,192,124755,5,0,0:0:0:0:
256,192,124757,5,0,0:0:0:0:
248,168,124760,5,0,0:0:0:0:
240,192,124763,5,0,0:0:0:0:
248,192,124765,5,0,0:0:0:0:
256,192,124767,5,0,0:0:0:0:
248,168,124770,5,0,0:0:0:0:
240,192,124772,5,0,0:0:0:0:
248,192,124774,5,0,0:0:0:0:
256,192,124776,5,0,0:0:0:0:
248,168,124779,5,0,0:0:0:0:
240,192,124782,5,0,0:0:0:0:
248,192,124784,5,0,0:0:0:0:
256,192,124786,5,0,0:0:0:0:
248,168,124789,5,0,0:0:0:0:
240,192,124791,5,0,0:0:0:0:
248,192,124793,5,0,0:0:0:0:
256,192,124795,5,0,0:0:0:0:
248,168,124798,5,0,0:0:0:0:
240,192,124801,5,0,0:0:0:0:
248,192,124803,5,0,0:0:0:0:
256,192,124805,5,0,0:0:0:0:
248,168,124808,5,0,0:0:0:0:
240,192,124810,5,0,0:0:0:0:
248,192,124812,5,0,0:0:0:0:
256,192,124814,5,0,0:0:0:0:
248,168,124817,5,0,0:0:0:0:
240,192,124820,5,0,0:0:0:0:
248,192,124822,5,0,0:0:0:0:
256,192,124824,5,0,0:0:0:0:
248,168,124827,5,0,0:0:0:0:
240,192,124829,5,0,0:0:0:0:
248,192,124831,5,0,0:0:0:0:
256,192,124833,5,0,0:0:0:0:
248,168,124836,5,0,0:0:0:0:
240,192,124839,5,0,0:0:0:0:
248,192,124841,5,0,0:0:0:0:
256,192,124843,5,0,0:0:0:0:
248,168,124846,5,0,0:0:0:0:
240,192,124848,5,0,0:0:0:0:
248,192,124850,5,0,0:0:0:0:
256,192,124852,5,0,0:0:0:0:
248,168,124855,5,0,0:0:0:0:
240,192,124858,5,0,0:0:0:0:
248,192,124860,5,0,0:0:0:0:
256,192,124862,5,0,0:0:0:0:
248,168,124865,5,0,0:0:0:0:
240,192,124867,5,0,0:0:0:0:
248,192,124869,5,0,0:0:0:0:
256,192,124871,5,0,0:0:0:0:
248,168,124874,5,0,0:0:0:0:
240,192,124876,5,0,0:0:0:0:
248,192,124878,5,0,0:0:0:0:
256,192,124880,5,0,0:0:0:0:
248,168,124883,5,0,0:0:0:0:
240,192,124885,5,0,0:0:0:0:
248,192,124887,5,0,0:0:0:0:
256,192,124889,5,0,0:0:0:0:
248,168,124892,5,0,0:0:0:0:
240,192,124895,5,0,0:0:0:0:
248,192,124897,5,0,0:0:0:0:
256,192,124899,5,0,0:0:0:0:
248,168,124902,5,0,0:0:0:0:
240,192,124904,5,0,0:0:0:0:
248,192,124906,5,0,0:0:0:0:
256,192,124908,5,0,0:0:0:0:
248,168,124911,5,0,0:0:0:0:
240,192,124914,5,0,0:0:0:0:
248,192,124916,5,0,0:0:0:0:
256,192,124918,5,0,0:0:0:0:
248,168,124921,5,0,0:0:0:0:
240,192,124923,5,0,0:0:0:0:
248,192,124925,5,0,0:0:0:0:
256,192,124927,5,0,0:0:0:0:
248,168,124930,5,0,0:0:0:0:
240,192,124933,5,0,0:0:0:0:
248,192,124935,5,0,0:0:0:0:
256,192,124937,5,0,0:0:0:0:
248,168,124940,5,0,0:0:0:0:
240,192,124942,5,0,0:0:0:0:
248,192,124944,5,0,0:0:0:0:
256,192,124946,5,0,0:0:0:0:
248,168,124949,5,0,0:0:0:0:
240,192,124952,5,0,0:0:0:0:
248,192,124954,5,0,0:0:0:0:
256,192,124956,5,0,0:0:0:0:
248,168,124959,5,0,0:0:0:0:
240,192,124961,5,0,0:0:0:0:
248,192,124963,5,0,0:0:0:0:
256,192,124965,5,0,0:0:0:0:
248,168,124968,5,0,0:0:0:0:
240,192,124971,5,0,0:0:0:0:
248,192,124973,5,0,0:0:0:0:
256,192,124975,5,0,0:0:0:0:
248,168,124978,5,0,0:0:0:0:
240,192,124980,5,0,0:0:0:0:
248,192,124982,5,0,0:0:0:0:
256,192,124984,5,0,0:0:0:0:
248,168,124987,5,0,0:0:0:0:
240,192,124990,5,0,0:0:0:0:
248,192,124992,5,0,0:0:0:0:
256,192,124994,5,0,0:0:0:0:
248,168,124997,5,0,0:0:0:0:
240,192,124999,5,0,0:0:0:0:
248,192,125001,5,0,0:0:0:0:
256,192,125003,5,0,0:0:0:0:
248,168,125006,5,0,0:0:0:0:
240,192,125009,5,0,0:0:0:0:
248,192,125011,5,0,0:0:0:0:
256,192,125013,5,0,0:0:0:0:
248,168,125016,5,0,0:0:0:0:
240,192,125018,5,0,0:0:0:0:
248,192,125020,5,0,0:0:0:0:
256,192,125022,5,0,0:0:0:0:
248,168,125025,5,0,0:0:0:0:
240,192,125027,5,0,0:0:0:0:
248,192,125029,5,0,0:0:0:0:
256,192,125031,5,0,0:0:0:0:
248,168,125034,5,0,0:0:0:0:
240,192,125036,5,0,0:0:0:0:
248,192,125038,5,0,0:0:0:0:
256,192,125040,5,0,0:0:0:0:
248,168,125043,5,0,0:0:0:0:
240,192,125046,5,0,0:0:0:0:
248,192,125048,5,0,0:0:0:0:
256,192,125050,5,0,0:0:0:0:
248,168,125053,5,0,0:0:0:0:
240,192,125055,5,0,0:0:0:0:
248,192,125057,5,0,0:0:0:0:
256,192,125059,5,0,0:0:0:0:
248,168,125062,5,0,0:0:0:0:
240,192,125065,5,0,0:0:0:0:
248,192,125067,5,0,0:0:0:0:
256,192,125069,5,0,0:0:0:0:
248,168,125072,5,0,0:0:0:0:
240,192,125074,5,0,0:0:0:0:
248,192,125076,5,0,0:0:0:0:
256,192,125078,5,0,0:0:0:0:
248,168,125081,5,0,0:0:0:0:
240,192,125084,5,0,0:0:0:0:
248,192,125086,5,0,0:0:0:0:
256,192,125088,5,0,0:0:0:0:
248,168,125091,5,0,0:0:0:0:
240,192,125093,5,0,0:0:0:0:
248,192,125095,5,0,0:0:0:0:
256,192,125097,5,0,0:0:0:0:
248,168,125100,5,0,0:0:0:0:
240,192,125103,5,0,0:0:0:0:
248,192,125105,5,0,0:0:0:0:
256,192,125107,5,0,0:0:0:0:
248,168,125110,5,0,0:0:0:0:
240,192,125112,5,0,0:0:0:0:
248,192,125114,5,0,0:0:0:0:
256,192,125116,5,0,0:0:0:0:
248,168,125119,5,0,0:0:0:0:
240,192,125122,5,0,0:0:0:0:
248,192,125124,5,0,0:0:0:0:
256,192,125126,5,0,0:0:0:0:
248,168,125129,5,0,0:0:0:0:
240,192,125131,5,0,0:0:0:0:
248,192,125133,5,0,0:0:0:0:
256,192,125135,5,0,0:0:0:0:
248,168,125138,5,0,0:0:0:0:
240,192,125141,5,0,0:0:0:0:
248,192,125143,5,0,0:0:0:0:
256,192,125145,5,0,0:0:0:0:
248,168,125148,5,0,0:0:0:0:
240,192,125150,5,0,0:0:0:0:
248,192,125152,5,0,0:0:0:0:
256,192,125154,5,0,0:0:0:0:
248,168,125157,5,0,0:0:0:0:
240,192,125160,5,0,0:0:0:0:
248,192,125162,5,0,0:0:0:0:
256,192,125164,5,0,0:0:0:0:
248,168,125167,5,0,0:0:0:0:
240,192,125169,5,0,0:0:0:0:
248,192,125171,5,0,0:0:0:0:
256,192,125173,5,0,0:0:0:0:
248,168,125176,5,0,0:0:0:0:
240,192,125179,5,0,0:0:0:0:
248,192,125181,5,0,0:0:0:0:
256,192,125183,5,0,0:0:0:0:
248,168,125186,5,0,0:0:0:0:
240,192,125188,5,0,0:0:0:0:
248,192,125190,5,0,0:0:0:0:
256,192,125192,5,0,0:0:0:0:
248,168,125195,5,0,0:0:0:0:
240,192,125198,5,0,0:0:0:0:
248,192,125200,5,0,0:0:0:0:
256,192,125202,5,0,0:0:0:0:
248,168,125205,5,0,0:0:0:0:
240,192,125207,5,0,0:0:0:0:
248,192,125209,5,0,0:0:0:0:
256,192,125211,5,0,0:0:0:0:
248,168,125214,5,0,0:0:0:0:
240,192,125217,5,0,0:0:0:0:
248,192,125219,5,0,0:0:0:0:
256,192,125221,5,0,0:0:0:0:
248,168,125224,5,0,0:0:0:0:
240,192,125226,5,0,0:0:0:0:
248,192,125228,5,0,0:0:0:0:
256,192,125230,5,0,0:0:0:0:
248,168,125233,5,0,0:0:0:0:
240,192,125236,5,0,0:0:0:0:
248,192,125238,5,0,0:0:0:0:
256,192,125240,5,0,0:0:0:0:
248,168,125243,5,0,0:0:0:0:
240,192,125245,5,0,0:0:0:0:
248,192,125247,5,0,0:0:0:0:
256,192,125249,5,0,0:0:0:0:
248,168,125252,5,0,0:0:0:0:
240,192,125255,5,0,0:0:0:0:
248,192,125257,5,0,0:0:0:0:
256,192,125259,5,0,0:0:0:0:
248,168,125262,5,0,0:0:0:0:
240,192,125264,5,0,0:0:0:0:
248,192,125266,5,0,0:0:0:0:
256,192,125268,5,0,0:0:0:0:
248,168,125271,5,0,0:0:0:0:
240,192,125274,5,0,0:0:0:0:
248,192,125276,5,0,0:0:0:0:
256,192,125278,5,0,0:0:0:0:
248,168,125281,5,0,0:0:0:0:
240,192,125283,5,0,0:0:0:0:
248,192,125285,5,0,0:0:0:0:
256,192,125287,5,0,0:0:0:0:
248,168,125290,5,0,0:0:0:0:
240,192,125293,5,0,0:0:0:0:
248,192,125295,5,0,0:0:0:0:
256,192,125297,5,0,0:0:0:0:
248,168,125300,5,0,0:0:0:0:
240,192,125302,5,0,0:0:0:0:
248,192,125304,5,0,0:0:0:0:
256,192,125306,5,0,0:0:0:0:
248,168,125309,5,0,0:0:0:0:
240,192,125312,5,0,0:0:0:0:
248,192,125314,5,0,0:0:0:0:
256,192,125316,5,0,0:0:0:0:
248,168,125319,5,0,0:0:0:0:
240,192,125321,5,0,0:0:0:0:
248,192,125323,5,0,0:0:0:0:
256,192,125325,5,0,0:0:0:0:
248,168,125328,5,0,0:0:0:0:
240,192,125330,5,0,0:0:0:0:
248,192,125332,5,0,0:0:0:0:
256,192,125334,5,0,0:0:0:0:
248,168,125337,5,0,0:0:0:0:
240,192,125339,5,0,0:0:0:0:
248,192,125341,5,0,0:0:0:0:
256,192,125343,5,0,0:0:0:0:
248,168,125346,5,0,0:0:0:0:
240,192,125349,5,0,0:0:0:0:
248,192,125351,5,0,0:0:0:0:
256,192,125353,5,0,0:0:0:0:
248,168,125356,5,0,0:0:0:0:
240,192,125358,5,0,0:0:0:0:
248,192,125360,5,0,0:0:0:0:
256,192,125362,5,0,0:0:0:0:
248,168,125365,5,0,0:0:0:0:
240,192,125368,5,0,0:0:0:0:
248,192,125370,5,0,0:0:0:0:
256,192,125372,5,0,0:0:0:0:
248,168,125375,5,0,0:0:0:0:
240,192,125377,5,0,0:0:0:0:
248,192,125379,5,0,0:0:0:0:
256,192,125381,5,0,0:0:0:0:
248,168,125384,5,0,0:0:0:0:
240,192,125387,5,0,0:0:0:0:
248,192,125389,5,0,0:0:0:0:
256,192,125391,5,0,0:0:0:0:
248,168,125394,5,0,0:0:0:0:
240,192,125396,5,0,0:0:0:0:
248,192,125398,5,0,0:0:0:0:
256,192,125400,5,0,0:0:0:0:
248,168,125403,5,0,0:0:0:0:
240,192,125406,5,0,0:0:0:0:
248,192,125408,5,0,0:0:0:0:
256,192,125410,5,0,0:0:0:0:
248,168,125413,5,0,0:0:0:0:
240,192,125415,5,0,0:0:0:0:
248,192,125417,5,0,0:0:0:0:
256,192,125419,5,0,0:0:0:0:
248,168,125422,5,0,0:0:0:0:
240,192,125425,5,0,0:0:0:0:
248,192,125427,5,0,0:0:0:0:
256,192,125429,5,0,0:0:0:0:
248,168,125432,5,0,0:0:0:0:
240,192,125434,5,0,0:0:0:0:
248,192,125436,5,0,0:0:0:0:
256,192,125438,5,0,0:0:0:0:
248,168,125441,5,0,0:0:0:0:
240,192,125444,5,0,0:0:0:0:
248,192,125446,5,0,0:0:0:0:
256,192,125448,5,0,0:0:0:0:
248,168,125451,5,0,0:0:0:0:
240,192,125453,5,0,0:0:0:0:
248,192,125455,5,0,0:0:0:0:
256,192,125457,5,0,0:0:0:0:
248,168,125460,5,0,0:0:0:0:
240,192,125463,5,0,0:0:0:0:
248,192,125465,5,0,0:0:0:0:
256,192,125467,5,0,0:0:0:0:
248,168,125470,5,0,0:0:0:0:
240,192,125472,5,0,0:0:0:0:
248,192,125474,5,0,0:0:0:0:
256,192,125476,5,0,0:0:0:0:
248,168,125479,5,0,0:0:0:0:
240,192,125481,5,0,0:0:0:0:
248,192,125483,5,0,0:0:0:0:
256,192,125485,5,0,0:0:0:0:
248,168,125488,5,0,0:0:0:0:
240,192,125490,5,0,0:0:0:0:
248,192,125492,5,0,0:0:0:0:
256,192,125494,5,0,0:0:0:0:
248,168,125497,5,0,0:0:0:0:
240,192,125500,5,0,0:0:0:0:
248,192,125502,5,0,0:0:0:0:
256,192,125504,5,0,0:0:0:0:
248,168,125507,5,0,0:0:0:0:
240,192,125509,5,0,0:0:0:0:
248,192,125511,5,0,0:0:0:0:
256,192,125513,5,0,0:0:0:0:
248,168,125516,5,0,0:0:0:0:
240,192,125519,5,0,0:0:0:0:
248,192,125521,5,0,0:0:0:0:
256,192,125523,5,0,0:0:0:0:
248,168,125526,5,0,0:0:0:0:
240,192,125528,5,0,0:0:0:0:
248,192,125530,5,0,0:0:0:0:
256,192,125532,5,0,0:0:0:0:
248,168,125535,5,0,0:0:0:0:
240,192,125538,5,0,0:0:0:0:
248,192,125540,5,0,0:0:0:0:
256,192,125542,5,0,0:0:0:0:
248,168,125545,5,0,0:0:0:0:
240,192,125547,5,0,0:0:0:0:
248,192,125549,5,0,0:0:0:0:
256,192,125551,5,0,0:0:0:0:
248,168,125554,5,0,0:0:0:0:
240,192,125557,5,0,0:0:0:0:
248,192,125559,5,0,0:0:0:0:
256,192,125561,5,0,0:0:0:0:
248,168,125564,5,0,0:0:0:0:
240,192,125566,5,0,0:0:0:0:
248,192,125568,5,0,0:0:0:0:
256,192,125570,5,0,0:0:0:0:
248,168,125573,5,0,0:0:0:0:
240,192,125576,5,0,0:0:0:0:
248,192,125578,5,0,0:0:0:0:
256,192,125580,5,0,0:0:0:0:
248,168,125583,5,0,0:0:0:0:
240,192,125585,5,0,0:0:0:0:
248,192,125587,5,0,0:0:0:0:
256,192,125589,5,0,0:0:0:0:
248,168,125592,5,0,0:0:0:0:
240,192,125595,5,0,0:0:0:0:
248,192,125597,5,0,0:0:0:0:
256,192,125599,5,0,0:0:0:0:
248,168,125602,5,0,0:0:0:0:
240,192,125604,5,0,0:0:0:0:
248,192,125606,5,0,0:0:0:0:
256,192,125608,5,0,0:0:0:0:
248,168,125611,5,0,0:0:0:0:
240,192,125614,5,0,0:0:0:0:
248,192,125616,5,0,0:0:0:0:
256,192,125618,5,0,0:0:0:0:
248,168,125621,5,0,0:0:0:0:
240,192,125623,5,0,0:0:0:0:
248,192,125625,5,0,0:0:0:0:
256,192,125627,5,0,0:0:0:0:
248,168,125630,5,0,0:0:0:0:
240,192,125632,5,0,0:0:0:0:
248,192,125634,5,0,0:0:0:0:
256,192,125636,5,0,0:0:0:0:
248,168,125639,5,0,0:0:0:0:
240,192,125641,5,0,0:0:0:0:
248,192,125643,5,0,0:0:0:0:
256,192,125645,5,0,0:0:0:0:
248,168,125648,5,0,0:0:0:0:
240,192,125651,5,0,0:0:0:0:
248,192,125653,5,0,0:0:0:0:
256,192,125655,5,0,0:0:0:0:
248,168,125658,5,0,0:0:0:0:
240,192,125660,5,0,0:0:0:0:
248,192,125662,5,0,0:0:0:0:
256,192,125664,5,0,0:0:0:0:
248,168,125667,5,0,0:0:0:0:
240,192,125670,5,0,0:0:0:0:
248,192,125672,5,0,0:0:0:0:
256,192,125674,5,0,0:0:0:0:
248,168,125677,5,0,0:0:0:0:
240,192,125679,5,0,0:0:0:0:
248,192,125681,5,0,0:0:0:0:
256,192,125683,5,0,0:0:0:0:
248,168,125686,5,0,0:0:0:0:
240,192,125689,5,0,0:0:0:0:
248,192,125691,5,0,0:0:0:0:
256,192,125693,5,0,0:0:0:0:
248,168,125696,5,0,0:0:0:0:
240,192,125698,5,0,0:0:0:0:
248,192,125700,5,0,0:0:0:0:
256,192,125702,5,0,0:0:0:0:
248,168,125705,5,0,0:0:0:0:
240,192,125708,5,0,0:0:0:0:
248,192,125710,5,0,0:0:0:0:
256,192,125712,5,0,0:0:0:0:
248,168,125715,5,0,0:0:0:0:
240,192,125717,5,0,0:0:0:0:
248,192,125719,5,0,0:0:0:0:
256,192,125721,5,0,0:0:0:0:
248,168,125724,5,0,0:0:0:0:
240,192,125727,5,0,0:0:0:0:
248,192,125729,5,0,0:0:0:0:
256,192,125731,5,0,0:0:0:0:
248,168,125734,5,0,0:0:0:0:
240,192,125736,5,0,0:0:0:0:
248,192,125738,5,0,0:0:0:0:
256,192,125740,5,0,0:0:0:0:
248,168,125743,5,0,0:0:0:0:
240,192,125746,5,0,0:0:0:0:
248,192,125748,5,0,0:0:0:0:
256,192,125750,5,0,0:0:0:0:
248,168,125753,5,0,0:0:0:0:
240,192,125755,5,0,0:0:0:0:
248,192,125757,5,0,0:0:0:0:
256,192,125759,5,0,0:0:0:0:
248,168,125762,5,0,0:0:0:0:
240,192,125765,5,0,0:0:0:0:
248,192,125767,5,0,0:0:0:0:
256,192,125769,5,0,0:0:0:0:
248,168,125772,5,0,0:0:0:0:
240,192,125774,5,0,0:0:0:0:
248,192,125776,5,0,0:0:0:0:
256,192,125778,5,0,0:0:0:0:
248,168,125781,5,0,0:0:0:0:
240,192,125784,5,0,0:0:0:0:
248,192,125786,5,0,0:0:0:0:
256,192,125788,5,0,0:0:0:0:
248,168,125791,5,0,0:0:0:0:
240,192,125793,5,0,0:0:0:0:
248,192,125795,5,0,0:0:0:0:
256,192,125797,5,0,0:0:0:0:
248,168,125800,5,0,0:0:0:0:
240,192,125803,5,0,0:0:0:0:
248,192,125805,5,0,0:0:0:0:
256,192,125807,5,0,0:0:0:0:
248,168,125810,5,0,0:0:0:0:
240,192,125812,5,0,0:0:0:0:
248,192,125814,5,0,0:0:0:0:
256,192,125816,5,0,0:0:0:0:
248,168,125819,5,0,0:0:0:0:
240,192,125822,5,0,0:0:0:0:
248,192,125824,5,0,0:0:0:0:
256,192,125826,5,0,0:0:0:0:
248,168,125829,5,0,0:0:0:0:
240,192,125831,5,0,0:0:0:0:
248,192,125833,5,0,0:0:0:0:
256,192,125835,5,0,0:0:0:0:
248,168,125838,5,0,0:0:0:0:
240,192,125841,5,0,0:0:0:0:
248,192,125843,5,0,0:0:0:0:
256,192,125845,5,0,0:0:0:0:
248,168,125848,5,0,0:0:0:0:
240,192,125850,5,0,0:0:0:0:
248,192,125852,5,0,0:0:0:0:
256,192,125854,5,0,0:0:0:0:
248,168,125857,5,0,0:0:0:0:
240,192,125860,5,0,0:0:0:0:
248,192,125862,5,0,0:0:0:0:
256,192,125864,5,0,0:0:0:0:
248,168,125867,5,0,0:0:0:0:
240,192,125869,5,0,0:0:0:0:
248,192,125871,5,0,0:0:0:0:
256,192,125873,5,0,0:0:0:0:
248,168,125876,5,0,0:0:0:0:
240,192,125879,5,0,0:0:0:0:
248,192,125881,5,0,0:0:0:0:
256,192,125883,5,0,0:0:0:0:
248,168,125886,5,0,0:0:0:0:
240,192,125888,5,0,0:0:0:0:
248,192,125890,5,0,0:0:0:0:
256,192,125892,5,0,0:0:0:0:
248,168,125895,5,0,0:0:0:0:
240,192,125898,5,0,0:0:0:0:
248,192,125900,5,0,0:0:0:0:
256,192,125902,5,0,0:0:0:0:
248,168,125905,5,0,0:0:0:0:
240,192,125907,5,0,0:0:0:0:
248,192,125909,5,0,0:0:0:0:
256,192,125911,5,0,0:0:0:0:
248,168,125914,5,0,0:0:0:0:
240,192,125917,5,0,0:0:0:0:
248,192,125919,5,0,0:0:0:0:
256,192,125921,5,0,0:0:0:0:
248,168,125924,5,0,0:0:0:0:
240,192,125926,5,0,0:0:0:0:
248,192,125928,5,0,0:0:0:0:
256,192,125930,5,0,0:0:0:0:
248,168,125933,5,0,0:0:0:0:
240,192,125935,5,0,0:0:0:0:
248,192,125937,5,0,0:0:0:0:
256,192,125939,5,0,0:0:0:0:
248,168,125942,5,0,0:0:0:0:
240,192,125944,5,0,0:0:0:0:
248,192,125946,5,0,0:0:0:0:
256,192,125948,5,0,0:0:0:0:
248,168,125951,5,0,0:0:0:0:
240,192,125954,5,0,0:0:0:0:
248,192,125956,5,0,0:0:0:0:
256,192,125958,5,0,0:0:0:0:
248,168,125961,5,0,0:0:0:0:
240,192,125963,5,0,0:0:0:0:
248,192,125965,5,0,0:0:0:0:
256,192,125967,5,0,0:0:0:0:
248,168,125970,5,0,0:0:0:0:
240,192,125973,5,0,0:0:0:0:
248,192,125975,5,0,0:0:0:0:
256,192,125977,5,0,0:0:0:0:
248,168,125980,5,0,0:0:0:0:
240,192,125982,5,0,0:0:0:0:
248,192,125984,5,0,0:0:0:0:
256,192,125986,5,0,0:0:0:0:
248,168,125989,5,0,0:0:0:0:
240,192,125992,5,0,0:0:0:0:
248,192,125994,5,0,0:0:0:0:
256,192,125996,5,0,0:0:0:0:
248,168,125999,5,0,0:0:0:0:
240,192,126001,5,0,0:0:0:0:
248,192,126003,5,0,0:0:0:0:
256,192,126005,5,0,0:0:0:0:
248,168,126008,5,0,0:0:0:0:
240,192,126011,5,0,0:0:0:0:
248,192,126013,5,0,0:0:0:0:
256,192,126015,5,0,0:0:0:0:
248,168,126018,5,0,0:0:0:0:
240,192,126020,5,0,0:0:0:0:
248,192,126022,5,0,0:0:0:0:
256,192,126024,5,0,0:0:0:0:
248,168,126027,5,0,0:0:0:0:
240,192,126030,5,0,0:0:0:0:
248,192,126032,5,0,0:0:0:0:
256,192,126034,5,0,0:0:0:0:
248,168,126037,5,0,0:0:0:0:
240,192,126039,5,0,0:0:0:0:
248,192,126041,5,0,0:0:0:0:
256,192,126043,5,0,0:0:0:0:
248,168,126046,5,0,0:0:0:0:
240,192,126049,5,0,0:0:0:0:
248,192,126051,5,0,0:0:0:0:
256,192,126053,5,0,0:0:0:0:
248,168,126056,5,0,0:0:0:0:
240,192,126058,5,0,0:0:0:0:
248,192,126060,5,0,0:0:0:0:
256,192,126062,5,0,0:0:0:0:
248,168,126065,5,0,0:0:0:0:
240,192,126068,5,0,0:0:0:0:
248,192,126070,5,0,0:0:0:0:
256,192,126072,5,0,0:0:0:0:
248,168,126075,5,0,0:0:0:0:
240,192,126077,5,0,0:0:0:0:
248,192,126079,5,0,0:0:0:0:
256,192,126081,5,0,0:0:0:0:
248,168,126084,5,0,0:0:0:0:
240,192,126086,5,0,0:0:0:0:
248,192,126088,5,0,0:0:0:0:
256,192,126090,5,0,0:0:0:0:
248,168,126093,5,0,0:0:0:0:
240,192,126095,5,0,0:0:0:0:
248,192,126097,5,0,0:0:0:0:
256,192,126099,5,0,0:0:0:0:
248,168,126102,5,0,0:0:0:0:
240,192,126105,5,0,0:0:0:0:
248,192,126107,5,0,0:0:0:0:
256,192,126109,5,0,0:0:0:0:
248,168,126112,5,0,0:0:0:0:
240,192,126114,5,0,0:0:0:0:
248,192,126116,5,0,0:0:0:0:
256,192,126118,5,0,0:0:0:0:
248,168,126121,5,0,0:0:0:0:
240,192,126124,5,0,0:0:0:0:
248,192,126126,5,0,0:0:0:0:
256,192,126128,5,0,0:0:0:0:
248,168,126131,5,0,0:0:0:0:
240,192,126133,5,0,0:0:0:0:
248,192,126135,5,0,0:0:0:0:
256,192,126137,5,0,0:0:0:0:
248,168,126140,5,0,0:0:0:0:
240,192,126143,5,0,0:0:0:0:
248,192,126145,5,0,0:0:0:0:
256,192,126147,5,0,0:0:0:0:
248,168,126150,5,0,0:0:0:0:
240,192,126152,5,0,0:0:0:0:
248,192,126154,5,0,0:0:0:0:
256,192,126156,5,0,0:0:0:0:
248,168,126159,5,0,0:0:0:0:
240,192,126162,5,0,0:0:0:0:
248,192,126164,5,0,0:0:0:0:
256,192,126166,5,0,0:0:0:0:
248,168,126169,5,0,0:0:0:0:
240,192,126171,5,0,0:0:0:0:
248,192,126173,5,0,0:0:0:0:
256,192,126175,5,0,0:0:0:0:
248,168,126178,5,0,0:0:0:0:
240,192,126181,5,0,0:0:0:0:
248,192,126183,5,0,0:0:0:0:
256,192,126185,5,0,0:0:0:0:
248,168,126188,5,0,0:0:0:0:
240,192,126190,5,0,0:0:0:0:
248,192,126192,5,0,0:0:0:0:
256,192,126194,5,0,0:0:0:0:
248,168,126197,5,0,0:0:0:0:
240,192,126200,5,0,0:0:0:0:
248,192,126202,5,0,0:0:0:0:
256,192,126204,5,0,0:0:0:0:
248,168,126207,5,0,0:0:0:0:
240,192,126209,5,0,0:0:0:0:
248,192,126211,5,0,0:0:0:0:
256,192,126213,5,0,0:0:0:0:
248,168,126216,5,0,0:0:0:0:
240,192,126219,5,0,0:0:0:0:
248,192,126221,5,0,0:0:0:0:
256,192,126223,5,0,0:0:0:0:
248,168,126226,5,0,0:0:0:0:
240,192,126228,5,0,0:0:0:0:
248,192,126230,5,0,0:0:0:0:
256,192,126232,5,0,0:0:0:0:
248,168,126235,5,0,0:0:0:0:
240,192,126237,5,0,0:0:0:0:
248,192,126239,5,0,0:0:0:0:
256,192,126241,5,0,0:0:0:0:
248,168,126244,5,0,0:0:0:0:
240,192,126246,5,0,0:0:0:0:
248,192,126248,5,0,0:0:0:0:
256,192,126250,5,0,0:0:0:0:
248,168,126253,5,0,0:0:0:0:
240,192,126256,5,0,0:0:0:0:
248,192,126258,5,0,0:0:0:0:
256,192,126260,5,0,0:0:0:0:
248,168,126263,5,0,0:0:0:0:
240,192,126265,5,0,0:0:0:0:
248,192,126267,5,0,0:0:0:0:
256,192,126269,5,0,0:0:0:0:
248,168,126272,5,0,0:0:0:0:
240,192,126275,5,0,0:0:0:0:
248,192,126277,5,0,0:0:0:0:
256,192,126279,5,0,0:0:0:0:
248,168,126282,5,0,0:0:0:0:
240,192,126284,5,0,0:0:0:0:
248,192,126286,5,0,0:0:0:0:
256,192,126288,5,0,0:0:0:0:
248,168,126291,5,0,0:0:0:0:
240,192,126294,5,0,0:0:0:0:
248,192,126296,5,0,0:0:0:0:
256,192,126298,5,0,0:0:0:0:
248,168,126301,5,0,0:0:0:0:
240,192,126303,5,0,0:0:0:0:
248,192,126305,5,0,0:0:0:0:
256,192,126307,5,0,0:0:0:0:
248,168,126310,5,0,0:0:0:0:
240,192,126313,5,0,0:0:0:0:
248,192,126315,5,0,0:0:0:0:
256,192,126317,5,0,0:0:0:0:
248,168,126320,5,0,0:0:0:0:
240,192,126322,5,0,0:0:0:0:
248,192,126324,5,0,0:0:0:0:
256,192,126326,5,0,0:0:0:0:
248,168,126329,5,0,0:0:0:0:
240,192,126332,5,0,0:0:0:0:
248,192,126334,5,0,0:0:0:0:
256,192,126336,5,0,0:0:0:0:
248,168,126339,5,0,0:0:0:0:
240,192,126341,5,0,0:0:0:0:
248,192,126343,5,0,0:0:0:0:
256,192,126345,5,0,0:0:0:0:
248,168,126348,5,0,0:0:0:0:
240,192,126351,5,0,0:0:0:0:
248,192,126353,5,0,0:0:0:0:
256,192,126355,5,0,0:0:0:0:
248,168,126358,5,0,0:0:0:0:
240,192,126360,5,0,0:0:0:0:
248,192,126362,5,0,0:0:0:0:
256,192,126364,5,0,0:0:0:0:
248,168,126367,5,0,0:0:0:0:
240,192,126370,5,0,0:0:0:0:
248,192,126372,5,0,0:0:0:0:
256,192,126374,5,0,0:0:0:0:
248,168,126377,5,0,0:0:0:0:
240,192,126379,5,0,0:0:0:0:
248,192,126381,5,0,0:0:0:0:
256,192,126383,5,0,0:0:0:0:
248,168,126386,5,0,0:0:0:0:
240,192,126388,5,0,0:0:0:0:
248,192,126390,5,0,0:0:0:0:
256,192,126392,5,0,0:0:0:0:
248,168,126395,5,0,0:0:0:0:
240,192,126397,5,0,0:0:0:0:
248,192,126399,5,0,0:0:0:0:
256,192,126401,5,0,0:0:0:0:
248,168,126404,5,0,0:0:0:0:
240,192,126407,5,0,0:0:0:0:
248,192,126409,5,0,0:0:0:0:
256,192,126411,5,0,0:0:0:0:
248,168,126414,5,0,0:0:0:0:
240,192,126416,5,0,0:0:0:0:
248,192,126418,5,0,0:0:0:0:
256,192,126420,5,0,0:0:0:0:
248,168,126423,5,0,0:0:0:0:
240,192,126426,5,0,0:0:0:0:
248,192,126428,5,0,0:0:0:0:
256,192,126430,5,0,0:0:0:0:
248,168,126433,5,0,0:0:0:0:
240,192,126435,5,0,0:0:0:0:
248,192,126437,5,0,0:0:0:0:
256,192,126439,5,0,0:0:0:0:
248,168,126442,5,0,0:0:0:0:
240,192,126445,5,0,0:0:0:0:
248,192,126447,5,0,0:0:0:0:
256,192,126449,5,0,0:0:0:0:
248,168,126452,5,0,0:0:0:0:
240,192,126454,5,0,0:0:0:0:
248,192,126456,5,0,0:0:0:0:
256,192,126458,5,0,0:0:0:0:
248,168,126461,5,0,0:0:0:0:
240,192,126464,5,0,0:0:0:0:
248,192,126466,5,0,0:0:0:0:
256,192,126468,5,0,0:0:0:0:
248,168,126471,5,0,0:0:0:0:
240,192,126473,5,0,0:0:0:0:
248,192,126475,5,0,0:0:0:0:
256,192,126477,5,0,0:0:0:0:
248,168,126480,5,0,0:0:0:0:
240,192,126483,5,0,0:0:0:0:
248,192,126485,5,0,0:0:0:0:
256,192,126487,5,0,0:0:0:0:
248,168,126490,5,0,0:0:0:0:
240,192,126492,5,0,0:0:0:0:
248,192,126494,5,0,0:0:0:0:
256,192,126496,5,0,0:0:0:0:
248,168,126499,5,0,0:0:0:0:
240,192,126502,5,0,0:0:0:0:
248,192,126504,5,0,0:0:0:0:
256,192,126506,5,0,0:0:0:0:
248,168,126509,5,0,0:0:0:0:
240,192,126511,5,0,0:0:0:0:
248,192,126513,5,0,0:0:0:0:
256,192,126515,5,0,0:0:0:0:
248,168,126518,5,0,0:0:0:0:
240,192,126521,5,0,0:0:0:0:
248,192,126523,5,0,0:0:0:0:
256,192,126525,5,0,0:0:0:0:
248,168,126528,5,0,0:0:0:0:
240,192,126530,5,0,0:0:0:0:
248,192,126532,5,0,0:0:0:0:
256,192,126534,5,0,0:0:0:0:
248,168,126537,5,0,0:0:0:0:
240,192,126539,5,0,0:0:0:0:
248,192,126541,5,0,0:0:0:0:
256,192,126543,5,0,0:0:0:0:
248,168,126546,5,0,0:0:0:0:
240,192,126548,5,0,0:0:0:0:
248,192,126550,5,0,0:0:0:0:
256,192,126552,5,0,0:0:0:0:
248,168,126555,5,0,0:0:0:0:
240,192,126558,5,0,0:0:0:0:
248,192,126560,5,0,0:0:0:0:
256,192,126562,5,0,0:0:0:0:
248,168,126565,5,0,0:0:0:0:
240,192,126567,5,0,0:0:0:0:
248,192,126569,5,0,0:0:0:0:
256,192,126571,5,0,0:0:0:0:
248,168,126574,5,0,0:0:0:0:
240,192,126577,5,0,0:0:0:0:
248,192,126579,5,0,0:0:0:0:
256,192,126581,5,0,0:0:0:0:
248,168,126584,5,0,0:0:0:0:
240,192,126586,5,0,0:0:0:0:
248,192,126588,5,0,0:0:0:0:
256,192,126590,5,0,0:0:0:0:
248,168,126593,5,0,0:0:0:0:
240,192,126596,5,0,0:0:0:0:
248,192,126598,5,0,0:0:0:0:
256,192,126600,5,0,0:0:0:0:
248,168,126603,5,0,0:0:0:0:
240,192,126605,5,0,0:0:0:0:
248,192,126607,5,0,0:0:0:0:
256,192,126609,5,0,0:0:0:0:
248,168,126612,5,0,0:0:0:0:
240,192,126615,5,0,0:0:0:0:
248,192,126617,5,0,0:0:0:0:
256,192,126619,5,0,0:0:0:0:
248,168,126622,5,0,0:0:0:0:
240,192,126624,5,0,0:0:0:0:
248,192,126626,5,0,0:0:0:0:
256,192,126628,5,0,0:0:0:0:
248,168,126631,5,0,0:0:0:0:
240,192,126634,5,0,0:0:0:0:
248,192,126636,5,0,0:0:0:0:
256,192,126638,5,0,0:0:0:0:
248,168,126641,5,0,0:0:0:0:
240,192,126643,5,0,0:0:0:0:
248,192,126645,5,0,0:0:0:0:
256,192,126647,5,0,0:0:0:0:
248,168,126650,5,0,0:0:0:0:
240,192,126653,5,0,0:0:0:0:
248,192,126655,5,0,0:0:0:0:
256,192,126657,5,0,0:0:0:0:
248,168,126660,5,0,0:0:0:0:
240,192,126662,5,0,0:0:0:0:
248,192,126664,5,0,0:0:0:0:
256,192,126666,5,0,0:0:0:0:
248,168,126669,5,0,0:0:0:0:
240,192,126672,5,0,0:0:0:0:
248,192,126674,5,0,0:0:0:0:
256,192,126676,5,0,0:0:0:0:
248,168,126679,5,0,0:0:0:0:
240,192,126681,5,0,0:0:0:0:
248,192,126683,5,0,0:0:0:0:
256,192,126685,5,0,0:0:0:0:
248,168,126688,5,0,0:0:0:0:
240,192,126691,5,0,0:0:0:0:
248,192,126693,5,0,0:0:0:0:
256,192,126695,5,0,0:0:0:0:
248,168,126698,5,0,0:0:0:0:
240,192,126700,5,0,0:0:0:0:
248,192,126702,5,0,0:0:0:0:
256,192,126704,5,0,0:0:0:0:
248,168,126707,5,0,0:0:0:0:
240,192,126710,5,0,0:0:0:0:
248,192,126712,5,0,0:0:0:0:
256,192,126714,5,0,0:0:0:0:
248,168,126717,5,0,0:0:0:0:
240,192,126719,5,0,0:0:0:0:
248,192,126721,5,0,0:0:0:0:
256,192,126723,5,0,0:0:0:0:
248,168,126726,5,0,0:0:0:0:
240,192,126729,5,0,0:0:0:0:
248,192,126731,5,0,0:0:0:0:
256,192,126733,5,0,0:0:0:0:
248,168,126736,5,0,0:0:0:0:
240,192,126738,5,0,0:0:0:0:
248,192,126740,5,0,0:0:0:0:
256,192,126742,5,0,0:0:0:0:
248,168,126745,5,0,0:0:0:0:
240,192,126748,5,0,0:0:0:0:
248,192,126750,5,0,0:0:0:0:
256,192,126752,5,0,0:0:0:0:
248,168,126755,5,0,0:0:0:0:
240,192,126757,5,0,0:0:0:0:
248,192,126759,5,0,0:0:0:0:
256,192,126761,5,0,0:0:0:0:
248,168,126764,5,0,0:0:0:0:
240,192,126767,5,0,0:0:0:0:
248,192,126769,5,0,0:0:0:0:
256,192,126771,5,0,0:0:0:0:
248,168,126774,5,0,0:0:0:0:
240,192,126776,5,0,0:0:0:0:
248,192,126778,5,0,0:0:0:0:
256,192,126780,5,0,0:0:0:0:
248,168,126783,5,0,0:0:0:0:
240,192,126786,5,0,0:0:0:0:
248,192,126788,5,0,0:0:0:0:
256,192,126790,5,0,0:0:0:0:
248,168,126793,5,0,0:0:0:0:
240,192,126795,5,0,0:0:0:0:
248,192,126797,5,0,0:0:0:0:
256,192,126799,5,0,0:0:0:0:
248,168,126802,5,0,0:0:0:0:
240,192,126805,5,0,0:0:0:0:
248,192,126807,5,0,0:0:0:0:
256,192,126809,5,0,0:0:0:0:
248,168,126812,5,0,0:0:0:0:
240,192,126814,5,0,0:0:0:0:
248,192,126816,5,0,0:0:0:0:
256,192,126818,5,0,0:0:0:0:
248,168,126821,5,0,0:0:0:0:
240,192,126824,5,0,0:0:0:0:
248,192,126826,5,0,0:0:0:0:
256,192,126828,5,0,0:0:0:0:
248,168,126831,5,0,0:0:0:0:
240,192,126833,5,0,0:0:0:0:
248,192,126835,5,0,0:0:0:0:
256,192,126837,5,0,0:0:0:0:
248,168,126840,5,0,0:0:0:0:
240,192,126842,5,0,0:0:0:0:
248,192,126844,5,0,0:0:0:0:
256,192,126846,5,0,0:0:0:0:
248,168,126849,5,0,0:0:0:0:
240,192,126851,5,0,0:0:0:0:
248,192,126853,5,0,0:0:0:0:
256,192,126855,5,0,0:0:0:0:
248,168,126858,5,0,0:0:0:0:
240,192,126861,5,0,0:0:0:0:
248,192,126863,5,0,0:0:0:0:
256,192,126865,5,0,0:0:0:0:
248,168,126868,5,0,0:0:0:0:
240,192,126870,5,0,0:0:0:0:
248,192,126872,5,0,0:0:0:0:
256,192,126874,5,0,0:0:0:0:
248,168,126877,5,0,0:0:0:0:
240,192,126880,5,0,0:0:0:0:
248,192,126882,5,0,0:0:0:0:
256,192,126884,5,0,0:0:0:0:
248,168,126887,5,0,0:0:0:0:
240,192,126889,5,0,0:0:0:0:
248,192,126891,5,0,0:0:0:0:
256,192,126893,5,0,0:0:0:0:
248,168,126896,5,0,0:0:0:0:
240,192,126899,5,0,0:0:0:0:
248,192,126901,5,0,0:0:0:0:
256,192,126903,5,0,0:0:0:0:
248,168,126906,5,0,0:0:0:0:
240,192,126908,5,0,0:0:0:0:
248,192,126910,5,0,0:0:0:0:
256,192,126912,5,0,0:0:0:0:
248,168,126915,5,0,0:0:0:0:
240,192,126918,5,0,0:0:0:0:
248,192,126920,5,0,0:0:0:0:
256,192,126922,5,0,0:0:0:0:
248,168,126925,5,0,0:0:0:0:
240,192,126927,5,0,0:0:0:0:
248,192,126929,5,0,0:0:0:0:
256,192,126931,5,0,0:0:0:0:
248,168,126934,5,0,0:0:0:0:
240,192,126937,5,0,0:0:0:0:
248,192,126939,5,0,0:0:0:0:
256,192,126941,5,0,0:0:0:0:
248,168,126944,5,0,0:0:0:0:
240,192,126946,5,0,0:0:0:0:
248,192,126948,5,0,0:0:0:0:
256,192,126950,5,0,0:0:0:0:
248,168,126953,5,0,0:0:0:0:
240,192,126956,5,0,0:0:0:0:
248,192,126958,5,0,0:0:0:0:
256,192,126960,5,0,0:0:0:0:
248,168,126963,5,0,0:0:0:0:
240,192,126965,5,0,0:0:0:0:
248,192,126967,5,0,0:0:0:0:
256,192,126969,5,0,0:0:0:0:
248,168,126972,5,0,0:0:0:0:
240,192,126975,5,0,0:0:0:0:
248,192,126977,5,0,0:0:0:0:
256,192,126979,5,0,0:0:0:0:
248,168,126982,5,0,0:0:0:0:
240,192,126984,5,0,0:0:0:0:
248,192,126986,5,0,0:0:0:0:
256,192,126988,5,0,0:0:0:0:
248,168,126991,5,0,0:0:0:0:
240,192,126993,5,0,0:0:0:0:
248,192,126995,5,0,0:0:0:0:
256,192,126997,5,0,0:0:0:0:
248,168,127000,5,0,0:0:0:0:
240,192,127002,5,0,0:0:0:0:
248,192,127004,5,0,0:0:0:0:
256,192,127006,5,0,0:0:0:0:
248,168,127009,5,0,0:0:0:0:
240,192,127012,5,0,0:0:0:0:
248,192,127014,5,0,0:0:0:0:
256,192,127016,5,0,0:0:0:0:
248,168,127019,5,0,0:0:0:0:
240,192,127021,5,0,0:0:0:0:
248,192,127023,5,0,0:0:0:0:
256,192,127025,5,0,0:0:0:0:
248,168,127028,5,0,0:0:0:0:
240,192,127031,5,0,0:0:0:0:
248,192,127033,5,0,0:0:0:0:
256,192,127035,5,0,0:0:0:0:
248,168,127038,5,0,0:0:0:0:
240,192,127040,5,0,0:0:0:0:
248,192,127042,5,0,0:0:0:0:
256,192,127044,5,0,0:0:0:0:
248,168,127047,5,0,0:0:0:0:
240,192,127050,5,0,0:0:0:0:
248,192,127052,5,0,0:0:0:0:
256,192,127054,5,0,0:0:0:0:
248,168,127057,5,0,0:0:0:0:
240,192,127059,5,0,0:0:0:0:
248,192,127061,5,0,0:0:0:0:
256,192,127063,5,0,0:0:0:0:
248,168,127066,5,0,0:0:0:0:
240,192,127069,5,0,0:0:0:0:
248,192,127071,5,0,0:0:0:0:
256,192,127073,5,0,0:0:0:0:
248,168,127076,5,0,0:0:0:0:
240,192,127078,5,0,0:0:0:0:
248,192,127080,5,0,0:0:0:0:
256,192,127082,5,0,0:0:0:0:
248,168,127085,5,0,0:0:0:0:
240,192,127088,5,0,0:0:0:0:
248,192,127090,5,0,0:0:0:0:
256,192,127092,5,0,0:0:0:0:
248,168,127095,5,0,0:0:0:0:
240,192,127097,5,0,0:0:0:0:
248,192,127099,5,0,0:0:0:0:
256,192,127101,5,0,0:0:0:0:
248,168,127104,5,0,0:0:0:0:
240,192,127107,5,0,0:0:0:0:
248,192,127109,5,0,0:0:0:0:
256,192,127111,5,0,0:0:0:0:
248,168,127114,5,0,0:0:0:0:
240,192,127116,5,0,0:0:0:0:
248,192,127118,5,0,0:0:0:0:
256,192,127120,5,0,0:0:0:0:
248,168,127123,5,0,0:0:0:0:
240,192,127126,5,0,0:0:0:0:
248,192,127128,5,0,0:0:0:0:
256,192,127130,5,0,0:0:0:0:
248,168,127133,5,0,0:0:0:0:
240,192,127135,5,0,0:0:0:0:
248,192,127137,5,0,0:0:0:0:
256,192,127139,5,0,0:0:0:0:
248,168,127142,5,0,0:0:0:0:
240,192,127144,5,0,0:0:0:0:
248,192,127146,5,0,0:0:0:0:
256,192,127148,5,0,0:0:0:0:
248,168,127151,5,0,0:0:0:0:
240,192,127153,5,0,0:0:0:0:
248,192,127155,5,0,0:0:0:0:
256,192,127157,5,0,0:0:0:0:
248,168,127160,5,0,0:0:0:0:
240,192,127163,5,0,0:0:0:0:
248,192,127165,5,0,0:0:0:0:
256,192,127167,5,0,0:0:0:0:
248,168,127170,5,0,0:0:0:0:
240,192,127172,5,0,0:0:0:0:
248,192,127174,5,0,0:0:0:0:
256,192,127176,5,0,0:0:0:0:
248,168,127179,5,0,0:0:0:0:
240,192,127182,5,0,0:0:0:0:
248,192,127184,5,0,0:0:0:0:
256,192,127186,5,0,0:0:0:0:
248,168,127189,5,0,0:0:0:0:
240,192,127191,5,0,0:0:0:0:
248,192,127193,5,0,0:0:0:0:
256,192,127195,5,0,0:0:0:0:
248,168,127198,5,0,0:0:0:0:
240,192,127201,5,0,0:0:0:0:
248,192,127203,5,0,0:0:0:0:
256,192,127205,5,0,0:0:0:0:
248,168,127208,5,0,0:0:0:0:
240,192,127210,5,0,0:0:0:0:
248,192,127212,5,0,0:0:0:0:
256,192,127214,5,0,0:0:0:0:
248,168,127217,5,0,0:0:0:0:
240,192,127220,5,0,0:0:0:0:
248,192,127222,5,0,0:0:0:0:
256,192,127224,5,0,0:0:0:0:
248,168,127227,5,0,0:0:0:0:
240,192,127229,5,0,0:0:0:0:
248,192,127231,5,0,0:0:0:0:
256,192,127233,5,0,0:0:0:0:
248,168,127236,5,0,0:0:0:0:
240,192,127239,5,0,0:0:0:0:
248,192,127241,5,0,0:0:0:0:
256,192,127243,5,0,0:0:0:0:
248,168,127246,5,0,0:0:0:0:
240,192,127248,5,0,0:0:0:0:
248,192,127250,5,0,0:0:0:0:
256,192,127252,5,0,0:0:0:0:
248,168,127255,5,0,0:0:0:0:
240,192,127258,5,0,0:0:0:0:
248,192,127260,5,0,0:0:0:0:
256,192,127262,5,0,0:0:0:0:
248,168,127265,5,0,0:0:0:0:
240,192,127267,5,0,0:0:0:0:
248,192,127269,5,0,0:0:0:0:
256,192,127271,5,0,0:0:0:0:
248,168,127274,5,0,0:0:0:0:
240,192,127277,5,0,0:0:0:0:
248,192,127279,5,0,0:0:0:0:
256,192,127281,5,0,0:0:0:0:
248,168,127284,5,0,0:0:0:0:
240,192,127286,5,0,0:0:0:0:
248,192,127288,5,0,0:0:0:0:
256,192,127290,5,0,0:0:0:0:
248,168,127293,5,0,0:0:0:0:
240,192,127296,5,0,0:0:0:0:
248,192,127298,5,0,0:0:0:0:
256,192,127300,5,0,0:0:0:0:
248,168,127303,5,0,0:0:0:0:
240,192,127305,5,0,0:0:0:0:
248,192,127307,5,0,0:0:0:0:
256,192,127309,5,0,0:0:0:0:
248,168,127312,5,0,0:0:0:0:
240,192,127315,5,0,0:0:0:0:
248,192,127317,5,0,0:0:0:0:
256,192,127319,5,0,0:0:0:0:
248,168,127322,5,0,0:0:0:0:
240,192,127324,5,0,0:0:0:0:
248,192,127326,5,0,0:0:0:0:
256,192,127328,5,0,0:0:0:0:
248,168,127331,5,0,0:0:0:0:
240,192,127334,5,0,0:0:0:0:
248,192,127336,5,0,0:0:0:0:
256,192,127338,5,0,0:0:0:0:
248,168,127341,5,0,0:0:0:0:
240,192,127343,5,0,0:0:0:0:
248,192,127345,5,0,0:0:0:0:
256,192,127347,5,0,0:0:0:0:
248,168,127350,5,0,0:0:0:0:
240,192,127353,5,0,0:0:0:0:
248,192,127355,5,0,0:0:0:0:
256,192,127357,5,0,0:0:0:0:
248,168,127360,5,0,0:0:0:0:
240,192,127362,5,0,0:0:0:0:
248,192,127364,5,0,0:0:0:0:
256,192,127366,5,0,0:0:0:0:
248,168,127369,5,0,0:0:0:0:
240,192,127372,5,0,0:0:0:0:
248,192,127374,5,0,0:0:0:0:
256,192,127376,5,0,0:0:0:0:
248,168,127379,5,0,0:0:0:0:
240,192,127381,5,0,0:0:0:0:
248,192,127383,5,0,0:0:0:0:
256,192,127385,5,0,0:0:0:0:
248,168,127388,5,0,0:0:0:0:
240,192,127391,5,0,0:0:0:0:
248,192,127393,5,0,0:0:0:0:
256,192,127395,5,0,0:0:0:0:
248,168,127398,5,0,0:0:0:0:
240,192,127400,5,0,0:0:0:0:
248,192,127402,5,0,0:0:0:0:
256,192,127404,5,0,0:0:0:0:
248,168,127407,5,0,0:0:0:0:
240,192,127410,5,0,0:0:0:0:
248,192,127412,5,0,0:0:0:0:
256,192,127414,5,0,0:0:0:0:
248,168,127417,5,0,0:0:0:0:
240,192,127419,5,0,0:0:0:0:
248,192,127421,5,0,0:0:0:0:
256,192,127423,5,0,0:0:0:0:
248,168,127426,5,0,0:0:0:0:
240,192,127429,5,0,0:0:0:0:
248,192,127431,5,0,0:0:0:0:
256,192,127433,5,0,0:0:0:0:
248,168,127436,5,0,0:0:0:0:
240,192,127438,5,0,0:0:0:0:
248,192,127440,5,0,0:0:0:0:
256,192,127442,5,0,0:0:0:0:
248,168,127445,5,0,0:0:0:0:
240,192,127447,5,0,0:0:0:0:
248,192,127449,5,0,0:0:0:0:
256,192,127451,5,0,0:0:0:0:
248,168,127454,5,0,0:0:0:0:
240,192,127456,5,0,0:0:0:0:
248,192,127458,5,0,0:0:0:0:
256,192,127460,5,0,0:0:0:0:
248,168,127463,5,0,0:0:0:0:
240,192,127466,5,0,0:0:0:0:
248,192,127468,5,0,0:0:0:0:
256,192,127470,5,0,0:0:0:0:
248,168,127473,5,0,0:0:0:0:
240,192,127475,5,0,0:0:0:0:
248,192,127477,5,0,0:0:0:0:
256,192,127479,5,0,0:0:0:0:
248,168,127482,5,0,0:0:0:0:
240,192,127485,5,0,0:0:0:0:
248,192,127487,5,0,0:0:0:0:
256,192,127489,5,0,0:0:0:0:
248,168,127492,5,0,0:0:0:0:
240,192,127494,5,0,0:0:0:0:
248,192,127496,5,0,0:0:0:0:
256,192,127498,5,0,0:0:0:0:
248,168,127501,5,0,0:0:0:0:
240,192,127504,5,0,0:0:0:0:
248,192,127506,5,0,0:0:0:0:
256,192,127508,5,0,0:0:0:0:
248,168,127511,5,0,0:0:0:0:
240,192,127513,5,0,0:0:0:0:
248,192,127515,5,0,0:0:0:0:
256,192,127517,5,0,0:0:0:0:
248,168,127520,5,0,0:0:0:0:
240,192,127523,5,0,0:0:0:0:
248,192,127525,5,0,0:0:0:0:
256,192,127527,5,0,0:0:0:0:
248,168,127530,5,0,0:0:0:0:
240,192,127532,5,0,0:0:0:0:
248,192,127534,5,0,0:0:0:0:
256,192,127536,5,0,0:0:0:0:
248,168,127539,5,0,0:0:0:0:
240,192,127542,5,0,0:0:0:0:
248,192,127544,5,0,0:0:0:0:
256,192,127546,5,0,0:0:0:0:
248,168,127549,5,0,0:0:0:0:
240,192,127551,5,0,0:0:0:0:
248,192,127553,5,0,0:0:0:0:
256,192,127555,5,0,0:0:0:0:
248,168,127558,5,0,0:0:0:0:
240,192,127561,5,0,0:0:0:0:
248,192,127563,5,0,0:0:0:0:
256,192,127565,5,0,0:0:0:0:
248,168,127568,5,0,0:0:0:0:
240,192,127570,5,0,0:0:0:0:
248,192,127572,5,0,0:0:0:0:
256,192,127574,5,0,0:0:0:0:
248,168,127577,5,0,0:0:0:0:
240,192,127580,5,0,0:0:0:0:
248,192,127582,5,0,0:0:0:0:
256,192,127584,5,0,0:0:0:0:
248,168,127587,5,0,0:0:0:0:
240,192,127589,5,0,0:0:0:0:
248,192,127591,5,0,0:0:0:0:
256,192,127593,5,0,0:0:0:0:
248,168,127596,5,0,0:0:0:0:
240,192,127600,5,0,0:0:0:0:
248,192,127602,5,0,0:0:0:0:
256,192,127604,5,0,0:0:0:0:
248,168,127607,5,0,0:0:0:0:
240,192,127609,5,0,0:0:0:0:
248,192,127611,5,0,0:0:0:0:
256,192,127613,5,0,0:0:0:0:
248,168,127616,5,0,0:0:0:0:
240,192,127619,5,0,0:0:0:0:
248,192,127621,5,0,0:0:0:0:
256,192,127623,5,0,0:0:0:0:
248,168,127626,5,0,0:0:0:0:
240,192,127628,5,0,0:0:0:0:
248,192,127630,5,0,0:0:0:0:
256,192,127632,5,0,0:0:0:0:
248,168,127635,5,0,0:0:0:0:
240,192,127638,5,0,0:0:0:0:
248,192,127640,5,0,0:0:0:0:
256,192,127642,5,0,0:0:0:0:
248,168,127645,5,0,0:0:0:0:
240,192,127647,5,0,0:0:0:0:
248,192,127649,5,0,0:0:0:0:
256,192,127651,5,0,0:0:0:0:
248,168,127654,5,0,0:0:0:0:
240,192,127657,5,0,0:0:0:0:
248,192,127659,5,0,0:0:0:0:
256,192,127661,5,0,0:0:0:0:
248,168,127664,5,0,0:0:0:0:
240,192,127666,5,0,0:0:0:0:
248,192,127668,5,0,0:0:0:0:
256,192,127670,5,0,0:0:0:0:
248,168,127673,5,0,0:0:0:0:
240,192,127676,5,0,0:0:0:0:
248,192,127678,5,0,0:0:0:0:
256,192,127680,5,0,0:0:0:0:
248,168,127683,5,0,0:0:0:0:
240,192,127685,5,0,0:0:0:0:
248,192,127687,5,0,0:0:0:0:
256,192,127689,5,0,0:0:0:0:
248,168,127692,5,0,0:0:0:0:
240,192,127695,5,0,0:0:0:0:
248,192,127697,5,0,0:0:0:0:
256,192,127699,5,0,0:0:0:0:
248,168,127702,5,0,0:0:0:0:
240,192,127704,5,0,0:0:0:0:
248,192,127706,5,0,0:0:0:0:
256,192,127708,5,0,0:0:0:0:
248,168,127711,5,0,0:0:0:0:
240,192,127714,5,0,0:0:0:0:
248,192,127716,5,0,0:0:0:0:
256,192,127718,5,0,0:0:0:0:
248,168,127721,5,0,0:0:0:0:
240,192,127723,5,0,0:0:0:0:
248,192,127725,5,0,0:0:0:0:
256,192,127727,5,0,0:0:0:0:
248,168,127730,5,0,0:0:0:0:
240,192,127733,5,0,0:0:0:0:
248,192,127735,5,0,0:0:0:0:
256,192,127737,5,0,0:0:0:0:
248,168,127740,5,0,0:0:0:0:
240,192,127742,5,0,0:0:0:0:
248,192,127744,5,0,0:0:0:0:
256,192,127746,5,0,0:0:0:0:
248,168,127749,5,0,0:0:0:0:
240,192,127751,5,0,0:0:0:0:
248,192,127753,5,0,0:0:0:0:
256,192,127755,5,0,0:0:0:0:
248,168,127758,5,0,0:0:0:0:
240,192,127760,5,0,0:0:0:0:
248,192,127762,5,0,0:0:0:0:
256,192,127764,5,0,0:0:0:0:
248,168,127767,5,0,0:0:0:0:
240,192,127770,5,0,0:0:0:0:
248,192,127772,5,0,0:0:0:0:
256,192,127774,5,0,0:0:0:0:
248,168,127777,5,0,0:0:0:0:
240,192,127779,5,0,0:0:0:0:
248,192,127781,5,0,0:0:0:0:
256,192,127783,5,0,0:0:0:0:
248,168,127786,5,0,0:0:0:0:
240,192,127789,5,0,0:0:0:0:
248,192,127791,5,0,0:0:0:0:
256,192,127793,5,0,0:0:0:0:
248,168,127796,5,0,0:0:0:0:
240,192,127798,5,0,0:0:0:0:
248,192,127800,5,0,0:0:0:0:
256,192,127802,5,0,0:0:0:0:
248,168,127805,5,0,0:0:0:0:
240,192,127808,5,0,0:0:0:0:
248,192,127810,5,0,0:0:0:0:
256,192,127812,5,0,0:0:0:0:
248,168,127815,5,0,0:0:0:0:
240,192,127817,5,0,0:0:0:0:
248,192,127819,5,0,0:0:0:0:
256,192,127821,5,0,0:0:0:0:
248,168,127824,5,0,0:0:0:0:
240,192,127827,5,0,0:0:0:0:
248,192,127829,5,0,0:0:0:0:
256,192,127831,5,0,0:0:0:0:
248,168,127834,5,0,0:0:0:0:
240,192,127836,5,0,0:0:0:0:
248,192,127838,5,0,0:0:0:0:
256,192,127840,5,0,0:0:0:0:
248,168,127843,5,0,0:0:0:0:
240,192,127846,5,0,0:0:0:0:
248,192,127848,5,0,0:0:0:0:
256,192,127850,5,0,0:0:0:0:
248,168,127853,5,0,0:0:0:0:
240,192,127855,5,0,0:0:0:0:
248,192,127857,5,0,0:0:0:0:
256,192,127859,5,0,0:0:0:0:
248,168,127862,5,0,0:0:0:0:
240,192,127865,5,0,0:0:0:0:
248,192,127867,5,0,0:0:0:0:
256,192,127869,5,0,0:0:0:0:
248,168,127872,5,0,0:0:0:0:
240,192,127874,5,0,0:0:0:0:
248,192,127876,5,0,0:0:0:0:
256,192,127878,5,0,0:0:0:0:
248,168,127881,5,0,0:0:0:0:
240,192,127884,5,0,0:0:0:0:
248,192,127886,5,0,0:0:0:0:
256,192,127888,5,0,0:0:0:0:
248,168,127891,5,0,0:0:0:0:
240,192,127893,5,0,0:0:0:0:
248,192,127895,5,0,0:0:0:0:
256,192,127897,5,0,0:0:0:0:
248,168,127900,5,0,0:0:0:0:
240,192,127903,5,0,0:0:0:0:
248,192,127905,5,0,0:0:0:0:
256,192,127907,5,0,0:0:0:0:
248,168,127910,5,0,0:0:0:0:
240,192,127912,5,0,0:0:0:0:
248,192,127914,5,0,0:0:0:0:
256,192,127916,5,0,0:0:0:0:
248,168,127919,5,0,0:0:0:0:
240,192,127922,5,0,0:0:0:0:
248,192,127924,5,0,0:0:0:0:
256,192,127926,5,0,0:0:0:0:
248,168,127929,5,0,0:0:0:0:
240,192,127931,5,0,0:0:0:0:
248,192,127933,5,0,0:0:0:0:
256,192,127935,5,0,0:0:0:0:
248,168,127938,5,0,0:0:0:0:
240,192,127941,5,0,0:0:0:0:
248,192,127943,5,0,0:0:0:0:
256,192,127945,5,0,0:0:0:0:
248,168,127948,5,0,0:0:0:0:
240,192,127950,5,0,0:0:0:0:
248,192,127952,5,0,0:0:0:0:
256,192,127954,5,0,0:0:0:0:
248,168,127957,5,0,0:0:0:0:
240,192,127960,5,0,0:0:0:0:
248,192,127962,5,0,0:0:0:0:
256,192,127964,5,0,0:0:0:0:
248,168,127967,5,0,0:0:0:0:
240,192,127969,5,0,0:0:0:0:
248,192,127971,5,0,0:0:0:0:
256,192,127973,5,0,0:0:0:0:
248,168,127976,5,0,0:0:0:0:
240,192,127979,5,0,0:0:0:0:
248,192,127981,5,0,0:0:0:0:
256,192,127983,5,0,0:0:0:0:
248,168,127986,5,0,0:0:0:0:
240,192,127988,5,0,0:0:0:0:
248,192,127990,5,0,0:0:0:0:
256,192,127992,5,0,0:0:0:0:
248,168,127995,5,0,0:0:0:0:
240,192,127998,5,0,0:0:0:0:
248,192,128000,5,0,0:0:0:0:
256,192,128002,5,0,0:0:0:0:
248,168,128005,5,0,0:0:0:0:
240,192,128007,5,0,0:0:0:0:
248,192,128009,5,0,0:0:0:0:
256,192,128011,5,0,0:0:0:0:
248,168,128014,5,0,0:0:0:0:
240,192,128017,5,0,0:0:0:0:
248,192,128019,5,0,0:0:0:0:
256,192,128021,5,0,0:0:0:0:
248,168,128024,5,0,0:0:0:0:
240,192,128026,5,0,0:0:0:0:
248,192,128028,5,0,0:0:0:0:
256,192,128030,5,0,0:0:0:0:
248,168,128033,5,0,0:0:0:0:
240,192,128036,5,0,0:0:0:0:
248,192,128038,5,0,0:0:0:0:
256,192,128040,5,0,0:0:0:0:
248,168,128043,5,0,0:0:0:0:
240,192,128045,5,0,0:0:0:0:
248,192,128047,5,0,0:0:0:0:
256,192,128049,5,0,0:0:0:0:
248,168,128052,5,0,0:0:0:0:
240,192,128054,5,0,0:0:0:0:
248,192,128056,5,0,0:0:0:0:
256,192,128058,5,0,0:0:0:0:
248,168,128061,5,0,0:0:0:0:
240,192,128063,5,0,0:0:0:0:
248,192,128065,5,0,0:0:0:0:
256,192,128067,5,0,0:0:0:0:
248,168,128070,5,0,0:0:0:0:
240,192,128073,5,0,0:0:0:0:
248,192,128075,5,0,0:0:0:0:
256,192,128077,5,0,0:0:0:0:
248,168,128080,5,0,0:0:0:0:
240,192,128082,5,0,0:0:0:0:
248,192,128084,5,0,0:0:0:0:
256,192,128086,5,0,0:0:0:0:
248,168,128089,5,0,0:0:0:0:
240,192,128092,5,0,0:0:0:0:
248,192,128094,5,0,0:0:0:0:
256,192,128096,5,0,0:0:0:0:
248,168,128099,5,0,0:0:0:0:
240,192,128101,5,0,0:0:0:0:
248,192,128103,5,0,0:0:0:0:
256,192,128105,5,0,0:0:0:0:
248,168,128108,5,0,0:0:0:0:
240,192,128111,5,0,0:0:0:0:
248,192,128113,5,0,0:0:0:0:
256,192,128115,5,0,0:0:0:0:
248,168,128118,5,0,0:0:0:0:
240,192,128120,5,0,0:0:0:0:
248,192,128122,5,0,0:0:0:0:
256,192,128124,5,0,0:0:0:0:
248,168,128127,5,0,0:0:0:0:
240,192,128130,5,0,0:0:0:0:
248,192,128132,5,0,0:0:0:0:
256,192,128134,5,0,0:0:0:0:
248,168,128137,5,0,0:0:0:0:
240,192,128139,5,0,0:0:0:0:
248,192,128141,5,0,0:0:0:0:
256,192,128143,5,0,0:0:0:0:
248,168,128146,5,0,0:0:0:0:
240,192,128149,5,0,0:0:0:0:
248,192,128151,5,0,0:0:0:0:
256,192,128153,5,0,0:0:0:0:
248,168,128156,5,0,0:0:0:0:
240,192,128158,5,0,0:0:0:0:
248,192,128160,5,0,0:0:0:0:
256,192,128162,5,0,0:0:0:0:
248,168,128165,5,0,0:0:0:0:
240,192,128168,5,0,0:0:0:0:
248,192,128170,5,0,0:0:0:0:
256,192,128172,5,0,0:0:0:0:
248,168,128175,5,0,0:0:0:0:
240,192,128177,5,0,0:0:0:0:
248,192,128179,5,0,0:0:0:0:
256,192,128181,5,0,0:0:0:0:
248,168,128184,5,0,0:0:0:0:
240,192,128187,5,0,0:0:0:0:
248,192,128189,5,0,0:0:0:0:
256,192,128191,5,0,0:0:0:0:
248,168,128194,5,0,0:0:0:0:
240,192,128196,5,0,0:0:0:0:
248,192,128198,5,0,0:0:0:0:
256,192,128200,5,0,0:0:0:0:
248,168,128203,5,0,0:0:0:0:
240,192,128205,5,0,0:0:0:0:
248,192,128207,5,0,0:0:0:0:
256,192,128209,5,0,0:0:0:0:
248,168,128212,5,0,0:0:0:0:
240,192,128214,5,0,0:0:0:0:
248,192,128216,5,0,0:0:0:0:
256,192,128218,5,0,0:0:0:0:
248,168,128221,5,0,0:0:0:0:
240,192,128224,5,0,0:0:0:0:
248,192,128226,5,0,0:0:0:0:
256,192,128228,5,0,0:0:0:0:
248,168,128231,5,0,0:0:0:0:
240,192,128233,5,0,0:0:0:0:
248,192,128235,5,0,0:0:0:0:
256,192,128237,5,0,0:0:0:0:
248,168,128240,5,0,0:0:0:0:
240,192,128243,5,0,0:0:0:0:
248,192,128245,5,0,0:0:0:0:
256,192,128247,5,0,0:0:0:0:
248,168,128250,5,0,0:0:0:0:
240,192,128252,5,0,0:0:0:0:
248,192,128254,5,0,0:0:0:0:
256,192,128256,5,0,0:0:0:0:
248,168,128259,5,0,0:0:0:0:
240,192,128262,5,0,0:0:0:0:
248,192,128264,5,0,0:0:0:0:
256,192,128266,5,0,0:0:0:0:
248,168,128269,5,0,0:0:0:0:
240,192,128271,5,0,0:0:0:0:
248,192,128273,5,0,0:0:0:0:
256,192,128275,5,0,0:0:0:0:
248,168,128278,5,0,0:0:0:0:
240,192,128281,5,0,0:0:0:0:
248,192,128283,5,0,0:0:0:0:
256,192,128285,5,0,0:0:0:0:
248,168,128288,5,0,0:0:0:0:
240,192,128290,5,0,0:0:0:0:
248,192,128292,5,0,0:0:0:0:
256,192,128294,5,0,0:0:0:0:
248,168,128297,5,0,0:0:0:0:
240,192,128300,5,0,0:0:0:0:
248,192,128302,5,0,0:0:0:0:
256,192,128304,5,0,0:0:0:0:
248,168,128307,5,0,0:0:0:0:
240,192,128309,5,0,0:0:0:0:
248,192,128311,5,0,0:0:0:0:
256,192,128313,5,0,0:0:0:0:
248,168,128316,5,0,0:0:0:0:
240,192,128319,5,0,0:0:0:0:
248,192,128321,5,0,0:0:0:0:
256,192,128323,5,0,0:0:0:0:
248,168,128326,5,0,0:0:0:0:
240,192,128328,5,0,0:0:0:0:
248,192,128330,5,0,0:0:0:0:
256,192,128332,5,0,0:0:0:0:
248,168,128335,5,0,0:0:0:0:
240,192,128338,5,0,0:0:0:0:
248,192,128340,5,0,0:0:0:0:
256,192,128342,5,0,0:0:0:0:
248,168,128345,5,0,0:0:0:0:
240,192,128347,5,0,0:0:0:0:
248,192,128349,5,0,0:0:0:0:
256,192,128351,5,0,0:0:0:0:
248,168,128354,5,0,0:0:0:0:
240,192,128356,5,0,0:0:0:0:
248,192,128358,5,0,0:0:0:0:
256,192,128360,5,0,0:0:0:0:
248,168,128363,5,0,0:0:0:0:
240,192,128365,5,0,0:0:0:0:
248,192,128367,5,0,0:0:0:0:
256,192,128369,5,0,0:0:0:0:
248,168,128372,5,0,0:0:0:0:
240,192,128375,5,0,0:0:0:0:
248,192,128377,5,0,0:0:0:0:
256,192,128379,5,0,0:0:0:0:
248,168,128382,5,0,0:0:0:0:
240,192,128384,5,0,0:0:0:0:
248,192,128386,5,0,0:0:0:0:
256,192,128388,5,0,0:0:0:0:
248,168,128391,5,0,0:0:0:0:
240,192,128394,5,0,0:0:0:0:
248,192,128396,5,0,0:0:0:0:
256,192,128398,5,0,0:0:0:0:
248,168,128401,5,0,0:0:0:0:
240,192,128403,5,0,0:0:0:0:
248,192,128405,5,0,0:0:0:0:
256,192,128407,5,0,0:0:0:0:
248,168,128410,5,0,0:0:0:0:
240,192,128413,5,0,0:0:0:0:
248,192,128415,5,0,0:0:0:0:
256,192,128417,5,0,0:0:0:0:
248,168,128420,5,0,0:0:0:0:
240,192,128422,5,0,0:0:0:0:
248,192,128424,5,0,0:0:0:0:
256,192,128426,5,0,0:0:0:0:
248,168,128429,5,0,0:0:0:0:
240,192,128432,5,0,0:0:0:0:
248,192,128434,5,0,0:0:0:0:
256,192,128436,5,0,0:0:0:0:
248,168,128439,5,0,0:0:0:0:
240,192,128441,5,0,0:0:0:0:
248,192,128443,5,0,0:0:0:0:
256,192,128445,5,0,0:0:0:0:
248,168,128448,5,0,0:0:0:0:
240,192,128451,5,0,0:0:0:0:
248,192,128453,5,0,0:0:0:0:
256,192,128455,5,0,0:0:0:0:
248,168,128458,5,0,0:0:0:0:
240,192,128460,5,0,0:0:0:0:
248,192,128462,5,0,0:0:0:0:
256,192,128464,5,0,0:0:0:0:
248,168,128467,5,0,0:0:0:0:
240,192,128470,5,0,0:0:0:0:
248,192,128472,5,0,0:0:0:0:
256,192,128474,5,0,0:0:0:0:
248,168,128477,5,0,0:0:0:0:
240,192,128479,5,0,0:0:0:0:
248,192,128481,5,0,0:0:0:0:
256,192,128483,5,0,0:0:0:0:
248,168,128486,5,0,0:0:0:0:
240,192,128489,5,0,0:0:0:0:
248,192,128491,5,0,0:0:0:0:
256,192,128493,5,0,0:0:0:0:
248,168,128496,5,0,0:0:0:0:
240,192,128498,5,0,0:0:0:0:
248,192,128500,5,0,0:0:0:0:
256,192,128502,5,0,0:0:0:0:
248,168,128505,5,0,0:0:0:0:
240,192,128508,5,0,0:0:0:0:
248,192,128510,5,0,0:0:0:0:
256,192,128512,5,0,0:0:0:0:
248,168,128515,5,0,0:0:0:0:
240,192,128517,5,0,0:0:0:0:
248,192,128519,5,0,0:0:0:0:
256,192,128521,5,0,0:0:0:0:
248,168,128524,5,0,0:0:0:0:
240,192,128527,5,0,0:0:0:0:
248,192,128529,5,0,0:0:0:0:
256,192,128531,5,0,0:0:0:0:
248,168,128534,5,0,0:0:0:0:
240,192,128536,5,0,0:0:0:0:
248,192,128538,5,0,0:0:0:0:
256,192,128540,5,0,0:0:0:0:
248,168,128543,5,0,0:0:0:0:
240,192,128546,5,0,0:0:0:0:
248,192,128548,5,0,0:0:0:0:
256,192,128550,5,0,0:0:0:0:
248,168,128553,5,0,0:0:0:0:
240,192,128555,5,0,0:0:0:0:
248,192,128557,5,0,0:0:0:0:
256,192,128559,5,0,0:0:0:0:
248,168,128562,5,0,0:0:0:0:
240,192,128565,5,0,0:0:0:0:
248,192,128567,5,0,0:0:0:0:
256,192,128569,5,0,0:0:0:0:
248,168,128572,5,0,0:0:0:0:
240,192,128574,5,0,0:0:0:0:
248,192,128576,5,0,0:0:0:0:
256,192,128578,5,0,0:0:0:0:
248,168,128581,5,0,0:0:0:0:
240,192,128584,5,0,0:0:0:0:
248,192,128586,5,0,0:0:0:0:
256,192,128588,5,0,0:0:0:0:
248,168,128591,5,0,0:0:0:0:
240,192,128593,5,0,0:0:0:0:
248,192,128595,5,0,0:0:0:0:
256,192,128597,5,0,0:0:0:0:
248,168,128600,5,0,0:0:0:0:
240,192,128603,5,0,0:0:0:0:
248,192,128605,5,0,0:0:0:0:
256,192,128607,5,0,0:0:0:0:
248,168,128610,5,0,0:0:0:0:
240,192,128612,5,0,0:0:0:0:
248,192,128614,5,0,0:0:0:0:
256,192,128616,5,0,0:0:0:0:
248,168,128619,5,0,0:0:0:0:
240,192,128622,5,0,0:0:0:0:
248,192,128624,5,0,0:0:0:0:
256,192,128626,5,0,0:0:0:0:
248,168,128629,5,0,0:0:0:0:
240,192,128631,5,0,0:0:0:0:
248,192,128633,5,0,0:0:0:0:
256,192,128635,5,0,0:0:0:0:
248,168,128638,5,0,0:0:0:0:
240,192,128641,5,0,0:0:0:0:
248,192,128643,5,0,0:0:0:0:
256,192,128645,5,0,0:0:0:0:
248,168,128648,5,0,0:0:0:0:
240,192,128650,5,0,0:0:0:0:
248,192,128652,5,0,0:0:0:0:
256,192,128654,5,0,0:0:0:0:
248,168,128657,5,0,0:0:0:0:
240,192,128659,5,0,0:0:0:0:
248,192,128661,5,0,0:0:0:0:
256,192,128663,5,0,0:0:0:0:
248,168,128666,5,0,0:0:0:0:
240,192,128668,5,0,0:0:0:0:
248,192,128670,5,0,0:0:0:0:
256,192,128672,5,0,0:0:0:0:
248,168,128675,5,0,0:0:0:0:
240,192,128678,5,0,0:0:0:0:
248,192,128680,5,0,0:0:0:0:
256,192,128682,5,0,0:0:0:0:
248,168,128685,5,0,0:0:0:0:
240,192,128687,5,0,0:0:0:0:
248,192,128689,5,0,0:0:0:0:
256,192,128691,5,0,0:0:0:0:
248,168,128694,5,0,0:0:0:0:
240,192,128697,5,0,0:0:0:0:
248,192,128699,5,0,0:0:0:0:
256,192,128701,5,0,0:0:0:0:
248,168,128704,5,0,0:0:0:0:
240,192,128706,5,0,0:0:0:0:
248,192,128708,5,0,0:0:0:0:
256,192,128710,5,0,0:0:0:0:
248,168,128713,5,0,0:0:0:0:
240,192,128716,5,0,0:0:0:0:
248,192,128718,5,0,0:0:0:0:
256,192,128720,5,0,0:0:0:0:
248,168,128723,5,0,0:0:0:0:
240,192,128725,5,0,0:0:0:0:
248,192,128727,5,0,0:0:0:0:
256,192,128729,5,0,0:0:0:0:
248,168,128732,5,0,0:0:0:0:
240,192,128735,5,0,0:0:0:0:
248,192,128737,5,0,0:0:0:0:
256,192,128739,5,0,0:0:0:0:
248,168,128742,5,0,0:0:0:0:
240,192,128744,5,0,0:0:0:0:
248,192,128746,5,0,0:0:0:0:
256,192,128748,5,0,0:0:0:0:
248,168,128751,5,0,0:0:0:0:
240,192,128754,5,0,0:0:0:0:
248,192,128756,5,0,0:0:0:0:
256,192,128758,5,0,0:0:0:0:
248,168,128761,5,0,0:0:0:0:
240,192,128763,5,0,0:0:0:0:
248,192,128765,5,0,0:0:0:0:
256,192,128767,5,0,0:0:0:0:
248,168,128770,5,0,0:0:0:0:
240,192,128773,5,0,0:0:0:0:
248,192,128775,5,0,0:0:0:0:
256,192,128777,5,0,0:0:0:0:
248,168,128780,5,0,0:0:0:0:
240,192,128782,5,0,0:0:0:0:
248,192,128784,5,0,0:0:0:0:
256,192,128786,5,0,0:0:0:0:
248,168,128789,5,0,0:0:0:0:
240,192,128792,5,0,0:0:0:0:
248,192,128794,5,0,0:0:0:0:
256,192,128796,5,0,0:0:0:0:
248,168,128799,5,0,0:0:0:0:
240,192,128801,5,0,0:0:0:0:
248,192,128803,5,0,0:0:0:0:
256,192,128805,5,0,0:0:0:0:
248,168,128808,5,0,0:0:0:0:
240,192,128810,5,0,0:0:0:0:
248,192,128812,5,0,0:0:0:0:
256,192,128814,5,0,0:0:0:0:
248,168,128817,5,0,0:0:0:0:
240,192,128819,5,0,0:0:0:0:
248,192,128821,5,0,0:0:0:0:
256,192,128823,5,0,0:0:0:0:
248,168,128826,5,0,0:0:0:0:
240,192,128829,5,0,0:0:0:0:
248,192,128831,5,0,0:0:0:0:
256,192,128833,5,0,0:0:0:0:
248,168,128836,5,0,0:0:0:0:
240,192,128838,5,0,0:0:0:0:
248,192,128840,5,0,0:0:0:0:
256,192,128842,5,0,0:0:0:0:
248,168,128845,5,0,0:0:0:0:
240,192,128848,5,0,0:0:0:0:
248,192,128850,5,0,0:0:0:0:
256,192,128852,5,0,0:0:0:0:
248,168,128855,5,0,0:0:0:0:
240,192,128857,5,0,0:0:0:0:
248,192,128859,5,0,0:0:0:0:
256,192,128861,5,0,0:0:0:0:
248,168,128864,5,0,0:0:0:0:
240,192,128867,5,0,0:0:0:0:
248,192,128869,5,0,0:0:0:0:
256,192,128871,5,0,0:0:0:0:
248,168,128874,5,0,0:0:0:0:
240,192,128876,5,0,0:0:0:0:
248,192,128878,5,0,0:0:0:0:
256,192,128880,5,0,0:0:0:0:
248,168,128883,5,0,0:0:0:0:
240,192,128886,5,0,0:0:0:0:
248,192,128888,5,0,0:0:0:0:
256,192,128890,5,0,0:0:0:0:
248,168,128893,5,0,0:0:0:0:
240,192,128895,5,0,0:0:0:0:
248,192,128897,5,0,0:0:0:0:
256,192,128899,5,0,0:0:0:0:
248,168,128902,5,0,0:0:0:0:
240,192,128905,5,0,0:0:0:0:
248,192,128907,5,0,0:0:0:0:
256,192,128909,5,0,0:0:0:0:
248,168,128912,5,0,0:0:0:0:
240,192,128914,5,0,0:0:0:0:
248,192,128916,5,0,0:0:0:0:
256,192,128918,5,0,0:0:0:0:
248,168,128921,5,0,0:0:0:0:
240,192,128924,5,0,0:0:0:0:
248,192,128926,5,0,0:0:0:0:
256,192,128928,5,0,0:0:0:0:
248,168,128931,5,0,0:0:0:0:
240,192,128933,5,0,0:0:0:0:
248,192,128935,5,0,0:0:0:0:
256,192,128937,5,0,0:0:0:0:
248,168,128940,5,0,0:0:0:0:
240,192,128943,5,0,0:0:0:0:
248,192,128945,5,0,0:0:0:0:
256,192,128947,5,0,0:0:0:0:
248,168,128950,5,0,0:0:0:0:
240,192,128952,5,0,0:0:0:0:
248,192,128954,5,0,0:0:0:0:
256,192,128956,5,0,0:0:0:0:
248,168,128959,5,0,0:0:0:0:
240,192,128961,5,0,0:0:0:0:
248,192,128963,5,0,0:0:0:0:
256,192,128965,5,0,0:0:0:0:
248,168,128968,5,0,0:0:0:0:
240,192,128970,5,0,0:0:0:0:
248,192,128972,5,0,0:0:0:0:
256,192,128974,5,0,0:0:0:0:
248,168,128977,5,0,0:0:0:0:
240,192,128980,5,0,0:0:0:0:
248,192,128982,5,0,0:0:0:0:
256,192,128984,5,0,0:0:0:0:
248,168,128987,5,0,0:0:0:0:
240,192,128989,5,0,0:0:0:0:
248,192,128991,5,0,0:0:0:0:
256,192,128993,5,0,0:0:0:0:
248,168,128996,5,0,0:0:0:0:
240,192,128999,5,0,0:0:0:0:
248,192,129001,5,0,0:0:0:0:
256,192,129003,5,0,0:0:0:0:
248,168,129006,5,0,0:0:0:0:
240,192,129008,5,0,0:0:0:0:
248,192,129010,5,0,0:0:0:0:
256,192,129012,5,0,0:0:0:0:
248,168,129015,5,0,0:0:0:0:
240,192,129018,5,0,0:0:0:0:
248,192,129020,5,0,0:0:0:0:
256,192,129022,5,0,0:0:0:0:
248,168,129025,5,0,0:0:0:0:
240,192,129027,5,0,0:0:0:0:
248,192,129029,5,0,0:0:0:0:
256,192,129031,5,0,0:0:0:0:
248,168,129034,5,0,0:0:0:0:
240,192,129037,5,0,0:0:0:0:
248,192,129039,5,0,0:0:0:0:
256,192,129041,5,0,0:0:0:0:
248,168,129044,5,0,0:0:0:0:
240,192,129046,5,0,0:0:0:0:
248,192,129048,5,0,0:0:0:0:
256,192,129050,5,0,0:0:0:0:
248,168,129053,5,0,0:0:0:0:
240,192,129056,5,0,0:0:0:0:
248,192,129058,5,0,0:0:0:0:
256,192,129060,5,0,0:0:0:0:
248,168,129063,5,0,0:0:0:0:
240,192,129065,5,0,0:0:0:0:
248,192,129067,5,0,0:0:0:0:
256,192,129069,5,0,0:0:0:0:
248,168,129072,5,0,0:0:0:0:
240,192,129075,5,0,0:0:0:0:
248,192,129077,5,0,0:0:0:0:
256,192,129079,5,0,0:0:0:0:
248,168,129082,5,0,0:0:0:0:
240,192,129084,5,0,0:0:0:0:
248,192,129086,5,0,0:0:0:0:
256,192,129088,5,0,0:0:0:0:
248,168,129091,5,0,0:0:0:0:
240,192,129094,5,0,0:0:0:0:
248,192,129096,5,0,0:0:0:0:
256,192,129098,5,0,0:0:0:0:
248,168,129101,5,0,0:0:0:0:
240,192,129103,5,0,0:0:0:0:
248,192,129105,5,0,0:0:0:0:
256,192,129107,5,0,0:0:0:0:
248,168,129110,5,0,0:0:0:0:
240,192,129112,5,0,0:0:0:0:
248,192,129114,5,0,0:0:0:0:
256,192,129116,5,0,0:0:0:0:
248,168,129119,5,0,0:0:0:0:
240,192,129121,5,0,0:0:0:0:
248,192,129123,5,0,0:0:0:0:
256,192,129125,5,0,0:0:0:0:
248,168,129128,5,0,0:0:0:0:
240,192,129131,5,0,0:0:0:0:
248,192,129133,5,0,0:0:0:0:
256,192,129135,5,0,0:0:0:0:
248,168,129138,5,0,0:0:0:0:
240,192,129140,5,0,0:0:0:0:
248,192,129142,5,0,0:0:0:0:
256,192,129144,5,0,0:0:0:0:
248,168,129147,5,0,0:0:0:0:
240,192,129150,5,0,0:0:0:0:
248,192,129152,5,0,0:0:0:0:
256,192,129154,5,0,0:0:0:0:
248,168,129157,5,0,0:0:0:0:
240,192,129159,5,0,0:0:0:0:
248,192,129161,5,0,0:0:0:0:
256,192,129163,5,0,0:0:0:0:
248,168,129166,5,0,0:0:0:0:
240,192,129169,5,0,0:0:0:0:
248,192,129171,5,0,0:0:0:0:
256,192,129173,5,0,0:0:0:0:
248,168,129176,5,0,0:0:0:0:
240,192,129178,5,0,0:0:0:0:
248,192,129180,5,0,0:0:0:0:
256,192,129182,5,0,0:0:0:0:
248,168,129185,5,0,0:0:0:0:
240,192,129188,5,0,0:0:0:0:
248,192,129190,5,0,0:0:0:0:
256,192,129192,5,0,0:0:0:0:
248,168,129195,5,0,0:0:0:0:
240,192,129197,5,0,0:0:0:0:
248,192,129199,5,0,0:0:0:0:
256,192,129201,5,0,0:0:0:0:
248,168,129204,5,0,0:0:0:0:
240,192,129207,5,0,0:0:0:0:
248,192,129209,5,0,0:0:0:0:
256,192,129211,5,0,0:0:0:0:
248,168,129214,5,0,0:0:0:0:
240,192,129216,5,0,0:0:0:0:
248,192,129218,5,0,0:0:0:0:
256,192,129220,5,0,0:0:0:0:
248,168,129223,5,0,0:0:0:0:
240,192,129226,5,0,0:0:0:0:
248,192,129228,5,0,0:0:0:0:
256,192,129230,5,0,0:0:0:0:
248,168,129233,5,0,0:0:0:0:
240,192,129235,5,0,0:0:0:0:
248,192,129237,5,0,0:0:0:0:
256,192,129239,5,0,0:0:0:0:
248,168,129242,5,0,0:0:0:0:
240,192,129245,5,0,0:0:0:0:
248,192,129247,5,0,0:0:0:0:
256,192,129249,5,0,0:0:0:0:
248,168,129252,5,0,0:0:0:0:
240,192,129254,5,0,0:0:0:0:
248,192,129256,5,0,0:0:0:0:
256,192,129258,5,0,0:0:0:0:
248,168,129261,5,0,0:0:0:0:
240,192,129263,5,0,0:0:0:0:
248,192,129265,5,0,0:0:0:0:
256,192,129267,5,0,0:0:0:0:
248,168,129270,5,0,0:0:0:0:
240,192,129272,5,0,0:0:0:0:
248,192,129274,5,0,0:0:0:0:
256,192,129276,5,0,0:0:0:0:
248,168,129279,5,0,0:0:0:0:
240,192,129282,5,0,0:0:0:0:
248,192,129284,5,0,0:0:0:0:
256,192,129286,5,0,0:0:0:0:
248,168,129289,5,0,0:0:0:0:
240,192,129291,5,0,0:0:0:0:
248,192,129293,5,0,0:0:0:0:
256,192,129295,5,0,0:0:0:0:
248,168,129298,5,0,0:0:0:0:
240,192,129301,5,0,0:0:0:0:
248,192,129303,5,0,0:0:0:0:
256,192,129305,5,0,0:0:0:0:
248,168,129308,5,0,0:0:0:0:
240,192,129310,5,0,0:0:0:0:
248,192,129312,5,0,0:0:0:0:
256,192,129314,5,0,0:0:0:0:
248,168,129317,5,0,0:0:0:0:
240,192,129320,5,0,0:0:0:0:
248,192,129322,5,0,0:0:0:0:
256,192,129324,5,0,0:0:0:0:
248,168,129327,5,0,0:0:0:0:
240,192,129329,5,0,0:0:0:0:
248,192,129331,5,0,0:0:0:0:
256,192,129333,5,0,0:0:0:0:
248,168,129336,5,0,0:0:0:0:
240,192,129339,5,0,0:0:0:0:
248,192,129341,5,0,0:0:0:0:
256,192,129343,5,0,0:0:0:0:
248,168,129346,5,0,0:0:0:0:
240,192,129348,5,0,0:0:0:0:
248,192,129350,5,0,0:0:0:0:
256,192,129352,5,0,0:0:0:0:
248,168,129355,5,0,0:0:0:0:
240,192,129358,5,0,0:0:0:0:
248,192,129360,5,0,0:0:0:0:
256,192,129362,5,0,0:0:0:0:
248,168,129365,5,0,0:0:0:0:
240,192,129367,5,0,0:0:0:0:
248,192,129369,5,0,0:0:0:0:
256,192,129371,5,0,0:0:0:0:
248,168,129374,5,0,0:0:0:0:
240,192,129377,5,0,0:0:0:0:
248,192,129379,5,0,0:0:0:0:
256,192,129381,5,0,0:0:0:0:
248,168,129384,5,0,0:0:0:0:
240,192,129386,5,0,0:0:0:0:
248,192,129388,5,0,0:0:0:0:
256,192,129390,5,0,0:0:0:0:
248,168,129393,5,0,0:0:0:0:
240,192,129396,5,0,0:0:0:0:
248,192,129398,5,0,0:0:0:0:
256,192,129400,5,0,0:0:0:0:
248,168,129403,5,0,0:0:0:0:
240,192,129405,5,0,0:0:0:0:
248,192,129407,5,0,0:0:0:0:
256,192,129409,5,0,0:0:0:0:
248,168,129412,5,0,0:0:0:0:
240,192,129415,5,0,0:0:0:0:
248,192,129417,5,0,0:0:0:0:
256,192,129419,5,0,0:0:0:0:
248,168,129422,5,0,0:0:0:0:
240,192,129424,5,0,0:0:0:0:
248,192,129426,5,0,0:0:0:0:
256,192,129428,5,0,0:0:0:0:
248,168,129431,5,0,0:0:0:0:
240,192,129434,5,0,0:0:0:0:
248,192,129436,5,0,0:0:0:0:
256,192,129438,5,0,0:0:0:0:
248,168,129441,5,0,0:0:0:0:
240,192,129443,5,0,0:0:0:0:
248,192,129445,5,0,0:0:0:0:
256,192,129447,5,0,0:0:0:0:
248,168,129450,5,0,0:0:0:0:
240,192,129453,5,0,0:0:0:0:
248,192,129455,5,0,0:0:0:0:
256,192,129457,5,0,0:0:0:0:
248,168,129460,5,0,0:0:0:0:
240,192,129462,5,0,0:0:0:0:
248,192,129464,5,0,0:0:0:0:
256,192,129466,5,0,0:0:0:0:
248,168,129469,5,0,0:0:0:0:
240,192,129472,5,0,0:0:0:0:
248,192,129474,5,0,0:0:0:0:
256,192,129476,5,0,0:0:0:0:
248,168,129479,5,0,0:0:0:0:
240,192,129481,5,0,0:0:0:0:
248,192,129483,5,0,0:0:0:0:
256,192,129485,5,0,0:0:0:0:
248,168,129488,5,0,0:0:0:0:
240,192,129491,5,0,0:0:0:0:
248,192,129493,5,0,0:0:0:0:
256,192,129495,5,0,0:0:0:0:
248,168,129498,5,0,0:0:0:0:
240,192,129500,5,0,0:0:0:0:
248,192,129502,5,0,0:0:0:0:
256,192,129504,5,0,0:0:0:0:
248,168,129507,5,0,0:0:0:0:
240,192,129510,5,0,0:0:0:0:
248,192,129512,5,0,0:0:0:0:
256,192,129514,5,0,0:0:0:0:
248,168,129517,5,0,0:0:0:0:
240,192,129519,5,0,0:0:0:0:
248,192,129521,5,0,0:0:0:0:
256,192,129523,5,0,0:0:0:0:
248,168,129526,5,0,0:0:0:0:
240,192,129529,5,0,0:0:0:0:
248,192,129531,5,0,0:0:0:0:
256,192,129533,5,0,0:0:0:0:
248,168,129536,5,0,0:0:0:0:
240,192,129538,5,0,0:0:0:0:
248,192,129540,5,0,0:0:0:0:
256,192,129542,5,0,0:0:0:0:
248,168,129545,5,0,0:0:0:0:
240,192,129548,5,0,0:0:0:0:
248,192,129550,5,0,0:0:0:0:
256,192,129552,5,0,0:0:0:0:
248,168,129555,5,0,0:0:0:0:
240,192,129557,5,0,0:0:0:0:
248,192,129559,5,0,0:0:0:0:
256,192,129561,5,0,0:0:0:0:
248,168,129564,5,0,0:0:0:0:
240,192,129566,5,0,0:0:0:0:
248,192,129568,5,0,0:0:0:0:
256,192,129570,5,0,0:0:0:0:
248,168,129573,5,0,0:0:0:0:
240,192,129575,5,0,0:0:0:0:
248,192,129577,5,0,0:0:0:0:
256,192,129579,5,0,0:0:0:0:
248,168,129582,5,0,0:0:0:0:
240,192,129585,5,0,0:0:0:0:
248,192,129587,5,0,0:0:0:0:
256,192,129589,5,0,0:0:0:0:
248,168,129592,5,0,0:0:0:0:
240,192,129594,5,0,0:0:0:0:
248,192,129596,5,0,0:0:0:0:
256,192,129598,5,0,0:0:0:0:
248,168,129601,5,0,0:0:0:0:
240,192,129604,5,0,0:0:0:0:
248,192,129606,5,0,0:0:0:0:
256,192,129608,5,0,0:0:0:0:
248,168,129611,5,0,0:0:0:0:
240,192,129613,5,0,0:0:0:0:
248,192,129615,5,0,0:0:0:0:
256,192,129617,5,0,0:0:0:0:
248,168,129620,5,0,0:0:0:0:
240,192,129623,5,0,0:0:0:0:
248,192,129625,5,0,0:0:0:0:
256,192,129627,5,0,0:0:0:0:
248,168,129630,5,0,0:0:0:0:
240,192,129632,5,0,0:0:0:0:
248,192,129634,5,0,0:0:0:0:
256,192,129636,5,0,0:0:0:0:
248,168,129639,5,0,0:0:0:0:
240,192,129642,5,0,0:0:0:0:
248,192,129644,5,0,0:0:0:0:
256,192,129646,5,0,0:0:0:0:
248,168,129649,5,0,0:0:0:0:
240,192,129651,5,0,0:0:0:0:
248,192,129653,5,0,0:0:0:0:
256,192,129655,5,0,0:0:0:0:
248,168,129658,5,0,0:0:0:0:
240,192,129661,5,0,0:0:0:0:
248,192,129663,5,0,0:0:0:0:
256,192,129665,5,0,0:0:0:0:
248,168,129668,5,0,0:0:0:0:
240,192,129670,5,0,0:0:0:0:
248,192,129672,5,0,0:0:0:0:
256,192,129674,5,0,0:0:0:0:
248,168,129677,5,0,0:0:0:0:
240,192,129680,5,0,0:0:0:0:
248,192,129682,5,0,0:0:0:0:
256,192,129684,5,0,0:0:0:0:
248,168,129687,5,0,0:0:0:0:
240,192,129689,5,0,0:0:0:0:
248,192,129691,5,0,0:0:0:0:
256,192,129693,5,0,0:0:0:0:
248,168,129696,5,0,0:0:0:0:
240,192,129699,5,0,0:0:0:0:
248,192,129701,5,0,0:0:0:0:
256,192,129703,5,0,0:0:0:0:
248,168,129706,5,0,0:0:0:0:
240,192,129708,5,0,0:0:0:0:
248,192,129710,5,0,0:0:0:0:
256,192,129712,5,0,0:0:0:0:
248,168,129715,5,0,0:0:0:0:
240,192,129717,5,0,0:0:0:0:
248,192,129719,5,0,0:0:0:0:
256,192,129721,5,0,0:0:0:0:
248,168,129724,5,0,0:0:0:0:
240,192,129726,5,0,0:0:0:0:
248,192,129728,5,0,0:0:0:0:
256,192,129730,5,0,0:0:0:0:
248,168,129733,5,0,0:0:0:0:
240,192,129736,5,0,0:0:0:0:
248,192,129738,5,0,0:0:0:0:
256,192,129740,5,0,0:0:0:0:
248,168,129743,5,0,0:0:0:0:
240,192,129745,5,0,0:0:0:0:
248,192,129747,5,0,0:0:0:0:
256,192,129749,5,0,0:0:0:0:
248,168,129752,5,0,0:0:0:0:
240,192,129755,5,0,0:0:0:0:
248,192,129757,5,0,0:0:0:0:
256,192,129759,5,0,0:0:0:0:
248,168,129762,5,0,0:0:0:0:
240,192,129764,5,0,0:0:0:0:
248,192,129766,5,0,0:0:0:0:
256,192,129768,5,0,0:0:0:0:
248,168,129771,5,0,0:0:0:0:
240,192,129774,5,0,0:0:0:0:
248,192,129776,5,0,0:0:0:0:
256,192,129778,5,0,0:0:0:0:
248,168,129781,5,0,0:0:0:0:
240,192,129783,5,0,0:0:0:0:
248,192,129785,5,0,0:0:0:0:
256,192,129787,5,0,0:0:0:0:
248,168,129790,5,0,0:0:0:0:
240,192,129793,5,0,0:0:0:0:
248,192,129795,5,0,0:0:0:0:
256,192,129797,5,0,0:0:0:0:
248,168,129800,5,0,0:0:0:0:
240,192,129802,5,0,0:0:0:0:
248,192,129804,5,0,0:0:0:0:
256,192,129806,5,0,0:0:0:0:
248,168,129809,5,0,0:0:0:0:
240,192,129812,5,0,0:0:0:0:
248,192,129814,5,0,0:0:0:0:
256,192,129816,5,0,0:0:0:0:
248,168,129819,5,0,0:0:0:0:
240,192,129821,5,0,0:0:0:0:
248,192,129823,5,0,0:0:0:0:
256,192,129825,5,0,0:0:0:0:
248,168,129828,5,0,0:0:0:0:
240,192,129831,5,0,0:0:0:0:
248,192,129833,5,0,0:0:0:0:
256,192,129835,5,0,0:0:0:0:
248,168,129838,5,0,0:0:0:0:
240,192,129840,5,0,0:0:0:0:
248,192,129842,5,0,0:0:0:0:
256,192,129844,5,0,0:0:0:0:
248,168,129847,5,0,0:0:0:0:
240,192,129850,5,0,0:0:0:0:
248,192,129852,5,0,0:0:0:0:
256,192,129854,5,0,0:0:0:0:
248,168,129857,5,0,0:0:0:0:
240,192,129859,5,0,0:0:0:0:
248,192,129861,5,0,0:0:0:0:
256,192,129863,5,0,0:0:0:0:
248,168,129866,5,0,0:0:0:0:
240,192,129868,5,0,0:0:0:0:
248,192,129870,5,0,0:0:0:0:
256,192,129872,5,0,0:0:0:0:
248,168,129875,5,0,0:0:0:0:
240,192,129877,5,0,0:0:0:0:
248,192,129879,5,0,0:0:0:0:
256,192,129881,5,0,0:0:0:0:
248,168,129884,5,0,0:0:0:0:
240,192,129887,5,0,0:0:0:0:
248,192,129889,5,0,0:0:0:0:
256,192,129891,5,0,0:0:0:0:
248,168,129894,5,0,0:0:0:0:
240,192,129896,5,0,0:0:0:0:
248,192,129898,5,0,0:0:0:0:
256,192,129900,5,0,0:0:0:0:
248,168,129903,5,0,0:0:0:0:
240,192,129906,5,0,0:0:0:0:
248,192,129908,5,0,0:0:0:0:
256,192,129910,5,0,0:0:0:0:
248,168,129913,5,0,0:0:0:0:
240,192,129915,5,0,0:0:0:0:
248,192,129917,5,0,0:0:0:0:
256,192,129919,5,0,0:0:0:0:
248,168,129922,5,0,0:0:0:0:
240,192,129925,5,0,0:0:0:0:
248,192,129927,5,0,0:0:0:0:
256,192,129929,5,0,0:0:0:0:
248,168,129932,5,0,0:0:0:0:
240,192,129934,5,0,0:0:0:0:
248,192,129936,5,0,0:0:0:0:
256,192,129938,5,0,0:0:0:0:
248,168,129941,5,0,0:0:0:0:
240,192,129944,5,0,0:0:0:0:
248,192,129946,5,0,0:0:0:0:
256,192,129948,5,0,0:0:0:0:
248,168,129951,5,0,0:0:0:0:
240,192,129953,5,0,0:0:0:0:
248,192,129955,5,0,0:0:0:0:
256,192,129957,5,0,0:0:0:0:
248,168,129960,5,0,0:0:0:0:
240,192,129963,5,0,0:0:0:0:
248,192,129965,5,0,0:0:0:0:
256,192,129967,5,0,0:0:0:0:
248,168,129970,5,0,0:0:0:0:
240,192,129972,5,0,0:0:0:0:
248,192,129974,5,0,0:0:0:0:
256,192,129976,5,0,0:0:0:0:
248,168,129979,5,0,0:0:0:0:
240,192,129982,5,0,0:0:0:0:
248,192,129984,5,0,0:0:0:0:
256,192,129986,5,0,0:0:0:0:
248,168,129989,5,0,0:0:0:0:
240,192,129991,5,0,0:0:0:0:
248,192,129993,5,0,0:0:0:0:
256,192,129995,5,0,0:0:0:0:
248,168,129998,5,0,0:0:0:0:
240,192,130001,5,0,0:0:0:0:
248,192,130003,5,0,0:0:0:0:
256,192,130005,5,0,0:0:0:0:
248,168,130008,5,0,0:0:0:0:
240,192,130010,5,0,0:0:0:0:
248,192,130012,5,0,0:0:0:0:
256,192,130014,5,0,0:0:0:0:
248,168,130017,5,0,0:0:0:0:
240,192,130020,5,0,0:0:0:0:
248,192,130022,5,0,0:0:0:0:
256,192,130024,5,0,0:0:0:0:
248,168,130027,5,0,0:0:0:0:
240,192,130029,5,0,0:0:0:0:
248,192,130031,5,0,0:0:0:0:
256,192,130033,5,0,0:0:0:0:
248,168,130036,5,0,0:0:0:0:
240,192,130039,5,0,0:0:0:0:
248,192,130041,5,0,0:0:0:0:
256,192,130043,5,0,0:0:0:0:
248,168,130046,5,0,0:0:0:0:
240,192,130048,5,0,0:0:0:0:
248,192,130050,5,0,0:0:0:0:
256,192,130052,5,0,0:0:0:0:
248,168,130055,5,0,0:0:0:0:
240,192,130058,5,0,0:0:0:0:
248,192,130060,5,0,0:0:0:0:
256,192,130062,5,0,0:0:0:0:
248,168,130065,5,0,0:0:0:0:
240,192,130067,5,0,0:0:0:0:
248,192,130069,5,0,0:0:0:0:
256,192,130071,5,0,0:0:0:0:
248,168,130074,5,0,0:0:0:0:
240,192,130077,5,0,0:0:0:0:
248,192,130079,5,0,0:0:0:0:
256,192,130081,5,0,0:0:0:0:
248,168,130084,5,0,0:0:0:0:
240,192,130086,5,0,0:0:0:0:
248,192,130088,5,0,0:0:0:0:
256,192,130090,5,0,0:0:0:0:
248,168,130093,5,0,0:0:0:0:
240,192,130096,5,0,0:0:0:0:
248,192,130098,5,0,0:0:0:0:
256,192,130100,5,0,0:0:0:0:
248,168,130103,5,0,0:0:0:0:
240,192,130105,5,0,0:0:0:0:
248,192,130107,5,0,0:0:0:0:
256,192,130109,5,0,0:0:0:0:
248,168,130112,5,0,0:0:0:0:
240,192,130115,5,0,0:0:0:0:
248,192,130117,5,0,0:0:0:0:
256,192,130119,5,0,0:0:0:0:
248,168,130122,5,0,0:0:0:0:
240,192,130124,5,0,0:0:0:0:
248,192,130126,5,0,0:0:0:0:
256,192,130128,5,0,0:0:0:0:
248,168,130131,5,0,0:0:0:0:
240,192,130134,5,0,0:0:0:0:
248,192,130136,5,0,0:0:0:0:
256,192,130138,5,0,0:0:0:0:
248,168,130141,5,0,0:0:0:0:
240,192,130143,5,0,0:0:0:0:
248,192,130145,5,0,0:0:0:0:
256,192,130147,5,0,0:0:0:0:
248,168,130150,5,0,0:0:0:0:
240,192,130153,5,0,0:0:0:0:
248,192,130155,5,0,0:0:0:0:
256,192,130157,5,0,0:0:0:0:
248,168,130160,5,0,0:0:0:0:
240,192,130162,5,0,0:0:0:0:
248,192,130164,5,0,0:0:0:0:
256,192,130166,5,0,0:0:0:0:
248,168,130169,5,0,0:0:0:0:
240,192,130171,5,0,0:0:0:0:
248,192,130173,5,0,0:0:0:0:
256,192,130175,5,0,0:0:0:0:
248,168,130178,5,0,0:0:0:0:
240,192,130180,5,0,0:0:0:0:
248,192,130182,5,0,0:0:0:0:
256,192,130184,5,0,0:0:0:0:
248,168,130187,5,0,0:0:0:0:
240,192,130190,5,0,0:0:0:0:
248,192,130192,5,0,0:0:0:0:
256,192,130194,5,0,0:0:0:0:
248,168,130197,5,0,0:0:0:0:
240,192,130199,5,0,0:0:0:0:
248,192,130201,5,0,0:0:0:0:
256,192,130203,5,0,0:0:0:0:
248,168,130206,5,0,0:0:0:0:
240,192,130209,5,0,0:0:0:0:
248,192,130211,5,0,0:0:0:0:
256,192,130213,5,0,0:0:0:0:
248,168,130216,5,0,0:0:0:0:
240,192,130218,5,0,0:0:0:0:
248,192,130220,5,0,0:0:0:0:
256,192,130222,5,0,0:0:0:0:
248,168,130225,5,0,0:0:0:0:
240,192,130228,5,0,0:0:0:0:
248,192,130230,5,0,0:0:0:0:
256,192,130232,5,0,0:0:0:0:
248,168,130235,5,0,0:0:0:0:
240,192,130237,5,0,0:0:0:0:
248,192,130239,5,0,0:0:0:0:
256,192,130241,5,0,0:0:0:0:
248,168,130244,5,0,0:0:0:0:
240,192,130247,5,0,0:0:0:0:
248,192,130249,5,0,0:0:0:0:
256,192,130251,5,0,0:0:0:0:
248,168,130254,5,0,0:0:0:0:
240,192,130256,5,0,0:0:0:0:
248,192,130258,5,0,0:0:0:0:
256,192,130260,5,0,0:0:0:0:
248,168,130263,5,0,0:0:0:0:
240,192,130266,5,0,0:0:0:0:
248,192,130268,5,0,0:0:0:0:
256,192,130270,5,0,0:0:0:0:
248,168,130273,5,0,0:0:0:0:
240,192,130275,5,0,0:0:0:0:
248,192,130277,5,0,0:0:0:0:
256,192,130279,5,0,0:0:0:0:
248,168,130282,5,0,0:0:0:0:
240,192,130285,5,0,0:0:0:0:
248,192,130287,5,0,0:0:0:0:
256,192,130289,5,0,0:0:0:0:
248,168,130292,5,0,0:0:0:0:
240,192,130294,5,0,0:0:0:0:
248,192,130296,5,0,0:0:0:0:
256,192,130298,5,0,0:0:0:0:
248,168,130301,5,0,0:0:0:0:
240,192,130304,5,0,0:0:0:0:
248,192,130306,5,0,0:0:0:0:
256,192,130308,5,0,0:0:0:0:
248,168,130311,5,0,0:0:0:0:
240,192,130313,5,0,0:0:0:0:
248,192,130315,5,0,0:0:0:0:
256,192,130317,5,0,0:0:0:0:
248,168,130320,5,0,0:0:0:0:
240,192,130322,5,0,0:0:0:0:
248,192,130324,5,0,0:0:0:0:
256,192,130326,5,0,0:0:0:0:
248,168,130329,5,0,0:0:0:0:
240,192,130331,5,0,0:0:0:0:
248,192,130333,5,0,0:0:0:0:
256,192,130335,5,0,0:0:0:0:
248,168,130338,5,0,0:0:0:0:
240,192,130341,5,0,0:0:0:0:
248,192,130343,5,0,0:0:0:0:
256,192,130345,5,0,0:0:0:0:
248,168,130348,5,0,0:0:0:0:
240,192,130350,5,0,0:0:0:0:
248,192,130352,5,0,0:0:0:0:
256,192,130354,5,0,0:0:0:0:
248,168,130357,5,0,0:0:0:0:
240,192,130360,5,0,0:0:0:0:
248,192,130362,5,0,0:0:0:0:
256,192,130364,5,0,0:0:0:0:
248,168,130367,5,0,0:0:0:0:
240,192,130369,5,0,0:0:0:0:
248,192,130371,5,0,0:0:0:0:
256,192,130373,5,0,0:0:0:0:
248,168,130376,5,0,0:0:0:0:
240,192,130379,5,0,0:0:0:0:
248,192,130381,5,0,0:0:0:0:
256,192,130383,5,0,0:0:0:0:
248,168,130386,5,0,0:0:0:0:
240,192,130388,5,0,0:0:0:0:
248,192,130390,5,0,0:0:0:0:
256,192,130392,5,0,0:0:0:0:
248,168,130395,5,0,0:0:0:0:
240,192,130398,5,0,0:0:0:0:
248,192,130400,5,0,0:0:0:0:
256,192,130402,5,0,0:0:0:0:
248,168,130405,5,0,0:0:0:0:
240,192,130407,5,0,0:0:0:0:
248,192,130409,5,0,0:0:0:0:
256,192,130411,5,0,0:0:0:0:
248,168,130414,5,0,0:0:0:0:
240,192,130417,5,0,0:0:0:0:
248,192,130419,5,0,0:0:0:0:
256,192,130421,5,0,0:0:0:0:
248,168,130424,5,0,0:0:0:0:
240,192,130426,5,0,0:0:0:0:
248,192,130428,5,0,0:0:0:0:
256,192,130430,5,0,0:0:0:0:
248,168,130433,5,0,0:0:0:0:
240,192,130436,5,0,0:0:0:0:
248,192,130438,5,0,0:0:0:0:
256,192,130440,5,0,0:0:0:0:
248,168,130443,5,0,0:0:0:0:
240,192,130445,5,0,0:0:0:0:
248,192,130447,5,0,0:0:0:0:
256,192,130449,5,0,0:0:0:0:
248,168,130452,5,0,0:0:0:0:
240,192,130455,5,0,0:0:0:0:
248,192,130457,5,0,0:0:0:0:
256,192,130459,5,0,0:0:0:0:
248,168,130462,5,0,0:0:0:0:
240,192,130464,5,0,0:0:0:0:
248,192,130466,5,0,0:0:0:0:
256,192,130468,5,0,0:0:0:0:
248,168,130471,5,0,0:0:0:0:
240,192,130473,5,0,0:0:0:0:
248,192,130475,5,0,0:0:0:0:
256,192,130477,5,0,0:0:0:0:
248,168,130480,5,0,0:0:0:0:
240,192,130482,5,0,0:0:0:0:
248,192,130484,5,0,0:0:0:0:
256,192,130486,5,0,0:0:0:0:
248,168,130489,5,0,0:0:0:0:
240,192,130492,5,0,0:0:0:0:
248,192,130494,5,0,0:0:0:0:
256,192,130496,5,0,0:0:0:0:
248,168,130499,5,0,0:0:0:0:
240,192,130501,5,0,0:0:0:0:
248,192,130503,5,0,0:0:0:0:
256,192,130505,5,0,0:0:0:0:
248,168,130508,5,0,0:0:0:0:
240,192,130511,5,0,0:0:0:0:
248,192,130513,5,0,0:0:0:0:
256,192,130515,5,0,0:0:0:0:
248,168,130518,5,0,0:0:0:0:
240,192,130520,5,0,0:0:0:0:
248,192,130522,5,0,0:0:0:0:
256,192,130524,5,0,0:0:0:0:
248,168,130527,5,0,0:0:0:0:
240,192,130530,5,0,0:0:0:0:
248,192,130532,5,0,0:0:0:0:
256,192,130534,5,0,0:0:0:0:
248,168,130537,5,0,0:0:0:0:
240,192,130539,5,0,0:0:0:0:
248,192,130541,5,0,0:0:0:0:
256,192,130543,5,0,0:0:0:0:
248,168,130546,5,0,0:0:0:0:
240,192,130549,5,0,0:0:0:0:
248,192,130551,5,0,0:0:0:0:
256,192,130553,5,0,0:0:0:0:
248,168,130556,5,0,0:0:0:0:
240,192,130558,5,0,0:0:0:0:
248,192,130560,5,0,0:0:0:0:
256,192,130562,5,0,0:0:0:0:
248,168,130565,5,0,0:0:0:0:
240,192,130568,5,0,0:0:0:0:
248,192,130570,5,0,0:0:0:0:
256,192,130572,5,0,0:0:0:0:
248,168,130575,5,0,0:0:0:0:
240,192,130577,5,0,0:0:0:0:
248,192,130579,5,0,0:0:0:0:
256,192,130581,5,0,0:0:0:0:
248,168,130584,5,0,0:0:0:0:
240,192,130587,5,0,0:0:0:0:
248,192,130589,5,0,0:0:0:0:
256,192,130591,5,0,0:0:0:0:
248,168,130594,5,0,0:0:0:0:
240,192,130596,5,0,0:0:0:0:
248,192,130598,5,0,0:0:0:0:
256,192,130600,5,0,0:0:0:0:
248,168,130603,5,0,0:0:0:0:
240,192,130606,5,0,0:0:0:0:
248,192,130608,5,0,0:0:0:0:
256,192,130610,5,0,0:0:0:0:
248,168,130613,5,0,0:0:0:0:
240,192,130615,5,0,0:0:0:0:
248,192,130617,5,0,0:0:0:0:
256,192,130619,5,0,0:0:0:0:
248,168,130622,5,0,0:0:0:0:
240,192,130624,5,0,0:0:0:0:
248,192,130626,5,0,0:0:0:0:
256,192,130628,5,0,0:0:0:0:
248,168,130631,5,0,0:0:0:0:
240,192,130633,5,0,0:0:0:0:
248,192,130635,5,0,0:0:0:0:
256,192,130637,5,0,0:0:0:0:
248,168,130640,5,0,0:0:0:0:
240,192,130643,5,0,0:0:0:0:
248,192,130645,5,0,0:0:0:0:
256,192,130647,5,0,0:0:0:0:
248,168,130650,5,0,0:0:0:0:
240,192,130652,5,0,0:0:0:0:
248,192,130654,5,0,0:0:0:0:
256,192,130656,5,0,0:0:0:0:
248,168,130659,5,0,0:0:0:0:
240,192,130662,5,0,0:0:0:0:
248,192,130664,5,0,0:0:0:0:
256,192,130666,5,0,0:0:0:0:
248,168,130669,5,0,0:0:0:0:
240,192,130671,5,0,0:0:0:0:
248,192,130673,5,0,0:0:0:0:
256,192,130675,5,0,0:0:0:0:
248,168,130678,5,0,0:0:0:0:
240,192,130681,5,0,0:0:0:0:
248,192,130683,5,0,0:0:0:0:
256,192,130685,5,0,0:0:0:0:
248,168,130688,5,0,0:0:0:0:
240,192,130690,5,0,0:0:0:0:
248,192,130692,5,0,0:0:0:0:
256,192,130694,5,0,0:0:0:0:
248,168,130697,5,0,0:0:0:0:
240,192,130700,5,0,0:0:0:0:
248,192,130702,5,0,0:0:0:0:
256,192,130704,5,0,0:0:0:0:
248,168,130707,5,0,0:0:0:0:
240,192,130709,5,0,0:0:0:0:
248,192,130711,5,0,0:0:0:0:
256,192,130713,5,0,0:0:0:0:
248,168,130716,5,0,0:0:0:0:
240,192,130719,5,0,0:0:0:0:
248,192,130721,5,0,0:0:0:0:
256,192,130723,5,0,0:0:0:0:
248,168,130726,5,0,0:0:0:0:
240,192,130728,5,0,0:0:0:0:
248,192,130730,5,0,0:0:0:0:
256,192,130732,5,0,0:0:0:0:
248,168,130735,5,0,0:0:0:0:
240,192,130738,5,0,0:0:0:0:
248,192,130740,5,0,0:0:0:0:
256,192,130742,5,0,0:0:0:0:
248,168,130745,5,0,0:0:0:0:
240,192,130747,5,0,0:0:0:0:
248,192,130749,5,0,0:0:0:0:
256,192,130751,5,0,0:0:0:0:
248,168,130754,5,0,0:0:0:0:
240,192,130757,5,0,0:0:0:0:
248,192,130759,5,0,0:0:0:0:
256,192,130761,5,0,0:0:0:0:
248,168,130764,5,0,0:0:0:0:
240,192,130766,5,0,0:0:0:0:
248,192,130768,5,0,0:0:0:0:
256,192,130770,5,0,0:0:0:0:
248,168,130773,5,0,0:0:0:0:
240,192,130775,5,0,0:0:0:0:
248,192,130777,5,0,0:0:0:0:
256,192,130779,5,0,0:0:0:0:
248,168,130782,5,0,0:0:0:0:
240,192,130784,5,0,0:0:0:0:
248,192,130786,5,0,0:0:0:0:
256,192,130788,5,0,0:0:0:0:
248,168,130791,5,0,0:0:0:0:
240,192,130794,5,0,0:0:0:0:
248,192,130796,5,0,0:0:0:0:
256,192,130798,5,0,0:0:0:0:
248,168,130801,5,0,0:0:0:0:
240,192,130803,5,0,0:0:0:0:
248,192,130805,5,0,0:0:0:0:
256,192,130807,5,0,0:0:0:0:
248,168,130810,5,0,0:0:0:0:
240,192,130813,5,0,0:0:0:0:
248,192,130815,5,0,0:0:0:0:
256,192,130817,5,0,0:0:0:0:
248,168,130820,5,0,0:0:0:0:
240,192,130822,5,0,0:0:0:0:
248,192,130824,5,0,0:0:0:0:
256,192,130826,5,0,0:0:0:0:
248,168,130829,5,0,0:0:0:0:
240,192,130832,5,0,0:0:0:0:
248,192,130834,5,0,0:0:0:0:
256,192,130836,5,0,0:0:0:0:
248,168,130839,5,0,0:0:0:0:
240,192,130841,5,0,0:0:0:0:
248,192,130843,5,0,0:0:0:0:
256,192,130845,5,0,0:0:0:0:
248,168,130848,5,0,0:0:0:0:
240,192,130851,5,0,0:0:0:0:
248,192,130853,5,0,0:0:0:0:
256,192,130855,5,0,0:0:0:0:
248,168,130858,5,0,0:0:0:0:
240,192,130860,5,0,0:0:0:0:
248,192,130862,5,0,0:0:0:0:
256,192,130864,5,0,0:0:0:0:
248,168,130867,5,0,0:0:0:0:
240,192,130870,5,0,0:0:0:0:
248,192,130872,5,0,0:0:0:0:
256,192,130874,5,0,0:0:0:0:
248,168,130877,5,0,0:0:0:0:
240,192,130879,5,0,0:0:0:0:
248,192,130881,5,0,0:0:0:0:
256,192,130883,5,0,0:0:0:0:
248,168,130886,5,0,0:0:0:0:
240,192,130889,5,0,0:0:0:0:
248,192,130891,5,0,0:0:0:0:
256,192,130893,5,0,0:0:0:0:
248,168,130896,5,0,0:0:0:0:
240,192,130898,5,0,0:0:0:0:
248,192,130900,5,0,0:0:0:0:
256,192,130902,5,0,0:0:0:0:
248,168,130905,5,0,0:0:0:0:
240,192,130908,5,0,0:0:0:0:
248,192,130910,5,0,0:0:0:0:
256,192,130912,5,0,0:0:0:0:
248,168,130915,5,0,0:0:0:0:
240,192,130917,5,0,0:0:0:0:
248,192,130919,5,0,0:0:0:0:
256,192,130921,5,0,0:0:0:0:
248,168,130924,5,0,0:0:0:0:
240,192,130927,5,0,0:0:0:0:
248,192,130929,5,0,0:0:0:0:
256,192,130931,5,0,0:0:0:0:
248,168,130934,5,0,0:0:0:0:
240,192,130936,5,0,0:0:0:0:
248,192,130938,5,0,0:0:0:0:
256,192,130940,5,0,0:0:0:0:
248,168,130943,5,0,0:0:0:0:
240,192,130946,5,0,0:0:0:0:
248,192,130948,5,0,0:0:0:0:
256,192,130950,5,0,0:0:0:0:
248,168,130953,5,0,0:0:0:0:
240,192,130955,5,0,0:0:0:0:
248,192,130957,5,0,0:0:0:0:
256,192,130959,5,0,0:0:0:0:
248,168,130962,5,0,0:0:0:0:
240,192,130965,5,0,0:0:0:0:
248,192,130967,5,0,0:0:0:0:
256,192,130969,5,0,0:0:0:0:
248,168,130972,5,0,0:0:0:0:
240,192,130974,5,0,0:0:0:0:
248,192,130976,5,0,0:0:0:0:
256,192,130978,5,0,0:0:0:0:
248,168,130981,5,0,0:0:0:0:
240,192,130984,5,0,0:0:0:0:
248,192,130986,5,0,0:0:0:0:
256,192,130988,5,0,0:0:0:0:
248,168,130991,5,0,0:0:0:0:
240,192,130993,5,0,0:0:0:0:
248,192,130995,5,0,0:0:0:0:
256,192,130997,5,0,0:0:0:0:
248,168,131000,5,0,0:0:0:0:
240,192,131003,5,0,0:0:0:0:
248,192,131005,5,0,0:0:0:0:
256,192,131007,5,0,0:0:0:0:
248,168,131010,5,0,0:0:0:0:
240,192,131012,5,0,0:0:0:0:
248,192,131014,5,0,0:0:0:0:
256,192,131016,5,0,0:0:0:0:
248,168,131019,5,0,0:0:0:0:
240,192,131022,5,0,0:0:0:0:
248,192,131024,5,0,0:0:0:0:
256,192,131026,5,0,0:0:0:0:
248,168,131029,5,0,0:0:0:0:
240,192,131031,5,0,0:0:0:0:
248,192,131033,5,0,0:0:0:0:
256,192,131035,5,0,0:0:0:0:
248,168,131038,5,0,0:0:0:0:
240,192,131041,5,0,0:0:0:0:
248,192,131043,5,0,0:0:0:0:
256,192,131045,5,0,0:0:0:0:
248,168,131048,5,0,0:0:0:0:
240,192,131050,5,0,0:0:0:0:
248,192,131052,5,0,0:0:0:0:
256,192,131054,5,0,0:0:0:0:
248,168,131057,5,0,0:0:0:0:
240,192,131060,5,0,0:0:0:0:
248,192,131062,5,0,0:0:0:0:
256,192,131064,5,0,0:0:0:0:
248,168,131067,5,0,0:0:0:0:
240,192,131069,5,0,0:0:0:0:
248,192,131071,5,0,0:0:0:0:
256,192,131073,5,0,0:0:0:0:
248,168,131076,5,0,0:0:0:0:
240,192,131078,5,0,0:0:0:0:
248,192,131080,5,0,0:0:0:0:
256,192,131082,5,0,0:0:0:0:
248,168,131085,5,0,0:0:0:0:
240,192,131087,5,0,0:0:0:0:
248,192,131089,5,0,0:0:0:0:
256,192,131091,5,0,0:0:0:0:
248,168,131094,5,0,0:0:0:0:
240,192,131097,5,0,0:0:0:0:
248,192,131099,5,0,0:0:0:0:
256,192,131101,5,0,0:0:0:0:
248,168,131104,5,0,0:0:0:0:
240,192,131106,5,0,0:0:0:0:
248,192,131108,5,0,0:0:0:0:
256,192,131110,5,0,0:0:0:0:
248,168,131113,5,0,0:0:0:0:
240,192,131116,5,0,0:0:0:0:
248,192,131118,5,0,0:0:0:0:
256,192,131120,5,0,0:0:0:0:
248,168,131123,5,0,0:0:0:0:
240,192,131125,5,0,0:0:0:0:
248,192,131127,5,0,0:0:0:0:
256,192,131129,5,0,0:0:0:0:
248,168,131132,5,0,0:0:0:0:
240,192,131135,5,0,0:0:0:0:
248,192,131137,5,0,0:0:0:0:
256,192,131139,5,0,0:0:0:0:
248,168,131142,5,0,0:0:0:0:
240,192,131144,5,0,0:0:0:0:
248,192,131146,5,0,0:0:0:0:
256,192,131148,5,0,0:0:0:0:
248,168,131151,5,0,0:0:0:0:
240,192,131154,5,0,0:0:0:0:
248,192,131156,5,0,0:0:0:0:
256,192,131158,5,0,0:0:0:0:
248,168,131161,5,0,0:0:0:0:
240,192,131163,5,0,0:0:0:0:
248,192,131165,5,0,0:0:0:0:
256,192,131167,5,0,0:0:0:0:
248,168,131170,5,0,0:0:0:0:
240,192,131173,5,0,0:0:0:0:
248,192,131175,5,0,0:0:0:0:
256,192,131177,5,0,0:0:0:0:
248,168,131180,5,0,0:0:0:0:
240,192,131182,5,0,0:0:0:0:
248,192,131184,5,0,0:0:0:0:
256,192,131186,5,0,0:0:0:0:
248,168,131189,5,0,0:0:0:0:
240,192,131192,5,0,0:0:0:0:
248,192,131194,5,0,0:0:0:0:
256,192,131196,5,0,0:0:0:0:
248,168,131199,5,0,0:0:0:0:
240,192,131201,5,0,0:0:0:0:
248,192,131203,5,0,0:0:0:0:
256,192,131205,5,0,0:0:0:0:
248,168,131208,5,0,0:0:0:0:
240,192,131211,5,0,0:0:0:0:
248,192,131213,5,0,0:0:0:0:
256,192,131215,5,0,0:0:0:0:
248,168,131218,5,0,0:0:0:0:
240,192,131220,5,0,0:0:0:0:
248,192,131222,5,0,0:0:0:0:
256,192,131224,5,0,0:0:0:0:
248,168,131227,5,0,0:0:0:0:
240,192,131229,5,0,0:0:0:0:
248,192,131231,5,0,0:0:0:0:
256,192,131233,5,0,0:0:0:0:
248,168,131236,5,0,0:0:0:0:
240,192,131238,5,0,0:0:0:0:
248,192,131240,5,0,0:0:0:0:
256,192,131242,5,0,0:0:0:0:
248,168,131245,5,0,0:0:0:0:
240,192,131248,5,0,0:0:0:0:
248,192,131250,5,0,0:0:0:0:
256,192,131252,5,0,0:0:0:0:
248,168,131255,5,0,0:0:0:0:
240,192,131257,5,0,0:0:0:0:
248,192,131259,5,0,0:0:0:0:
256,192,131261,5,0,0:0:0:0:
248,168,131264,5,0,0:0:0:0:
240,192,131267,5,0,0:0:0:0:
248,192,131269,5,0,0:0:0:0:
256,192,131271,5,0,0:0:0:0:
248,168,131274,5,0,0:0:0:0:
240,192,131276,5,0,0:0:0:0:
248,192,131278,5,0,0:0:0:0:
256,192,131280,5,0,0:0:0:0:
248,168,131283,5,0,0:0:0:0:
240,192,131286,5,0,0:0:0:0:
248,192,131288,5,0,0:0:0:0:
256,192,131290,5,0,0:0:0:0:
248,168,131293,5,0,0:0:0:0:
240,192,131295,5,0,0:0:0:0:
248,192,131297,5,0,0:0:0:0:
256,192,131299,5,0,0:0:0:0:
248,168,131302,5,0,0:0:0:0:
240,192,131305,5,0,0:0:0:0:
248,192,131307,5,0,0:0:0:0:
256,192,131309,5,0,0:0:0:0:
248,168,131312,5,0,0:0:0:0:
240,192,131314,5,0,0:0:0:0:
248,192,131316,5,0,0:0:0:0:
256,192,131318,5,0,0:0:0:0:
248,168,131321,5,0,0:0:0:0:
240,192,131324,5,0,0:0:0:0:
248,192,131326,5,0,0:0:0:0:
256,192,131328,5,0,0:0:0:0:
248,168,131331,5,0,0:0:0:0:
240,192,131333,5,0,0:0:0:0:
248,192,131335,5,0,0:0:0:0:
256,192,131337,5,0,0:0:0:0:
248,168,131340,5,0,0:0:0:0:
240,192,131343,5,0,0:0:0:0:
248,192,131345,5,0,0:0:0:0:
256,192,131347,5,0,0:0:0:0:
248,168,131350,5,0,0:0:0:0:
240,192,131352,5,0,0:0:0:0:
248,192,131354,5,0,0:0:0:0:
256,192,131356,5,0,0:0:0:0:
248,168,131359,5,0,0:0:0:0:
240,192,131362,5,0,0:0:0:0:
248,192,131364,5,0,0:0:0:0:
256,192,131366,5,0,0:0:0:0:
248,168,131369,5,0,0:0:0:0:
240,192,131371,5,0,0:0:0:0:
248,192,131373,5,0,0:0:0:0:
256,192,131375,5,0,0:0:0:0:
248,168,131378,5,0,0:0:0:0:
240,192,131380,5,0,0:0:0:0:
248,192,131382,5,0,0:0:0:0:
256,192,131384,5,0,0:0:0:0:
248,168,131387,5,0,0:0:0:0:
240,192,131389,5,0,0:0:0:0:
248,192,131391,5,0,0:0:0:0:
256,192,131393,5,0,0:0:0:0:
248,168,131396,5,0,0:0:0:0:
240,192,131399,5,0,0:0:0:0:
248,192,131401,5,0,0:0:0:0:
256,192,131403,5,0,0:0:0:0:
248,168,131406,5,0,0:0:0:0:
240,192,131408,5,0,0:0:0:0:
248,192,131410,5,0,0:0:0:0:
256,192,131412,5,0,0:0:0:0:
248,168,131415,5,0,0:0:0:0:
240,192,131418,5,0,0:0:0:0:
248,192,131420,5,0,0:0:0:0:
256,192,131422,5,0,0:0:0:0:
248,168,131425,5,0,0:0:0:0:
240,192,131427,5,0,0:0:0:0:
248,192,131429,5,0,0:0:0:0:
256,192,131431,5,0,0:0:0:0:
248,168,131434,5,0,0:0:0:0:
240,192,131437,5,0,0:0:0:0:
248,192,131439,5,0,0:0:0:0:
256,192,131441,5,0,0:0:0:0:
248,168,131444,5,0,0:0:0:0:
240,192,131446,5,0,0:0:0:0:
248,192,131448,5,0,0:0:0:0:
256,192,131450,5,0,0:0:0:0:
248,168,131453,5,0,0:0:0:0:
240,192,131456,5,0,0:0:0:0:
248,192,131458,5,0,0:0:0:0:
256,192,131460,5,0,0:0:0:0:
248,168,131463,5,0,0:0:0:0:
240,192,131465,5,0,0:0:0:0:
248,192,131467,5,0,0:0:0:0:
256,192,131469,5,0,0:0:0:0:
248,168,131472,5,0,0:0:0:0:
240,192,131475,5,0,0:0:0:0:
248,192,131477,5,0,0:0:0:0:
256,192,131479,5,0,0:0:0:0:
248,168,131482,5,0,0:0:0:0:
240,192,131484,5,0,0:0:0:0:
248,192,131486,5,0,0:0:0:0:
256,192,131488,5,0,0:0:0:0:
248,168,131491,5,0,0:0:0:0:
240,192,131494,5,0,0:0:0:0:
248,192,131496,5,0,0:0:0:0:
256,192,131498,5,0,0:0:0:0:
248,168,131501,5,0,0:0:0:0:
240,192,131503,5,0,0:0:0:0:
248,192,131505,5,0,0:0:0:0:
256,192,131507,5,0,0:0:0:0:
248,168,131510,5,0,0:0:0:0:
240,192,131513,5,0,0:0:0:0:
248,192,131515,5,0,0:0:0:0:
256,192,131517,5,0,0:0:0:0:
248,168,131520,5,0,0:0:0:0:
240,192,131522,5,0,0:0:0:0:
248,192,131524,5,0,0:0:0:0:
256,192,131526,5,0,0:0:0:0:
248,168,131529,5,0,0:0:0:0:
240,192,131532,5,0,0:0:0:0:
248,192,131534,5,0,0:0:0:0:
256,192,131536,5,0,0:0:0:0:
248,168,131539,5,0,0:0:0:0:
240,192,131541,5,0,0:0:0:0:
248,192,131543,5,0,0:0:0:0:
256,192,131545,5,0,0:0:0:0:
248,168,131548,5,0,0:0:0:0:
240,192,131551,5,0,0:0:0:0:
248,192,131553,5,0,0:0:0:0:
256,192,131555,5,0,0:0:0:0:
248,168,131558,5,0,0:0:0:0:
240,192,131560,5,0,0:0:0:0:
248,192,131562,5,0,0:0:0:0:
256,192,131564,5,0,0:0:0:0:
248,168,131567,5,0,0:0:0:0:
240,192,131570,5,0,0:0:0:0:
248,192,131572,5,0,0:0:0:0:
256,192,131574,5,0,0:0:0:0:
248,168,131577,5,0,0:0:0:0:
240,192,131579,5,0,0:0:0:0:
248,192,131581,5,0,0:0:0:0:
256,192,131583,5,0,0:0:0:0:
248,168,131586,5,0,0:0:0:0:
240,192,131589,5,0,0:0:0:0:
248,192,131591,5,0,0:0:0:0:
256,192,131593,5,0,0:0:0:0:
248,168,131596,5,0,0:0:0:0:
240,192,131598,5,0,0:0:0:0:
248,192,131600,5,0,0:0:0:0:
256,192,131602,5,0,0:0:0:0:
248,168,131605,5,0,0:0:0:0:
240,192,131608,5,0,0:0:0:0:
248,192,131610,5,0,0:0:0:0:
256,192,131612,5,0,0:0:0:0:
248,168,131615,5,0,0:0:0:0:
240,192,131617,5,0,0:0:0:0:
248,192,131619,5,0,0:0:0:0:
256,192,131621,5,0,0:0:0:0:
248,168,131624,5,0,0:0:0:0:
240,192,131627,5,0,0:0:0:0:
248,192,131629,5,0,0:0:0:0:
256,192,131631,5,0,0:0:0:0:
248,168,131634,5,0,0:0:0:0:
240,192,131636,5,0,0:0:0:0:
248,192,131638,5,0,0:0:0:0:
256,192,131640,5,0,0:0:0:0:
248,168,131643,5,0,0:0:0:0:
240,192,131646,5,0,0:0:0:0:
248,192,131648,5,0,0:0:0:0:
256,192,131650,5,0,0:0:0:0:
248,168,131653,5,0,0:0:0:0:
240,192,131655,5,0,0:0:0:0:
248,192,131657,5,0,0:0:0:0:
256,192,131659,5,0,0:0:0:0:
248,168,131662,5,0,0:0:0:0:
240,192,131665,5,0,0:0:0:0:
248,192,131667,5,0,0:0:0:0:
256,192,131669,5,0,0:0:0:0:
248,168,131672,5,0,0:0:0:0:
240,192,131674,5,0,0:0:0:0:
248,192,131676,5,0,0:0:0:0:
256,192,131678,5,0,0:0:0:0:
248,168,131681,5,0,0:0:0:0:
240,192,131683,5,0,0:0:0:0:
248,192,131685,5,0,0:0:0:0:
256,192,131687,5,0,0:0:0:0:
248,168,131690,5,0,0:0:0:0:
240,192,131692,5,0,0:0:0:0:
248,192,131694,5,0,0:0:0:0:
256,192,131696,5,0,0:0:0:0:
248,168,131699,5,0,0:0:0:0:
240,192,131702,5,0,0:0:0:0:
248,192,131704,5,0,0:0:0:0:
256,192,131706,5,0,0:0:0:0:
248,168,131709,5,0,0:0:0:0:
240,192,131711,5,0,0:0:0:0:
248,192,131713,5,0,0:0:0:0:
256,192,131715,5,0,0:0:0:0:
248,168,131718,5,0,0:0:0:0:
240,192,131721,5,0,0:0:0:0:
248,192,131723,5,0,0:0:0:0:
256,192,131725,5,0,0:0:0:0:
248,168,131728,5,0,0:0:0:0:
240,192,131730,5,0,0:0:0:0:
248,192,131732,5,0,0:0:0:0:
256,192,131734,5,0,0:0:0:0:
248,168,131737,5,0,0:0:0:0:
240,192,131740,5,0,0:0:0:0:
248,192,131742,5,0,0:0:0:0:
256,192,131744,5,0,0:0:0:0:
248,168,131747,5,0,0:0:0:0:
240,192,131749,5,0,0:0:0:0:
248,192,131751,5,0,0:0:0:0:
256,192,131753,5,0,0:0:0:0:
248,168,131756,5,0,0:0:0:0:
240,192,131759,5,0,0:0:0:0:
248,192,131761,5,0,0:0:0:0:
256,192,131763,5,0,0:0:0:0:
248,168,131766,5,0,0:0:0:0:
240,192,131768,5,0,0:0:0:0:
248,192,131770,5,0,0:0:0:0:
256,192,131772,5,0,0:0:0:0:
248,168,131775,5,0,0:0:0:0:
240,192,131778,5,0,0:0:0:0:
248,192,131780,5,0,0:0:0:0:
256,192,131782,5,0,0:0:0:0:
248,168,131785,5,0,0:0:0:0:
240,192,131787,5,0,0:0:0:0:
248,192,131789,5,0,0:0:0:0:
256,192,131791,5,0,0:0:0:0:
248,168,131794,5,0,0:0:0:0:
240,192,131797,5,0,0:0:0:0:
248,192,131799,5,0,0:0:0:0:
256,192,131801,5,0,0:0:0:0:
248,168,131804,5,0,0:0:0:0:
240,192,131806,5,0,0:0:0:0:
248,192,131808,5,0,0:0:0:0:
256,192,131810,5,0,0:0:0:0:
248,168,131813,5,0,0:0:0:0:
240,192,131816,5,0,0:0:0:0:
248,192,131818,5,0,0:0:0:0:
256,192,131820,5,0,0:0:0:0:
248,168,131823,5,0,0:0:0:0:
240,192,131825,5,0,0:0:0:0:
248,192,131827,5,0,0:0:0:0:
256,192,131829,5,0,0:0:0:0:
248,168,131832,5,0,0:0:0:0:
240,192,131834,5,0,0:0:0:0:
248,192,131836,5,0,0:0:0:0:
256,192,131838,5,0,0:0:0:0:
248,168,131841,5,0,0:0:0:0:
240,192,131843,5,0,0:0:0:0:
248,192,131845,5,0,0:0:0:0:
256,192,131847,5,0,0:0:0:0:
248,168,131850,5,0,0:0:0:0:
240,192,131853,5,0,0:0:0:0:
248,192,131855,5,0,0:0:0:0:
256,192,131857,5,0,0:0:0:0:
248,168,131860,5,0,0:0:0:0:
240,192,131862,5,0,0:0:0:0:
248,192,131864,5,0,0:0:0:0:
256,192,131866,5,0,0:0:0:0:
248,168,131869,5,0,0:0:0:0:
240,192,131872,5,0,0:0:0:0:
248,192,131874,5,0,0:0:0:0:
256,192,131876,5,0,0:0:0:0:
248,168,131879,5,0,0:0:0:0:
240,192,131881,5,0,0:0:0:0:
248,192,131883,5,0,0:0:0:0:
256,192,131885,5,0,0:0:0:0:
248,168,131888,5,0,0:0:0:0:
240,192,131891,5,0,0:0:0:0:
248,192,131893,5,0,0:0:0:0:
256,192,131895,5,0,0:0:0:0:
248,168,131898,5,0,0:0:0:0:
240,192,131900,5,0,0:0:0:0:
248,192,131902,5,0,0:0:0:0:
256,192,131904,5,0,0:0:0:0:
248,168,131907,5,0,0:0:0:0:
240,192,131910,5,0,0:0:0:0:
248,192,131912,5,0,0:0:0:0:
256,192,131914,5,0,0:0:0:0:
248,168,131917,5,0,0:0:0:0:
240,192,131919,5,0,0:0:0:0:
248,192,131921,5,0,0:0:0:0:
256,192,131923,5,0,0:0:0:0:
248,168,131926,5,0,0:0:0:0:
240,192,131929,5,0,0:0:0:0:
248,192,131931,5,0,0:0:0:0:
256,192,131933,5,0,0:0:0:0:
248,168,131936,5,0,0:0:0:0:
256,96,131952,5,4,1:0:0:0:
