osu file format v14

[General]
AudioFilename: audio.mp3
AudioLeadIn: 0
PreviewTime: 283053
Countdown: 0
SampleSet: Soft
StackLeniency: 0.2
Mode: 0
LetterboxInBreaks: 0
WidescreenStoryboard: 1

[Editor]
Bookmarks: 17748,33108,48478,63828,70685,77542,84399,97760,111460,117292,122607,128405,159020,174715,176625,191985,201585,221025,236385,253939,267653,281367,314007,318813,329367,375447,383127
DistanceSpacing: 0.4
BeatDivisor: 4
GridSize: 4
TimelineZoom: 2.200001

[Metadata]
Title:Aleph-0
TitleUnicode:א0
Artist:LeaF
ArtistUnicode:LeaF
Creator:Linada
Version:Null
Source:
Tags:Doppelganger Optie Comiket C94 BOFU2016
BeatmapID:1905474
BeatmapSetID:912137

[Difficulty]
HPDrainRate:5
CircleSize:3.8
OverallDifficulty:9
ApproachRate:9.7
SliderMultiplier:1.8
SliderTickRate:0.5

[Events]
//Background and Video events
0,0,"bg.png",0,0
//Break Periods
2,7757,14833
2,64038,70186
2,70895,77043
2,81180,83900
2,128605,282784
//Storyboard Layer 0 (Background)
//Storyboard Layer 1 (Fail)
//Storyboard Layer 2 (Pass)
//Storyboard Layer 3 (Foreground)
//Storyboard Sound Samples

[TimingPoints]
6718,480,9,2,1,60,1,0
6718,-66.6666666666667,9,2,1,60,0,0
15358,480,5,2,1,60,1,0
15838,-66.6666666666667,5,2,1,60,0,0
16318,-50,5,2,1,60,0,0
16498,-50,5,2,1,5,0,0
16558,-74.0740740740741,5,2,1,60,0,0
16738,-74.0740740740741,5,2,1,5,0,0
16798,-50,5,2,1,60,0,0
16978,-50,5,2,1,5,0,0
17038,-50,5,2,1,60,0,0
17278,-66.6666666666667,5,2,1,60,0,0
17458,-66.6666666666667,5,2,1,5,0,0
17518,-100,5,2,1,60,0,0
17698,-100,5,2,1,5,0,0
17758,480,4,2,1,60,1,0
19678,-200,4,2,1,60,0,0
20878,-100,4,2,1,60,0,0
21058,-66.6666666666667,4,2,1,5,0,0
21118,-66.6666666666667,4,2,1,60,0,0
21598,-200,4,2,1,60,0,0
25378,-200,4,2,1,5,0,0
25438,-200,4,2,1,60,0,0
27358,-133.333333333333,4,2,1,60,0,0
28558,-100,4,2,1,60,0,0
28738,-100,4,2,1,5,0,0
28798,-100,4,2,1,60,0,0
32998,-100,4,2,1,5,0,0
33118,-76.9230769230769,4,2,1,60,0,0
33298,-76.9230769230769,4,2,1,5,0,0
33358,-76.9230769230769,4,2,1,60,0,0
34078,-100,4,2,1,60,0,0
35038,-76.9230769230769,4,2,1,60,0,0
35998,-100,4,2,1,60,0,0
36478,-74.0740740740741,4,2,1,60,0,0
36658,-74.0740740740741,4,2,1,5,0,0
36718,-133.333333333333,4,2,1,60,0,0
36958,-76.9230769230769,4,2,1,60,0,0
37138,-76.9230769230769,4,2,1,5,0,0
37198,-76.9230769230769,4,2,1,60,0,0
37918,-100,4,2,1,60,0,0
38878,-76.9230769230769,4,2,1,60,0,0
39838,-100,4,2,1,60,0,0
40318,-74.0740740740741,4,2,1,60,0,0
40498,-74.0740740740741,4,2,1,5,0,0
40558,-74.0740740740741,4,2,1,60,0,0
40798,-76.9230769230769,4,2,1,60,0,0
40978,-76.9230769230769,4,2,1,5,0,0
41038,-76.9230769230769,4,2,1,60,0,0
41758,-100,4,2,1,60,0,0
42718,-76.9230769230769,4,2,1,60,0,0
43678,-100,4,2,1,60,0,0
44158,-74.0740740740741,4,2,1,60,0,0
44338,-74.0740740740741,4,2,1,5,0,0
44398,-74.0740740740741,4,2,1,60,0,0
44638,-76.9230769230769,4,2,1,60,0,0
44818,-76.9230769230769,4,2,1,5,0,0
44878,-76.9230769230769,4,2,1,60,0,0
45598,-100,4,2,1,60,0,0
46558,-76.9230769230769,4,2,1,60,0,0
47518,-100,4,2,1,60,0,0
47998,-74.0740740740741,4,2,1,60,0,0
48178,-74.0740740740741,4,2,1,5,0,0
48238,-74.0740740740741,4,2,1,60,0,0
48478,-76.9230769230769,4,2,1,60,0,0
48658,-76.9230769230769,4,2,1,5,0,0
48718,-76.9230769230769,4,2,1,60,0,0
49438,-100,4,2,1,60,0,0
50398,-76.9230769230769,4,2,1,60,0,0
51358,-100,4,2,1,60,0,0
51838,-74.0740740740741,4,2,1,60,0,0
52018,-74.0740740740741,4,2,1,5,0,0
52078,-74.0740740740741,4,2,1,60,0,0
52318,-76.9230769230769,4,2,1,60,0,0
52498,-76.9230769230769,4,2,1,5,0,0
52558,-76.9230769230769,4,2,1,60,0,0
53278,-100,4,2,1,60,0,0
54238,-74.0740740740741,4,2,1,60,0,0
55198,-66.6666666666667,4,2,1,60,0,0
56158,-76.9230769230769,4,2,1,60,0,0
56338,-76.9230769230769,4,2,1,5,0,0
56398,-76.9230769230769,4,2,1,60,0,0
57118,-100,4,2,1,60,0,0
58078,-76.9230769230769,4,2,1,60,0,0
59038,-100,4,2,1,60,0,0
59518,-74.0740740740741,4,2,1,60,0,0
59698,-74.0740740740741,4,2,1,5,0,0
59758,-74.0740740740741,4,2,1,60,0,0
59998,-76.9230769230769,4,2,1,60,0,0
60178,-76.9230769230769,4,2,1,5,0,0
60238,-76.9230769230769,4,2,1,60,0,0
60958,-100,4,2,1,60,0,0
63838,1714.28571428571,4,2,1,60,1,0
77552,-50,4,2,1,60,0,0
87195,-73.5294117647059,4,2,1,60,0,0
89123,-50,4,2,1,60,0,0
92123,400,4,2,1,60,1,0
92523,363.636363636364,4,2,1,60,1,0
92886,324.324324324324,4,2,1,60,1,0
93007,512.820512820513,4,2,1,60,1,0
93520,400,4,2,1,60,1,0
93520,-200,4,2,1,60,0,0
93920,240,4,2,1,60,1,0
97760,240,4,2,1,60,1,0
97760,-200,4,2,1,60,0,0
98000,239.043824701195,4,2,1,60,1,0
98239,238.095238095238,4,2,1,60,1,0
98239,-200,4,2,1,60,0,0
98477,237.154150197628,4,2,1,60,1,0
98714,236.220472440945,4,2,1,60,1,0
98951,235.294117647059,4,2,1,60,1,0
99186,234.375,4,2,1,60,1,0
99186,-200,4,2,1,60,0,0
99420,233.463035019455,4,2,1,60,1,0
99654,232.558139534884,4,2,1,60,1,0
99886,231.660231660232,4,2,1,60,1,0
100118,230.769230769231,4,2,1,60,1,0
100349,229.885057471264,4,2,1,60,1,0
100579,229.007633587786,4,2,1,60,1,0
100808,228.136882129278,4,2,1,60,1,0
101036,227.272727272727,4,2,1,60,1,0
101263,226.415094339623,4,2,1,60,1,0
101489,225.563909774436,4,2,1,65,1,0
101489,-200,4,2,1,65,0,0
101715,224.719101123596,4,2,1,65,1,0
101939,223.880597014925,4,2,1,65,1,0
101939,-200,4,2,1,65,0,0
102164,223.048327137546,4,2,1,65,1,0
102387,222.222222222222,4,2,1,65,1,0
102609,221.40221402214,4,2,1,65,1,0
102830,220.588235294118,4,2,1,65,1,0
102830,-200,4,2,1,65,0,0
103051,219.78021978022,4,2,1,65,1,0
103271,218.978102189781,4,2,1,65,1,0
103490,218.181818181818,4,2,1,65,1,0
103708,217.391304347826,4,2,1,65,1,0
103925,216.606498194946,4,2,1,65,1,0
104142,215.827338129496,4,2,1,65,1,0
104358,215.05376344086,4,2,1,65,1,0
104573,214.285714285714,4,2,1,65,1,0
104787,213.523131672598,4,2,1,65,1,0
105000,212.765957446809,4,2,1,65,1,0
105000,-133.333333333333,4,2,1,70,0,0
105213,212.014134275618,4,2,1,70,1,0
105425,211.267605633803,4,2,1,70,1,0
105425,-133.333333333333,4,2,1,70,0,0
105636,210.526315789474,4,2,1,70,1,0
105847,209.79020979021,4,2,1,70,1,0
106057,209.059233449477,4,2,1,70,1,0
106266,208.333333333333,4,2,1,70,1,0
106266,-133.333333333333,4,2,1,70,0,0
106474,207.612456747405,4,2,1,70,1,0
106682,206.896551724138,4,2,1,70,1,0
106889,206.185567010309,4,2,1,70,1,0
107095,205.479452054795,4,2,1,70,1,0
107300,204.778156996587,4,2,1,70,1,0
107505,204.081632653061,4,2,1,70,1,0
107709,203.389830508475,4,2,1,70,1,0
107913,202.702702702703,4,2,1,70,1,0
108115,202.020202020202,4,2,1,70,1,0
108317,201.342281879195,4,2,1,75,1,0
108317,-133.333333333333,4,2,1,75,0,0
108519,200.66889632107,4,2,1,75,1,0
108719,200,4,2,1,75,1,0
108719,-133.333333333333,4,2,1,75,0,0
108919,199.335548172757,4,2,1,75,1,0
109119,198.675496688742,4,2,1,75,1,0
109317,198.019801980198,4,2,1,75,1,0
109515,197.368421052632,4,2,1,75,1,0
109515,-133.333333333333,4,2,1,75,0,0
109713,196.72131147541,4,2,1,75,1,0
109909,196.078431372549,4,2,1,75,1,0
110106,195.439739413681,4,2,1,75,1,0
110301,194.805194805195,4,2,1,75,1,0
110496,194.174757281553,4,2,1,75,1,0
110690,193.548387096774,4,2,1,75,1,0
110883,192.926045016077,4,2,1,75,1,0
111076,192.307692307692,4,2,1,75,1,0
111269,191.693290734824,4,2,1,75,1,0
111460,191.082802547771,4,2,1,60,1,0
111460,-200,4,2,1,60,0,0
111651,190.47619047619,4,2,1,60,1,0
111842,189.873417721519,4,2,1,60,1,0
112032,189.274447949527,4,2,1,60,1,0
112221,188.679245283019,4,2,1,60,1,0
112410,188.087774294671,4,2,1,60,1,0
112598,187.5,4,2,1,60,1,0
112785,186.915887850467,4,2,1,60,1,0
112972,186.335403726708,4,2,1,60,1,0
113159,185.758513931889,4,2,1,60,1,0
113344,185.185185185185,4,2,1,60,1,0
113530,184.615384615385,4,2,1,60,1,0
113714,184.049079754601,4,2,1,60,1,0
113898,183.48623853211,4,2,1,60,1,0
114082,182.926829268293,4,2,1,60,1,0
114265,182.370820668693,4,2,1,60,1,0
114447,181.818181818182,4,2,1,65,1,0
114447,-133.333333333333,4,2,1,65,0,0
114629,181.268882175227,4,2,1,65,1,0
114810,180.722891566265,4,2,1,65,1,0
114991,180.18018018018,4,2,1,65,1,0
115171,179.640718562874,4,2,1,65,1,0
115351,179.10447761194,4,2,1,65,1,0
115530,178.571428571429,4,2,1,65,1,0
115708,178.041543026706,4,2,1,65,1,0
115886,177.514792899408,4,2,1,65,1,0
116064,176.991150442478,4,2,1,65,1,0
116241,176.470588235294,4,2,1,65,1,0
116417,175.953079178886,4,2,1,65,1,0
116593,175.438596491228,4,2,1,65,1,0
116593,-90.9090909090909,4,2,1,65,0,0
116769,174.927113702624,4,2,1,65,1,0
116769,-83.3333333333333,4,2,1,65,0,0
116944,174.418604651163,4,2,1,65,1,0
116944,-76.9230769230769,4,2,1,65,0,0
117118,173.913043478261,4,2,1,65,1,0
117118,-71.4285714285714,4,2,1,65,0,0
117292,173.410404624277,4,2,1,70,1,0
117465,172.910662824208,4,2,1,70,1,0
117638,172.413793103448,4,2,1,70,1,0
117811,171.919770773639,4,2,1,70,1,0
117983,171.428571428571,4,2,1,70,1,0
118154,170.940170940171,4,2,1,70,1,0
118325,170.454545454545,4,2,1,70,1,0
118495,169.971671388102,4,2,1,70,1,0
118665,169.491525423729,4,2,1,70,1,0
118835,169.014084507042,4,2,1,70,1,0
119004,168.539325842697,4,2,1,70,1,0
119172,168.067226890756,4,2,1,70,1,0
119341,167.597765363129,4,2,1,70,1,0
119508,167.130919220056,4,2,1,70,1,0
119675,166.666666666667,4,2,1,70,1,0
119842,166.204986149584,4,2,1,70,1,0
120008,165.745856353591,4,2,1,75,1,0
120174,165.289256198347,4,2,1,75,1,0
120339,164.835164835165,4,2,1,75,1,0
120504,164.383561643836,4,2,1,75,1,0
120668,163.934426229508,4,2,1,75,1,0
120832,163.487738419619,4,2,1,75,1,0
120996,163.04347826087,4,2,1,75,1,0
121159,162.60162601626,4,2,1,75,1,0
121321,162.162162162162,4,2,1,75,1,0
121484,161.725067385445,4,2,1,75,1,0
121645,161.290322580645,4,2,1,75,1,0
121807,160.857908847185,4,2,1,75,1,0
121968,160.427807486631,4,2,1,75,1,0
122128,160,4,2,1,75,1,0
122128,-83.3333333333333,4,2,1,75,0,0
122288,159.574468085106,4,2,1,75,1,0
122288,-71.4285714285714,4,2,1,75,0,0
122448,159.151193633952,4,2,1,75,1,0
122448,-62.5,4,2,1,75,0,0
122607,158.730158730159,4,2,1,65,1,0
122765,158.311345646438,4,2,1,60,1,0
122924,157.894736842105,4,2,1,60,1,0
123082,157.48031496063,4,2,1,60,1,0
123239,157.068062827225,4,2,1,60,1,0
123396,156.657963446475,4,2,1,60,1,0
123553,156.25,4,2,1,60,1,0
123709,155.844155844156,4,2,1,60,1,0
123865,155.440414507772,4,2,1,60,1,0
124020,155.038759689922,4,2,1,60,1,0
124175,154.639175257732,4,2,1,60,1,0
124330,154.241645244216,4,2,1,60,1,0
124484,153.846153846154,4,2,1,60,1,0
124638,153.452685421995,4,2,1,60,1,0
124792,153.061224489796,4,2,1,60,1,0
124945,152.671755725191,4,2,1,60,1,0
125097,152.284263959391,4,2,1,60,1,0
125250,151.898734177215,4,2,1,60,1,0
125401,151.515151515152,4,2,1,60,1,0
125553,151.133501259446,4,2,1,60,1,0
125704,150.753768844221,4,2,1,60,1,0
125855,150.375939849624,4,2,1,60,1,0
126005,150,4,2,1,60,1,0
126005,-400,4,2,1,60,0,0
128255,150,4,2,1,60,1,0
128405,150.375939849624,4,2,1,60,1,0
128555,150.753768844221,4,2,1,60,1,0
128705,151.133501259446,4,2,1,60,1,0
128856,151.515151515152,4,2,1,60,1,0
129007,151.898734177216,4,2,1,60,1,0
129158,152.284263959391,4,2,1,60,1,0
129310,152.671755725191,4,2,1,60,1,0
129462,153.061224489796,4,2,1,60,1,0
129615,153.452685421995,4,2,1,60,1,0
129768,153.846153846154,4,2,1,60,1,0
129921,154.241645244216,4,2,1,60,1,0
130075,154.639175257732,4,2,1,60,1,0
130229,155.038759689923,4,2,1,60,1,0
130384,155.440414507772,4,2,1,60,1,0
130539,155.844155844156,4,2,1,60,1,0
130694,156.25,4,2,1,60,1,0
130850,156.657963446475,4,2,1,60,1,0
131006,157.068062827225,4,2,1,60,1,0
131163,157.48031496063,4,2,1,60,1,0
131320,157.894736842105,4,2,1,60,1,0
131477,158.311345646438,4,2,1,60,1,0
131635,158.730158730159,4,2,1,60,1,0
131793,159.151193633952,4,2,1,60,1,0
131952,159.574468085106,4,2,1,60,1,0
132111,160,4,2,1,60,1,0
132271,160.427807486631,4,2,1,60,1,0
132431,160.857908847185,4,2,1,60,1,0
132591,161.290322580645,4,2,1,60,1,0
132752,161.725067385444,4,2,1,60,1,0
132913,162.162162162162,4,2,1,60,1,0
133075,162.60162601626,4,2,1,60,1,0
133237,163.043478260869,4,2,1,60,1,0
133400,163.487738419618,4,2,1,60,1,0
133563,163.934426229508,4,2,1,60,1,0
133726,164.383561643835,4,2,1,60,1,0
133890,164.835164835164,4,2,1,60,1,0
134054,165.289256198347,4,2,1,60,1,0
134219,165.745856353591,4,2,1,60,1,0
134384,166.204986149584,4,2,1,60,1,0
134550,166.666666666666,4,2,1,60,1,0
134716,167.130919220055,4,2,1,60,1,0
134883,167.597765363128,4,2,1,60,1,0
135050,168.067226890756,4,2,1,60,1,0
135218,168.539325842696,4,2,1,60,1,0
135386,169.014084507042,4,2,1,60,1,0
135555,169.491525423728,4,2,1,60,1,0
135724,169.971671388101,4,2,1,60,1,0
135893,170.454545454545,4,2,1,60,1,0
136063,170.94017094017,4,2,1,60,1,0
136233,171.428571428571,4,2,1,60,1,0
136404,171.919770773638,4,2,1,60,1,0
136575,172.413793103448,4,2,1,60,1,0
136747,172.910662824207,4,2,1,60,1,0
136919,173.410404624277,4,2,1,60,1,0
137092,173.91304347826,4,2,1,60,1,0
137265,174.418604651162,4,2,1,60,1,0
137439,174.927113702623,4,2,1,60,1,0
137613,175.438596491228,4,2,1,60,1,0
137788,175.953079178885,4,2,1,60,1,0
137963,176.470588235294,4,2,1,60,1,0
138139,176.991150442477,4,2,1,60,1,0
138315,177.514792899408,4,2,1,60,1,0
138492,178.041543026706,4,2,1,60,1,0
138670,178.571428571428,4,2,1,60,1,0
138848,179.10447761194,4,2,1,60,1,0
139027,179.640718562874,4,2,1,60,1,0
139206,180.18018018018,4,2,1,60,1,0
139386,180.722891566265,4,2,1,60,1,0
139566,181.268882175226,4,2,1,60,1,0
139747,181.818181818181,4,2,1,60,1,0
139928,182.370820668692,4,2,1,60,1,0
140110,182.926829268292,4,2,1,60,1,0
140292,183.48623853211,4,2,1,60,1,0
140475,184.049079754601,4,2,1,60,1,0
140659,184.615384615384,4,2,1,60,1,0
140843,185.185185185185,4,2,1,60,1,0
141028,185.758513931888,4,2,1,60,1,0
141213,186.335403726707,4,2,1,60,1,0
141399,186.915887850467,4,2,1,60,1,0
141585,187.499999999999,4,2,1,60,1,0
141772,188.08777429467,4,2,1,60,1,0
141960,188.679245283018,4,2,1,60,1,0
142148,189.274447949526,4,2,1,60,1,0
142337,189.873417721518,4,2,1,60,1,0
142526,190.47619047619,4,2,1,60,1,0
142716,191.08280254777,4,2,1,60,1,0
142907,191.693290734824,4,2,1,60,1,0
143098,192.307692307692,4,2,1,60,1,0
143290,192.926045016077,4,2,1,60,1,0
143482,193.548387096774,4,2,1,60,1,0
143675,194.174757281553,4,2,1,60,1,0
143869,194.805194805194,4,2,1,60,1,0
144063,195.43973941368,4,2,1,60,1,0
144258,196.078431372548,4,2,1,60,1,0
144454,196.721311475409,4,2,1,60,1,0
144650,197.368421052631,4,2,1,60,1,0
144847,198.019801980197,4,2,1,60,1,0
145045,198.675496688741,4,2,1,60,1,0
145243,199.335548172757,4,2,1,60,1,0
145442,199.999999999999,4,2,1,60,1,0
145642,200.66889632107,4,2,1,60,1,0
145842,201.342281879194,4,2,1,60,1,0
146043,202.020202020201,4,2,1,60,1,0
146245,202.702702702702,4,2,1,60,1,0
146447,203.389830508474,4,2,1,60,1,0
146650,204.081632653061,4,2,1,60,1,0
146854,204.778156996586,4,2,1,60,1,0
147058,205.479452054794,4,2,1,60,1,0
147263,206.185567010309,4,2,1,60,1,0
147469,206.896551724137,4,2,1,60,1,0
147675,207.612456747404,4,2,1,60,1,0
147882,208.333333333333,4,2,1,60,1,0
148090,209.059233449477,4,2,1,60,1,0
148299,209.790209790209,4,2,1,60,1,0
148508,210.526315789473,4,2,1,60,1,0
148718,211.267605633802,4,2,1,60,1,0
148929,212.014134275618,4,2,1,60,1,0
149141,212.765957446808,4,2,1,60,1,0
149353,213.523131672597,4,2,1,60,1,0
149566,214.285714285714,4,2,1,60,1,0
149780,215.053763440859,4,2,1,60,1,0
149995,215.827338129496,4,2,1,60,1,0
150210,216.606498194945,4,2,1,60,1,0
150426,217.391304347825,4,2,1,60,1,0
150643,218.181818181817,4,2,1,60,1,0
150861,218.97810218978,4,2,1,60,1,0
151079,219.780219780219,4,2,1,60,1,0
151298,220.588235294117,4,2,1,60,1,0
151518,221.402214022139,4,2,1,60,1,0
151739,222.222222222221,4,2,1,60,1,0
151961,223.048327137546,4,2,1,60,1,0
152184,223.880597014925,4,2,1,60,1,0
152407,224.719101123595,4,2,1,60,1,0
152631,225.563909774435,4,2,1,60,1,0
152856,226.415094339622,4,2,1,60,1,0
153082,227.272727272726,4,2,1,60,1,0
153309,228.136882129277,4,2,1,60,1,0
153537,229.007633587785,4,2,1,60,1,0
153766,229.885057471263,4,2,1,60,1,0
153995,230.76923076923,4,2,1,60,1,0
154225,231.660231660231,4,2,1,60,1,0
154456,232.558139534883,4,2,1,60,1,0
154688,233.463035019454,4,2,1,60,1,0
154921,234.374999999999,4,2,1,60,1,0
155155,235.294117647058,4,2,1,60,1,0
155390,236.220472440944,4,2,1,60,1,0
155626,237.154150197628,4,2,1,60,1,0
155863,238.095238095237,4,2,1,60,1,0
156101,239.043824701194,4,2,1,60,1,0
156340,239.999999999999,4,2,1,60,1,0
156580,240.963855421686,4,2,1,60,1,0
156820,241.935483870967,4,2,1,60,1,0
157061,242.914979757084,4,2,1,60,1,0
157303,243.902439024389,4,2,1,60,1,0
157546,244.897959183672,4,2,1,60,1,0
157790,245.901639344261,4,2,1,60,1,0
158035,246.913580246913,4,2,1,60,1,0
158281,247.93388429752,4,2,1,60,1,0
158528,248.962655601659,4,2,1,60,1,0
158776,249.999999999999,4,2,1,60,1,0
159026,249.999999999999,4,2,1,60,1,0
159276,251.046025104601,4,2,1,60,1,0
159527,252.100840336133,4,2,1,60,1,0
159779,253.164556962024,4,2,1,60,1,0
160032,254.237288135592,4,2,1,60,1,0
160286,255.319148936169,4,2,1,60,1,0
160541,256.410256410255,4,2,1,60,1,0
160797,257.510729613733,4,2,1,60,1,0
161054,258.620689655171,4,2,1,60,1,0
161312,259.740259740259,4,2,1,60,1,0
161571,260.86956521739,4,2,1,60,1,0
161831,262.008733624453,4,2,1,60,1,0
162093,263.157894736841,4,2,1,60,1,0
162356,264.317180616739,4,2,1,60,1,0
162620,265.486725663716,4,2,1,60,1,0
162885,266.666666666665,4,2,1,60,1,0
163151,267.857142857142,4,2,1,60,1,0
163418,269.058295964124,4,2,1,60,1,0
163687,270.270270270269,4,2,1,60,1,0
163957,271.493212669682,4,2,1,60,1,0
164228,272.727272727272,4,2,1,60,1,0
164500,273.972602739725,4,2,1,60,1,0
164773,275.229357798164,4,2,1,60,1,0
165048,276.497695852533,4,2,1,60,1,0
165324,277.777777777777,4,2,1,60,1,0
165601,279.069767441859,4,2,1,60,1,0
165880,280.3738317757,4,2,1,60,1,0
166160,281.690140845069,4,2,1,60,1,0
166441,283.018867924527,4,2,1,60,1,0
166724,284.360189573458,4,2,1,60,1,0
167008,285.714285714284,4,2,1,60,1,0
167293,287.081339712917,4,2,1,60,1,0
167580,585.365853658537,4,2,1,60,1,0
169921,300,4,2,1,60,1,0
176371,521.739130434783,4,2,1,60,1,0
176631,240,4,2,1,60,1,0
205671,480,4,2,1,60,1,0
221031,240,3,2,1,60,1,0
221751,240,5,2,1,60,1,0
222951,240,3,2,1,60,1,0
223671,240,5,2,1,60,1,0
224871,240,5,2,1,60,1,0
225591,240,5,2,1,60,1,0
226791,240,3,2,1,60,1,0
227511,240,5,2,1,60,1,0
228711,240,3,2,1,60,1,0
229431,240,5,2,1,60,1,0
230631,240,3,2,1,60,1,0
231351,240,5,2,1,60,1,0
232551,240,3,2,1,60,1,0
233271,240,5,2,1,60,1,0
234471,240,3,2,1,60,1,0
235191,240,5,2,1,60,1,0
236391,240,8,2,1,60,1,0
240231,428.571428571429,4,2,1,60,1,0
281373,480,4,2,1,50,1,0
283293,-200,4,2,1,50,0,0
314013,-400,4,2,1,50,0,0
329373,240,4,2,14,75,1,0
331293,480,4,2,1,60,1,0
331293,-400,4,2,1,60,0,0
332133,-400,4,2,1,5,0,0
332253,240,4,2,14,75,1,0
336093,480,4,2,1,60,1,0
336093,-400,4,2,1,60,0,0
337053,240,4,2,14,75,1,0
338973,480,4,2,1,60,1,0
338973,-400,4,2,1,60,0,0
339933,240,4,2,14,75,1,0
343773,480,4,2,1,60,1,0
343773,-200,4,2,1,60,0,0
345693,240,4,2,14,75,1,0
347613,480,4,2,1,60,1,0
347613,-400,4,2,1,60,0,0
348573,240,4,2,14,75,1,0
352413,480,4,2,1,60,1,0
352413,-400,4,2,1,60,0,0
353253,-400,4,2,1,5,0,0
353373,240,4,2,14,75,1,0
355293,480,4,2,1,60,1,0
355293,-400,4,2,1,60,0,0
356133,-400,4,2,1,5,0,0
356253,240,4,2,14,75,1,0
359133,480,4,2,1,60,1,0
359133,-200,4,2,1,60,0,0
360093,240,4,2,1,30,1,0
360093,-40,4,2,1,30,0,0
362013,480,4,2,1,60,1,0
362013,-400,4,2,1,60,0,0
362853,-400,4,2,1,5,0,0
362973,240,4,2,1,30,1,0
362973,-40,4,2,1,30,0,0
366813,480,4,2,1,60,1,0
367773,240,4,2,1,30,1,0
367773,-40,4,2,1,30,0,0
369693,480,4,2,1,60,1,0
370653,240,4,2,1,30,1,0
370653,-40,4,2,1,30,0,0
374493,480,4,2,1,60,1,0

[Colours]
Combo1 : 192,192,192
Combo2 : 2,200,242
Combo3 : 155,155,255
Combo4 : 255,139,83
SliderTrackOverride : 255,255,255
SliderBorder : 255,247,255

[HitObjects]
100,287,6718,6,0,L|108:218,1,67.5000025749208
158,160,6898,1,0,0:0:0:0:
161,154,6958,2,0,L|154:105,2,45.0000017166138
212,224,7198,6,0,L|261:217,2,45.0000017166138
329,262,7438,6,0,L|358:267,3,22.5000008583069
100,287,15358,6,0,L|110:197,1,90,2|0,0:0|0:0,0:0:0:0:
109,193,15658,1,0,0:0:0:0:
107,188,15718,1,0,0:0:0:0:
105,183,15778,1,0,0:0:0:0:
103,178,15838,6,0,P|169:177|208:125,1,135.000005149842,10|0,0:0|0:0,0:0:0:0:
37,219,16198,1,0,0:0:0:0:
88,45,16318,6,0,P|101:111|104:179,1,135,2|0,0:0|0:0,0:0:0:0:
111,197,16558,2,0,P|102:243|100:287,1,91.1250003476143
15,334,16798,6,0,B|42:331|59:333|59:333|89:315|89:315|115:325|145:324,1,135,2|0,0:0|0:0,0:0:0:0:
209,297,17038,1,0,0:0:0:0:
217,300,17098,1,0,0:0:0:0:
225,303,17158,1,0,0:0:0:0:
233,306,17218,1,0,0:0:0:0:
241,308,17278,6,0,P|192:324|142:323,1,101.250003862381,2|0,0:0|0:0,0:0:0:0:
257,285,17518,2,0,P|290:289|321:301,1,67.5
392,268,17758,5,6,0:0:0:0:
409,263,17998,1,0,0:0:0:0:
424,254,18238,1,0,0:0:0:0:
436,241,18478,1,2,0:0:0:0:
435,240,19678,6,0,P|438:263|439:285,3,45
182,55,20878,6,0,L|178:123,1,67.5
174,45,21118,1,8,0:0:0:0:
257,192,21358,1,2,0:0:0:0:
456,46,21598,5,6,0:0:0:0:
447,43,21838,1,0,0:0:0:0:
438,41,22078,1,0,0:0:0:0:
429,39,22318,1,2,0:0:0:0:
429,39,23518,6,0,L|432:83,3,45
256,192,24298,12,0,25378,0:0:0:0:
16,304,25438,5,6,0:0:0:0:
102,318,25678,1,0,0:0:0:0:
16,304,25918,1,0,0:0:0:0:
102,318,26158,1,2,0:0:0:0:
102,317,27358,6,0,P|101:284|95:251,2,67.5000025749208
64,166,28078,1,0,0:0:0:0:
235,346,28558,6,0,L|168:354,1,67.5
303,382,28798,1,8,0:0:0:0:
102,317,29038,1,2,0:0:0:0:
319,101,29278,5,6,0:0:0:0:
303,216,29518,1,0,0:0:0:0:
319,101,29758,1,0,0:0:0:0:
303,216,29998,1,0,0:0:0:0:
256,192,30118,12,2,31198,0:0:0:0:
256,192,31258,12,0,32998,0:0:0:0:
114,346,33118,6,0,L|108:257,1,87.749995983124,6|0,0:0|0:0,0:0:0:0:
122,239,33358,1,2,0:0:0:0:
42,371,33478,1,2,0:0:0:0:
122,239,33598,6,0,L|180:242,1,58.4999973220826,2|0,0:0|0:0,0:0:0:0:
256,192,33838,1,2,0:0:0:0:
256,192,34078,6,0,L|264:281,1,90,2|0,0:0|0:0,0:0:0:0:
294,109,34438,2,0,L|285:198,1,90,2|0,0:0|0:0,0:0:0:0:
200,46,34798,1,2,0:0:0:0:
200,46,35038,5,2,0:0:0:0:
294,109,35158,2,0,L|288:50,1,58.4999973220826,2|0,0:0|0:0,0:0:0:0:
176,55,35398,5,2,0:0:0:0:
260,175,35518,2,0,L|265:116,1,58.4999973220826,2|0,0:0|0:0,0:0:0:0:
100,48,35758,1,2,0:0:0:0:
100,48,35998,6,0,L|107:137,1,90,2|0,0:0|0:0,0:0:0:0:
110,28,36358,1,2,0:0:0:0:
29,174,36478,6,0,L|21:265,1,91.1250003476143,8|0,0:0|0:0,0:0:0:0:
32,283,36718,1,2,0:0:0:0:
254,382,36958,6,0,L|261:294,1,87.749995983124,6|0,0:0|0:0,0:0:0:0:
278,277,37198,1,2,0:0:0:0:
234,163,37318,1,2,0:0:0:0:
337,282,37438,6,0,L|278:277,1,58.4999973220826,2|0,0:0|0:0,0:0:0:0:
349,168,37678,1,2,0:0:0:0:
349,168,37918,6,0,L|359:261,1,90,2|0,0:0|0:0,0:0:0:0:
378,356,38278,2,0,L|388:267,1,90,2|0,0:0|0:0,0:0:0:0:
331,150,38638,1,2,0:0:0:0:
331,150,38878,5,2,0:0:0:0:
438,75,38998,2,0,L|431:133,1,58.4999973220826,2|0,0:0|0:0,0:0:0:0:
261,181,39238,5,2,0:0:0:0:
388,267,39358,2,0,L|381:208,1,58.4999973220826,2|0,0:0|0:0,0:0:0:0:
195,142,39598,1,2,0:0:0:0:
195,142,39838,6,0,L|185:231,1,90,2|0,0:0|0:0,0:0:0:0:
180,129,40198,1,2,0:0:0:0:
282,1,40318,6,0,L|292:92,1,91.1250003476143,8|0,0:0|0:0,0:0:0:0:
310,106,40558,1,2,0:0:0:0:
79,223,40798,6,0,L|167:216,1,87.749995983124,6|0,0:0|0:0,0:0:0:0:
185,231,41038,1,2,0:0:0:0:
44,154,41158,1,2,0:0:0:0:
61,303,41278,6,0,L|56:244,1,58.4999973220826,2|0,0:0|0:0,0:0:0:0:
180,129,41518,1,2,0:0:0:0:
180,129,41758,6,0,L|269:121,1,90,2|0,0:0|0:0,0:0:0:0:
263,206,42118,2,0,L|351:213,1,90,2|0,0:0|0:0,0:0:0:0:
264,306,42478,1,2,0:0:0:0:
264,306,42718,5,2,0:0:0:0:
384,278,42838,2,0,L|378:337,1,58.4999973220826,2|0,0:0|0:0,0:0:0:0:
240,297,43078,5,2,0:0:0:0:
350,212,43198,2,0,L|355:271,1,58.4999973220826,2|0,0:0|0:0,0:0:0:0:
188,368,43438,1,2,0:0:0:0:
188,368,43678,6,0,L|277:375,1,90,2|0,0:0|0:0,0:0:0:0:
172,378,44038,1,2,0:0:0:0:
67,259,44158,6,0,L|157:251,1,91.1250003476143,8|0,0:0|0:0,0:0:0:0:
175,262,44398,1,2,0:0:0:0:
278,32,44638,6,0,L|269:120,1,87.749995983124,6|0,0:0|0:0,0:0:0:0:
278,141,44878,1,2,0:0:0:0:
160,74,44998,1,2,0:0:0:0:
278,141,45118,6,0,L|337:136,1,58.4999973220826,2|0,0:0|0:0,0:0:0:0:
220,199,45358,1,2,0:0:0:0:
220,199,45598,6,0,L|228:288,1,90,2|0,0:0|0:0,0:0:0:0:
250,384,45958,2,0,L|258:295,1,90,2|0,0:0|0:0,0:0:0:0:
205,184,46318,1,2,0:0:0:0:
205,184,46558,5,2,0:0:0:0:
280,77,46678,2,0,L|222:84,1,58.4999973220826,2|0,0:0|0:0,0:0:0:0:
174,254,46918,5,2,0:0:0:0:
88,127,47038,2,0,L|147:134,1,58.4999973220826,2|0,0:0|0:0,0:0:0:0:
300,60,47278,1,2,0:0:0:0:
300,60,47518,6,0,L|307:149,1,90,2|0,0:0|0:0,0:0:0:0:
313,41,47878,1,2,0:0:0:0:
410,133,47998,6,0,L|402:223,1,91.1250003476143,8|0,0:0|0:0,0:0:0:0:
416,243,48238,1,2,0:0:0:0:
88,126,48478,6,0,P|131:134|174:137,1,87.749995983124,6|0,0:0|0:0,0:0:0:0:
193,150,48718,1,2,0:0:0:0:
19,167,48838,1,2,0:0:0:0:
83,37,48958,6,0,P|87:65|89:95,1,58.4999973220826,2|0,0:0|0:0,0:0:0:0:
4,263,49198,1,2,0:0:0:0:
4,263,49438,6,0,P|48:264|93:268,1,90,2|0,0:0|0:0,0:0:0:0:
103,156,49798,2,0,P|147:154|192:150,1,90,2|0,0:0|0:0,0:0:0:0:
114,255,50158,1,2,0:0:0:0:
114,255,50398,5,0,0:0:0:0:
243,214,50518,1,2,0:0:0:0:
216,294,50638,1,0,0:0:0:0:
192,150,50758,5,2,0:0:0:0:
207,310,50878,2,0,P|205:339|201:368,1,58.4999973220826
4,263,51118,1,0,0:0:0:0:
4,263,51358,6,0,P|49:260|94:256,1,90,2|0,0:0|0:0,0:0:0:0:
0,280,51718,1,2,0:0:0:0:
110,143,51838,6,0,P|105:188|103:233,1,91.1250003476143,8|0,0:0|0:0,0:0:0:0:
114,255,52078,1,2,0:0:0:0:
341,93,52318,6,0,P|298:85|255:82,1,87.749995983124,6|0,0:0|0:0,0:0:0:0:
239,99,52558,1,2,0:0:0:0:
393,26,52678,1,2,0:0:0:0:
384,152,52798,6,0,P|380:181|379:210,1,58.4999973220826,2|0,0:0|0:0,0:0:0:0:
473,141,53038,1,2,0:0:0:0:
473,141,53278,6,0,P|428:149|383:152,1,90,2|0,0:0|0:0,0:0:0:0:
264,216,53638,2,0,P|309:219|354:228,1,90,2|0,0:0|0:0,0:0:0:0:
485,123,53998,1,2,0:0:0:0:
485,123,54238,5,0,0:0:0:0:
431,262,54358,1,0,0:0:0:0:
511,207,54478,1,0,0:0:0:0:
354,228,54598,5,2,0:0:0:0:
510,354,54718,2,0,P|509:324|507:294,1,60.7500002317429
383,151,54958,1,2,0:0:0:0:
383,151,55198,6,0,L|378:184,1,33.7500012874604,2|0,0:0|0:0,0:0:0:0:
213,180,55318,1,0,0:0:0:0:
221,182,55378,1,0,0:0:0:0:
229,184,55438,1,0,0:0:0:0:
237,186,55498,1,0,0:0:0:0:
245,188,55558,1,0,0:0:0:0:
253,190,55618,1,0,0:0:0:0:
264,216,55678,6,0,L|267:238,1,22.5000008583069
267,238,56158,6,0,P|259:281|256:324,1,87.749995983124,6|0,0:0|0:0,0:0:0:0:
244,345,56398,1,2,0:0:0:0:
370,304,56518,1,2,0:0:0:0:
227,360,56638,6,0,P|198:355|168:354,1,58.4999973220826,2|0,0:0|0:0,0:0:0:0:
264,216,56878,1,2,0:0:0:0:
264,216,57118,6,0,P|260:171|250:127,1,90,2|0,0:0|0:0,0:0:0:0:
242,19,57478,2,0,P|238:63|228:107,1,90,2|0,0:0|0:0,0:0:0:0:
282,234,57838,1,2,0:0:0:0:
282,234,58078,5,2,0:0:0:0:
423,198,58198,1,2,0:0:0:0:
392,277,58318,1,2,0:0:0:0:
390,115,58438,5,2,0:0:0:0:
401,292,58558,2,0,P|400:327|397:350,1,58.4999973220826
264,216,58798,1,0,0:0:0:0:
264,216,59038,6,0,P|309:213|354:204,1,90,2|0,0:0|0:0,0:0:0:0:
249,233,59398,1,2,0:0:0:0:
172,135,59518,6,0,P|127:126|81:123,1,91.1250003476143,8|0,0:0|0:0,0:0:0:0:
69,107,59758,1,2,0:0:0:0:
263,0,59998,6,0,P|254:43|251:86,1,87.749995983124,6|0,0:0|0:0,0:0:0:0:
268,103,60238,1,2,0:0:0:0:
161,0,60358,1,2,0:0:0:0:
172,135,60478,6,0,P|171:164|167:193,1,58.4999973220826,2|0,0:0|0:0,0:0:0:0:
231,280,60718,1,2,0:0:0:0:
231,280,60958,6,0,P|275:278|319:267,1,90,2|0,0:0|0:0,0:0:0:0:
126,291,61318,2,0,P|170:293|214:303,1,90,2|0,0:0|0:0,0:0:0:0:
336,242,61678,1,2,0:0:0:0:
336,242,61918,5,2,0:0:0:0:
299,384,62038,1,2,0:0:0:0:
315,109,62278,5,2,0:0:0:0:
352,251,62398,1,2,0:0:0:0:
284,3,62638,5,2,0:0:0:0:
234,177,62878,1,2,0:0:0:0:
220,191,63358,5,8,0:0:0:0:
344,151,63598,1,10,0:0:0:0:
93,54,63838,5,6,0:0:0:0:
93,54,70695,5,14,0:0:0:0:
91,54,77552,6,0,L|180:61,1,90,14|0,0:0|0:0,0:0:0:0:
188,55,78195,1,0,0:0:0:0:
0,101,78409,5,0,0:0:0:0:
77,153,78623,1,0,0:0:0:0:
90,239,78838,1,0,0:0:0:0:
87,260,79052,1,0,0:0:0:0:
79,276,79266,1,0,0:0:0:0:
79,276,79695,6,0,L|168:269,1,90,14|0,0:0|0:0,0:0:0:0:
20,219,80338,1,2,0:0:0:0:
228,326,80980,5,2,0:0:0:0:
79,276,84409,6,0,L|168:269,1,90,14|0,0:0|0:0,0:0:0:0:
176,274,85052,1,0,0:0:0:0:
338,140,85266,5,0,0:0:0:0:
315,253,85480,1,0,0:0:0:0:
393,193,85695,1,0,0:0:0:0:
400,221,85909,1,0,0:0:0:0:
476,194,86123,1,0,0:0:0:0:
476,194,86552,6,0,L|469:283,1,90,2|0,0:0|0:0,0:0:0:0:
384,100,87195,6,0,L|392:192,1,91.8000005603027,2|2,0:0|0:0,0:0:0:0:
392,192,89123,6,0,L|385:103,1,90,2|0,0:0|0:0,0:0:0:0:
378,95,89766,1,2,0:0:0:0:
285,177,89980,5,2,0:0:0:0:
398,199,90195,1,0,0:0:0:0:
261,282,90409,5,2,0:0:0:0:
289,277,90516,1,2,0:0:0:0:
317,272,90623,1,2,0:0:0:0:
345,267,90730,1,2,0:0:0:0:
398,199,90838,5,2,0:0:0:0:
438,340,90945,1,2,0:0:0:0:
490,182,91052,5,2,0:0:0:0:
452,328,91159,1,2,0:0:0:0:
155,48,92123,6,0,L|162:137,1,90,2|0,0:0|0:0,0:0:0:0:
183,158,92373,1,0,0:0:0:0:
183,162,92423,1,0,0:0:0:0:
183,166,92473,1,0,0:0:0:0:
183,170,92523,6,0,L|179:214,1,45
244,116,92704,2,0,L|240:71,1,45
302,176,92886,2,0,L|324:174,2,22.5
279,198,93007,6,0,L|272:287,1,90,2|0,0:0|0:0,0:0:0:0:
242,295,93520,6,0,L|249:384,1,90
256,192,93950,12,0,97520,0:0:0:0:
108,311,97760,6,0,L|112:266,1,45,6|0,0:0|0:0,0:0:0:0:
84,192,98000,1,0,0:0:0:0:
115,324,98119,1,0,0:0:0:0:
78,177,98239,6,0,L|167:170,1,90,10|0,0:0|0:0,0:0:0:0:
373,73,98714,5,0,0:0:0:0:
371,95,98832,1,0,0:0:0:0:
369,118,98950,1,0,0:0:0:0:
367,140,99068,1,0,0:0:0:0:
424,198,99186,6,0,L|431:287,1,90,10|2,0:0|0:0,0:0:0:0:
281,347,99654,5,2,0:0:0:0:
421,302,99770,1,2,0:0:0:0:
431,287,100001,5,2,0:0:0:0:
225,269,100118,1,10,0:0:0:0:
229,259,100349,1,2,0:0:0:0:
233,248,100578,6,0,P|233:204|222:160,1,90,6|0,0:0|0:0,0:0:0:0:
358,206,100808,2,0,P|358:162|369:118,1,90,6|0,0:0|0:0,0:0:0:0:
198,24,101036,5,14,0:0:0:0:
305,42,101149,1,2,0:0:0:0:
194,14,101263,1,6,0:0:0:0:
114,224,101489,6,0,L|159:220,1,45,6|0,0:0|0:0,0:0:0:0:
233,248,101714,1,0,0:0:0:0:
101,217,101827,1,0,0:0:0:0:
253,166,101939,6,0,L|246:255,1,90,10|0,0:0|0:0,0:0:0:0:
347,137,102387,5,2,0:0:0:0:
388,153,102498,1,0,0:0:0:0:
433,149,102609,1,0,0:0:0:0:
470,123,102719,1,2,0:0:0:0:
340,48,102830,6,0,L|347:137,1,90,10|2,0:0|0:0,0:0:0:0:
246,255,103271,5,2,0:0:0:0:
383,304,103380,1,2,0:0:0:0:
394,291,103599,5,2,0:0:0:0:
211,357,103708,1,10,0:0:0:0:
215,367,103925,1,10,0:0:0:0:
219,376,104142,6,0,L|129:367,1,90,6|0,0:0|0:0,0:0:0:0:
304,299,104357,2,0,L|394:291,1,90,6|0,0:0|0:0,0:0:0:0:
102,209,104573,5,14,0:0:0:0:
234,224,104680,1,2,0:0:0:0:
95,200,104787,1,6,0:0:0:0:
265,71,105000,6,0,L|270:138,1,67.5000025749208,6|0,0:0|0:0,0:0:0:0:
234,224,105212,1,0,0:0:0:0:
275,59,105319,1,0,0:0:0:0:
368,210,105425,2,0,L|234:224,1,135.000005149842,10|0,0:0|0:0,0:0:0:0:
147,91,105847,5,2,0:0:0:0:
173,128,105951,1,0,0:0:0:0:
177,173,106057,1,0,0:0:0:0:
156,213,106161,1,2,0:0:0:0:
13,104,106266,6,0,L|147:90,1,135.000005149842,10|0,0:0|0:0,0:0:0:0:
234,224,106682,5,2,0:0:0:0:
76,185,106785,1,2,0:0:0:0:
70,204,106992,5,2,0:0:0:0:
273,140,107095,1,10,0:0:0:0:
269,130,107300,1,10,0:0:0:0:
265,121,107505,6,0,P|309:123|353:113,1,90,6|0,0:0|0:0,0:0:0:0:
205,20,107709,2,0,P|160:17|117:28,1,90,6|0,0:0|0:0,0:0:0:0:
20,130,107913,5,14,0:0:0:0:
169,104,108014,1,2,0:0:0:0:
11,119,108115,1,6,0:0:0:0:
88,308,108317,6,0,L|155:313,1,67.5000025749208,6|0,0:0|0:0,0:0:0:0:
228,284,108519,1,0,0:0:0:0:
75,315,108619,1,0,0:0:0:0:
284,342,108719,2,0,P|308:281|280:222,1,135.000005149842,10|0,0:0|0:0,0:0:0:0:
0,166,109119,5,2,0:0:0:0:
68,204,109218,1,0,0:0:0:0:
146,196,109317,1,0,0:0:0:0:
202,139,109416,1,2,0:0:0:0:
15,31,109515,6,0,L|1:165,1,135.000005149842,10|2,0:0|0:0,0:0:0:0:
228,284,109909,5,0,0:0:0:0:
202,139,110007,1,0,0:0:0:0:
259,79,110203,5,2,0:0:0:0:
155,313,110301,1,10,0:0:0:0:
159,323,110496,1,2,0:0:0:0:
164,333,110690,6,0,L|74:324,1,90,6|0,0:0|0:0,0:0:0:0:
297,210,110883,2,0,L|387:201,1,90,6|0,0:0|0:0,0:0:0:0:
203,46,111076,5,14,0:0:0:0:
203,193,111172,1,2,0:0:0:0:
115,74,111268,1,6,0:0:0:0:
256,121,111364,1,2,0:0:0:0:
115,165,111460,6,0,L|70:159,1,45,6|0,0:0|0:0,0:0:0:0:
272,113,111651,1,10,0:0:0:0:
272,113,111746,1,0,0:0:0:0:
272,113,111841,2,0,P|319:120|361:122,1,90,2|0,0:0|0:0,0:0:0:0:
500,214,112032,2,0,P|456:216|410:223,1,90,8|0,0:0|0:0,0:0:0:0:
281,267,112221,5,2,0:0:0:0:
286,284,112315,1,0,0:0:0:0:
291,301,112409,1,8,0:0:0:0:
295,318,112504,1,0,0:0:0:0:
235,380,112598,6,0,L|255:292,1,90,2|0,0:0|0:0,0:0:0:0:
381,210,112785,2,0,L|360:122,1,90,10|0,0:0|0:0,0:0:0:0:
161,11,112972,5,2,0:0:0:0:
115,165,113065,1,2,0:0:0:0:
107,177,113251,5,2,0:0:0:0:
263,141,113344,1,2,0:0:0:0:
255,127,113529,5,2,0:0:0:0:
35,71,113714,6,0,P|27:115|23:159,1,90,6|0,0:0|0:0,0:0:0:0:
141,292,113898,2,0,P|137:247|128:203,1,90,6|0,0:0|0:0,0:0:0:0:
257,48,114082,5,14,0:0:0:0:
161,11,114173,1,2,0:0:0:0:
179,115,114264,1,10,0:0:0:0:
353,10,114447,6,0,P|386:6|420:3,1,67.5000025749208,6|0,0:0|0:0,0:0:0:0:
272,155,114628,1,8,0:0:0:0:
263,141,114719,1,0,0:0:0:0:
255,127,114810,2,0,L|265:38,1,90,2|0,0:0|0:0,0:0:0:0:
397,274,114991,1,8,0:0:0:0:
91,353,115171,5,2,0:0:0:0:
62,305,115260,1,0,0:0:0:0:
61,249,115351,1,8,0:0:0:0:
88,201,115440,1,0,0:0:0:0:
136,172,115530,1,2,0:0:0:0:
397,274,115708,1,8,0:0:0:0:
157,302,115886,5,2,0:0:0:0:
347,198,115974,1,2,0:0:0:0:
356,182,116152,5,10,0:0:0:0:
137,92,116241,1,2,0:0:0:0:
128,76,116417,1,10,0:0:0:0:
119,60,116592,6,0,L|231:46,1,99.0000030212403,14|0,0:0|0:0,0:0:0:0:
356,182,116769,2,0,P|304:167|250:169,1,107.999996704102,6|0,0:0|0:0,0:0:0:0:
126,302,116944,2,0,P|114:245|111:185,1,116.999994644165,6|0,0:0|0:0,0:0:0:0:
372,57,117118,2,0,L|355:181,1,125.999996154785,6|0,0:0|0:0,0:0:0:0:
255,325,117292,6,0,B|337:273|352:356|441:306,1,180,6|8,0:0|0:0,0:0:0:0:
427,314,117551,1,0,0:0:0:0:
427,314,117637,1,2,0:0:0:0:
250,169,117810,1,10,0:0:0:0:
418,37,117982,5,2,0:0:0:0:
422,81,118068,1,0,0:0:0:0:
427,126,118154,1,10,0:0:0:0:
432,171,118239,1,0,0:0:0:0:
374,230,118325,6,0,P|367:275|366:320,1,90,2|0,0:0|0:0,0:0:0:0:
169,207,118495,2,0,P|210:190|249:168,1,90,10|0,0:0|0:0,0:0:0:0:
427,126,118664,5,2,0:0:0:0:
270,74,118749,1,2,0:0:0:0:
263,65,118919,5,2,0:0:0:0:
107,117,119004,1,10,0:0:0:0:
100,126,119172,1,0,0:0:0:0:
93,135,119340,6,0,L|101:224,1,90,6|0,0:0|0:0,0:0:0:0:
205,242,119508,2,0,L|196:331,1,90,6|0,0:0|0:0,0:0:0:0:
218,27,119675,6,0,L|272:111,1,90,6|0,0:0|0:0,0:0:0:0:
374,230,119841,2,0,L|350:316,1,90,6|0,0:0|0:0,0:0:0:0:
512,68,120008,6,0,B|465:52|430:68|430:68|409:54|409:54|372:62|337:52,1,180,6|10,0:0|0:0,0:0:0:0:
338,53,120256,1,0,0:0:0:0:
338,53,120339,1,2,0:0:0:0:
101,224,120504,1,10,0:0:0:0:
350,316,120668,5,2,0:0:0:0:
361,237,120749,1,0,0:0:0:0:
326,165,120831,1,10,0:0:0:0:
257,125,120913,1,0,0:0:0:0:
177,132,120995,1,2,0:0:0:0:
284,365,121159,1,10,0:0:0:0:
509,202,121321,5,2,0:0:0:0:
449,89,121402,2,0,L|458:0,1,90,2|0,0:0|0:0,0:0:0:0:
266,278,121564,5,0,0:0:0:0:
326,165,121645,2,0,L|316:75,1,90,2|0,0:0|0:0,0:0:0:0:
504,216,121806,5,2,0:0:0:0:
284,365,121967,6,0,L|194:358,1,90,2|2,0:0|0:0,0:0:0:0:
18,261,122128,2,0,P|71:260|123:245,1,107.999996704102,2|2,0:0|0:0,0:0:0:0:
204,38,122288,6,0,L|216:163,1,125.999996154785,2|2,0:0|0:0,0:0:0:0:
299,334,122447,2,0,P|359:318|422:319,1,125.999996154785,2|2,0:0|0:0,0:0:0:0:
481,92,122607,5,14,0:0:0:0:
472,89,122686,1,2,0:0:0:0:
463,86,122765,1,2,0:0:0:0:
454,83,122844,1,2,0:0:0:0:
445,80,122923,1,2,0:0:0:0:
423,207,123082,5,14,0:0:0:0:
421,197,123160,1,2,0:0:0:0:
419,188,123239,1,2,0:0:0:0:
417,179,123317,1,2,0:0:0:0:
415,169,123396,1,2,0:0:0:0:
294,214,123553,5,14,0:0:0:0:
302,207,123631,1,2,0:0:0:0:
308,201,123709,1,2,0:0:0:0:
315,195,123786,1,2,0:0:0:0:
323,188,123865,1,2,0:0:0:0:
223,105,124020,5,14,0:0:0:0:
233,109,124097,1,2,0:0:0:0:
241,111,124175,1,2,0:0:0:0:
250,114,124252,1,2,0:0:0:0:
260,117,124329,1,2,0:0:0:0:
499,131,124484,5,14,0:0:0:0:
450,136,124560,1,2,0:0:0:0:
415,169,124638,1,2,0:0:0:0:
405,216,124714,1,2,0:0:0:0:
424,260,124791,1,2,0:0:0:0:
298,367,124945,5,14,0:0:0:0:
304,322,125021,1,2,0:0:0:0:
310,277,125097,1,2,0:0:0:0:
316,233,125173,1,2,0:0:0:0:
323,188,125250,1,2,0:0:0:0:
267,65,125401,5,14,0:0:0:0:
226,46,125476,1,2,0:0:0:0:
181,42,125553,1,2,0:0:0:0:
137,52,125628,1,2,0:0:0:0:
53,89,125704,5,2,0:0:0:0:
103,70,125779,1,2,0:0:0:0:
156,77,125855,1,2,0:0:0:0:
200,108,125930,1,2,0:0:0:0:
245,182,126005,6,0,B|264:222|252:279|234:361|185:375|116:386|81:345|63:290|93:232|131:192|204:232|289:268|293:303|306:353|363:358|420:342|447:283|438:246|429:218,1,675,14|0,0:0|0:0,0:0:0:0:
267,65,128405,5,6,0:0:0:0:
145,123,283293,5,0,0:0:0:0:
145,123,284253,2,0,L|134:212,2,90
145,123,286173,5,0,0:0:0:0:
212,226,286653,1,0,0:0:0:0:
267,116,287133,1,0,0:0:0:0:
267,115,288093,6,0,P|310:106|355:106,1,90
470,90,289053,2,0,P|425:90|381:80,1,90
202,129,290013,1,0,0:0:0:0:
341,0,290493,1,0,0:0:0:0:
384,185,290973,5,0,0:0:0:0:
384,185,291933,2,0,B|376:230|376:230|350:266,1,90
237,112,292893,2,0,B|279:96|279:96|324:100,1,90
247,275,293853,5,0,0:0:0:0:
324,100,294813,1,0,0:0:0:0:
350,266,296733,5,0,0:0:0:0:
237,112,297693,1,0,0:0:0:0:
384,185,298173,1,0,0:0:0:0:
247,275,298653,1,0,0:0:0:0:
246,275,299613,5,0,0:0:0:0:
198,199,300093,1,0,0:0:0:0:
211,110,300573,1,0,0:0:0:0:
371,161,301533,5,0,0:0:0:0:
330,242,302013,1,0,0:0:0:0:
247,275,302493,1,0,0:0:0:0:
211,110,303453,5,0,0:0:0:0:
301,106,303933,1,0,0:0:0:0:
371,161,304413,5,0,0:0:0:0:
247,275,304893,1,0,0:0:0:0:
211,110,305373,1,0,0:0:0:0:
330,242,305853,1,0,0:0:0:0:
198,199,306333,1,0,0:0:0:0:
198,199,307293,5,0,0:0:0:0:
110,218,307773,1,0,0:0:0:0:
35,166,308253,1,0,0:0:0:0:
198,199,308733,1,0,0:0:0:0:
235,361,309213,5,0,0:0:0:0:
304,91,310173,1,0,0:0:0:0:
35,166,312093,1,0,0:0:0:0:
235,361,313053,5,0,0:0:0:0:
304,91,313533,1,0,0:0:0:0:
35,165,314013,5,2,0:0:0:0:
39,176,314493,1,2,0:0:0:0:
190,51,314973,6,0,L|145:42,1,45
39,176,315933,5,2,0:0:0:0:
35,186,316413,1,2,0:0:0:0:
221,75,316893,6,0,L|176:84,1,45
35,186,317853,5,2,0:0:0:0:
39,196,318333,1,2,0:0:0:0:
252,116,318813,6,0,L|207:107,1,45
39,196,319773,5,2,0:0:0:0:
43,206,320253,1,2,0:0:0:0:
283,140,320733,6,0,L|238:149,1,45
43,206,321693,5,2,0:0:0:0:
39,216,322173,1,2,0:0:0:0:
314,181,322653,6,0,L|269:172,1,45
39,216,323613,5,2,0:0:0:0:
43,226,324093,1,2,0:0:0:0:
345,205,324573,6,0,L|300:214,1,45
43,226,325533,5,2,0:0:0:0:
39,236,326013,1,2,0:0:0:0:
376,246,326493,6,0,L|331:237,1,45
39,236,327453,5,2,0:0:0:0:
43,246,327933,1,2,0:0:0:0:
407,270,328413,6,0,L|362:279,1,45
43,246,329373,6,0,P|37:290|27:334,1,90
110,84,329613,1,0,0:0:0:0:
173,218,329733,1,0,0:0:0:0:
224,128,329853,1,0,0:0:0:0:
287,262,329973,1,0,0:0:0:0:
343,127,330093,2,0,P|298:121|254:110,1,90
365,152,330333,6,0,P|387:146|410:143,2,45
287,262,330573,1,0,0:0:0:0:
285,269,330693,1,0,0:0:0:0:
232,84,330813,6,0,P|209:79|188:73,2,45
299,283,331053,1,0,0:0:0:0:
301,290,331173,1,0,0:0:0:0:
436,164,331293,6,0,P|444:125|445:86,1,78.75
228,169,332253,5,0,0:0:0:0:
261,80,332373,1,0,0:0:0:0:
350,114,332493,1,0,0:0:0:0:
316,202,332613,1,0,0:0:0:0:
266,332,332733,5,0,0:0:0:0:
232,244,332853,1,0,0:0:0:0:
321,210,332973,1,0,0:0:0:0:
354,299,333093,1,0,0:0:0:0:
252,352,333213,5,0,0:0:0:0:
248,356,333273,1,0,0:0:0:0:
244,360,333333,1,0,0:0:0:0:
354,298,333453,2,0,P|397:289|442:287,1,90
232,244,333693,2,0,P|187:242|143:232,1,90
325,57,333933,1,0,0:0:0:0:
251,213,334053,1,0,0:0:0:0:
91,42,334173,5,0,0:0:0:0:
220,14,334293,1,0,0:0:0:0:
58,131,334413,1,0,0:0:0:0:
186,102,334533,1,0,0:0:0:0:
30,306,334653,6,0,B|15:266|15:266|25:220,1,90
186,102,334893,1,0,0:0:0:0:
111,344,335013,1,0,0:0:0:0:
301,190,335133,6,0,L|344:200,2,45
145,239,335373,1,0,0:0:0:0:
136,249,335493,1,0,0:0:0:0:
352,291,335613,6,0,L|395:280,2,45
195,112,335853,1,0,0:0:0:0:
186,102,335973,1,0,0:0:0:0:
348,7,336093,6,0,L|341:51,1,45
143,273,337053,6,0,B|111:278|111:278|85:275|85:275|53:280,1,90
255,193,337293,2,0,B|287:198|287:198|313:195|313:195|344:200,1,90
143,153,337533,1,0,0:0:0:0:
235,321,337653,1,0,0:0:0:0:
286,114,337773,1,0,0:0:0:0:
143,273,337893,1,0,0:0:0:0:
293,103,338013,6,0,L|282:39,2,45
312,271,338253,1,0,0:0:0:0:
307,282,338373,1,0,0:0:0:0:
384,44,338493,6,0,L|395:-20,2,45
255,193,338733,1,0,0:0:0:0:
260,204,338853,1,0,0:0:0:0:
127,47,338973,6,0,P|149:41|172:39,1,45
128,249,339933,6,0,P|119:293|100:333,1,90
228,144,340173,2,0,P|208:103|200:59,1,90
306,300,340413,5,0,0:0:0:0:
386,120,340533,1,0,0:0:0:0:
244,166,340653,1,0,0:0:0:0:
447,248,340773,1,0,0:0:0:0:
305,318,340893,5,0,0:0:0:0:
301,322,340953,1,0,0:0:0:0:
297,326,341013,1,0,0:0:0:0:
293,330,341073,1,0,0:0:0:0:
289,333,341133,2,0,P|244:335|200:325,1,90
54,147,341373,5,0,0:0:0:0:
85,267,341493,1,0,0:0:0:0:
198,100,341613,1,0,0:0:0:0:
198,248,341733,1,0,0:0:0:0:
314,100,341853,1,0,0:0:0:0:
314,248,341973,1,0,0:0:0:0:
458,147,342093,1,0,0:0:0:0:
427,267,342213,1,0,0:0:0:0:
306,91,342333,6,0,P|309:46|320:2,1,90
193,259,342573,2,0,P|203:302|207:347,1,90
333,229,342813,5,0,0:0:0:0:
244,166,342933,1,0,0:0:0:0:
395,100,343053,1,0,0:0:0:0:
193,259,343173,1,0,0:0:0:0:
333,229,343293,1,0,0:0:0:0:
198,100,343413,1,0,0:0:0:0:
458,147,343533,1,0,0:0:0:0:
193,259,343653,1,0,0:0:0:0:
306,91,343773,6,0,P|309:46|320:2,2,90
306,91,345693,5,0,0:0:0:0:
299,112,345753,1,0,0:0:0:0:
292,133,345813,1,0,0:0:0:0:
284,154,345873,1,0,0:0:0:0:
276,175,345933,2,0,L|186:185,1,90
9,278,346173,5,0,0:0:0:0:
52,270,346233,1,0,0:0:0:0:
95,284,346293,1,0,0:0:0:0:
125,316,346353,1,0,0:0:0:0:
137,359,346413,2,0,P|145:315|148:269,1,90
106,30,346653,5,0,0:0:0:0:
359,73,346773,1,0,0:0:0:0:
130,117,346893,1,0,0:0:0:0:
366,58,347013,1,0,0:0:0:0:
187,186,347133,1,0,0:0:0:0:
421,210,347253,1,0,0:0:0:0:
149,270,347373,1,0,0:0:0:0:
419,124,347493,1,0,0:0:0:0:
311,349,347613,6,0,L|303:304,1,45
97,101,348573,5,0,0:0:0:0:
281,154,348693,1,0,0:0:0:0:
215,36,348813,1,0,0:0:0:0:
163,220,348933,1,0,0:0:0:0:
304,62,349053,2,0,B|339:57|339:57|358:61|358:61|392:57,1,90
163,220,349293,2,0,B|127:215|127:215|108:219|108:219|74:215,1,90
313,346,349533,6,0,L|357:334,2,45
156,313,349773,1,0,0:0:0:0:
141,304,349893,1,0,0:0:0:0:
280,178,350013,6,0,L|324:190,2,45
123,211,350253,1,0,0:0:0:0:
108,220,350373,1,0,0:0:0:0:
369,280,350493,5,0,0:0:0:0:
367,293,350553,1,0,0:0:0:0:
364,307,350613,1,0,0:0:0:0:
361,321,350673,1,0,0:0:0:0:
356,334,350733,1,0,0:0:0:0:
273,375,350853,1,0,0:0:0:0:
227,94,350973,5,0,0:0:0:0:
229,107,351033,1,0,0:0:0:0:
232,121,351093,1,0,0:0:0:0:
235,135,351153,1,0,0:0:0:0:
240,148,351213,1,0,0:0:0:0:
323,189,351333,1,0,0:0:0:0:
117,153,351453,5,0,0:0:0:0:
306,60,351573,1,0,0:0:0:0:
207,246,351693,1,0,0:0:0:0:
177,38,351813,1,0,0:0:0:0:
323,189,351933,2,0,P|332:232|336:277,1,90
193,117,352173,2,0,P|196:72|206:28,1,90
84,239,352413,6,0,P|46:244|7:238,1,78.75
145,171,353373,5,0,0:0:0:0:
250,242,353493,1,0,0:0:0:0:
145,171,353613,1,0,0:0:0:0:
250,242,353733,1,0,0:0:0:0:
104,251,353853,5,0,0:0:0:0:
276,160,353973,1,0,0:0:0:0:
104,251,354093,1,0,0:0:0:0:
276,160,354213,1,0,0:0:0:0:
144,156,354333,5,0,0:0:0:0:
254,253,354453,1,0,0:0:0:0:
108,262,354573,5,0,0:0:0:0:
283,146,354693,1,0,0:0:0:0:
83,102,354813,5,0,0:0:0:0:
258,263,354933,1,0,0:0:0:0:
7,237,355053,5,0,0:0:0:0:
291,134,355173,1,0,0:0:0:0:
119,339,355293,6,0,P|115:300|108:262,1,78.75
175,65,356253,5,0,0:0:0:0:
172,76,356313,1,0,0:0:0:0:
170,87,356373,1,0,0:0:0:0:
169,98,356433,1,0,0:0:0:0:
154,112,356493,1,0,0:0:0:0:
156,122,356553,1,0,0:0:0:0:
158,133,356613,1,0,0:0:0:0:
159,145,356673,1,0,0:0:0:0:
148,167,356733,6,0,L|50:157,1,90
259,67,356973,1,0,0:0:0:0:
281,64,357033,1,0,0:0:0:0:
303,62,357093,1,0,0:0:0:0:
326,60,357153,1,0,0:0:0:0:
348,57,357213,5,0,0:0:0:0:
230,144,357333,1,0,0:0:0:0:
361,188,357453,1,0,0:0:0:0:
242,274,357573,1,0,0:0:0:0:
373,318,357693,2,0,B|421:314|421:314|456:291,1,90
230,144,357933,5,0,0:0:0:0:
148,353,358053,1,0,0:0:0:0:
45,247,358173,5,0,0:0:0:0:
45,241,358233,1,0,0:0:0:0:
46,235,358293,1,0,0:0:0:0:
47,230,358353,1,0,0:0:0:0:
48,224,358413,1,0,0:0:0:0:
49,219,358473,1,0,0:0:0:0:
50,213,358533,1,0,0:0:0:0:
51,208,358593,1,0,0:0:0:0:
52,202,358653,1,0,0:0:0:0:
53,197,358713,1,0,0:0:0:0:
53,191,358773,1,0,0:0:0:0:
54,185,358833,1,0,0:0:0:0:
55,180,358893,1,0,0:0:0:0:
56,174,358953,1,0,0:0:0:0:
57,169,359013,1,0,0:0:0:0:
58,163,359073,1,0,0:0:0:0:
59,158,359133,6,0,P|103:155|147:144,1,90
353,77,360093,6,0,L|408:88,28,56.25
454,165,360993,1,0,0:0:0:0:
457,175,361053,6,0,L|445:230,12,56.25
365,262,361473,1,0,0:0:0:0:
362,272,361533,6,0,L|373:327,14,56.25
282,370,362013,6,0,P|242:368|205:356,1,78.75
