osu file format v14

[General]
AudioFilename: audio.mp3
AudioLeadIn: 0
PreviewTime: 158061
Countdown: 0
SampleSet: Soft
StackLeniency: 0.7
Mode: 2
LetterboxInBreaks: 0
WidescreenStoryboard: 0

[Editor]
Bookmarks: 9401,33161,151555,192061,221101,345763,348643
DistanceSpacing: 1
BeatDivisor: 4
GridSize: 8
TimelineZoom: 4.800003

[Metadata]
Title:Aleph-0
TitleUnicode:א‎0
Artist:LeaF
ArtistUnicode:LeaF
Creator:[_-Kukkai-_]
Version:Infinite
Source:
Tags:bofu2016 - legendary again - aleph-naught aleph zero aleph-null Doppelganger
BeatmapID:1824781
BeatmapSetID:872952

[Difficulty]
HPDrainRate:0
CircleSize:4.2
OverallDifficulty:9.7
ApproachRate:9.7
SliderMultiplier:1.7
SliderTickRate:1

[Events]
//Background and Video events
0,0,"aleph.jpg",0,0
//Break Periods
//Storyboard Layer 0 (Background)
//Storyboard Layer 1 (Fail)
//Storyboard Layer 2 (Pass)
//Storyboard Layer 3 (Foreground)
//Storyboard Sound Samples

[TimingPoints]
1481,240,4,2,0,5,1,0
6761,-100,4,2,0,60,0,0
7601,-100,4,2,0,5,0,0
7721,-66.6666666666667,4,2,0,5,0,0
15401,-80,4,2,0,60,0,0
17801,240,4,2,0,30,1,0
63881,428.571428571429,4,2,0,40,1,0
63881,-133.333333333333,4,2,0,40,0,0
77595,-100,4,2,0,40,0,0
92166,240,4,2,0,60,1,0
92886,-100,4,2,0,5,0,0
92946,-100,4,2,0,5,0,0
96606,240,4,2,0,60,1,0
97806,240,4,2,0,60,1,1
98046,239.043824701195,4,2,0,60,1,1
98285,238.095238095238,4,2,0,60,1,1
98523,237.154150197628,4,2,0,60,1,1
98763,236.220472440945,4,2,0,60,1,1
98999,235.294117647059,4,2,0,60,1,1
99234,234.375,4,2,0,60,1,1
99468,233.463035019455,4,2,0,60,1,1
99703,232.558139534884,4,2,0,60,1,1
99935,231.660231660232,4,2,0,60,1,1
100166,230.769230769231,4,2,0,60,1,1
100396,229.885057471264,4,2,0,60,1,1
100854,228.136882129278,4,2,0,60,1,1
101082,227.272727272727,4,2,0,60,1,1
101309,226.415094339623,4,2,0,60,1,1
101537,225.563909774436,4,2,0,60,1,1
101762,224.719101123595,4,2,0,60,1,1
101986,223.880597014925,4,2,0,60,1,1
102209,223.048327137546,4,2,0,60,1,1
102434,222.222222222222,4,2,0,60,1,1
102656,221.40221402214,4,2,0,60,1,1
102877,220.588235294118,4,2,0,60,1,1
103097,219.78021978022,4,2,0,60,1,1
103319,218.978102189781,4,2,0,60,1,1
103537,218.181818181818,4,2,0,60,1,1
103755,217.391304347826,4,2,0,60,1,1
103972,216.606498194946,4,2,0,60,1,1
104188,215.827338129496,4,2,0,60,1,1
104403,215.05376344086,4,2,0,60,1,1
104618,214.285714285714,4,2,0,60,1,1
104832,213.523131672598,4,2,0,60,1,1
105049,212.765957446809,4,2,0,60,1,1
105261,212.014134275618,4,2,0,60,1,1
105473,211.267605633803,4,2,0,60,1,1
105684,210.526315789474,4,2,0,60,1,1
105895,209.79020979021,4,2,0,60,1,1
106104,209.059233449477,4,2,0,60,1,1
106313,208.333333333333,4,2,0,60,1,1
106521,207.612456747405,4,2,0,60,1,1
106731,206.896551724138,4,2,0,60,1,1
106937,206.185567010309,4,2,0,60,1,1
107143,205.479452054795,4,2,0,60,1,1
107348,204.778156996587,4,2,0,60,1,1
107556,204.081632653061,4,2,0,60,1,1
107760,203.389830508475,4,2,0,60,1,1
107963,202.702702702703,4,2,0,60,1,1
108165,202.020202020202,4,2,0,60,1,1
108371,201.342281879195,4,2,0,60,1,1
108572,200.66889632107,4,2,0,60,1,1
108772,200,4,2,0,60,1,1
108972,199.335548172757,4,2,0,60,1,1
109173,198.675496688742,4,2,0,60,1,1
109371,198.019801980198,4,2,0,60,1,1
109569,197.368421052632,4,2,0,60,1,1
109766,196.72131147541,4,2,0,60,1,1
109962,196.078431372549,4,2,0,60,1,1
110158,195.439739413681,4,2,0,60,1,1
110353,194.805194805195,4,2,0,60,1,1
110547,194.174757281553,4,2,0,60,1,1
110741,193.548387096774,4,2,0,60,1,1
110934,192.926045016077,4,2,0,60,1,1
111126,192.307692307692,4,2,0,60,1,1
111318,191.693290734824,4,2,0,60,1,1
111513,191.082802547771,4,2,0,60,1,1
111704,190.47619047619,4,2,0,60,1,1
111894,189.873417721519,4,2,0,60,1,1
112083,189.274447949527,4,2,0,60,1,1
112272,188.679245283019,4,2,0,60,1,1
112460,188.087774294671,4,2,0,60,1,1
112648,187.5,4,2,0,60,1,1
112835,186.915887850467,4,2,0,60,1,1
113024,186.335403726708,4,2,0,60,1,1
113210,185.758513931889,4,2,0,60,1,1
113395,185.185185185185,4,2,0,60,1,1
113580,184.615384615385,4,2,0,60,1,1
113764,184.049079754601,4,2,0,60,1,1
113948,183.48623853211,4,2,0,60,1,1
114131,182.926829268293,4,2,0,60,1,1
114313,182.370820668693,4,2,0,60,1,1
114498,181.818181818182,4,2,0,60,1,1
114679,181.268882175227,4,2,0,60,1,1
114860,180.722891566265,4,2,0,60,1,1
115040,180.18018018018,4,2,0,60,1,1
115222,179.640718562874,4,2,0,60,1,1
115401,179.10447761194,4,2,0,60,1,1
115580,178.571428571429,4,2,0,60,1,1
115758,178.041543026706,4,2,0,60,1,1
115938,177.514792899408,4,2,0,60,1,1
116115,176.991150442478,4,2,0,60,1,1
116291,176.470588235294,4,2,0,60,1,1
116467,175.953079178886,4,2,0,60,1,1
116644,175.438596491228,4,2,0,60,1,1
116819,174.927113702624,4,2,0,60,1,1
116993,174.418604651163,4,2,0,60,1,1
117167,173.913043478261,4,2,0,60,1,1
117342,173.410404624277,4,2,0,60,1,1
117515,172.910662824207,4,2,0,60,1,1
117687,172.413793103448,4,2,0,60,1,1
117859,171.919770773639,4,2,0,60,1,1
118030,171.428571428571,4,2,0,60,1,1
118201,170.940170940171,4,2,0,60,1,1
118371,170.454545454545,4,2,0,60,1,1
118541,169.971671388102,4,2,0,60,1,1
118714,169.491525423729,4,2,0,60,1,1
118883,169.014084507042,4,2,0,60,1,1
119052,168.539325842697,4,2,0,60,1,1
119220,168.067226890756,4,2,0,60,1,1
119390,167.597765363129,4,2,0,60,1,1
119557,167.130919220056,4,2,0,60,1,1
119724,166.666666666667,4,2,0,60,1,1
119890,166.204986149584,4,2,0,60,1,1
120060,165.745856353591,4,2,0,60,1,1
120225,165.289256198347,4,2,0,60,1,1
120390,164.835164835165,4,2,0,60,1,1
120554,164.383561643836,4,2,0,60,1,1
120720,163.934426229508,4,2,0,60,1,1
120883,163.487738419619,4,2,0,60,1,1
121046,163.04347826087,4,2,0,60,1,1
121209,162.60162601626,4,2,0,60,1,1
121371,162.162162162162,4,2,0,60,1,1
121533,161.725067385445,4,2,0,60,1,1
121694,161.290322580645,4,2,0,60,1,1
121855,160.857908847185,4,2,0,60,1,1
122017,160.427807486631,4,2,0,60,1,1
122177,160,4,2,0,60,1,1
122337,159.574468085106,4,2,0,60,1,1
122496,159.151193633952,4,2,0,60,1,1
122659,158.730158730159,4,2,0,60,1,1
122817,158.311345646438,4,2,0,60,1,1
122977,157.894736842105,4,2,0,60,1,1
123134,157.48031496063,4,2,0,60,1,1
123291,157.068062827225,4,2,0,60,1,1
123448,156.657963446475,4,2,0,60,1,1
123606,156.25,4,2,0,60,1,1
123762,155.844155844156,4,2,0,60,1,1
123918,155.440414507772,4,2,0,60,1,1
124073,155.038759689922,4,2,0,60,1,1
124228,154.639175257732,4,2,0,60,1,1
124382,154.241645244216,4,2,0,60,1,1
124539,153.846153846154,4,2,0,60,1,1
124692,153.452685421995,4,2,0,60,1,1
124845,153.061224489796,4,2,0,60,1,1
124998,152.671755725191,4,2,0,60,1,1
125151,152.284263959391,4,2,0,60,1,1
125303,151.898734177215,4,2,0,60,1,1
125454,151.515151515152,4,2,0,60,1,1
125607,151.133501259446,4,2,0,60,1,1
125758,150.753768844221,4,2,0,60,1,1
125908,150.375939849624,4,2,0,60,1,1
126058,150,4,2,0,60,1,1
126658,149.625935162095,4,2,0,60,1,1
127256,149.253731343284,4,2,0,60,1,1
127853,148.883374689826,4,2,0,60,1,1
128299,150.753768844221,4,2,0,60,1,1
128451,150,4,2,0,60,1,1
128601,150.375939849624,4,2,0,60,1,1
128751,150.753768844221,4,2,0,60,1,1
128901,151.133501259446,4,2,0,60,1,1
129055,151.515151515152,4,2,0,60,1,1
129206,151.898734177215,4,2,0,60,1,1
129357,152.284263959391,4,2,0,60,1,1
129509,152.671755725191,4,2,0,60,1,1
129661,153.061224489796,4,2,0,60,1,1
129814,153.452685421995,4,2,0,60,1,1
129970,153.846153846154,4,2,0,60,1,1
130123,154.241645244216,4,2,0,60,1,1
130280,154.639175257732,4,2,0,60,1,1
130434,155.038759689922,4,2,0,60,1,1
130589,155.440414507772,4,2,0,60,1,1
130744,155.844155844156,4,2,0,60,1,1
130899,156.25,4,2,0,60,1,1
131055,156.657963446475,4,2,0,60,1,1
131211,157.068062827225,4,2,0,60,1,1
131368,157.48031496063,4,2,0,60,1,1
131525,157.894736842105,4,2,0,60,1,1
131682,158.311345646438,4,2,0,60,1,1
131840,158.730158730159,4,2,0,60,1,1
131998,159.151193633952,4,2,0,60,1,1
132157,159.574468085106,4,2,0,60,1,1
132316,160,4,2,0,60,1,1
132476,160.427807486631,4,2,0,60,1,1
132636,160.857908847185,4,2,0,60,1,1
132796,161.290322580645,4,2,0,60,1,1
132957,161.725067385445,4,2,0,60,1,1
133118,162.162162162162,4,2,0,60,1,1
133280,162.60162601626,4,2,0,60,1,1
133444,163.04347826087,4,2,0,60,1,1
133607,163.487738419619,4,2,0,60,1,1
133770,163.934426229508,4,2,0,60,1,1
133933,164.383561643836,4,2,0,60,1,1
134099,164.835164835165,4,2,0,60,1,1
134263,165.289256198347,4,2,0,60,1,1
134428,165.745856353591,4,2,0,60,1,1
134593,166.204986149584,4,2,0,60,1,1
134761,166.666666666667,4,2,0,60,1,1
134927,167.130919220056,4,2,0,60,1,1
135094,167.597765363129,4,2,0,60,1,1
135261,168.067226890756,4,2,0,60,1,1
135431,168.539325842697,4,2,0,60,1,1
135599,169.014084507042,4,2,0,60,1,1
135768,169.491525423729,4,2,0,60,1,1
135937,169.971671388102,4,2,0,60,1,1
136108,170.454545454545,4,2,0,60,1,1
136278,170.940170940171,4,2,0,60,1,1
136448,171.428571428571,4,2,0,60,1,1
136619,171.919770773639,4,2,0,60,1,1
136792,172.413793103448,4,2,0,60,1,1
136964,172.910662824207,4,2,0,60,1,1
137136,173.410404624277,4,2,0,60,1,1
137309,173.913043478261,4,2,0,60,1,1
137484,174.418604651163,4,2,0,60,1,1
137658,174.927113702624,4,2,0,60,1,1
137832,175.438596491228,4,2,0,60,1,1
138007,175.953079178886,4,2,0,60,1,1
138184,176.470588235294,4,2,0,60,1,1
138360,176.991150442478,4,2,0,60,1,1
138536,177.514792899408,4,2,0,60,1,1
138713,178.041543026706,4,2,0,60,1,1
138895,178.571428571429,4,2,0,60,1,1
139073,179.10447761194,4,2,0,60,1,1
139252,179.640718562874,4,2,0,60,1,1
139431,180.18018018018,4,2,0,60,1,1
139613,180.722891566265,4,2,0,60,1,1
139793,181.268882175227,4,2,0,60,1,1
139974,181.818181818182,4,2,0,60,1,1
140155,182.370820668693,4,2,0,60,1,1
140339,182.926829268293,4,2,0,60,1,1
140521,183.48623853211,4,2,0,60,1,1
140704,184.049079754601,4,2,0,60,1,1
140888,184.615384615385,4,2,0,60,1,1
141074,185.185185185185,4,2,0,60,1,1
141259,185.758513931889,4,2,0,60,1,1
141444,186.335403726708,4,2,0,60,1,1
141630,186.915887850467,4,2,0,60,1,1
141818,187.5,4,2,0,60,1,1
142005,188.087774294671,4,2,0,60,1,1
142193,188.679245283019,4,2,0,60,1,1
142381,189.274447949527,4,2,0,60,1,1
142572,189.873417721519,4,2,0,60,1,1
142761,190.47619047619,4,2,0,60,1,1
142951,191.082802547771,4,2,0,60,1,1
143142,191.693290734824,4,2,0,60,1,1
143335,192.307692307692,4,2,0,60,1,1
143527,192.926045016077,4,2,0,60,1,1
143719,193.548387096774,4,2,0,60,1,1
143912,194.174757281553,4,2,0,60,1,1
144108,194.805194805195,4,2,0,60,1,1
144302,195.439739413681,4,2,0,60,1,1
144497,196.078431372549,4,2,0,60,1,1
144693,196.72131147541,4,2,0,60,1,1
144891,197.368421052632,4,2,0,60,1,1
145088,198.019801980198,4,2,0,60,1,1
145286,198.675496688742,4,2,0,60,1,1
145484,199.335548172757,4,2,0,60,1,1
145685,200,4,2,0,60,1,1
145885,200.66889632107,4,2,0,60,1,1
146085,201.342281879195,4,2,0,60,1,1
146286,202.020202020202,4,2,0,60,1,1
146490,202.702702702703,4,2,0,60,1,1
146692,203.389830508475,4,2,0,60,1,1
146895,204.081632653061,4,2,0,60,1,1
147099,204.778156996587,4,2,0,60,1,1
147305,205.479452054795,4,2,0,60,1,1
147510,206.185567010309,4,2,0,60,1,1
147716,206.896551724138,4,2,0,60,1,1
147922,207.612456747405,4,2,0,60,1,1
148131,208.333333333333,4,2,0,60,1,1
148339,209.059233449477,4,2,0,60,1,1
148548,209.79020979021,4,2,0,60,1,1
148757,210.526315789474,4,2,0,60,1,1
148969,211.267605633803,4,2,0,60,1,1
149180,212.014134275618,4,2,0,60,1,1
149392,212.765957446809,4,2,0,60,1,1
149604,213.523131672598,4,2,0,60,1,1
149819,214.285714285714,4,2,0,60,1,1
150033,215.05376344086,4,2,0,60,1,1
150248,215.827338129496,4,2,0,60,1,1
150463,216.606498194946,4,2,0,60,1,1
150681,217.391304347826,4,2,0,60,1,1
150898,218.181818181818,4,2,0,60,1,1
151116,218.978102189781,4,2,0,60,1,1
151334,219.78021978022,4,2,0,60,1,1
151555,220.588235294118,4,2,0,60,1,0
151775,221.40221402214,4,2,0,60,1,0
151996,222.222222222222,4,2,0,60,1,0
152218,223.048327137546,4,2,0,60,1,0
152443,223.880597014925,4,2,0,60,1,0
152666,224.719101123595,4,2,0,60,1,0
152890,225.563909774436,4,2,0,60,1,0
153115,226.415094339623,4,2,0,60,1,0
153343,227.272727272727,4,2,0,60,1,0
153570,228.136882129278,4,2,0,60,1,0
153798,229.007633587786,4,2,0,60,1,0
154027,229.885057471264,4,2,0,60,1,0
154258,230.769230769231,4,2,0,60,1,0
154488,231.660231660232,4,2,0,60,1,0
154719,232.558139534884,4,2,0,60,1,0
154951,233.463035019455,4,2,0,60,1,0
155186,234.375,4,2,0,60,1,0
155420,235.294117647059,4,2,0,60,1,0
155655,236.220472440945,4,2,0,60,1,0
155891,237.154150197628,4,2,0,60,1,0
156130,238.095238095238,4,2,0,60,1,0
156368,239.043824701195,4,2,0,60,1,0
156607,240,4,2,0,60,1,0
156847,240.963855421687,4,2,0,60,1,0
157089,241.935483870968,4,2,0,60,1,0
157330,242.914979757085,4,2,0,60,1,0
157572,243.90243902439,4,2,0,60,1,0
157815,244.897959183673,4,2,0,60,1,0
158061,245.901639344262,4,2,0,60,1,0
158306,246.913580246914,4,2,0,60,1,0
158552,247.933884297521,4,2,0,60,1,0
158799,248.96265560166,4,2,0,60,1,0
159049,250,4,2,0,60,1,0
159299,251.046025104603,4,2,0,60,1,0
159550,252.100840336134,4,2,0,60,1,0
159802,253.164556962025,4,2,0,60,1,0
160057,254.237288135593,4,2,0,60,1,0
160311,255.31914893617,4,2,0,60,1,0
160566,256.410256410256,4,2,0,60,1,0
160822,257.510729613734,4,2,0,60,1,0
161081,258.620689655172,4,2,0,60,1,0
161339,259.74025974026,4,2,0,60,1,0
161598,260.869565217391,4,2,0,60,1,0
161858,262.008733624454,4,2,0,60,1,0
162122,263.157894736842,4,2,0,60,1,0
162385,264.31718061674,4,2,0,60,1,0
162649,265.486725663717,4,2,0,60,1,0
162914,266.666666666667,4,2,0,60,1,0
163182,267.857142857143,4,2,0,60,1,0
163449,269.058295964126,4,2,0,60,1,0
163718,270.27027027027,4,2,0,60,1,0
163988,271.493212669683,4,2,0,60,1,0
164261,272.727272727273,4,2,0,60,1,0
164533,273.972602739726,4,2,0,60,1,0
164806,275.229357798165,4,2,0,60,1,0
165081,276.497695852535,4,2,0,60,1,0
165359,277.777777777778,4,2,0,60,1,0
165636,279.06976744186,4,2,0,60,1,0
165915,280.373831775701,4,2,0,60,1,0
166195,281.69014084507,4,2,0,60,1,0
166478,283.018867924528,4,2,0,60,1,0
166761,284.36018957346,4,2,0,60,1,0
167045,285.714285714286,4,2,0,60,1,0
167330,287.081339712919,4,2,0,60,1,0
167619,288.461538461538,4,2,0,60,1,0
167907,289.855072463768,4,2,0,60,1,0
168196,291.26213592233,4,2,0,60,1,0
168487,292.682926829268,4,2,0,60,1,0
168781,294.117647058824,4,2,0,60,1,0
169075,295.566502463054,4,2,0,60,1,0
169370,297.029702970297,4,2,0,60,1,0
169667,298.507462686567,4,2,0,60,1,0
169967,300,4,2,0,60,1,0
174781,240,4,2,0,60,1,0
192061,-133.333333333333,4,2,0,30,0,0
202381,-133.333333333333,4,2,0,10,0,0
202861,240,4,2,0,60,1,0
205501,-100,4,2,0,5,0,0
205741,-100,4,2,0,40,0,0
206461,-100,4,2,0,5,0,0
207661,-100,4,2,0,40,0,0
208381,-100,4,2,0,5,0,0
208861,-100,4,2,0,40,0,0
210181,-100,4,2,0,5,0,0
211501,-100,4,2,0,40,0,0
212221,-100,4,2,0,5,0,0
212701,-100,4,2,0,40,0,0
213436,-100,4,2,0,5,0,0
213781,-100,4,2,0,40,0,0
214141,-100,4,2,0,5,0,0
215341,-100,4,2,0,40,0,0
216061,-100,4,2,0,5,0,0
216541,-100,4,2,0,40,0,0
217981,-100,4,2,0,5,0,0
219181,-100,4,2,0,40,0,0
219901,-100,4,2,0,5,0,0
220381,-100,4,2,0,50,0,0
221821,-50,4,2,0,5,0,0
222781,-100,4,2,0,50,0,0
223741,-50,4,2,0,5,0,0
224221,-100,4,2,0,50,0,0
225661,-50,4,2,0,5,0,0
226621,-100,4,2,0,50,0,0
227581,-50,4,2,0,5,0,0
228061,-100,4,2,0,50,0,0
229501,-50,4,2,0,5,0,0
230461,-100,4,2,0,50,0,0
231421,-50,4,2,0,5,0,0
231901,-100,4,2,0,50,0,0
233341,-50,4,2,0,5,0,0
234301,-100,4,2,0,50,0,0
235261,-50,4,2,0,5,0,0
235741,-100,4,2,0,50,0,0
240301,428.571428571429,4,2,0,10,1,0
254015,-100,4,2,0,20,0,0
267729,-100,4,2,0,20,0,0
281443,480,4,2,0,10,1,0
283363,-100,4,2,0,60,0,0
284323,-100,4,2,0,10,0,0
314083,-100,4,2,0,30,0,0
329443,240,4,2,0,60,1,1
331363,-100,4,2,0,60,0,0
332323,-100,4,2,0,60,0,1
336163,-100,4,2,0,60,0,0
337123,-100,4,2,0,60,0,1
339043,-100,4,2,0,60,0,0
340003,-100,4,2,0,60,0,1
343843,-100,4,2,0,60,0,0
345763,-100,4,2,0,60,0,1
347683,-100,4,2,0,60,0,0
348643,-100,4,2,0,60,0,1
352483,-100,4,2,0,60,0,0
353443,-100,4,2,0,60,0,1
355363,-100,4,2,0,60,0,0
356323,-100,4,2,0,60,0,1
359203,-100,4,2,0,60,0,0
360163,-100,4,2,0,60,0,1
362083,-100,4,2,0,60,0,0
363043,-100,4,2,0,60,0,1
364003,-25,4,2,0,60,0,1
366883,-100,4,2,0,60,0,0
367843,-100,4,2,0,60,0,1
369763,-100,4,2,0,60,0,0
370723,-100,4,2,0,60,0,1
371683,-100,4,2,0,5,0,1
373603,-100,4,2,0,10,0,1
374563,-100,4,2,0,10,0,0
383143,-100,4,2,0,5,0,0
383203,-100,4,2,0,10,0,1
383263,-100,4,2,0,10,0,0

[HitObjects]
256,192,1121,12,0,6641,0:0:0:0:
256,192,6761,5,0,0:0:0:0:
256,192,6881,12,0,7601,0:0:0:0:
216,356,7721,5,0,0:0:0:0:
296,356,7721,5,0,0:0:0:0:
216,356,7721,5,0,0:0:0:0:
296,356,7721,5,0,0:0:0:0:
216,356,7721,5,0,0:0:0:0:
296,356,7721,5,0,0:0:0:0:
216,356,7721,5,0,0:0:0:0:
296,356,7721,5,0,0:0:0:0:
216,356,7736,5,0,0:0:0:0:
296,356,7736,5,0,0:0:0:0:
296,356,7736,5,0,0:0:0:0:
216,356,7736,5,0,0:0:0:0:
296,356,7736,5,0,0:0:0:0:
216,356,7736,5,0,0:0:0:0:
216,356,7736,5,0,0:0:0:0:
296,356,7736,5,0,0:0:0:0:
216,356,7751,5,0,0:0:0:0:
296,356,7751,5,0,0:0:0:0:
216,356,7751,5,0,0:0:0:0:
296,356,7751,5,0,0:0:0:0:
216,356,7751,5,0,0:0:0:0:
296,356,7751,5,0,0:0:0:0:
216,356,7751,5,0,0:0:0:0:
296,356,7751,5,0,0:0:0:0:
216,356,7766,5,0,0:0:0:0:
296,356,7766,5,0,0:0:0:0:
296,356,7766,5,0,0:0:0:0:
216,356,7766,5,0,0:0:0:0:
296,356,7766,5,0,0:0:0:0:
216,356,7766,5,0,0:0:0:0:
216,356,7766,5,0,0:0:0:0:
296,356,7766,5,0,0:0:0:0:
216,356,7781,5,0,0:0:0:0:
296,356,7781,5,0,0:0:0:0:
216,356,7781,5,0,0:0:0:0:
296,356,7781,5,0,0:0:0:0:
216,356,7781,5,0,0:0:0:0:
296,356,7781,5,0,0:0:0:0:
216,356,7781,5,0,0:0:0:0:
296,356,7781,5,0,0:0:0:0:
216,356,7796,5,0,0:0:0:0:
296,356,7796,5,0,0:0:0:0:
296,356,7796,5,0,0:0:0:0:
216,356,7796,5,0,0:0:0:0:
296,356,7796,5,0,0:0:0:0:
216,356,7796,5,0,0:0:0:0:
216,356,7796,5,0,0:0:0:0:
296,356,7796,5,0,0:0:0:0:
216,356,7811,5,0,0:0:0:0:
296,356,7811,5,0,0:0:0:0:
216,356,7811,5,0,0:0:0:0:
296,356,7811,5,0,0:0:0:0:
216,356,7811,5,0,0:0:0:0:
296,356,7811,5,0,0:0:0:0:
216,356,7811,5,0,0:0:0:0:
296,356,7811,5,0,0:0:0:0:
216,356,7826,5,0,0:0:0:0:
296,356,7826,5,0,0:0:0:0:
296,356,7826,5,0,0:0:0:0:
216,356,7826,5,0,0:0:0:0:
296,356,7826,5,0,0:0:0:0:
216,356,7826,5,0,0:0:0:0:
216,356,7826,5,0,0:0:0:0:
296,356,7826,5,0,0:0:0:0:
216,356,7841,5,0,0:0:0:0:
296,356,7841,5,0,0:0:0:0:
216,356,7841,5,0,0:0:0:0:
296,356,7841,5,0,0:0:0:0:
216,356,7841,5,0,0:0:0:0:
296,356,7841,5,0,0:0:0:0:
216,356,7841,5,0,0:0:0:0:
296,356,7841,5,0,0:0:0:0:
216,356,7856,5,0,0:0:0:0:
296,356,7856,5,0,0:0:0:0:
296,356,7856,5,0,0:0:0:0:
216,356,7856,5,0,0:0:0:0:
296,356,7856,5,0,0:0:0:0:
216,356,7856,5,0,0:0:0:0:
216,356,7856,5,0,0:0:0:0:
296,356,7856,5,0,0:0:0:0:
216,356,7871,5,0,0:0:0:0:
296,356,7871,5,0,0:0:0:0:
216,356,7871,5,0,0:0:0:0:
296,356,7871,5,0,0:0:0:0:
216,356,7871,5,0,0:0:0:0:
296,356,7871,5,0,0:0:0:0:
216,356,7871,5,0,0:0:0:0:
296,356,7871,5,0,0:0:0:0:
296,356,7886,5,0,0:0:0:0:
216,356,7886,5,0,0:0:0:0:
216,356,7886,5,0,0:0:0:0:
296,356,7886,5,0,0:0:0:0:
216,356,7886,5,0,0:0:0:0:
296,356,7886,5,0,0:0:0:0:
296,356,7886,5,0,0:0:0:0:
216,356,7886,5,0,0:0:0:0:
296,356,7901,5,0,0:0:0:0:
216,356,7901,5,0,0:0:0:0:
296,356,7901,5,0,0:0:0:0:
216,356,7901,5,0,0:0:0:0:
296,356,7901,5,0,0:0:0:0:
216,356,7901,5,0,0:0:0:0:
296,356,7901,5,0,0:0:0:0:
216,356,7901,5,0,0:0:0:0:
296,356,7916,5,0,0:0:0:0:
216,356,7916,5,0,0:0:0:0:
216,356,7916,5,0,0:0:0:0:
296,356,7916,5,0,0:0:0:0:
216,356,7916,5,0,0:0:0:0:
296,356,7916,5,0,0:0:0:0:
296,356,7916,5,0,0:0:0:0:
216,356,7916,5,0,0:0:0:0:
296,356,7931,5,0,0:0:0:0:
216,356,7931,5,0,0:0:0:0:
296,356,7931,5,0,0:0:0:0:
216,356,7931,5,0,0:0:0:0:
296,356,7931,5,0,0:0:0:0:
216,356,7931,5,0,0:0:0:0:
296,356,7931,5,0,0:0:0:0:
216,356,7931,5,0,0:0:0:0:
216,356,7946,5,0,0:0:0:0:
296,356,7946,5,0,0:0:0:0:
296,356,7946,5,0,0:0:0:0:
216,356,7946,5,0,0:0:0:0:
216,356,7946,5,0,0:0:0:0:
296,356,7946,5,0,0:0:0:0:
296,356,7946,5,0,0:0:0:0:
216,356,7946,5,0,0:0:0:0:
216,356,7961,5,0,0:0:0:0:
296,356,7961,5,0,0:0:0:0:
216,356,7961,5,0,0:0:0:0:
296,356,7961,5,0,0:0:0:0:
216,356,7961,5,0,0:0:0:0:
296,356,7961,5,0,0:0:0:0:
216,356,7961,5,0,0:0:0:0:
296,356,7961,5,0,0:0:0:0:
296,356,7976,5,0,0:0:0:0:
216,356,7976,5,0,0:0:0:0:
216,356,7976,5,0,0:0:0:0:
296,356,7976,5,0,0:0:0:0:
296,356,7976,5,0,0:0:0:0:
216,356,7976,5,0,0:0:0:0:
216,356,7976,5,0,0:0:0:0:
296,356,7976,5,0,0:0:0:0:
296,356,7991,5,0,0:0:0:0:
216,356,7991,5,0,0:0:0:0:
296,356,7991,5,0,0:0:0:0:
216,356,7991,5,0,0:0:0:0:
296,356,7991,5,0,0:0:0:0:
216,356,7991,5,0,0:0:0:0:
296,356,7991,5,0,0:0:0:0:
216,356,7991,5,0,0:0:0:0:
296,356,8006,5,0,0:0:0:0:
216,356,8006,5,0,0:0:0:0:
216,356,8006,5,0,0:0:0:0:
296,356,8006,5,0,0:0:0:0:
216,356,8006,5,0,0:0:0:0:
296,356,8006,5,0,0:0:0:0:
296,356,8006,5,0,0:0:0:0:
216,356,8006,5,0,0:0:0:0:
296,356,8021,5,0,0:0:0:0:
216,356,8021,5,0,0:0:0:0:
296,356,8021,5,0,0:0:0:0:
216,356,8021,5,0,0:0:0:0:
296,356,8021,5,0,0:0:0:0:
216,356,8021,5,0,0:0:0:0:
296,356,8021,5,0,0:0:0:0:
216,356,8021,5,0,0:0:0:0:
296,356,8036,5,0,0:0:0:0:
216,356,8036,5,0,0:0:0:0:
216,356,8036,5,0,0:0:0:0:
296,356,8036,5,0,0:0:0:0:
216,356,8036,5,0,0:0:0:0:
296,356,8036,5,0,0:0:0:0:
296,356,8036,5,0,0:0:0:0:
216,356,8036,5,0,0:0:0:0:
216,356,8051,5,0,0:0:0:0:
296,356,8051,5,0,0:0:0:0:
216,356,8051,5,0,0:0:0:0:
296,356,8051,5,0,0:0:0:0:
216,356,8051,5,0,0:0:0:0:
296,356,8051,5,0,0:0:0:0:
216,356,8051,5,0,0:0:0:0:
296,356,8051,5,0,0:0:0:0:
296,356,8066,5,0,0:0:0:0:
216,356,8066,5,0,0:0:0:0:
216,356,8066,5,0,0:0:0:0:
296,356,8066,5,0,0:0:0:0:
216,356,8066,5,0,0:0:0:0:
296,356,8066,5,0,0:0:0:0:
296,356,8066,5,0,0:0:0:0:
216,356,8066,5,0,0:0:0:0:
216,356,8081,5,0,0:0:0:0:
296,356,8081,5,0,0:0:0:0:
216,356,8081,5,0,0:0:0:0:
296,356,8081,5,0,0:0:0:0:
216,356,8081,5,0,0:0:0:0:
296,356,8081,5,0,0:0:0:0:
216,356,8081,5,0,0:0:0:0:
296,356,8081,5,0,0:0:0:0:
296,356,8096,5,0,0:0:0:0:
216,356,8096,5,0,0:0:0:0:
216,356,8096,5,0,0:0:0:0:
296,356,8096,5,0,0:0:0:0:
216,356,8096,5,0,0:0:0:0:
296,356,8096,5,0,0:0:0:0:
296,356,8096,5,0,0:0:0:0:
216,356,8096,5,0,0:0:0:0:
296,356,8111,5,0,0:0:0:0:
216,356,8111,5,0,0:0:0:0:
296,356,8111,5,0,0:0:0:0:
216,356,8111,5,0,0:0:0:0:
296,356,8111,5,0,0:0:0:0:
216,356,8111,5,0,0:0:0:0:
296,356,8111,5,0,0:0:0:0:
216,356,8111,5,0,0:0:0:0:
296,356,8126,5,0,0:0:0:0:
216,356,8126,5,0,0:0:0:0:
216,356,8126,5,0,0:0:0:0:
296,356,8126,5,0,0:0:0:0:
296,356,8126,5,0,0:0:0:0:
216,356,8126,5,0,0:0:0:0:
216,356,8126,5,0,0:0:0:0:
296,356,8126,5,0,0:0:0:0:
216,356,8141,5,0,0:0:0:0:
296,356,8141,5,0,0:0:0:0:
216,356,8141,5,0,0:0:0:0:
296,356,8141,5,0,0:0:0:0:
216,356,8141,5,0,0:0:0:0:
296,356,8141,5,0,0:0:0:0:
216,356,8141,5,0,0:0:0:0:
296,356,8141,5,0,0:0:0:0:
296,356,8156,5,0,0:0:0:0:
216,356,8156,5,0,0:0:0:0:
296,356,8156,5,0,0:0:0:0:
216,356,8156,5,0,0:0:0:0:
296,356,8156,5,0,0:0:0:0:
216,356,8156,5,0,0:0:0:0:
296,356,8156,5,0,0:0:0:0:
216,356,8156,5,0,0:0:0:0:
296,356,8171,5,0,0:0:0:0:
216,356,8171,5,0,0:0:0:0:
216,356,8171,5,0,0:0:0:0:
296,356,8171,5,0,0:0:0:0:
296,356,8171,5,0,0:0:0:0:
216,356,8171,5,0,0:0:0:0:
216,356,8171,5,0,0:0:0:0:
296,356,8171,5,0,0:0:0:0:
296,356,8186,5,0,0:0:0:0:
216,356,8186,5,0,0:0:0:0:
216,356,8186,5,0,0:0:0:0:
296,356,8186,5,0,0:0:0:0:
216,356,8186,5,0,0:0:0:0:
296,356,8186,5,0,0:0:0:0:
296,356,8186,5,0,0:0:0:0:
216,356,8186,5,0,0:0:0:0:
296,356,8201,5,0,0:0:0:0:
216,356,8201,5,0,0:0:0:0:
296,356,8201,5,0,0:0:0:0:
216,356,8201,5,0,0:0:0:0:
296,356,8201,5,0,0:0:0:0:
216,356,8201,5,0,0:0:0:0:
296,356,8201,5,0,0:0:0:0:
216,356,8201,5,0,0:0:0:0:
216,356,8216,5,0,0:0:0:0:
296,356,8216,5,0,0:0:0:0:
296,356,8216,5,0,0:0:0:0:
216,356,8216,5,0,0:0:0:0:
216,356,8216,5,0,0:0:0:0:
296,356,8216,5,0,0:0:0:0:
296,356,8216,5,0,0:0:0:0:
216,356,8216,5,0,0:0:0:0:
216,356,8231,5,0,0:0:0:0:
296,356,8231,5,0,0:0:0:0:
216,356,8231,5,0,0:0:0:0:
296,356,8231,5,0,0:0:0:0:
216,356,8231,5,0,0:0:0:0:
296,356,8231,5,0,0:0:0:0:
216,356,8231,5,0,0:0:0:0:
296,356,8231,5,0,0:0:0:0:
216,356,8246,5,0,0:0:0:0:
296,356,8246,5,0,0:0:0:0:
296,356,8246,5,0,0:0:0:0:
216,356,8246,5,0,0:0:0:0:
296,356,8246,5,0,0:0:0:0:
216,356,8246,5,0,0:0:0:0:
216,356,8246,5,0,0:0:0:0:
296,356,8246,5,0,0:0:0:0:
216,356,8261,5,0,0:0:0:0:
296,356,8261,5,0,0:0:0:0:
296,356,8261,5,0,0:0:0:0:
216,356,8261,5,0,0:0:0:0:
216,356,8261,5,0,0:0:0:0:
296,356,8261,5,0,0:0:0:0:
296,356,8261,5,0,0:0:0:0:
216,356,8261,5,0,0:0:0:0:
296,356,8276,5,0,0:0:0:0:
216,356,8276,5,0,0:0:0:0:
296,356,8276,5,0,0:0:0:0:
216,356,8276,5,0,0:0:0:0:
296,356,8276,5,0,0:0:0:0:
216,356,8276,5,0,0:0:0:0:
296,356,8276,5,0,0:0:0:0:
216,356,8276,5,0,0:0:0:0:
216,356,8291,5,0,0:0:0:0:
296,356,8291,5,0,0:0:0:0:
296,356,8291,5,0,0:0:0:0:
216,356,8291,5,0,0:0:0:0:
296,356,8291,5,0,0:0:0:0:
216,356,8291,5,0,0:0:0:0:
216,356,8291,5,0,0:0:0:0:
296,356,8291,5,0,0:0:0:0:
296,356,8306,5,0,0:0:0:0:
216,356,8306,5,0,0:0:0:0:
296,356,8306,5,0,0:0:0:0:
216,356,8306,5,0,0:0:0:0:
296,356,8306,5,0,0:0:0:0:
216,356,8306,5,0,0:0:0:0:
296,356,8306,5,0,0:0:0:0:
216,356,8306,5,0,0:0:0:0:
296,356,8321,5,0,0:0:0:0:
216,356,8321,5,0,0:0:0:0:
296,356,8321,5,0,0:0:0:0:
216,356,8321,5,0,0:0:0:0:
296,356,8321,5,0,0:0:0:0:
216,356,8321,5,0,0:0:0:0:
296,356,8321,5,0,0:0:0:0:
216,356,8321,5,0,0:0:0:0:
296,356,8336,5,0,0:0:0:0:
216,356,8336,5,0,0:0:0:0:
216,356,8336,5,0,0:0:0:0:
296,356,8336,5,0,0:0:0:0:
296,356,8336,5,0,0:0:0:0:
216,356,8336,5,0,0:0:0:0:
216,356,8336,5,0,0:0:0:0:
296,356,8336,5,0,0:0:0:0:
296,356,8351,5,0,0:0:0:0:
216,356,8351,5,0,0:0:0:0:
296,356,8351,5,0,0:0:0:0:
216,356,8351,5,0,0:0:0:0:
296,356,8351,5,0,0:0:0:0:
216,356,8351,5,0,0:0:0:0:
296,356,8351,5,0,0:0:0:0:
216,356,8351,5,0,0:0:0:0:
216,356,8366,5,0,0:0:0:0:
296,356,8366,5,0,0:0:0:0:
216,356,8366,5,0,0:0:0:0:
296,356,8366,5,0,0:0:0:0:
216,356,8366,5,0,0:0:0:0:
296,356,8366,5,0,0:0:0:0:
216,356,8366,5,0,0:0:0:0:
296,356,8366,5,0,0:0:0:0:
296,356,8381,5,0,0:0:0:0:
216,356,8381,5,0,0:0:0:0:
216,356,8381,5,0,0:0:0:0:
296,356,8381,5,0,0:0:0:0:
296,356,8381,5,0,0:0:0:0:
216,356,8381,5,0,0:0:0:0:
216,356,8381,5,0,0:0:0:0:
296,356,8381,5,0,0:0:0:0:
216,356,8396,5,0,0:0:0:0:
296,356,8396,5,0,0:0:0:0:
216,356,8396,5,0,0:0:0:0:
296,356,8396,5,0,0:0:0:0:
216,356,8396,5,0,0:0:0:0:
296,356,8396,5,0,0:0:0:0:
216,356,8396,5,0,0:0:0:0:
296,356,8396,5,0,0:0:0:0:
296,356,8411,5,0,0:0:0:0:
216,356,8411,5,0,0:0:0:0:
216,356,8411,5,0,0:0:0:0:
296,356,8411,5,0,0:0:0:0:
216,356,8411,5,0,0:0:0:0:
296,356,8411,5,0,0:0:0:0:
296,356,8411,5,0,0:0:0:0:
216,356,8411,5,0,0:0:0:0:
296,356,8426,5,0,0:0:0:0:
216,356,8426,5,0,0:0:0:0:
296,356,8426,5,0,0:0:0:0:
216,356,8426,5,0,0:0:0:0:
296,356,8426,5,0,0:0:0:0:
216,356,8426,5,0,0:0:0:0:
296,356,8426,5,0,0:0:0:0:
216,356,8426,5,0,0:0:0:0:
216,356,8441,5,0,0:0:0:0:
296,356,8441,5,0,0:0:0:0:
216,356,8441,5,0,0:0:0:0:
296,356,8441,5,0,0:0:0:0:
216,356,8441,5,0,0:0:0:0:
296,356,8441,5,0,0:0:0:0:
216,356,8441,5,0,0:0:0:0:
296,356,8441,5,0,0:0:0:0:
216,356,8456,5,0,0:0:0:0:
296,356,8456,5,0,0:0:0:0:
296,356,8456,5,0,0:0:0:0:
216,356,8456,5,0,0:0:0:0:
296,356,8456,5,0,0:0:0:0:
216,356,8456,5,0,0:0:0:0:
216,356,8456,5,0,0:0:0:0:
296,356,8456,5,0,0:0:0:0:
296,356,8471,5,0,0:0:0:0:
216,356,8471,5,0,0:0:0:0:
296,356,8471,5,0,0:0:0:0:
216,356,8471,5,0,0:0:0:0:
296,356,8471,5,0,0:0:0:0:
216,356,8471,5,0,0:0:0:0:
296,356,8471,5,0,0:0:0:0:
216,356,8471,5,0,0:0:0:0:
216,356,8486,5,0,0:0:0:0:
296,356,8486,5,0,0:0:0:0:
216,356,8486,5,0,0:0:0:0:
296,356,8486,5,0,0:0:0:0:
216,356,8486,5,0,0:0:0:0:
296,356,8486,5,0,0:0:0:0:
216,356,8486,5,0,0:0:0:0:
296,356,8486,5,0,0:0:0:0:
296,356,8501,5,0,0:0:0:0:
216,356,8501,5,0,0:0:0:0:
216,356,8501,5,0,0:0:0:0:
296,356,8501,5,0,0:0:0:0:
296,356,8501,5,0,0:0:0:0:
216,356,8501,5,0,0:0:0:0:
216,356,8501,5,0,0:0:0:0:
296,356,8501,5,0,0:0:0:0:
216,356,8516,5,0,0:0:0:0:
296,356,8516,5,0,0:0:0:0:
216,356,8516,5,0,0:0:0:0:
296,356,8516,5,0,0:0:0:0:
216,356,8516,5,0,0:0:0:0:
296,356,8516,5,0,0:0:0:0:
216,356,8516,5,0,0:0:0:0:
296,356,8516,5,0,0:0:0:0:
296,356,8531,5,0,0:0:0:0:
216,356,8531,5,0,0:0:0:0:
216,356,8531,5,0,0:0:0:0:
296,356,8531,5,0,0:0:0:0:
216,356,8531,5,0,0:0:0:0:
296,356,8531,5,0,0:0:0:0:
296,356,8531,5,0,0:0:0:0:
216,356,8531,5,0,0:0:0:0:
296,356,8546,5,0,0:0:0:0:
216,356,8546,5,0,0:0:0:0:
216,356,8546,5,0,0:0:0:0:
296,356,8546,5,0,0:0:0:0:
216,356,8546,5,0,0:0:0:0:
296,356,8546,5,0,0:0:0:0:
296,356,8546,5,0,0:0:0:0:
216,356,8546,5,0,0:0:0:0:
216,356,8561,5,0,0:0:0:0:
296,356,8561,5,0,0:0:0:0:
296,356,8561,5,0,0:0:0:0:
216,356,8561,5,0,0:0:0:0:
216,356,8561,5,0,0:0:0:0:
296,356,8561,5,0,0:0:0:0:
296,356,8561,5,0,0:0:0:0:
216,356,8561,5,0,0:0:0:0:
216,356,8576,5,0,0:0:0:0:
296,356,8576,5,0,0:0:0:0:
216,356,8576,5,0,0:0:0:0:
296,356,8576,5,0,0:0:0:0:
216,356,8576,5,0,0:0:0:0:
296,356,8576,5,0,0:0:0:0:
216,356,8576,5,0,0:0:0:0:
296,356,8576,5,0,0:0:0:0:
216,356,8591,5,0,0:0:0:0:
296,356,8591,5,0,0:0:0:0:
296,356,8591,5,0,0:0:0:0:
216,356,8591,5,0,0:0:0:0:
296,356,8591,5,0,0:0:0:0:
216,356,8591,5,0,0:0:0:0:
216,356,8591,5,0,0:0:0:0:
296,356,8591,5,0,0:0:0:0:
296,356,8606,5,0,0:0:0:0:
216,356,8606,5,0,0:0:0:0:
296,356,8606,5,0,0:0:0:0:
216,356,8606,5,0,0:0:0:0:
296,356,8606,5,0,0:0:0:0:
216,356,8606,5,0,0:0:0:0:
296,356,8606,5,0,0:0:0:0:
216,356,8606,5,0,0:0:0:0:
216,356,8621,5,0,0:0:0:0:
296,356,8621,5,0,0:0:0:0:
296,356,8621,5,0,0:0:0:0:
216,356,8621,5,0,0:0:0:0:
216,356,8621,5,0,0:0:0:0:
296,356,8621,5,0,0:0:0:0:
296,356,8621,5,0,0:0:0:0:
216,356,8621,5,0,0:0:0:0:
296,356,8636,5,0,0:0:0:0:
216,356,8636,5,0,0:0:0:0:
216,356,8636,5,0,0:0:0:0:
296,356,8636,5,0,0:0:0:0:
296,356,8636,5,0,0:0:0:0:
216,356,8636,5,0,0:0:0:0:
216,356,8636,5,0,0:0:0:0:
296,356,8636,5,0,0:0:0:0:
296,356,8651,5,0,0:0:0:0:
216,356,8651,5,0,0:0:0:0:
296,356,8651,5,0,0:0:0:0:
216,356,8651,5,0,0:0:0:0:
296,356,8651,5,0,0:0:0:0:
216,356,8651,5,0,0:0:0:0:
296,356,8651,5,0,0:0:0:0:
216,356,8651,5,0,0:0:0:0:
296,356,8666,5,0,0:0:0:0:
216,356,8666,5,0,0:0:0:0:
216,356,8666,5,0,0:0:0:0:
296,356,8666,5,0,0:0:0:0:
216,356,8666,5,0,0:0:0:0:
296,356,8666,5,0,0:0:0:0:
296,356,8666,5,0,0:0:0:0:
216,356,8666,5,0,0:0:0:0:
216,356,8681,5,0,0:0:0:0:
296,356,8681,5,0,0:0:0:0:
296,356,8681,5,0,0:0:0:0:
216,356,8681,5,0,0:0:0:0:
296,356,8681,5,0,0:0:0:0:
216,356,8681,5,0,0:0:0:0:
216,356,8681,5,0,0:0:0:0:
296,356,8681,5,0,0:0:0:0:
216,356,8696,5,0,0:0:0:0:
296,356,8696,5,0,0:0:0:0:
216,356,8696,5,0,0:0:0:0:
296,356,8696,5,0,0:0:0:0:
216,356,8696,5,0,0:0:0:0:
296,356,8696,5,0,0:0:0:0:
216,356,8696,5,0,0:0:0:0:
296,356,8696,5,0,0:0:0:0:
216,356,8711,5,0,0:0:0:0:
296,356,8711,5,0,0:0:0:0:
296,356,8711,5,0,0:0:0:0:
216,356,8711,5,0,0:0:0:0:
216,356,8711,5,0,0:0:0:0:
296,356,8711,5,0,0:0:0:0:
296,356,8711,5,0,0:0:0:0:
216,356,8711,5,0,0:0:0:0:
216,356,8726,5,0,0:0:0:0:
296,356,8726,5,0,0:0:0:0:
296,356,8726,5,0,0:0:0:0:
216,356,8726,5,0,0:0:0:0:
296,356,8726,5,0,0:0:0:0:
216,356,8726,5,0,0:0:0:0:
216,356,8726,5,0,0:0:0:0:
296,356,8726,5,0,0:0:0:0:
216,356,8741,5,0,0:0:0:0:
296,356,8741,5,0,0:0:0:0:
216,356,8741,5,0,0:0:0:0:
296,356,8741,5,0,0:0:0:0:
216,356,8741,5,0,0:0:0:0:
296,356,8741,5,0,0:0:0:0:
216,356,8741,5,0,0:0:0:0:
296,356,8741,5,0,0:0:0:0:
216,356,8756,5,0,0:0:0:0:
296,356,8756,5,0,0:0:0:0:
296,356,8756,5,0,0:0:0:0:
216,356,8756,5,0,0:0:0:0:
296,356,8756,5,0,0:0:0:0:
216,356,8756,5,0,0:0:0:0:
216,356,8756,5,0,0:0:0:0:
296,356,8756,5,0,0:0:0:0:
296,356,8771,5,0,0:0:0:0:
216,356,8771,5,0,0:0:0:0:
216,356,8771,5,0,0:0:0:0:
296,356,8771,5,0,0:0:0:0:
296,356,8771,5,0,0:0:0:0:
216,356,8771,5,0,0:0:0:0:
216,356,8771,5,0,0:0:0:0:
296,356,8771,5,0,0:0:0:0:
296,356,8786,5,0,0:0:0:0:
216,356,8786,5,0,0:0:0:0:
296,356,8786,5,0,0:0:0:0:
216,356,8786,5,0,0:0:0:0:
296,356,8786,5,0,0:0:0:0:
216,356,8786,5,0,0:0:0:0:
296,356,8786,5,0,0:0:0:0:
216,356,8786,5,0,0:0:0:0:
296,356,8801,5,0,0:0:0:0:
216,356,8801,5,0,0:0:0:0:
296,356,8801,5,0,0:0:0:0:
216,356,8801,5,0,0:0:0:0:
296,356,8801,5,0,0:0:0:0:
216,356,8801,5,0,0:0:0:0:
296,356,8801,5,0,0:0:0:0:
216,356,8801,5,0,0:0:0:0:
216,356,8816,5,0,0:0:0:0:
296,356,8816,5,0,0:0:0:0:
296,356,8816,5,0,0:0:0:0:
216,356,8816,5,0,0:0:0:0:
296,356,8816,5,0,0:0:0:0:
216,356,8816,5,0,0:0:0:0:
216,356,8816,5,0,0:0:0:0:
296,356,8816,5,0,0:0:0:0:
216,356,8831,5,0,0:0:0:0:
296,356,8831,5,0,0:0:0:0:
216,356,8831,5,0,0:0:0:0:
296,356,8831,5,0,0:0:0:0:
216,356,8831,5,0,0:0:0:0:
296,356,8831,5,0,0:0:0:0:
216,356,8831,5,0,0:0:0:0:
296,356,8831,5,0,0:0:0:0:
216,356,8846,5,0,0:0:0:0:
296,356,8846,5,0,0:0:0:0:
296,356,8846,5,0,0:0:0:0:
216,356,8846,5,0,0:0:0:0:
216,356,8846,5,0,0:0:0:0:
296,356,8846,5,0,0:0:0:0:
296,356,8846,5,0,0:0:0:0:
216,356,8846,5,0,0:0:0:0:
296,356,8861,5,0,0:0:0:0:
216,356,8861,5,0,0:0:0:0:
216,356,8861,5,0,0:0:0:0:
296,356,8861,5,0,0:0:0:0:
296,356,8861,5,0,0:0:0:0:
216,356,8861,5,0,0:0:0:0:
216,356,8861,5,0,0:0:0:0:
296,356,8861,5,0,0:0:0:0:
216,356,8876,5,0,0:0:0:0:
296,356,8876,5,0,0:0:0:0:
216,356,8876,5,0,0:0:0:0:
296,356,8876,5,0,0:0:0:0:
216,356,8876,5,0,0:0:0:0:
296,356,8876,5,0,0:0:0:0:
216,356,8876,5,0,0:0:0:0:
296,356,8876,5,0,0:0:0:0:
216,356,8891,5,0,0:0:0:0:
296,356,8891,5,0,0:0:0:0:
216,356,8891,5,0,0:0:0:0:
296,356,8891,5,0,0:0:0:0:
216,356,8891,5,0,0:0:0:0:
296,356,8891,5,0,0:0:0:0:
216,356,8891,5,0,0:0:0:0:
296,356,8891,5,0,0:0:0:0:
296,356,8906,5,0,0:0:0:0:
216,356,8906,5,0,0:0:0:0:
216,356,8906,5,0,0:0:0:0:
296,356,8906,5,0,0:0:0:0:
296,356,8906,5,0,0:0:0:0:
216,356,8906,5,0,0:0:0:0:
216,356,8906,5,0,0:0:0:0:
296,356,8906,5,0,0:0:0:0:
216,356,8921,5,0,0:0:0:0:
296,356,8921,5,0,0:0:0:0:
296,356,8921,5,0,0:0:0:0:
216,356,8921,5,0,0:0:0:0:
216,356,8921,5,0,0:0:0:0:
296,356,8921,5,0,0:0:0:0:
296,356,8921,5,0,0:0:0:0:
216,356,8921,5,0,0:0:0:0:
296,356,8936,5,0,0:0:0:0:
216,356,8936,5,0,0:0:0:0:
296,356,8936,5,0,0:0:0:0:
216,356,8936,5,0,0:0:0:0:
296,356,8936,5,0,0:0:0:0:
216,356,8936,5,0,0:0:0:0:
296,356,8936,5,0,0:0:0:0:
216,356,8936,5,0,0:0:0:0:
216,356,8951,5,0,0:0:0:0:
296,356,8951,5,0,0:0:0:0:
296,356,8951,5,0,0:0:0:0:
216,356,8951,5,0,0:0:0:0:
296,356,8951,5,0,0:0:0:0:
216,356,8951,5,0,0:0:0:0:
216,356,8951,5,0,0:0:0:0:
296,356,8951,5,0,0:0:0:0:
216,356,8966,5,0,0:0:0:0:
296,356,8966,5,0,0:0:0:0:
216,356,8966,5,0,0:0:0:0:
296,356,8966,5,0,0:0:0:0:
216,356,8966,5,0,0:0:0:0:
296,356,8966,5,0,0:0:0:0:
216,356,8966,5,0,0:0:0:0:
296,356,8966,5,0,0:0:0:0:
296,356,8981,5,0,0:0:0:0:
216,356,8981,5,0,0:0:0:0:
296,356,8981,5,0,0:0:0:0:
216,356,8981,5,0,0:0:0:0:
296,356,8981,5,0,0:0:0:0:
216,356,8981,5,0,0:0:0:0:
296,356,8981,5,0,0:0:0:0:
216,356,8981,5,0,0:0:0:0:
216,356,8996,5,0,0:0:0:0:
296,356,8996,5,0,0:0:0:0:
296,356,8996,5,0,0:0:0:0:
216,356,8996,5,0,0:0:0:0:
216,356,8996,5,0,0:0:0:0:
296,356,8996,5,0,0:0:0:0:
296,356,8996,5,0,0:0:0:0:
216,356,8996,5,0,0:0:0:0:
216,356,9011,5,0,0:0:0:0:
296,356,9011,5,0,0:0:0:0:
216,356,9011,5,0,0:0:0:0:
296,356,9011,5,0,0:0:0:0:
216,356,9011,5,0,0:0:0:0:
296,356,9011,5,0,0:0:0:0:
216,356,9011,5,0,0:0:0:0:
296,356,9011,5,0,0:0:0:0:
296,356,9026,5,0,0:0:0:0:
216,356,9026,5,0,0:0:0:0:
216,356,9026,5,0,0:0:0:0:
296,356,9026,5,0,0:0:0:0:
216,356,9026,5,0,0:0:0:0:
296,356,9026,5,0,0:0:0:0:
296,356,9026,5,0,0:0:0:0:
216,356,9026,5,0,0:0:0:0:
216,356,9041,5,0,0:0:0:0:
296,356,9041,5,0,0:0:0:0:
216,356,9041,5,0,0:0:0:0:
296,356,9041,5,0,0:0:0:0:
216,356,9041,5,0,0:0:0:0:
296,356,9041,5,0,0:0:0:0:
216,356,9041,5,0,0:0:0:0:
296,356,9041,5,0,0:0:0:0:
216,356,9056,5,0,0:0:0:0:
296,356,9056,5,0,0:0:0:0:
216,356,9056,5,0,0:0:0:0:
296,356,9056,5,0,0:0:0:0:
216,356,9056,5,0,0:0:0:0:
296,356,9056,5,0,0:0:0:0:
216,356,9056,5,0,0:0:0:0:
296,356,9056,5,0,0:0:0:0:
296,356,9071,5,0,0:0:0:0:
216,356,9071,5,0,0:0:0:0:
216,356,9071,5,0,0:0:0:0:
296,356,9071,5,0,0:0:0:0:
296,356,9071,5,0,0:0:0:0:
216,356,9071,5,0,0:0:0:0:
216,356,9071,5,0,0:0:0:0:
296,356,9071,5,0,0:0:0:0:
296,356,9086,5,0,0:0:0:0:
216,356,9086,5,0,0:0:0:0:
296,356,9086,5,0,0:0:0:0:
216,356,9086,5,0,0:0:0:0:
296,356,9086,5,0,0:0:0:0:
216,356,9086,5,0,0:0:0:0:
296,356,9086,5,0,0:0:0:0:
216,356,9086,5,0,0:0:0:0:
216,356,9101,5,0,0:0:0:0:
296,356,9101,5,0,0:0:0:0:
216,356,9101,5,0,0:0:0:0:
296,356,9101,5,0,0:0:0:0:
216,356,9101,5,0,0:0:0:0:
296,356,9101,5,0,0:0:0:0:
216,356,9101,5,0,0:0:0:0:
296,356,9101,5,0,0:0:0:0:
216,356,9116,5,0,0:0:0:0:
296,356,9116,5,0,0:0:0:0:
296,356,9116,5,0,0:0:0:0:
216,356,9116,5,0,0:0:0:0:
296,356,9116,5,0,0:0:0:0:
216,356,9116,5,0,0:0:0:0:
216,356,9116,5,0,0:0:0:0:
296,356,9116,5,0,0:0:0:0:
216,356,9131,5,0,0:0:0:0:
296,356,9131,5,0,0:0:0:0:
296,356,9131,5,0,0:0:0:0:
216,356,9131,5,0,0:0:0:0:
296,356,9131,5,0,0:0:0:0:
216,356,9131,5,0,0:0:0:0:
216,356,9131,5,0,0:0:0:0:
296,356,9131,5,0,0:0:0:0:
216,356,9146,5,0,0:0:0:0:
296,356,9146,5,0,0:0:0:0:
216,356,9146,5,0,0:0:0:0:
296,356,9146,5,0,0:0:0:0:
216,356,9146,5,0,0:0:0:0:
296,356,9146,5,0,0:0:0:0:
216,356,9146,5,0,0:0:0:0:
296,356,9146,5,0,0:0:0:0:
296,356,9161,5,0,0:0:0:0:
216,356,9161,5,0,0:0:0:0:
216,356,9161,5,0,0:0:0:0:
296,356,9161,5,0,0:0:0:0:
296,356,9161,5,0,0:0:0:0:
216,356,9161,5,0,0:0:0:0:
216,356,9161,5,0,0:0:0:0:
296,356,9161,5,0,0:0:0:0:
216,356,9176,5,0,0:0:0:0:
296,356,9176,5,0,0:0:0:0:
296,356,9176,5,0,0:0:0:0:
216,356,9176,5,0,0:0:0:0:
216,356,9176,5,0,0:0:0:0:
296,356,9176,5,0,0:0:0:0:
296,356,9176,5,0,0:0:0:0:
216,356,9176,5,0,0:0:0:0:
216,356,9191,5,0,0:0:0:0:
296,356,9191,5,0,0:0:0:0:
216,356,9191,5,0,0:0:0:0:
296,356,9191,5,0,0:0:0:0:
216,356,9191,5,0,0:0:0:0:
296,356,9191,5,0,0:0:0:0:
216,356,9191,5,0,0:0:0:0:
296,356,9191,5,0,0:0:0:0:
296,356,9206,5,0,0:0:0:0:
216,356,9206,5,0,0:0:0:0:
296,356,9206,5,0,0:0:0:0:
216,356,9206,5,0,0:0:0:0:
296,356,9206,5,0,0:0:0:0:
216,356,9206,5,0,0:0:0:0:
296,356,9206,5,0,0:0:0:0:
216,356,9206,5,0,0:0:0:0:
216,356,9221,5,0,0:0:0:0:
296,356,9221,5,0,0:0:0:0:
296,356,9221,5,0,0:0:0:0:
216,356,9221,5,0,0:0:0:0:
216,356,9221,5,0,0:0:0:0:
296,356,9221,5,0,0:0:0:0:
296,356,9221,5,0,0:0:0:0:
216,356,9221,5,0,0:0:0:0:
296,356,9236,5,0,0:0:0:0:
216,356,9236,5,0,0:0:0:0:
296,356,9236,5,0,0:0:0:0:
216,356,9236,5,0,0:0:0:0:
296,356,9236,5,0,0:0:0:0:
216,356,9236,5,0,0:0:0:0:
296,356,9236,5,0,0:0:0:0:
216,356,9236,5,0,0:0:0:0:
296,356,9251,5,0,0:0:0:0:
216,356,9251,5,0,0:0:0:0:
296,356,9251,5,0,0:0:0:0:
216,356,9251,5,0,0:0:0:0:
296,356,9251,5,0,0:0:0:0:
216,356,9251,5,0,0:0:0:0:
296,356,9251,5,0,0:0:0:0:
216,356,9251,5,0,0:0:0:0:
296,356,9266,5,0,0:0:0:0:
216,356,9266,5,0,0:0:0:0:
296,356,9266,5,0,0:0:0:0:
216,356,9266,5,0,0:0:0:0:
296,356,9266,5,0,0:0:0:0:
216,356,9266,5,0,0:0:0:0:
296,356,9266,5,0,0:0:0:0:
216,356,9266,5,0,0:0:0:0:
216,356,9281,5,0,0:0:0:0:
296,356,9281,5,0,0:0:0:0:
296,356,9281,5,0,0:0:0:0:
216,356,9281,5,0,0:0:0:0:
296,356,9281,5,0,0:0:0:0:
216,356,9281,5,0,0:0:0:0:
216,356,9281,5,0,0:0:0:0:
296,356,9281,5,0,0:0:0:0:
296,356,9296,5,0,0:0:0:0:
216,356,9296,5,0,0:0:0:0:
296,356,9296,5,0,0:0:0:0:
216,356,9296,5,0,0:0:0:0:
296,356,9296,5,0,0:0:0:0:
216,356,9296,5,0,0:0:0:0:
296,356,9296,5,0,0:0:0:0:
216,356,9296,5,0,0:0:0:0:
216,356,9311,5,0,0:0:0:0:
296,356,9311,5,0,0:0:0:0:
216,356,9311,5,0,0:0:0:0:
296,356,9311,5,0,0:0:0:0:
216,356,9311,5,0,0:0:0:0:
296,356,9311,5,0,0:0:0:0:
216,356,9311,5,0,0:0:0:0:
296,356,9311,5,0,0:0:0:0:
216,356,9326,5,0,0:0:0:0:
296,356,9326,5,0,0:0:0:0:
296,356,9326,5,0,0:0:0:0:
216,356,9326,5,0,0:0:0:0:
216,356,9326,5,0,0:0:0:0:
296,356,9326,5,0,0:0:0:0:
296,356,9326,5,0,0:0:0:0:
216,356,9326,5,0,0:0:0:0:
296,356,9341,5,0,0:0:0:0:
216,356,9341,5,0,0:0:0:0:
296,356,9341,5,0,0:0:0:0:
216,356,9341,5,0,0:0:0:0:
296,356,9341,5,0,0:0:0:0:
216,356,9341,5,0,0:0:0:0:
296,356,9341,5,0,0:0:0:0:
216,356,9341,5,0,0:0:0:0:
296,356,9356,5,0,0:0:0:0:
216,356,9356,5,0,0:0:0:0:
216,356,9356,5,0,0:0:0:0:
296,356,9356,5,0,0:0:0:0:
216,356,9356,5,0,0:0:0:0:
296,356,9356,5,0,0:0:0:0:
296,356,9356,5,0,0:0:0:0:
216,356,9356,5,0,0:0:0:0:
216,356,9371,5,0,0:0:0:0:
296,356,9371,5,0,0:0:0:0:
216,356,9371,5,0,0:0:0:0:
296,356,9371,5,0,0:0:0:0:
216,356,9371,5,0,0:0:0:0:
296,356,9371,5,0,0:0:0:0:
216,356,9371,5,0,0:0:0:0:
296,356,9371,5,0,0:0:0:0:
216,356,9386,5,0,0:0:0:0:
296,356,9386,5,0,0:0:0:0:
296,356,9386,5,0,0:0:0:0:
216,356,9386,5,0,0:0:0:0:
296,356,9386,5,0,0:0:0:0:
216,356,9386,5,0,0:0:0:0:
216,356,9386,5,0,0:0:0:0:
296,356,9386,5,0,0:0:0:0:
216,356,9401,5,0,0:0:0:0:
296,356,9401,5,0,0:0:0:0:
256,288,9401,5,0,0:0:0:0:
256,192,9401,12,0,11081,0:0:0:0:
216,356,9401,5,0,0:0:0:0:
296,356,9401,5,0,0:0:0:0:
256,288,9401,5,0,0:0:0:0:
256,192,9401,12,0,11081,0:0:0:0:
296,356,9416,5,0,0:0:0:0:
216,356,9416,5,0,0:0:0:0:
256,288,9416,1,0,0:0:0:0:
216,356,9431,5,0,0:0:0:0:
296,356,9431,5,0,0:0:0:0:
256,288,9431,1,0,0:0:0:0:
296,356,9446,5,0,0:0:0:0:
216,356,9446,5,0,0:0:0:0:
256,288,9446,1,0,0:0:0:0:
216,356,9461,5,0,0:0:0:0:
296,356,9461,5,0,0:0:0:0:
256,288,9461,1,0,0:0:0:0:
296,356,9476,5,0,0:0:0:0:
216,356,9476,5,0,0:0:0:0:
256,288,9476,1,0,0:0:0:0:
216,356,9491,5,0,0:0:0:0:
296,356,9491,5,0,0:0:0:0:
256,288,9491,1,0,0:0:0:0:
296,356,9506,5,0,0:0:0:0:
216,356,9506,5,0,0:0:0:0:
256,288,9506,1,0,0:0:0:0:
216,356,9521,5,0,0:0:0:0:
296,356,9521,5,0,0:0:0:0:
256,288,9521,1,0,0:0:0:0:
296,356,9536,5,0,0:0:0:0:
216,356,9536,5,0,0:0:0:0:
256,288,9536,1,0,0:0:0:0:
216,356,9551,5,0,0:0:0:0:
296,356,9551,5,0,0:0:0:0:
256,288,9551,1,0,0:0:0:0:
296,356,9566,5,0,0:0:0:0:
216,356,9566,5,0,0:0:0:0:
256,288,9566,1,0,0:0:0:0:
296,356,9581,5,0,0:0:0:0:
216,356,9581,5,0,0:0:0:0:
256,288,9581,1,0,0:0:0:0:
216,356,9596,5,0,0:0:0:0:
296,356,9596,5,0,0:0:0:0:
256,288,9596,1,0,0:0:0:0:
296,356,9611,5,0,0:0:0:0:
216,356,9611,5,0,0:0:0:0:
256,288,9611,1,0,0:0:0:0:
216,356,9626,5,0,0:0:0:0:
296,356,9626,5,0,0:0:0:0:
256,288,9626,1,0,0:0:0:0:
216,356,9641,5,0,0:0:0:0:
296,356,9641,5,0,0:0:0:0:
256,288,9641,1,0,0:0:0:0:
296,356,9656,5,0,0:0:0:0:
216,356,9656,5,0,0:0:0:0:
256,288,9656,1,0,0:0:0:0:
296,356,9671,5,0,0:0:0:0:
216,356,9671,5,0,0:0:0:0:
256,288,9671,1,0,0:0:0:0:
296,356,9686,5,0,0:0:0:0:
216,356,9686,5,0,0:0:0:0:
256,288,9686,1,0,0:0:0:0:
296,356,9701,5,0,0:0:0:0:
216,356,9701,5,0,0:0:0:0:
256,288,9701,1,0,0:0:0:0:
296,356,9716,5,0,0:0:0:0:
216,356,9716,5,0,0:0:0:0:
256,288,9716,1,0,0:0:0:0:
216,356,9731,5,0,0:0:0:0:
296,356,9731,5,0,0:0:0:0:
256,288,9731,1,0,0:0:0:0:
296,356,9746,5,0,0:0:0:0:
216,356,9746,5,0,0:0:0:0:
256,288,9746,1,0,0:0:0:0:
296,356,9761,5,0,0:0:0:0:
216,356,9761,5,0,0:0:0:0:
256,288,9761,1,0,0:0:0:0:
296,356,9776,5,0,0:0:0:0:
216,356,9776,5,0,0:0:0:0:
256,288,9776,1,0,0:0:0:0:
296,356,9791,5,0,0:0:0:0:
216,356,9791,5,0,0:0:0:0:
256,288,9791,1,0,0:0:0:0:
296,356,9806,5,0,0:0:0:0:
216,356,9806,5,0,0:0:0:0:
256,288,9806,1,0,0:0:0:0:
216,356,9821,5,0,0:0:0:0:
296,356,9821,5,0,0:0:0:0:
256,288,9821,1,0,0:0:0:0:
216,356,9836,5,0,0:0:0:0:
296,356,9836,5,0,0:0:0:0:
256,288,9836,1,0,0:0:0:0:
296,356,9851,5,0,0:0:0:0:
216,356,9851,5,0,0:0:0:0:
256,288,9851,1,0,0:0:0:0:
216,356,9866,5,0,0:0:0:0:
296,356,9866,5,0,0:0:0:0:
256,288,9866,1,0,0:0:0:0:
296,356,9881,5,0,0:0:0:0:
216,356,9881,5,0,0:0:0:0:
256,288,9881,1,0,0:0:0:0:
216,356,9896,5,0,0:0:0:0:
296,356,9896,5,0,0:0:0:0:
256,288,9896,1,0,0:0:0:0:
216,356,9911,5,0,0:0:0:0:
296,356,9911,5,0,0:0:0:0:
256,288,9911,1,0,0:0:0:0:
216,356,9926,5,0,0:0:0:0:
296,356,9926,5,0,0:0:0:0:
256,288,9926,1,0,0:0:0:0:
216,356,9941,5,0,0:0:0:0:
296,356,9941,5,0,0:0:0:0:
256,288,9941,1,0,0:0:0:0:
216,356,9956,5,0,0:0:0:0:
296,356,9956,5,0,0:0:0:0:
256,288,9956,1,0,0:0:0:0:
296,356,9971,5,0,0:0:0:0:
216,356,9971,5,0,0:0:0:0:
256,288,9971,1,0,0:0:0:0:
216,356,9986,5,0,0:0:0:0:
296,356,9986,5,0,0:0:0:0:
256,288,9986,1,0,0:0:0:0:
216,356,10001,5,0,0:0:0:0:
296,356,10001,5,0,0:0:0:0:
256,288,10001,1,0,0:0:0:0:
216,356,10016,5,0,0:0:0:0:
296,356,10016,5,0,0:0:0:0:
256,288,10016,1,0,0:0:0:0:
216,356,10031,5,0,0:0:0:0:
296,356,10031,5,0,0:0:0:0:
256,288,10031,1,0,0:0:0:0:
216,356,10046,5,0,0:0:0:0:
296,356,10046,5,0,0:0:0:0:
256,288,10046,1,0,0:0:0:0:
296,356,10061,5,0,0:0:0:0:
216,356,10061,5,0,0:0:0:0:
256,288,10061,1,0,0:0:0:0:
296,356,10076,5,0,0:0:0:0:
216,356,10076,5,0,0:0:0:0:
256,288,10076,1,0,0:0:0:0:
216,356,10091,5,0,0:0:0:0:
296,356,10091,5,0,0:0:0:0:
256,288,10091,1,0,0:0:0:0:
296,356,10106,5,0,0:0:0:0:
216,356,10106,5,0,0:0:0:0:
256,288,10106,1,0,0:0:0:0:
256,352,12761,6,0,L|256:280,1,63.7500024318696
256,192,13961,12,0,15281,0:0:0:0:
344,352,15401,6,0,L|344:232,1,106.25
112,264,15641,2,0,L|32:264,1,53.125
112,200,15761,2,0,L|192:200,1,53.125
360,192,15881,6,0,P|432:152|336:96,1,212.5
256,80,16241,1,0,0:0:0:0:
144,88,16361,2,0,L|336:192,2,212.5
352,368,17081,5,0,0:0:0:0:
400,357,17141,1,0,0:0:0:0:
402,308,17201,1,0,0:0:0:0:
354,294,17261,1,0,0:0:0:0:
160,296,17321,2,0,L|376:200,1,212.5
48,368,17801,6,0,L|48:160,2,170
256,368,18521,1,0,0:0:0:0:
400,360,19721,6,0,L|256:232,2,170
224,352,20441,1,0,0:0:0:0:
368,248,20921,6,0,P|408:216|352:176,1,127.5
184,176,21161,1,0,0:0:0:0:
304,88,21401,1,0,0:0:0:0:
56,368,21641,6,0,L|32:168,2,170
240,360,22361,1,0,0:0:0:0:
432,368,23561,6,0,L|456:176,2,170
240,368,24281,1,0,0:0:0:0:
48,360,25481,6,0,L|192:248,2,170
256,360,26201,1,0,0:0:0:0:
464,360,27401,6,0,L|304:256,2,170
256,360,28121,1,0,0:0:0:0:
112,272,28601,6,0,P|72:224|120:200,1,127.5
304,192,28841,1,0,0:0:0:0:
192,112,29081,1,0,0:0:0:0:
448,360,29321,6,0,L|296:264,3,170
248,352,31241,5,0,0:0:0:0:
256,192,31361,12,0,33041,0:0:0:0:
384,352,33161,5,0,0:0:0:0:
200,360,33401,2,0,L|200:240,1,85
384,256,33641,2,0,L|384:152,1,85
152,104,33881,6,0,L|344:104,2,170
408,376,34481,2,0,L|400:96,1,255
136,368,35081,6,0,L|136:256,1,85
344,280,35321,2,0,L|344:184,1,85
144,200,35561,2,0,L|40:200,1,85
344,128,35801,6,0,L|144:128,2,170
344,40,36401,1,0,0:0:0:0:
80,352,36521,2,0,L|192:352,2,85
416,368,37001,6,0,L|416:264,1,85
208,264,37241,2,0,L|320:264,1,85
64,264,37481,2,0,L|64:152,1,85
320,152,37721,6,0,L|128:152,2,170
128,368,38321,2,0,L|128:96,1,255
376,264,38921,6,0,L|376:152,1,85
184,176,39161,2,0,L|80:176,1,85
376,96,39401,2,0,L|272:96,1,85
64,368,39641,6,0,L|64:184,1,170
312,200,40121,2,0,L|200:200,1,85
448,360,40361,2,0,L|448:168,1,170
224,224,40841,6,0,L|320:224,1,85
64,136,41081,2,0,L|160:136,1,85
416,128,41321,2,0,L|416:16,1,85
152,368,41561,6,0,L|344:368,2,170
424,304,42161,2,0,L|424:24,1,255
232,304,42761,6,0,L|112:304,1,85
400,200,43001,2,0,L|288:200,1,85
72,200,43241,2,0,L|192:200,1,85
400,264,43481,6,0,L|208:264,2,170
400,192,44081,1,0,0:0:0:0:
104,368,44201,2,0,L|8:368,2,85
400,360,44681,6,0,L|400:256,1,85
200,272,44921,2,0,L|296:272,1,85
64,280,45161,2,0,L|64:192,1,85
320,176,45401,2,0,L|128:176,2,170
56,360,46001,2,0,L|328:360,1,255
128,280,46601,6,0,L|128:168,1,85
424,176,46841,2,0,L|312:176,1,85
128,184,47081,2,0,L|240:184,1,85
456,200,47321,2,0,L|456:104,1,85
152,352,47561,6,0,L|344:352,1,170
320,288,47921,1,0,0:0:0:0:
56,288,48041,2,0,L|56:104,1,170
424,368,48521,6,0,L|424:248,1,85
216,264,48761,2,0,L|320:264,1,85
64,360,49001,2,0,L|64:248,1,85
320,176,49241,6,0,L|112:176,1,170
352,88,49721,1,0,0:0:0:0:
88,288,49841,1,0,0:0:0:0:
344,288,50201,1,0,0:0:0:0:
176,232,50441,6,0,L|176:120,1,85
384,128,50681,2,0,L|272:128,1,85
488,360,50921,2,0,L|488:240,1,85
144,256,51161,6,0,L|344:256,1,170
136,352,51641,2,0,L|136:256,1,85
352,256,51881,1,0,0:0:0:0:
267,256,52001,1,0,0:0:0:0:
182,256,52121,1,0,0:0:0:0:
272,192,52241,1,0,0:0:0:0:
32,352,52361,6,0,L|32:248,1,85
240,256,52601,2,0,L|128:256,1,85
400,344,52841,2,0,L|400:224,1,85
144,184,53081,6,0,L|352:184,2,170
408,360,53681,2,0,L|408:168,1,170
208,176,54041,2,0,L|320:176,1,85
64,352,54281,6,0,L|72:248,1,85
304,248,54521,2,0,L|200:248,1,85
440,240,54761,2,0,L|440:144,1,85
216,144,55001,2,0,L|312:144,1,85
56,144,55241,5,0,0:0:0:0:
256,192,55361,12,0,55961,0:0:0:0:
368,344,56201,6,0,L|368:240,1,85
168,232,56441,1,0,0:0:0:0:
368,200,56561,1,0,0:0:0:0:
160,352,56681,2,0,L|160:256,1,85
392,120,56921,6,0,L|184:120,2,170
96,352,57521,2,0,L|96:160,1,170
368,360,57881,6,0,L|160:360,1,170
198,360,58241,1,0,0:0:0:0:
424,224,58361,2,0,L|424:120,1,85
200,128,58601,2,0,L|312:128,1,85
56,336,58841,6,0,L|248:336,1,170
56,256,59321,2,0,L|56:160,1,85
304,256,59561,2,0,L|400:256,1,85
304,184,59801,2,0,L|200:184,1,85
456,360,60041,6,0,L|456:240,1,85
224,264,60281,1,0,0:0:0:0:
456,216,60401,1,0,0:0:0:0:
224,352,60521,2,0,L|224:232,1,85
456,160,60761,6,0,L|256:160,2,170
112,352,61361,2,0,L|112:176,1,170
360,176,61721,6,0,L|176:176,1,170
288,112,62081,1,0,0:0:0:0:
64,336,62201,2,0,L|64:232,1,85
320,232,62441,6,0,L|136:232,2,170
96,144,63401,5,0,0:0:0:0:
272,136,63641,5,0,0:0:0:0:
80,352,63881,6,0,L|80:200,1,127.500004863739
248,208,64738,2,0,L|96:208,2,127.500004863739
440,304,67309,5,0,0:0:0:0:
398,351,67523,1,0,0:0:0:0:
343,383,67737,1,0,0:0:0:0:
281,396,67951,1,0,0:0:0:0:
218,388,68166,1,0,0:0:0:0:
160,360,68380,1,0,0:0:0:0:
115,316,68594,1,0,0:0:0:0:
86,259,68808,1,0,0:0:0:0:
77,196,69023,1,0,0:0:0:0:
88,134,69237,1,0,0:0:0:0:
119,78,69451,1,0,0:0:0:0:
166,36,69666,1,0,0:0:0:0:
224,10,69880,1,0,0:0:0:0:
287,4,70094,1,0,0:0:0:0:
349,19,70308,1,0,0:0:0:0:
402,52,70523,1,0,0:0:0:0:
472,104,70738,6,0,L|472:240,1,127.500004863739
296,336,71595,2,0,L|440:336,2,127.500004863739
72,272,74381,5,0,0:0:0:0:
105,325,74595,1,0,0:0:0:0:
155,364,74809,1,0,0:0:0:0:
216,383,75023,1,0,0:0:0:0:
279,380,75238,1,0,0:0:0:0:
338,355,75452,1,0,0:0:0:0:
384,311,75666,1,0,0:0:0:0:
412,254,75880,1,0,0:0:0:0:
419,191,76095,1,0,0:0:0:0:
403,130,76309,1,0,0:0:0:0:
367,78,76523,1,0,0:0:0:0:
315,41,76738,1,0,0:0:0:0:
254,24,76952,1,0,0:0:0:0:
191,30,77166,1,0,0:0:0:0:
134,58,77380,1,0,0:0:0:0:
56,24,77595,6,0,B|56:280|56:280|56:184,1,340
56,344,78881,1,0,0:0:0:0:
56,344,79309,1,0,0:0:0:0:
320,360,79738,1,0,0:0:0:0:
152,272,80166,1,0,0:0:0:0:
424,360,80381,6,0,L|424:64,1,255
408,96,81666,1,0,0:0:0:0:
408,96,81881,1,0,0:0:0:0:
408,96,82309,1,0,0:0:0:0:
408,168,82738,5,0,0:0:0:0:
408,256,83166,1,0,0:0:0:0:
232,272,83595,1,0,0:0:0:0:
328,200,83809,6,0,P|400:168|320:48,1,255
152,48,84881,6,0,L|152:256,3,170
344,224,86595,1,0,0:0:0:0:
168,144,87023,1,0,0:0:0:0:
440,360,87238,2,0,L|440:64,1,255
256,192,88095,12,0,89381,0:0:0:0:
176,368,89595,6,0,L|176:248,1,85
344,264,90023,2,0,L|344:144,1,85
152,176,90452,6,0,L|96:176,1,42.5
352,112,90666,2,0,L|408:112,1,42.5
152,112,90881,2,0,L|80:112,1,42.5
344,40,91095,2,0,L|408:40,1,42.5
256,192,92166,12,0,92886,0:0:0:0:
256,344,92946,6,0,L|256:328,2,10.625
256,256,93006,6,0,L|256:240,8,10.625
208,168,93186,6,0,L|192:168,12,10.625
320,88,93546,6,0,L|336:88,27,10.625
320,88,93966,5,0,0:0:0:0:
256,192,94086,12,0,97566,0:0:0:0:
152,360,97806,6,0,P|96:336|160:280,1,170,0|0,1:1|0:1,0:1:0:0:
384,272,98165,2,0,L|280:272,2,85,0|0|0,0:1|1:1|0:1,0:1:0:0:
152,264,98523,6,0,L|360:264,1,170,0|0,0:1|1:1,0:1:0:0:
240,152,98881,1,0,0:1:0:0:
336,88,98999,1,0,0:1:0:0:
240,80,99116,1,0,0:1:0:0:
448,80,99234,6,0,L|264:80,2,170,8|0|0,1:1|1:1|1:1,1:1:0:0:
144,288,99819,2,0,L|128:184,1,85,0|0,1:1|0:1,0:1:0:0:
304,184,100050,1,0,1:1:0:0:
128,128,100166,1,0,1:1:0:0:
320,120,100396,1,0,1:1:0:0:
128,352,100625,6,0,L|128:256,1,85,4|0,1:1|0:1,0:1:0:0:
344,360,100854,2,0,L|344:272,1,85,4|0,1:1|0:1,0:1:0:0:
96,352,101082,2,0,L|40:264,1,85,4|0,1:1|0:1,0:1:0:0:
384,352,101309,2,0,L|416:272,1,85,4|0,1:1|0:1,0:1:0:0:
136,216,101537,6,0,P|80:168|144:120,1,170,4|0,1:1|0:1,0:1:0:0:
368,224,101874,1,0,0:1:0:0:
160,352,101986,2,0,L|160:248,1,85,0|0,1:1|0:1,0:1:0:0:
368,160,102209,1,0,0:1:0:0:
176,152,102434,6,0,L|280:152,1,85,0|0,1:1|0:1,0:1:0:0:
40,360,102656,2,0,L|40:264,1,85,0|0,0:1|1:1,0:1:0:0:
376,256,102877,6,0,L|176:256,2,170,0|0|0,1:1|1:1|1:1,1:1:0:0:
80,344,103428,2,0,L|80:240,1,85,0|0,1:1|0:1,0:1:0:0:
288,256,103646,1,0,1:1:0:0:
80,176,103755,1,0,1:1:0:0:
288,176,103972,1,0,1:1:0:0:
120,368,104188,6,0,L|136:256,1,85,4|0,1:1|0:1,0:1:0:0:
360,352,104403,2,0,L|336:256,1,85,4|0,1:1|0:1,0:1:0:0:
64,360,104618,2,0,L|144:280,1,85,4|0,1:1|0:1,0:1:0:0:
424,352,104832,2,0,L|336:280,1,85,4|0,1:1|0:1,0:1:0:0:
64,240,105049,5,4,0:1:0:0:
256,248,105261,2,0,L|256:144,1,85,0|0,0:1|0:1,0:1:0:0:
64,152,105473,2,0,L|56:48,1,85,0|0,1:1|0:1,0:1:0:0:
320,64,105684,1,0,0:1:0:0:
144,368,105895,6,0,L|248:368,1,85,0|0,1:1|0:1,0:1:0:0:
32,288,106104,2,0,L|144:288,1,85,0|0,0:1|1:1,0:1:0:0:
352,288,106313,6,0,L|144:288,2,170,0|0|0,1:1|1:1|1:1,1:1:0:0:
112,360,106834,2,0,L|232:360,1,85,0|0,1:1|0:1,0:1:0:0:
400,360,107040,1,0,1:1:0:0:
200,288,107143,2,0,L|400:288,1,170,0|0,1:1|1:1,0:1:0:0:
232,232,107556,6,0,L|208:128,1,85,4|0,1:1|0:1,0:1:0:0:
400,224,107760,2,0,L|432:128,1,85,4|0,1:1|0:1,0:1:0:0:
176,224,107963,2,0,L|96:152,1,85,4|0,1:1|0:1,0:1:0:0:
456,224,108165,2,0,L|504:128,1,85,4|0,1:1|0:1,0:1:0:0:
176,360,108371,6,0,L|352:360,1,170,4|0,0:1|0:1,0:1:0:0:
80,288,108672,2,0,L|80:176,1,85,0|0,0:1|1:1,0:1:0:0:
264,192,108972,2,0,L|80:192,1,170,0|0,0:1|1:1,0:1:0:0:
360,128,109272,2,0,L|272:128,2,85,0|0|0,0:1|0:1|1:1,0:1:0:0:
144,112,109569,6,0,L|320:112,2,170,0|0|0,1:1|1:1|1:1,1:1:0:0:
384,360,110060,2,0,L|384:240,1,85,0|0,1:1|0:1,0:1:0:0:
184,272,110255,1,0,1:1:0:0:
384,216,110353,2,0,L|200:216,1,170,0|0,1:1|1:1,0:1:0:0:
384,216,110741,6,0,L|400:112,1,85,4|0,1:1|0:1,0:1:0:0:
184,208,110934,2,0,L|160:104,1,85,4|0,1:1|0:1,0:1:0:0:
384,216,111126,2,0,L|488:216,1,85,4|0,1:1|0:1,0:1:0:0:
184,208,111318,2,0,L|80:208,1,85,4|0,1:1|0:1,0:1:0:0:
288,368,111513,6,0,L|384:368,1,85,4|0,0:1|0:1,0:1:0:0:
464,312,111704,2,0,L|464:216,1,85,0|0,1:1|0:1,0:1:0:0:
256,224,111894,2,0,L|144:224,1,85,0|0,1:1|0:1,0:1:0:0:
392,216,112083,6,0,L|400:104,1,85,0|0,1:1|0:1,0:1:0:0:
160,360,112272,2,0,L|56:360,1,85,0|0,1:1|0:1,0:1:0:0:
72,288,112460,2,0,L|176:288,1,85,0|0,1:1|0:1,0:1:0:0:
400,296,112648,2,0,L|432:192,1,85,0|0,1:1|0:1,0:1:0:0:
176,200,112835,2,0,L|160:88,1,85,0|0,1:1|0:1,0:1:0:0:
360,112,113024,5,0,1:1:0:0:
96,368,113117,2,0,L|96:256,1,85,0|0,1:1|0:1,0:1:0:0:
272,280,113302,1,0,1:1:0:0:
448,288,113395,2,0,L|448:176,1,85,0|0,1:1|0:1,0:1:0:0:
168,208,113580,2,0,L|168:112,1,85,0|0,1:1|0:1,0:1:0:0:
384,352,113764,6,0,L|360:248,1,85,4|0,1:1|0:1,0:1:0:0:
160,352,113948,2,0,L|184:248,1,85,4|0,1:1|0:1,0:1:0:0:
448,352,114131,2,0,L|368:272,1,85,4|0,1:1|0:1,0:1:0:0:
96,352,114313,2,0,L|176:288,1,85,4|0,1:1|0:1,0:1:0:0:
368,224,114498,6,0,L|480:224,1,85,4|0,0:1|0:1,0:1:0:0:
192,216,114679,2,0,L|96:216,1,85,0|0,1:1|0:1,0:1:0:0:
192,152,114860,2,0,L|296:152,1,85,0|0,1:1|0:1,0:1:0:0:
464,360,115040,2,0,L|480:256,1,85,0|0,1:1|0:1,0:1:0:0:
200,360,115220,2,0,L|192:264,1,85,0|0,1:1|0:1,0:1:0:0:
376,256,115401,2,0,L|480:256,1,85,0|0,1:1|0:1,0:1:0:0:
192,184,115580,2,0,L|96:184,1,85,0|0,1:1|0:1,0:1:0:0:
360,344,115758,6,0,L|360:240,1,85,0|0,1:1|0:1,0:1:0:0:
192,256,115938,1,0,1:1:0:0:
32,256,116026,2,0,L|32:152,1,85,0|0,1:1|0:1,0:1:0:0:
192,160,116203,1,0,1:1:0:0:
360,160,116291,2,0,L|464:160,1,85,0|0,1:1|0:1,0:1:0:0:
192,96,116467,2,0,L|88:96,1,85,0|0,1:1|0:1,0:1:0:0:
344,352,116644,6,0,L|360:264,1,85,4|0,1:1|0:1,0:1:0:0:
176,352,116819,2,0,L|152:256,1,85,4|0,1:1|0:1,0:1:0:0:
376,352,116993,2,0,L|424:272,1,85,4|0,1:1|0:1,0:1:0:0:
144,352,117167,2,0,L|112:256,1,85,4|0,1:1|0:1,0:1:0:0:
336,224,117342,6,0,L|440:224,1,85,4|0,0:1|0:1,0:1:0:0:
216,216,117515,2,0,L|120:216,1,85,0|0,1:1|0:1,0:1:0:0:
128,144,117687,2,0,L|224:144,1,85,0|0,1:1|0:1,0:1:0:0:
432,336,117859,2,0,L|440:224,1,85,0|0,1:1|0:1,0:1:0:0:
168,272,118030,2,0,L|272:272,1,85,0|0,1:1|0:1,0:1:0:0:
352,264,118201,2,0,L|360:152,1,85,0|0,1:1|0:1,0:1:0:0:
88,352,118371,6,0,L|64:256,1,85,0|0,1:1|0:1,0:1:0:0:
336,240,118541,2,0,L|352:144,1,85,0|0,1:1|0:1,0:1:0:0:
192,160,118714,1,0,1:1:0:0:
32,160,118798,2,0,L|8:64,1,85,0|0,1:1|0:1,0:1:0:0:
160,72,118967,1,0,1:1:0:0:
320,64,119052,2,0,L|424:64,1,85,0|0,1:1|0:1,0:1:0:0:
192,352,119220,2,0,L|88:352,1,85,0|0,1:1|0:1,0:1:0:0:
400,360,119388,6,0,L|368:280,1,85,4|0,1:1|0:1,0:1:0:0:
176,272,119557,2,0,L|208:176,1,85,4|0,1:1|0:1,0:1:0:0:
384,240,119724,2,0,L|344:152,1,85,4|0,1:1|0:1,0:1:0:0:
128,264,119890,2,0,L|176:160,1,85,4|0,1:1|0:1,0:1:0:0:
384,144,120060,6,0,L|480:144,1,85,0|0,1:1|0:1,0:1:0:0:
184,360,120225,2,0,L|80:360,1,85,0|0,1:1|0:1,0:1:0:0:
16,296,120390,2,0,L|16:184,1,85,0|0,1:1|0:1,0:1:0:0:
312,312,120554,2,0,L|312:208,1,85,0|0,1:1|0:1,0:1:0:0:
104,296,120718,2,0,L|104:200,1,85,0|0,1:1|0:1,0:1:0:0:
304,168,120883,2,0,L|416:168,1,85,0|0,1:1|0:1,0:1:0:0:
168,176,121046,6,0,L|64:176,1,85,0|0,1:1|0:1,0:1:0:0:
360,360,121209,2,0,L|376:272,1,85,0|0,1:1|0:1,0:1:0:0:
232,280,121371,1,0,1:1:0:0:
48,280,121452,2,0,L|32:168,1,85,0|0,1:1|0:1,0:1:0:0:
240,176,121613,1,0,1:1:0:0:
416,184,121694,2,0,L|432:72,1,85,0|0,1:1|0:1,0:1:0:0:
168,184,121855,2,0,L|160:72,1,85,0|0,1:1|0:1,0:1:0:0:
416,368,122017,6,0,L|416:264,1,85,4|0,1:1|1:1,1:1:0:0:
200,360,122177,2,0,L|200:256,1,85,4|0,1:1|1:1,1:1:0:0:
384,256,122337,2,0,L|456:184,1,85,4|0,1:1|1:1,1:1:0:0:
168,256,122496,2,0,L|112:192,1,85,4|0,1:1|1:1,1:1:0:0:
352,360,122659,6,0,L|360:256,1,85,4|0,1:1|1:1,1:1:0:0:
176,280,122817,2,0,L|168:168,1,85,0|0,1:1|1:1,1:1:0:0:
360,184,122975,1,0,1:1:0:0:
264,176,123134,6,0,L|200:80,1,85,4|0,1:1|1:1,1:1:0:0:
424,128,123291,2,0,L|368:48,1,85,0|0,1:1|1:1,1:1:0:0:
96,64,123448,1,0,1:1:0:0:
192,368,123606,6,0,L|200:272,1,85,4|0,1:1|1:1,1:1:0:0:
56,288,123762,2,0,L|48:192,1,85,0|0,1:1|1:1,1:1:0:0:
224,184,123918,1,0,1:1:0:0:
128,176,124073,6,0,L|64:104,1,85,4|0,1:1|1:1,1:1:0:0:
304,176,124228,2,0,L|216:88,1,85,0|0,1:1|1:1,1:1:0:0:
72,64,124382,1,0,1:1:0:0:
168,360,124539,6,0,L|240:280,1,85,4|0,1:1|1:1,1:1:0:0:
32,312,124692,2,0,L|96:240,1,85,0|0,1:1|1:1,1:1:0:0:
272,248,124845,1,0,1:1:0:0:
176,248,124998,6,0,L|176:136,1,85,4|0,1:1|1:1,1:1:0:0:
376,256,125150,2,0,L|376:144,1,85,0|0,1:1|1:1,1:1:0:0:
176,104,125303,1,0,1:1:0:0:
280,368,125454,6,4,L|288:272,1,85,4|4,1:1|1:1,1:1:0:0:
128,368,125605,2,4,L|104:264,1,85,4|4,1:1|1:1,1:1:0:0:
320,360,125758,2,4,L|328:264,1,85,4|4,1:1|1:1,1:1:0:0:
88,368,125908,2,4,L|64:272,1,85,4|4,1:1|1:1,1:1:0:0:
336,224,126058,1,0,1:1:0:0:
256,192,126133,12,2,128299,0:1:0:0:
344,344,128451,6,0,L|416:272,2,85,0|0|0,1:1|0:1|0:1,0:1:0:0:
144,344,128676,2,0,L|120:240,1,85,0|0,1:1|0:1,0:1:0:0:
200,256,128826,1,0,0:1:0:0:
416,248,128901,2,0,L|432:152,1,85,0|0,1:1|0:1,0:1:0:0:
216,144,129055,6,0,L|288:80,1,85,0|0,1:1|0:1,0:1:0:0:
80,336,129206,2,0,L|72:240,1,85,0|0,1:1|0:1,0:1:0:0:
304,224,129357,2,0,L|320:128,1,85,0|0,1:1|0:1,0:1:0:0:
72,184,129509,2,0,L|144:88,1,85,0|0,1:1|0:1,0:1:0:0:
320,176,129661,5,0,1:1:0:0:
480,176,129737,2,0,L|496:72,1,85,0|0,1:1|0:1,0:1:0:0:
320,80,129890,1,0,1:1:0:0:
120,360,129970,2,0,L|104:256,1,85,0|0,1:1|0:1,0:1:0:0:
328,240,130123,2,0,L|352:144,1,85,0|0,1:1|0:1,0:1:0:0:
144,144,130280,6,0,L|56:104,1,85,4|0,1:1|0:1,0:1:0:0:
320,144,130434,2,0,L|408:104,1,85,4|0,1:1|0:1,0:1:0:0:
144,144,130589,2,0,L|136:48,1,85,4|0,1:1|0:1,0:1:0:0:
320,144,130744,2,0,L|328:48,1,85,4|0,1:1|0:1,0:1:0:0:
120,352,130899,6,0,L|56:296,2,85,0|0|0,1:1|0:1|0:1,0:1:0:0:
344,360,131133,2,0,L|408:296,2,85,0|0|0,1:1|0:1|0:1,0:1:0:0:
136,272,131368,2,0,L|120:184,1,85,0|0,1:1|0:1,0:1:0:0:
288,176,131525,5,0,1:1:0:0:
464,176,131603,2,0,L|400:96,2,85,0|0|0,0:1|1:1|0:1,0:1:0:0:
200,360,131840,2,0,L|216:256,1,85,0|0,1:1|0:1,0:1:0:0:
432,248,131998,2,0,L|440:144,1,85,0|0,1:1|0:1,0:1:0:0:
240,168,132157,5,0,1:1:0:0:
56,168,132236,2,0,L|72:64,1,85,0|0,1:1|0:1,0:1:0:0:
248,72,132396,1,0,1:1:0:0:
432,176,132476,2,0,L|416:80,1,85,0|0,1:1|0:1,0:1:0:0:
152,352,132636,2,0,L|144:264,1,85,0|0,1:1|0:1,0:1:0:0:
384,248,132796,6,0,L|360:160,1,85,4|0,1:1|0:1,0:1:0:0:
160,248,132957,2,0,L|176:144,1,85,4|0,1:1|0:1,0:1:0:0:
336,256,133118,2,0,L|408:176,1,85,4|0,1:1|0:1,0:1:0:0:
128,256,133280,2,0,L|56:176,1,85,4|0,1:1|0:1,0:1:0:0:
272,360,133444,5,0,1:1:0:0:
348,323,133525,1,0,0:1:0:0:
425,286,133607,1,0,0:1:0:0:
192,216,133688,1,0,1:1:0:0:
264,168,133770,2,0,L|264:56,1,85,0|0,0:1|0:1,0:1:0:0:
48,184,133933,2,0,L|48:88,1,85,0|0,1:1|0:1,0:1:0:0:
272,296,134099,6,0,L|320:200,1,85,0|0,1:1|0:1,0:1:0:0:
224,208,134263,2,0,L|128:208,1,85,0|0,1:1|0:1,0:1:0:0:
400,224,134428,2,0,L|416:120,1,85,0|0,1:1|0:1,0:1:0:0:
168,352,134593,2,0,L|144:256,1,85,0|0,1:1|0:1,0:1:0:0:
328,264,134761,5,0,1:1:0:0:
496,264,134844,2,0,L|464:152,1,85,0|0,1:1|0:1,0:1:0:0:
288,184,135010,1,0,1:1:0:0:
112,200,135094,2,0,L|72:88,1,85,0|0,1:1|0:1,0:1:0:0:
288,184,135261,2,0,L|248:80,1,85,0|0,1:1|0:1,0:1:0:0:
48,360,135431,6,0,L|80:272,1,85,4|0,1:1|0:1,0:1:0:0:
336,360,135599,2,0,L|288:264,1,85,4|0,1:1|0:1,0:1:0:0:
104,360,135768,2,0,L|104:248,1,85,4|0,1:1|0:1,0:1:0:0:
280,248,135937,2,0,L|352:168,1,85,4|0,1:1|0:1,0:1:0:0:
104,168,136108,6,0,L|24:112,2,85,0|0|0,1:1|0:1|0:1,0:1:0:0:
344,352,136363,2,0,L|408:280,1,85,0|0,1:1|0:1,0:1:0:0:
400,192,136533,1,0,0:1:0:0:
168,184,136619,2,0,L|176:96,1,85,0|0,1:1|0:1,0:1:0:0:
368,88,136792,6,0,L|256:48,1,85,0|0,1:1|0:1,0:1:0:0:
472,360,136964,2,0,L|496:256,1,85,0|0,1:1|0:1,0:1:0:0:
248,288,137136,2,0,L|288:192,1,85,0|0,1:1|0:1,0:1:0:0:
472,200,137309,2,0,L|472:96,1,85,0|0,1:1|0:1,0:1:0:0:
296,112,137484,5,0,1:1:0:0:
120,200,137571,2,0,L|120:96,1,85,0|0,1:1|0:1,0:1:0:0:
296,48,137745,1,0,1:1:0:0:
472,144,137832,2,0,L|472:40,1,85,0|0,1:1|0:1,0:1:0:0:
120,360,138007,2,0,L|120:264,1,85,0|0,1:1|0:1,0:1:0:0:
384,264,138184,6,0,L|344:152,1,85,4|0,1:1|1:1,1:1:0:0:
176,272,138360,2,0,L|208:176,1,85,4|0,1:1|1:1,1:1:0:0:
416,264,138536,2,0,L|320:192,1,85,4|0,1:1|1:1,1:1:0:0:
128,264,138713,2,0,L|224:192,1,85,4|0,1:1|1:1,1:1:0:0:
408,192,138895,6,0,L|496:192,2,85,4|0|0,1:0|0:0|1:0,0:0:0:0:
176,352,139162,2,0,L|72:352,1,85,0|0,1:0|0:0,0:0:0:0:
91,352,139341,1,0,0:0:0:0:
336,296,139431,2,0,L|336:192,1,85,0|0,1:0|0:0,0:0:0:0:
144,200,139611,6,0,L|248:200,1,85,0|0,1:0|1:0,0:0:0:0:
328,192,139793,2,0,L|328:96,1,85,0|0,1:0|1:0,0:0:0:0:
56,272,139974,2,0,L|48:160,1,85,0|0,1:0|0:0,0:0:0:0:
352,280,140155,2,0,L|376:168,1,85,0|0,1:0|0:0,0:0:0:0:
216,192,140339,5,0,1:0:0:0:
40,200,140430,2,0,L|24:96,1,85,0|0,1:0|0:0,0:0:0:0:
208,104,140612,1,0,1:0:0:0:
408,352,140704,2,0,L|392:248,1,85,0|0,1:0|0:0,0:0:0:0:
160,256,140888,2,0,L|160:144,1,85,0|0,1:0|0:0,0:0:0:0:
360,160,141074,6,0,L|456:160,1,85,4|0,1:0|1:0,1:0:0:0:
256,80,141259,2,0,L|360:80,1,85,4|0,1:0|1:0,1:0:0:0:
120,352,141444,2,0,L|16:352,1,85,4|0,1:0|1:0,1:0:0:0:
264,280,141630,2,0,L|384:280,1,85,4|0,1:0|1:0,1:0:0:0:
80,264,141818,6,0,L|80:160,1,85,4|0,0:0|0:0,0:0:0:0:
168,176,142005,1,0,0:0:0:0:
368,176,142099,2,0,L|464:176,2,85
152,360,142381,2,0,L|176:240,1,85
400,264,142572,6,0,L|304:264,1,85
400,192,142761,2,0,L|488:192,1,85
208,352,142951,2,0,L|208:232,1,85
408,248,143142,2,0,L|408:144,1,85
216,160,143335,5,0,0:0:0:0:
400,160,143431,2,0,L|432:72,1,85
248,88,143623,1,0,0:0:0:0:
56,360,143719,2,0,L|40:256,1,85
280,256,143912,2,0,L|304:160,1,85
72,192,144106,6,0,L|96:96,1,85
304,184,144302,2,0,L|280:88,1,85
40,192,144497,2,0,L|112:112,1,85
352,184,144693,2,0,L|280:104,1,85
96,368,144891,6,0,L|0:368,2,85
192,360,145187,2,0,L|192:240,1,85
96,272,145385,1,0,0:0:0:0:
360,272,145484,2,0,L|336:184,1,85
144,136,145685,6,0,L|240:136,1,85
328,136,145885,2,0,L|232:136,1,85
448,360,146085,2,0,L|464:272,1,85
240,352,146286,2,0,L|216:240,1,85
408,256,146490,5,0,0:0:0:0:
200,256,146591,2,0,L|104:208,1,85
304,200,146793,1,0,0:0:0:0:
480,208,146895,2,0,L|496:112,1,85
232,200,147099,2,0,L|248:112,1,85
480,112,147305,6,0,L|344:112,1,85
160,112,147510,2,0,L|264:112,1,85
464,368,147716,2,0,L|432:256,1,85
184,368,147922,2,0,L|216:272,1,85
456,264,148131,6,0,L|456:168,1,85
368,176,148339,1,0,0:0:0:0:
264,184,148443,2,0,L|264:88,1,85
360,88,148652,1,0,0:0:0:0:
136,288,148757,2,0,L|256:288,1,85
456,280,148969,6,0,L|352:280,3,85
192,368,149392,2,0,L|176:264,1,85
392,216,149604,2,0,L|400:120,1,85
216,136,149819,5,0,0:0:0:0:
440,128,149926,2,0,L|384:48,1,85
216,56,150140,1,0,0:0:0:0:
24,368,150248,2,0,L|16:264,1,85
256,256,150463,2,0,L|376:216,1,85
120,192,150681,6,0,L|32:160,1,85
296,184,150898,2,0,L|400:144,1,85
120,192,151116,2,0,L|80:96,1,85
296,184,151334,2,0,L|328:96,1,85
112,352,151555,6,0,L|304:352,1,170
88,288,151885,2,0,L|88:192,1,85
184,200,152107,1,0,0:0:0:0:
400,200,152218,2,0,L|384:112,1,85
184,104,152443,6,0,L|288:104,1,85
184,40,152666,2,0,L|72:40,1,85
352,352,152890,2,0,L|160:352,2,170
80,304,153456,6,0,L|80:112,1,170
304,136,153798,2,0,L|208:136,1,85
400,144,154027,2,0,L|496:144,1,85
200,368,154258,6,0,L|200:264,1,85
392,376,154488,2,0,L|392:280,1,85
64,280,154719,2,0,L|120:208,1,85
304,288,154951,2,0,L|256:208,1,85
64,176,155186,6,0,L|256:176,1,170
440,360,155537,2,0,L|464:256,2,85
216,368,155891,2,0,L|120:368,1,85
368,280,156130,6,0,L|272:280,3,85
80,296,156607,2,0,L|80:192,1,85
312,192,156847,2,0,L|104:192,1,170
408,344,157209,6,0,L|408:136,1,170
176,160,157572,2,0,L|272:160,1,85
48,360,157815,2,0,L|48:248,1,85
320,256,158061,6,0,L|344:168,1,85
160,256,158306,2,0,L|136:160,1,85
368,256,158552,2,0,L|368:160,1,85
120,256,158799,2,0,L|120:168,1,85
400,360,159049,6,0,L|400:64,1,255
312,112,159550,1,0,0:0:0:0:
224,112,159676,1,0,0:0:0:0:
96,360,159802,2,0,L|96:256,1,85
181,275,160057,6,0,L|85:275,2,85
360,176,160566,2,0,L|160:176,2,170
128,360,161210,6,0,L|128:264,1,85
256,264,161468,1,0,0:0:0:0:
128,200,161598,2,0,L|128:104,1,85
256,112,161858,1,0,0:0:0:0:
80,120,162122,5,0,0:0:0:0:
256,56,162385,1,0,0:0:0:0:
24,376,162649,2,0,L|216:376,1,170
440,368,163182,6,0,L|440:96,1,255
352,112,163718,1,0,0:0:0:0:
440,56,163853,1,0,0:0:0:0:
312,368,163988,2,0,L|312:176,1,170
400,192,164397,6,0,L|280:192,1,85
144,352,164806,2,0,L|144:176,1,170
320,208,165359,5,0,0:0:0:0:
224,208,165497,1,0,0:0:0:0:
400,120,165775,1,0,0:0:0:0:
312,128,165915,1,0,0:0:0:0:
488,48,166195,1,0,0:0:0:0:
224,368,166476,6,0,L|408:368,1,170
200,304,167045,2,0,P|80:224|208:136,1,340
256,192,167763,12,0,169967,0:0:0:0:
336,368,172367,6,0,L|336:304,1,42.5
176,368,172517,2,0,L|176:304,1,42.5
320,264,172667,2,0,L|336:208,1,42.5
192,264,172817,2,0,L|176:208,1,42.5
344,160,172967,6,0,L|408:160,1,42.5
168,160,173117,2,0,L|104:160,1,42.5
408,96,173267,2,0,L|408:40,1,42.5
104,96,173417,2,0,L|104:40,1,42.5
408,176,173567,6,0,L|352:176,1,42.5
104,176,173717,2,0,L|160:176,1,42.5
344,360,173867,2,0,L|400:360,1,42.5
176,360,174017,2,0,L|256:360,1,42.5
416,288,174167,6,0,L|416:224,1,42.5
176,288,174317,2,0,L|176:216,1,42.5
344,168,174467,2,0,L|416:168,1,42.5
120,160,174617,2,0,L|184:160,1,42.5
408,88,174781,5,0,0:0:0:0:
256,192,174901,12,0,176461,0:0:0:0:
352,336,176701,6,0,L|256:336,2,85
152,336,177061,1,0,0:0:0:0:
240,272,177181,2,0,L|240:176,1,85
152,176,177421,6,0,L|352:176,1,170
152,112,177901,1,0,0:0:0:0:
240,112,178021,1,0,0:0:0:0:
40,48,178381,1,0,0:0:0:0:
256,360,178621,6,0,L|256:248,1,85
160,256,178861,2,0,L|160:144,1,85
256,160,179101,2,0,L|144:160,2,85
72,368,179581,5,0,0:0:0:0:
264,360,179821,2,0,L|264:256,1,85
72,256,180061,2,0,L|256:256,1,170
72,184,180541,6,0,L|184:184,2,85
344,368,180901,2,0,L|344:272,1,85
256,288,181141,1,0,0:0:0:0:
344,280,181261,6,0,L|144:280,1,170
344,208,181741,1,0,0:0:0:0:
264,208,181861,1,0,0:0:0:0:
464,144,182221,1,0,0:0:0:0:
264,368,182461,6,0,L|264:272,1,85
352,272,182701,1,0,0:0:0:0:
264,208,182821,2,0,L|168:208,2,85
352,208,183181,1,0,0:0:0:0:
168,136,183421,6,0,L|352:136,1,170
256,64,183781,1,0,0:0:0:0:
464,352,183901,2,0,L|464:160,1,170
104,360,184381,6,0,L|216:360,2,85
208,304,184741,2,0,L|208:200,1,85
120,224,184981,1,0,0:0:0:0:
208,160,185101,6,0,L|16:160,1,170
208,96,185581,1,0,0:0:0:0:
120,104,185701,1,0,0:0:0:0:
360,96,186061,1,0,0:0:0:0:
192,352,186301,6,0,L|192:256,1,85
288,256,186541,2,0,L|168:256,1,85
288,192,186781,2,0,L|384:192,2,85
96,352,187261,6,0,L|96:160,1,170
192,176,187621,1,0,0:0:0:0:
400,360,187741,2,0,L|400:264,1,85
312,272,187981,6,0,L|504:272,1,170
392,200,188341,1,0,0:0:0:0:
480,200,188461,1,0,0:0:0:0:
176,344,188581,2,0,L|176:240,1,85
264,264,188821,1,0,0:0:0:0:
168,176,188941,1,0,0:0:0:0:
344,176,189181,5,0,0:0:0:0:
168,112,189421,1,0,0:0:0:0:
256,112,189541,1,0,0:0:0:0:
32,120,189901,1,0,0:0:0:0:
240,368,190141,6,0,L|128:368,2,85
136,296,190501,2,0,L|232:296,2,85
240,192,190861,1,0,0:0:0:0:
48,368,191101,6,0,L|48:184,1,170
144,192,191461,1,0,0:0:0:0:
376,184,191581,2,0,L|176:184,1,170
368,368,192061,5,0,0:0:0:0:
452,294,192301,1,0,0:0:0:0:
368,219,192541,1,0,0:0:0:0:
176,224,192781,5,0,0:0:0:0:
272,160,193741,1,0,0:0:0:0:
144,360,193981,5,0,0:0:0:0:
54,309,194221,1,0,0:0:0:0:
149,270,194461,1,0,0:0:0:0:
336,272,194701,5,0,0:0:0:0:
200,184,194941,6,0,L|336:184,3,127.500004863739
200,368,195901,1,0,0:0:0:0:
122,266,196141,1,0,0:0:0:0:
44,165,196381,1,0,0:0:0:0:
248,160,196621,5,0,0:0:0:0:
256,360,197821,5,0,0:0:0:0:
331,257,198061,1,0,0:0:0:0:
407,155,198301,1,0,0:0:0:0:
256,192,198541,5,0,0:0:0:0:
256,192,198781,12,0,201541,0:0:0:0:
256,192,201661,5,0,0:0:0:0:
256,192,201781,12,0,202261,0:0:0:0:
128,352,202381,6,0,L|128:344,2,7.9687503039837
128,288,202441,2,0,L|128:280,2,7.9687503039837
136,208,202501,2,0,L|128:208,8,7.9687503039837
360,352,202861,6,0,P|416:312|344:264,1,170
304,264,203161,1,0,0:0:0:0:
256,264,203221,2,0,L|208:264,1,42.5
216,184,203341,2,0,L|400:184,1,170
152,104,203701,6,0,P|88:80|160:56,1,170
400,360,204061,2,0,L|400:176,1,170
216,176,204541,2,0,L|152:176,1,42.5
328,176,204661,2,0,L|384:176,1,42.5
216,360,204781,6,0,L|96:360,2,85
256,192,205261,12,0,205501,0:0:0:0:
80,360,205741,6,0,L|80:72,1,255
216,304,206461,6,0,L|232:304,64,10.625
384,248,207661,5,0,0:0:0:0:
288,200,207781,2,0,L|288:8,1,170
432,48,208381,6,0,L|448:48,16,10.625
248,376,208861,5,0,0:0:0:0:
392,280,209221,2,0,L|112:280,1,255
256,176,209941,1,0,0:0:0:0:
160,368,210181,6,0,L|160:352,2,10.625
136,304,210241,6,0,L|136:288,2,10.625
104,232,210301,6,0,L|120:232,48,10.625
280,272,211501,5,0,0:0:0:0:
192,216,211621,2,0,L|192:40,1,170
336,160,212221,6,0,L|352:160,4,10.625
184,352,212701,5,0,0:0:0:0:
440,288,213061,2,0,L|184:288,1,255
185,288,213436,6,0,L|184:272,7,10.625
360,200,213781,5,0,0:0:0:0:
216,208,214141,6,0,L|216:192,2,10.625
240,168,214201,6,0,L|240:152,2,10.625
264,120,214261,6,0,L|280:120,48,10.625
128,376,215341,5,0,0:0:0:0:
224,304,215461,2,0,L|224:128,1,170
80,176,216061,6,0,L|64:176,8,10.625
344,192,216541,5,0,0:0:0:0:
96,352,216901,2,0,L|96:80,1,255
352,112,217621,1,0,0:0:0:0:
208,336,217981,6,0,L|192:336,60,10.625
328,272,219181,5,0,0:0:0:0:
232,272,219301,2,0,L|232:72,1,170
376,112,219901,6,0,L|392:112,16,10.625
192,360,220381,5,0,0:0:0:0:
440,352,220741,2,0,L|440:80,1,255
352,96,221221,1,0,0:0:0:0:
440,40,221341,1,0,0:0:0:0:
208,168,221461,1,0,0:0:0:0:
293,168,221581,1,0,0:0:0:0:
378,168,221701,1,0,0:0:0:0:
120,352,221821,6,0,L|88:352,7,21.25
120,352,221941,6,0,L|88:352,7,21.25
120,352,222061,6,0,L|88:352,7,21.25
120,352,222181,6,0,L|88:352,7,21.25
120,352,222301,6,0,L|88:352,7,21.25
120,352,222421,6,0,L|88:352,7,21.25
120,352,222541,6,0,L|88:352,7,21.25
120,352,222661,6,0,L|88:352,8,21.25
304,352,223021,5,0,0:0:0:0:
96,296,223141,2,0,L|96:184,1,85
368,192,223381,2,0,L|272:192,2,85
144,192,223741,6,0,L|168:192,7,21.25
144,192,223861,6,0,L|168:192,7,21.25
144,192,223981,6,0,L|168:192,7,21.25
144,192,224101,6,0,L|168:192,8,21.25
232,200,224341,5,0,0:0:0:0:
320,200,224461,1,0,0:0:0:0:
64,352,224581,2,0,L|56:240,1,85
272,264,224821,1,0,0:0:0:0:
64,192,224941,2,0,L|160:192,2,85
368,352,225301,2,0,L|456:352,2,85
144,352,225661,6,0,L|120:352,7,21.25
144,352,225781,6,0,L|120:352,7,21.25
112,304,225901,6,0,L|80:304,7,21.25
112,304,226021,6,0,L|80:304,7,21.25
72,248,226141,6,0,L|48:248,7,21.25
72,248,226261,6,0,L|48:248,7,21.25
72,248,226381,6,0,L|48:248,7,21.25
72,248,226501,6,0,L|48:248,8,21.25
216,248,226861,5,0,0:0:0:0:
424,240,226981,2,0,L|312:240,1,85
160,248,227221,2,0,L|264:248,1,85
64,176,227461,1,0,0:0:0:0:
336,352,227581,6,0,L|368:352,7,21.25
336,352,227701,6,0,L|368:352,7,21.25
376,296,227821,6,0,L|400:296,7,21.25
376,296,227941,6,0,L|400:296,8,21.25
288,240,228181,5,0,0:0:0:0:
376,232,228301,1,0,0:0:0:0:
160,168,228421,1,0,0:0:0:0:
245,168,228541,1,0,0:0:0:0:
330,168,228661,1,0,0:0:0:0:
48,360,228781,6,0,L|144:360,2,85
320,352,229141,2,0,L|416:352,1,85
405,352,229381,1,0,0:0:0:0:
160,360,229501,6,0,L|160:336,1,21.25
152,296,229531,6,0,L|152:272,1,21.25
144,232,229561,6,0,L|144:208,1,21.25
136,168,229591,6,0,L|136:144,1,21.25
128,120,229621,6,0,L|128:96,1,21.25
120,56,229651,6,0,L|120:32,1,21.25
112,32,229681,6,0,L|112:53,1,21.25
104,96,229711,6,0,L|104:117,1,21.25
96,160,229741,6,0,L|96:181,1,21.25
88,224,229771,6,0,L|88:245,1,21.25
80,272,229801,6,0,L|80:293,1,21.25
72,336,229831,6,0,L|72:357,1,21.25
80,368,229861,6,0,L|80:344,1,21.25
88,304,229891,6,0,L|88:280,1,21.25
96,240,229921,6,0,L|96:216,1,21.25
104,176,229951,6,0,L|104:152,1,21.25
112,128,229981,6,0,L|112:104,1,21.25
120,64,230011,6,0,L|120:40,1,21.25
128,40,230041,6,0,L|128:61,1,21.25
136,104,230071,6,0,L|136:125,1,21.25
144,168,230101,6,0,L|144:189,1,21.25
152,232,230131,6,0,L|152:253,1,21.25
160,280,230161,6,0,L|160:301,1,21.25
168,344,230191,6,0,L|168:365,1,21.25
168,344,230221,6,0,L|200:344,7,21.25
168,344,230341,6,0,L|200:344,8,21.25
312,296,230701,5,0,0:0:0:0:
136,216,230821,2,0,L|240:216,1,85
24,208,231061,2,0,L|24:96,1,85
368,112,231301,1,0,0:0:0:0:
160,112,231421,6,0,L|128:112,7,21.25
160,112,231541,6,0,L|128:112,7,21.25
160,112,231661,6,0,L|128:112,7,21.25
160,112,231781,6,0,L|128:112,8,21.25
248,120,232021,5,0,0:0:0:0:
336,120,232141,1,0,0:0:0:0:
64,360,232261,2,0,L|72:240,1,85
296,256,232501,1,0,0:0:0:0:
72,240,232621,2,0,L|72:144,1,85
296,144,232861,1,0,0:0:0:0:
72,120,232981,2,0,L|192:120,2,85
320,360,233341,6,0,L|320:336,1,21.25
328,304,233371,6,0,L|328:280,1,21.25
336,240,233401,6,0,L|336:216,1,21.25
344,184,233431,6,0,L|344:160,1,21.25
352,112,233461,6,0,L|352:88,1,21.25
360,56,233491,6,0,L|360:32,1,21.25
368,80,233521,6,0,L|368:56,1,21.25
376,24,233551,6,0,L|376:0,1,21.25
384,24,233581,6,0,L|384:48,1,21.25
392,80,233611,6,0,L|392:104,1,21.25
400,144,233641,6,0,L|400:168,1,21.25
408,200,233671,6,0,L|408:224,1,21.25
416,272,233701,6,0,L|416:296,1,21.25
424,328,233731,6,0,L|424:352,1,21.25
432,304,233761,6,0,L|432:328,1,21.25
440,360,233791,6,0,L|440:384,1,21.25
432,368,233821,6,0,L|432:344,1,21.25
424,312,233851,6,0,L|424:288,1,21.25
416,248,233881,6,0,L|416:224,1,21.25
408,192,233911,6,0,L|408:168,1,21.25
400,120,233941,6,0,L|400:96,1,21.25
392,64,233971,6,0,L|392:40,1,21.25
384,88,234001,6,0,L|384:64,1,21.25
376,32,234031,6,0,L|376:8,1,21.25
376,16,234061,6,0,L|344:16,7,21.25
376,16,234181,6,0,L|344:16,8,21.25
200,368,234541,5,0,0:0:0:0:
384,304,234661,2,0,L|272:304,1,85
80,312,234901,2,0,L|184:312,2,85
320,232,235261,6,0,L|344:232,7,21.25
320,232,235381,6,0,L|344:232,7,21.25
320,232,235501,6,0,L|344:232,7,21.25
320,232,235621,6,0,L|344:232,8,21.25
200,240,235861,5,0,0:0:0:0:
80,240,235981,1,0,0:0:0:0:
288,168,236101,1,0,0:0:0:0:
408,168,236221,2,0,L|408:80,1,85
176,96,236461,5,0,0:0:0:0:
256,360,237181,6,0,L|256:176,1,170
168,120,237661,2,0,L|360:120,2,170
344,112,238381,1,0,0:0:0:0:
328,368,239341,6,0,L|128:368,3,170
416,360,240301,6,0,L|416:168,2,170
232,376,241586,1,0,0:0:0:0:
416,184,242015,1,0,0:0:0:0:
96,368,242872,6,0,L|96:176,2,170
264,216,244158,1,0,0:0:0:0:
80,224,244586,1,0,0:0:0:0:
256,192,245015,12,0,246943,0:0:0:0:
264,360,247158,6,0,L|440:360,2,170
80,352,248443,1,0,0:0:0:0:
264,352,248872,1,0,0:0:0:0:
248,360,249729,6,0,L|72:360,2,170
432,352,251014,1,0,0:0:0:0:
248,352,251443,1,0,0:0:0:0:
256,192,251658,12,0,253801,0:0:0:0:
336,360,254015,6,0,L|432:360,1,85
416,288,254443,2,0,L|320:288,1,85
192,288,254872,2,0,L|192:176,1,85
288,192,255301,2,0,L|288:96,1,85
200,104,255729,6,0,L|96:104,1,85
392,344,256158,2,0,L|392:248,1,85
88,280,256586,1,0,0:0:0:0:
360,272,256801,2,0,L|464:272,2,85
184,360,257443,6,0,L|184:256,1,85
288,264,257872,2,0,L|288:168,1,85
160,168,258301,1,0,0:0:0:0:
280,160,258515,2,0,L|384:160,2,85
136,360,259158,6,0,L|136:264,1,85
240,264,259586,2,0,L|352:264,1,85
24,208,260015,1,0,0:0:0:0:
312,184,260229,2,0,L|408:184,2,85
104,360,260872,6,0,L|104:248,1,85
192,272,261301,2,0,L|192:168,1,85
96,176,261729,2,0,L|200:176,1,85
288,176,262158,2,0,L|288:80,1,85
192,232,262586,6,0,L|192:128,1,85
464,352,263015,2,0,L|464:248,1,85
128,288,263443,1,0,0:0:0:0:
400,280,263658,2,0,L|496:280,2,85
216,280,264301,6,0,L|216:176,1,85
312,192,264729,1,0,0:0:0:0:
32,192,264943,1,0,0:0:0:0:
336,376,265158,2,0,L|344:264,1,85
240,288,265586,2,0,L|240:184,1,85
336,192,266015,6,0,L|232:192,1,85
128,192,266443,2,0,L|128:80,1,85
432,112,266872,1,0,0:0:0:0:
160,352,267086,2,0,L|48:352,2,85
344,360,267729,6,0,P|400:328|328:272,1,170
256,280,268372,1,0,0:0:0:0:
368,208,268586,2,0,L|368:104,1,85
304,128,268908,1,0,0:0:0:0:
240,128,269015,1,0,0:0:0:0:
240,56,269122,1,0,0:0:0:0:
304,56,269229,1,0,0:0:0:0:
96,368,270301,6,0,L|96:264,1,85
160,280,270622,1,0,0:0:0:0:
96,224,270729,1,0,0:0:0:0:
272,224,270943,6,0,L|272:104,1,85
176,136,271372,1,0,0:0:0:0:
280,144,271586,1,0,0:0:0:0:
176,72,271801,1,0,0:0:0:0:
376,368,272015,2,0,L|376:272,1,85
312,288,272336,1,0,0:0:0:0:
376,224,272443,2,0,L|376:128,1,85
312,144,272765,1,0,0:0:0:0:
256,144,272872,1,0,0:0:0:0:
312,72,272979,1,0,0:0:0:0:
376,72,273086,1,0,0:0:0:0:
200,376,273301,6,0,L|304:376,1,85
192,304,273729,2,0,L|120:304,1,42.5
104,232,273943,2,0,L|168:232,1,42.5
192,232,274158,1,0,0:0:0:0:
64,240,274372,1,0,0:0:0:0:
408,368,274586,6,0,L|408:272,1,85
272,272,275015,2,0,L|272:176,1,85
400,160,275443,2,0,L|400:64,1,85
328,80,275765,1,0,0:0:0:0:
264,80,275872,1,0,0:0:0:0:
200,80,275979,1,0,0:0:0:0:
200,16,276086,1,0,0:0:0:0:
264,16,276193,1,0,0:0:0:0:
328,16,276301,1,0,0:0:0:0:
152,368,277158,6,0,L|152:272,1,85
208,280,277479,1,0,0:0:0:0:
264,280,277586,1,0,0:0:0:0:
320,280,277693,1,0,0:0:0:0:
264,216,277801,1,0,0:0:0:0:
256,192,278015,12,0,281336,0:0:0:0:
256,368,281443,6,0,B|256:16|256:16|256:360|256:360|256:376,1,680
368,352,284323,5,0,0:0:0:0:
112,352,284803,5,0,0:0:0:0:
368,296,285283,6,0,P|464:248|344:112,1,340
104,112,286723,5,0,0:0:0:0:
360,352,287203,6,0,L|16:352,1,340
272,288,288643,5,0,0:0:0:0:
16,288,289123,5,0,0:0:0:0:
464,208,289603,5,0,0:0:0:0:
224,208,290083,5,0,0:0:0:0:
464,160,290563,5,0,0:0:0:0:
200,352,291043,6,0,P|320:256|184:152,1,340
480,184,292483,5,0,0:0:0:0:
224,200,292963,5,0,0:0:0:0:
480,128,293443,5,0,0:0:0:0:
96,368,293923,6,0,L|432:368,1,297.5
352,304,294883,6,0,P|104:264|320:112,1,637.5
360,168,296803,6,0,L|0:168,1,340
272,112,298243,5,0,0:0:0:0:
32,360,298723,6,0,B|32:32|32:32|32:72,1,340
288,72,300163,5,0,0:0:0:0:
40,360,300643,6,0,L|400:360,1,340
160,288,302083,5,0,0:0:0:0:
400,288,302563,6,0,P|480:232|376:48,1,340
208,64,304003,5,0,0:0:0:0:
456,72,304483,5,0,0:0:0:0:
88,368,304963,5,0,0:0:0:0:
272,288,305443,5,0,0:0:0:0:
88,272,305923,5,0,0:0:0:0:
328,360,306283,6,0,P|192:320|328:208,1,382.5
480,240,307843,5,0,0:0:0:0:
208,176,308323,5,0,0:0:0:0:
400,176,308803,5,0,0:0:0:0:
112,368,309283,6,0,L|432:368,1,297.5
352,312,310243,6,0,P|56:256|200:32,1,637.5
240,32,312163,6,0,P|336:56|416:264,1,340
160,272,313603,5,0,0:0:0:0:
416,360,314083,6,0,L|416:168,1,170
160,368,315043,1,0,0:0:0:0:
336,296,315523,1,0,0:0:0:0:
72,312,316003,6,0,L|72:128,1,170
240,168,316963,1,0,0:0:0:0:
48,168,317443,1,0,0:0:0:0:
312,368,317923,6,0,L|312:176,1,170
120,208,318883,1,0,0:0:0:0:
296,216,319363,1,0,0:0:0:0:
104,360,319843,6,0,L|104:184,1,170
288,232,320803,2,0,L|288:48,1,170
104,72,321763,6,0,L|304:72,1,170
72,368,322723,2,0,L|72:176,1,170
256,224,323683,6,0,L|80:224,1,170
336,360,324643,2,0,L|336:176,1,170
152,352,325603,6,0,L|344:352,1,170
152,288,326563,2,0,L|152:96,1,170
320,128,327523,6,0,L|136:128,1,170
344,360,328483,2,0,L|344:160,1,170
256,352,329443,5,0,0:0:0:0:
376,352,329563,1,0,0:0:0:0:
256,280,329683,1,0,0:0:0:0:
376,280,329803,1,0,0:0:0:0:
256,208,329923,1,0,0:0:0:0:
376,208,330043,1,0,0:0:0:0:
256,144,330163,1,0,0:0:0:0:
376,144,330283,1,0,0:0:0:0:
144,336,330403,5,0,0:0:0:0:
40,336,330523,1,0,0:0:0:0:
168,280,330643,1,0,0:0:0:0:
64,280,330763,1,0,0:0:0:0:
368,336,330883,1,0,0:0:0:0:
472,336,331003,1,0,0:0:0:0:
344,280,331123,1,0,0:0:0:0:
448,280,331243,1,0,0:0:0:0:
224,360,331363,6,0,P|80:320|288:16,1,680
376,32,332443,1,0,0:0:0:0:
272,96,332563,1,0,0:0:0:0:
376,96,332683,1,0,0:0:0:0:
144,352,332803,1,0,0:0:0:0:
40,352,332923,1,0,0:0:0:0:
144,288,333043,1,0,0:0:0:0:
40,296,333163,1,0,0:0:0:0:
384,280,333283,5,0,0:0:0:0:
488,280,333403,1,0,0:0:0:0:
360,224,333523,1,0,0:0:0:0:
464,224,333643,1,0,0:0:0:0:
336,160,333763,1,0,0:0:0:0:
440,160,333883,1,0,0:0:0:0:
312,96,334003,1,0,0:0:0:0:
416,96,334123,1,0,0:0:0:0:
104,360,334243,5,0,0:0:0:0:
208,360,334363,1,0,0:0:0:0:
104,296,334483,1,0,0:0:0:0:
208,296,334603,1,0,0:0:0:0:
448,288,334723,1,0,0:0:0:0:
344,288,334843,1,0,0:0:0:0:
448,224,334963,1,0,0:0:0:0:
344,224,335083,1,0,0:0:0:0:
64,208,335203,5,0,0:0:0:0:
192,208,335323,1,0,0:0:0:0:
88,144,335443,1,0,0:0:0:0:
216,144,335563,1,0,0:0:0:0:
448,208,335683,5,0,0:0:0:0:
320,208,335803,1,0,0:0:0:0:
424,144,335923,1,0,0:0:0:0:
296,144,336043,1,0,0:0:0:0:
40,368,336163,6,0,L|40:16,1,340
120,352,337123,5,0,0:0:0:0:
16,304,337243,1,0,0:0:0:0:
144,296,337363,1,0,0:0:0:0:
40,240,337483,1,0,0:0:0:0:
168,232,337603,1,0,0:0:0:0:
64,176,337723,1,0,0:0:0:0:
192,168,337843,1,0,0:0:0:0:
88,112,337963,1,0,0:0:0:0:
416,352,338083,5,0,0:0:0:0:
312,352,338203,1,0,0:0:0:0:
416,288,338323,1,0,0:0:0:0:
312,280,338443,1,0,0:0:0:0:
96,352,338563,1,0,0:0:0:0:
200,352,338683,1,0,0:0:0:0:
96,288,338803,1,0,0:0:0:0:
200,280,338923,1,0,0:0:0:0:
432,352,339043,6,0,L|432:0,1,340
88,352,340003,5,0,0:0:0:0:
216,352,340123,1,0,0:0:0:0:
112,288,340243,1,0,0:0:0:0:
240,288,340363,1,0,0:0:0:0:
136,224,340483,5,0,0:0:0:0:
264,224,340603,1,0,0:0:0:0:
160,160,340723,1,0,0:0:0:0:
288,160,340843,1,0,0:0:0:0:
472,352,340963,5,0,0:0:0:0:
344,352,341083,1,0,0:0:0:0:
448,288,341203,1,0,0:0:0:0:
320,288,341323,1,0,0:0:0:0:
424,224,341443,5,0,0:0:0:0:
296,224,341563,1,0,0:0:0:0:
400,160,341683,1,0,0:0:0:0:
272,160,341803,1,0,0:0:0:0:
400,208,341923,5,0,0:0:0:0:
272,208,342043,1,0,0:0:0:0:
376,144,342163,1,0,0:0:0:0:
248,144,342283,1,0,0:0:0:0:
352,80,342403,5,0,0:0:0:0:
224,80,342523,1,0,0:0:0:0:
328,16,342643,1,0,0:0:0:0:
200,16,342763,1,0,0:0:0:0:
16,368,342883,5,0,0:0:0:0:
144,368,343003,1,0,0:0:0:0:
16,368,343123,5,0,0:0:0:0:
144,368,343243,1,0,0:0:0:0:
16,368,343363,5,0,0:0:0:0:
144,368,343483,1,0,0:0:0:0:
16,368,343603,5,0,0:0:0:0:
144,368,343723,1,0,0:0:0:0:
400,368,343843,6,0,L|400:8,1,340
224,360,344803,2,0,P|136:224|440:280,1,680
368,288,345883,5,0,0:0:0:0:
456,288,346003,5,0,0:0:0:0:
368,288,346123,1,0,0:0:0:0:
56,288,346243,5,0,0:0:0:0:
144,288,346363,1,0,0:0:0:0:
56,288,346483,5,0,0:0:0:0:
144,288,346603,1,0,0:0:0:0:
336,224,346723,5,0,0:0:0:0:
248,224,346843,1,0,0:0:0:0:
336,224,346963,5,0,0:0:0:0:
248,224,347083,1,0,0:0:0:0:
336,224,347203,5,0,0:0:0:0:
248,224,347323,1,0,0:0:0:0:
336,224,347443,5,0,0:0:0:0:
248,224,347563,1,0,0:0:0:0:
464,360,347683,2,0,L|456:8,1,340
200,328,348643,5,0,0:0:0:0:
96,328,348763,1,0,0:0:0:0:
200,264,348883,1,0,0:0:0:0:
96,264,349003,1,0,0:0:0:0:
200,328,349123,5,0,0:0:0:0:
96,328,349243,1,0,0:0:0:0:
200,264,349363,1,0,0:0:0:0:
96,264,349483,1,0,0:0:0:0:
312,328,349603,5,0,0:0:0:0:
416,328,349723,1,0,0:0:0:0:
312,264,349843,1,0,0:0:0:0:
416,264,349963,1,0,0:0:0:0:
152,168,350083,5,0,0:0:0:0:
48,168,350203,1,0,0:0:0:0:
152,104,350323,1,0,0:0:0:0:
48,104,350443,1,0,0:0:0:0:
448,176,350563,6,0,L|472:176,1,21.25
264,176,350683,2,0,L|228:176,1,21.25
448,176,350803,6,0,L|472:176,1,21.25
264,176,350923,2,0,L|232:172,1,21.25
64,176,351043,6,0,L|32:176,1,21.25
248,176,351163,2,0,L|272:176,1,21.25
64,176,351283,6,0,L|36:176,1,21.25
248,176,351403,2,0,L|280:176,1,21.25
472,352,351523,6,0,L|488:352,2,10.625
256,352,351643,6,0,L|240:352,2,10.625
472,352,351763,6,0,L|488:352,2,10.625
256,288,351883,1,0,0:0:0:0:
244,288,351898,1,0,0:0:0:0:
232,288,351913,1,0,0:0:0:0:
40,352,352003,6,0,L|24:352,2,10.625
256,352,352123,6,0,L|272:352,2,10.625
40,352,352243,6,0,L|24:352,2,10.625
256,352,352363,6,0,L|272:352,2,10.625
32,280,352483,2,0,P|288:152|40:64,1,680
256,304,353563,1,0,0:0:0:0:
40,304,353683,5,0,0:0:0:0:
256,304,353803,1,0,0:0:0:0:
472,304,353923,5,0,0:0:0:0:
256,304,354043,1,0,0:0:0:0:
472,304,354163,5,0,0:0:0:0:
256,304,354283,1,0,0:0:0:0:
40,224,354403,5,0,0:0:0:0:
296,208,354523,1,0,0:0:0:0:
40,224,354643,5,0,0:0:0:0:
296,208,354763,1,0,0:0:0:0:
488,224,354883,5,0,0:0:0:0:
232,208,355003,1,0,0:0:0:0:
488,224,355123,5,0,0:0:0:0:
232,208,355243,1,0,0:0:0:0:
488,352,355363,6,0,P|424:152|104:344,1,680
416,344,356443,1,0,0:0:0:0:
112,344,356563,5,0,0:0:0:0:
416,344,356683,1,0,0:0:0:0:
112,344,356803,5,0,0:0:0:0:
416,344,356923,1,0,0:0:0:0:
112,344,357043,5,0,0:0:0:0:
416,344,357163,1,0,0:0:0:0:
112,344,357283,5,0,0:0:0:0:
416,344,357403,1,0,0:0:0:0:
112,344,357523,5,0,0:0:0:0:
416,344,357643,1,0,0:0:0:0:
112,344,357763,5,0,0:0:0:0:
416,344,357883,1,0,0:0:0:0:
112,344,358003,5,0,0:0:0:0:
416,344,358123,1,0,0:0:0:0:
32,272,358243,5,0,0:0:0:0:
336,272,358363,1,0,0:0:0:0:
32,272,358483,5,0,0:0:0:0:
336,272,358603,1,0,0:0:0:0:
32,272,358723,5,0,0:0:0:0:
336,272,358843,1,0,0:0:0:0:
32,272,358963,5,0,0:0:0:0:
336,272,359083,1,0,0:0:0:0:
32,352,359203,6,0,L|32:8,1,340
0,352,360163,6,0,L|0:336,1,10.625
0,288,360193,6,0,L|0:272,1,10.625
80,288,360223,6,0,L|80:272,1,10.625
152,288,360253,6,0,L|152:272,1,10.625
224,288,360283,6,0,L|224:272,1,10.625
296,288,360313,6,0,L|296:272,1,10.625
368,288,360343,6,0,L|368:272,1,10.625
440,288,360373,2,0,L|440:272,1,10.625
512,352,360403,6,0,L|512:336,1,10.625
512,288,360433,6,0,L|512:272,1,10.625
432,288,360463,6,0,L|432:272,1,10.625
360,288,360493,6,0,L|360:272,1,10.625
288,288,360523,6,0,L|288:272,1,10.625
216,288,360553,6,0,L|216:272,1,10.625
144,288,360583,6,0,L|144:272,1,10.625
72,288,360613,2,0,L|72:272,1,10.625
0,352,360643,6,0,L|0:336,1,10.625
0,288,360673,6,0,L|0:272,1,10.625
80,120,360703,6,0,L|80:104,1,10.625
152,120,360733,6,0,L|152:104,1,10.625
224,120,360763,6,0,L|224:104,1,10.625
296,120,360793,6,0,L|296:104,1,10.625
368,120,360823,6,0,L|368:104,1,10.625
440,120,360853,2,0,L|440:104,1,10.625
512,184,360883,6,0,L|512:168,1,10.625
512,120,360913,6,0,L|512:104,1,10.625
432,288,360943,6,0,L|432:272,1,10.625
360,288,360973,6,0,L|360:272,1,10.625
288,288,361003,6,0,L|288:272,1,10.625
216,288,361033,6,0,L|216:272,1,10.625
144,288,361063,6,0,L|144:272,1,10.625
72,288,361093,2,0,L|72:272,1,10.625
152,208,361123,6,0,L|152:192,1,10.625
224,208,361153,6,0,L|224:192,1,10.625
296,208,361183,6,0,L|296:192,1,10.625
368,208,361213,6,0,L|368:192,1,10.625
440,208,361243,6,0,L|440:192,1,10.625
512,208,361273,2,0,L|512:192,1,10.625
512,136,361303,6,0,L|512:120,1,10.625
512,136,361333,6,0,L|512:120,1,10.625
512,136,361363,6,0,L|512:120,1,10.625
512,136,361393,6,0,L|512:120,1,10.625
512,136,361423,6,0,L|512:120,1,10.625
512,136,361453,6,0,L|512:120,1,10.625
512,136,361483,6,0,L|512:120,1,10.625
512,136,361513,6,0,L|512:120,1,10.625
512,136,361543,6,0,L|512:120,1,10.625
512,136,361573,6,0,L|512:120,1,10.625
360,208,361603,6,0,L|360:192,1,10.625
288,208,361633,6,0,L|288:192,1,10.625
216,208,361663,6,0,L|216:192,1,10.625
144,208,361693,6,0,L|144:192,1,10.625
72,208,361723,6,0,L|72:192,1,10.625
0,208,361753,2,0,L|0:192,1,10.625
0,136,361783,6,0,L|0:120,1,10.625
0,136,361813,6,0,L|0:120,1,10.625
0,136,361843,6,0,L|0:120,1,10.625
0,136,361873,6,0,L|0:120,1,10.625
0,136,361903,6,0,L|0:120,1,10.625
0,136,361933,6,0,L|0:120,1,10.625
0,136,361963,6,0,L|0:120,1,10.625
0,136,361993,6,0,L|0:120,1,10.625
0,136,362023,6,0,L|0:120,1,10.625
0,136,362053,6,0,L|0:120,1,10.625
504,360,362083,6,0,B|504:16|504:16|504:352,1,680
504,328,363058,5,0,0:0:0:0:
504,328,363073,1,0,0:0:0:0:
504,328,363088,1,0,0:0:0:0:
432,288,363103,6,0,L|432:272,1,10.625
360,288,363133,6,0,L|360:272,1,10.625
288,288,363163,6,0,L|288:272,1,10.625
216,288,363193,6,0,L|216:272,1,10.625
144,288,363223,6,0,L|144:272,1,10.625
72,298,363253,2,0,L|72:282,1,10.625
0,352,363283,6,0,L|0:336,1,10.625
0,296,363313,6,0,L|0:280,1,10.625
0,352,363343,6,0,L|0:336,1,10.625
0,296,363373,6,0,L|0:280,1,10.625
0,352,363403,6,0,L|0:336,1,10.625
0,296,363433,6,0,L|0:280,1,10.625
0,352,363463,6,0,L|0:336,1,10.625
0,296,363493,6,0,L|0:280,1,10.625
0,352,363523,6,0,L|0:336,1,10.625
0,296,363553,6,0,L|0:280,1,10.625
72,288,363583,6,0,L|72:272,1,10.625
144,288,363613,6,0,L|144:272,1,10.625
216,288,363643,6,0,L|216:272,1,10.625
288,288,363673,6,0,L|288:272,1,10.625
360,288,363703,6,0,L|360:272,1,10.625
432,288,363733,2,0,L|432:272,1,10.625
512,288,363763,6,0,L|512:272,1,10.625
512,288,363793,6,0,L|512:272,1,10.625
512,288,363823,6,0,L|512:272,1,10.625
512,288,363853,6,0,L|512:272,1,10.625
512,288,363883,6,0,L|512:272,1,10.625
512,288,363913,6,0,L|512:272,1,10.625
512,288,363943,6,0,L|512:272,1,10.625
512,288,363973,6,0,L|512:272,1,10.625
0,192,364003,6,0,L|56:192,1,42.5
0,192,364033,6,0,L|56:192,1,42.5
0,192,364063,6,0,L|56:192,1,42.5
0,192,364093,6,0,L|56:192,1,42.5
0,192,364123,6,0,L|56:192,1,42.5
0,192,364153,6,0,L|56:192,1,42.5
0,192,364183,6,0,L|56:192,1,42.5
0,192,364213,6,0,L|56:192,1,42.5
0,192,364243,6,0,L|56:192,1,42.5
0,192,364273,6,0,L|56:192,1,42.5
0,192,364303,6,0,L|56:192,1,42.5
0,192,364333,6,0,L|56:192,1,42.5
0,192,364363,6,0,L|56:192,1,42.5
0,192,364393,6,0,L|56:192,1,42.5
0,192,364423,6,0,L|56:192,1,42.5
0,192,364453,6,0,L|56:192,1,42.5
0,192,364483,6,0,L|56:192,1,42.5
0,192,364513,6,0,L|56:192,1,42.5
0,192,364543,6,0,L|56:192,1,42.5
0,192,364573,6,0,L|56:192,1,42.5
0,192,364603,6,0,L|56:192,1,42.5
0,192,364633,6,0,L|56:192,1,42.5
0,192,364663,6,0,L|56:192,1,42.5
0,192,364693,6,0,L|56:192,1,42.5
0,192,364723,6,0,L|56:192,1,42.5
0,192,364753,6,0,L|56:192,1,42.5
0,192,364783,6,0,L|56:192,1,42.5
0,192,364813,6,0,L|56:192,1,42.5
0,192,364843,6,0,L|56:192,1,42.5
0,192,364873,6,0,L|56:192,1,42.5
0,192,364903,6,0,L|56:192,1,42.5
0,192,364933,6,0,L|56:192,1,42.5
88,192,364963,6,0,L|144:192,1,42.5
88,192,364993,6,0,L|144:192,1,42.5
88,192,365023,6,0,L|144:192,1,42.5
88,192,365053,6,0,L|144:192,1,42.5
88,192,365083,6,0,L|144:192,1,42.5
88,192,365113,6,0,L|144:192,1,42.5
88,192,365143,6,0,L|144:192,1,42.5
88,192,365173,6,0,L|144:192,1,42.5
88,192,365203,6,0,L|144:192,1,42.5
88,192,365233,6,0,L|144:192,1,42.5
88,192,365263,6,0,L|144:192,1,42.5
88,192,365293,6,0,L|144:192,1,42.5
88,192,365323,6,0,L|144:192,1,42.5
88,192,365353,6,0,L|144:192,1,42.5
88,192,365383,6,0,L|144:192,1,42.5
88,192,365413,6,0,L|144:192,1,42.5
176,192,365443,6,0,L|232:192,1,42.5
176,192,365473,6,0,L|232:192,1,42.5
176,192,365503,6,0,L|232:192,1,42.5
176,192,365533,6,0,L|232:192,1,42.5
176,192,365563,6,0,L|232:192,1,42.5
176,192,365593,6,0,L|232:192,1,42.5
176,192,365623,6,0,L|232:192,1,42.5
176,192,365653,6,0,L|232:192,1,42.5
176,192,365683,6,0,L|232:192,1,42.5
176,192,365713,6,0,L|232:192,1,42.5
176,192,365743,6,0,L|232:192,1,42.5
176,192,365773,6,0,L|232:192,1,42.5
176,192,365803,6,0,L|232:192,1,42.5
176,192,365833,6,0,L|232:192,1,42.5
176,192,365863,6,0,L|232:192,1,42.5
176,192,365893,6,0,L|232:192,1,42.5
512,200,365923,6,0,L|456:200,1,42.5
512,200,365953,6,0,L|456:200,1,42.5
512,200,365983,6,0,L|456:200,1,42.5
512,200,366013,6,0,L|456:200,1,42.5
512,200,366043,6,0,L|456:200,1,42.5
512,200,366073,6,0,L|456:200,1,42.5
512,200,366103,6,0,L|456:200,1,42.5
512,200,366133,6,0,L|456:200,1,42.5
512,200,366163,6,0,L|456:200,1,42.5
512,200,366193,6,0,L|456:200,1,42.5
512,200,366223,6,0,L|456:200,1,42.5
512,200,366253,6,0,L|456:200,1,42.5
512,200,366283,6,0,L|456:200,1,42.5
512,200,366313,6,0,L|456:200,1,42.5
512,200,366343,6,0,L|456:200,1,42.5
512,200,366373,6,0,L|456:200,1,42.5
424,200,366403,6,0,L|368:200,1,42.5
424,200,366433,6,0,L|368:200,1,42.5
424,200,366463,6,0,L|368:200,1,42.5
424,200,366493,6,0,L|368:200,1,42.5
424,200,366523,6,0,L|368:200,1,42.5
424,200,366553,6,0,L|368:200,1,42.5
424,200,366583,6,0,L|368:200,1,42.5
424,200,366613,6,0,L|368:200,1,42.5
424,200,366643,6,0,L|368:200,1,42.5
424,200,366673,6,0,L|368:200,1,42.5
424,200,366703,6,0,L|368:200,1,42.5
424,200,366733,6,0,L|368:200,1,42.5
424,200,366763,6,0,L|368:200,1,42.5
424,200,366793,6,0,L|368:200,1,42.5
424,200,366823,6,0,L|368:200,1,42.5
424,200,366853,6,0,L|368:200,1,42.5
24,360,366883,6,0,L|56:20,1,340
8,288,367843,5,0,0:0:0:0:
80,288,367843,1,0,0:0:0:0:
8,288,367858,5,0,0:0:0:0:
80,288,367858,1,0,0:0:0:0:
8,288,367873,5,0,0:0:0:0:
80,288,367873,1,0,0:0:0:0:
8,288,367888,5,0,0:0:0:0:
80,288,367888,1,0,0:0:0:0:
8,288,367903,5,0,0:0:0:0:
80,288,367903,1,0,0:0:0:0:
8,288,367918,5,0,0:0:0:0:
80,288,367918,1,0,0:0:0:0:
8,288,367933,5,0,0:0:0:0:
80,288,367933,1,0,0:0:0:0:
8,288,367948,5,0,0:0:0:0:
80,288,367948,1,0,0:0:0:0:
8,288,367963,5,0,0:0:0:0:
80,288,367963,1,0,0:0:0:0:
8,288,367978,5,0,0:0:0:0:
80,288,367978,1,0,0:0:0:0:
8,288,367993,5,0,0:0:0:0:
80,288,367993,1,0,0:0:0:0:
8,288,368008,5,0,0:0:0:0:
80,288,368008,1,0,0:0:0:0:
8,288,368023,5,0,0:0:0:0:
80,288,368023,1,0,0:0:0:0:
8,288,368038,5,0,0:0:0:0:
80,288,368038,1,0,0:0:0:0:
8,288,368053,5,0,0:0:0:0:
80,288,368053,1,0,0:0:0:0:
8,288,368068,5,0,0:0:0:0:
80,288,368068,1,0,0:0:0:0:
8,288,368083,5,0,0:0:0:0:
80,288,368083,1,0,0:0:0:0:
8,288,368098,5,0,0:0:0:0:
80,288,368098,1,0,0:0:0:0:
8,288,368113,5,0,0:0:0:0:
80,288,368113,1,0,0:0:0:0:
8,288,368128,5,0,0:0:0:0:
80,288,368128,1,0,0:0:0:0:
8,288,368143,5,0,0:0:0:0:
80,288,368143,1,0,0:0:0:0:
8,288,368158,5,0,0:0:0:0:
80,288,368158,1,0,0:0:0:0:
8,288,368173,5,0,0:0:0:0:
80,288,368173,1,0,0:0:0:0:
8,288,368188,5,0,0:0:0:0:
80,288,368188,1,0,0:0:0:0:
8,288,368203,5,0,0:0:0:0:
80,288,368203,1,0,0:0:0:0:
8,288,368218,5,0,0:0:0:0:
80,288,368218,1,0,0:0:0:0:
8,288,368233,5,0,0:0:0:0:
80,288,368233,1,0,0:0:0:0:
8,288,368248,5,0,0:0:0:0:
80,288,368248,1,0,0:0:0:0:
8,288,368263,5,0,0:0:0:0:
80,288,368263,1,0,0:0:0:0:
8,288,368278,5,0,0:0:0:0:
80,288,368278,1,0,0:0:0:0:
8,288,368293,5,0,0:0:0:0:
80,288,368293,1,0,0:0:0:0:
8,288,368308,5,0,0:0:0:0:
80,288,368308,1,0,0:0:0:0:
8,288,368323,5,0,0:0:0:0:
80,288,368323,1,0,0:0:0:0:
8,288,368338,5,0,0:0:0:0:
80,288,368338,1,0,0:0:0:0:
8,288,368353,5,0,0:0:0:0:
80,288,368353,1,0,0:0:0:0:
8,288,368368,5,0,0:0:0:0:
80,288,368368,1,0,0:0:0:0:
8,288,368383,5,0,0:0:0:0:
80,288,368383,1,0,0:0:0:0:
8,288,368398,5,0,0:0:0:0:
80,288,368398,1,0,0:0:0:0:
8,288,368413,5,0,0:0:0:0:
80,288,368413,1,0,0:0:0:0:
8,288,368428,5,0,0:0:0:0:
80,288,368428,1,0,0:0:0:0:
8,288,368443,5,0,0:0:0:0:
80,288,368443,1,0,0:0:0:0:
8,288,368458,5,0,0:0:0:0:
80,288,368458,1,0,0:0:0:0:
8,288,368473,5,0,0:0:0:0:
80,288,368473,1,0,0:0:0:0:
8,288,368488,5,0,0:0:0:0:
80,288,368488,1,0,0:0:0:0:
8,288,368503,5,0,0:0:0:0:
80,288,368503,1,0,0:0:0:0:
8,288,368518,5,0,0:0:0:0:
80,288,368518,1,0,0:0:0:0:
8,288,368533,5,0,0:0:0:0:
80,288,368533,1,0,0:0:0:0:
8,288,368548,5,0,0:0:0:0:
80,288,368548,1,0,0:0:0:0:
8,288,368563,5,0,0:0:0:0:
80,288,368563,1,0,0:0:0:0:
8,288,368578,5,0,0:0:0:0:
80,288,368578,1,0,0:0:0:0:
8,288,368593,5,0,0:0:0:0:
80,288,368593,1,0,0:0:0:0:
8,288,368608,5,0,0:0:0:0:
80,288,368608,1,0,0:0:0:0:
8,288,368623,5,0,0:0:0:0:
80,288,368623,1,0,0:0:0:0:
8,288,368638,5,0,0:0:0:0:
80,288,368638,1,0,0:0:0:0:
8,288,368653,5,0,0:0:0:0:
80,288,368653,1,0,0:0:0:0:
8,288,368668,5,0,0:0:0:0:
80,288,368668,1,0,0:0:0:0:
8,288,368683,5,0,0:0:0:0:
80,288,368683,1,0,0:0:0:0:
8,288,368698,5,0,0:0:0:0:
80,288,368698,1,0,0:0:0:0:
8,288,368713,5,0,0:0:0:0:
80,288,368713,1,0,0:0:0:0:
8,288,368728,5,0,0:0:0:0:
80,288,368728,1,0,0:0:0:0:
8,288,368743,5,0,0:0:0:0:
80,288,368743,1,0,0:0:0:0:
8,288,368758,5,0,0:0:0:0:
80,288,368758,1,0,0:0:0:0:
8,288,368773,5,0,0:0:0:0:
80,288,368773,1,0,0:0:0:0:
44,232,368788,5,0,0:0:0:0:
512,280,368803,5,0,0:0:0:0:
472,280,368818,1,0,0:0:0:0:
512,280,368833,5,0,0:0:0:0:
472,280,368848,1,0,0:0:0:0:
512,280,368863,5,0,0:0:0:0:
472,280,368878,1,0,0:0:0:0:
512,280,368893,5,0,0:0:0:0:
472,280,368908,1,0,0:0:0:0:
512,280,368923,5,0,0:0:0:0:
472,280,368938,1,0,0:0:0:0:
512,280,368953,5,0,0:0:0:0:
472,280,368968,1,0,0:0:0:0:
512,280,368983,5,0,0:0:0:0:
472,280,368998,1,0,0:0:0:0:
512,280,369013,5,0,0:0:0:0:
472,280,369028,1,0,0:0:0:0:
512,280,369043,5,0,0:0:0:0:
472,280,369058,1,0,0:0:0:0:
512,280,369073,5,0,0:0:0:0:
472,280,369088,1,0,0:0:0:0:
512,280,369103,5,0,0:0:0:0:
472,280,369118,1,0,0:0:0:0:
512,280,369133,5,0,0:0:0:0:
472,280,369148,1,0,0:0:0:0:
512,280,369163,5,0,0:0:0:0:
472,280,369178,1,0,0:0:0:0:
512,280,369193,5,0,0:0:0:0:
472,280,369208,1,0,0:0:0:0:
512,280,369223,5,0,0:0:0:0:
472,280,369238,1,0,0:0:0:0:
512,280,369253,5,0,0:0:0:0:
472,280,369268,1,0,0:0:0:0:
0,280,369283,5,0,0:0:0:0:
40,280,369298,1,0,0:0:0:0:
0,280,369313,5,0,0:0:0:0:
40,280,369328,1,0,0:0:0:0:
0,280,369343,5,0,0:0:0:0:
40,280,369358,1,0,0:0:0:0:
0,280,369373,5,0,0:0:0:0:
40,280,369388,1,0,0:0:0:0:
0,280,369403,5,0,0:0:0:0:
40,280,369418,1,0,0:0:0:0:
0,280,369433,5,0,0:0:0:0:
40,280,369448,1,0,0:0:0:0:
0,280,369463,5,0,0:0:0:0:
40,280,369478,1,0,0:0:0:0:
0,280,369493,5,0,0:0:0:0:
40,280,369508,1,0,0:0:0:0:
0,280,369523,5,0,0:0:0:0:
40,280,369538,1,0,0:0:0:0:
0,280,369553,5,0,0:0:0:0:
40,280,369568,1,0,0:0:0:0:
0,280,369583,5,0,0:0:0:0:
40,280,369598,1,0,0:0:0:0:
0,280,369613,5,0,0:0:0:0:
40,280,369628,1,0,0:0:0:0:
0,280,369643,5,0,0:0:0:0:
40,280,369658,1,0,0:0:0:0:
0,280,369673,5,0,0:0:0:0:
40,280,369688,1,0,0:0:0:0:
0,280,369703,5,0,0:0:0:0:
40,280,369718,1,0,0:0:0:0:
0,280,369733,5,0,0:0:0:0:
40,280,369748,1,0,0:0:0:0:
512,368,369763,6,0,L|504:24,1,340
232,352,370723,5,0,0:0:0:0:
280,352,370738,1,0,0:0:0:0:
232,352,370753,1,0,0:0:0:0:
280,352,370768,1,0,0:0:0:0:
232,352,370783,1,0,0:0:0:0:
280,352,370798,1,0,0:0:0:0:
232,352,370813,1,0,0:0:0:0:
280,352,370828,1,0,0:0:0:0:
232,352,370843,1,0,0:0:0:0:
280,352,370858,1,0,0:0:0:0:
232,352,370873,1,0,0:0:0:0:
280,352,370888,1,0,0:0:0:0:
232,352,370903,1,0,0:0:0:0:
280,352,370918,1,0,0:0:0:0:
232,352,370933,1,0,0:0:0:0:
280,352,370948,1,0,0:0:0:0:
232,352,370963,1,0,0:0:0:0:
280,352,370978,1,0,0:0:0:0:
232,352,370993,1,0,0:0:0:0:
280,352,371008,1,0,0:0:0:0:
232,352,371023,1,0,0:0:0:0:
280,352,371038,1,0,0:0:0:0:
232,352,371053,1,0,0:0:0:0:
280,352,371068,1,0,0:0:0:0:
232,352,371083,1,0,0:0:0:0:
280,352,371098,1,0,0:0:0:0:
232,352,371113,1,0,0:0:0:0:
280,352,371128,1,0,0:0:0:0:
232,352,371143,1,0,0:0:0:0:
280,352,371158,1,0,0:0:0:0:
232,352,371173,1,0,0:0:0:0:
280,352,371188,1,0,0:0:0:0:
232,352,371203,1,0,0:0:0:0:
280,352,371218,1,0,0:0:0:0:
232,352,371233,1,0,0:0:0:0:
280,352,371248,1,0,0:0:0:0:
232,352,371263,1,0,0:0:0:0:
280,352,371278,1,0,0:0:0:0:
232,352,371293,1,0,0:0:0:0:
280,352,371308,1,0,0:0:0:0:
232,352,371323,1,0,0:0:0:0:
280,352,371338,1,0,0:0:0:0:
232,352,371353,1,0,0:0:0:0:
280,352,371368,1,0,0:0:0:0:
232,352,371383,1,0,0:0:0:0:
280,352,371398,1,0,0:0:0:0:
232,352,371413,1,0,0:0:0:0:
280,352,371428,1,0,0:0:0:0:
232,352,371443,1,0,0:0:0:0:
280,352,371458,1,0,0:0:0:0:
232,352,371473,1,0,0:0:0:0:
280,352,371488,1,0,0:0:0:0:
232,352,371503,1,0,0:0:0:0:
280,352,371518,1,0,0:0:0:0:
232,352,371533,1,0,0:0:0:0:
280,352,371548,1,0,0:0:0:0:
232,352,371563,1,0,0:0:0:0:
280,352,371578,1,0,0:0:0:0:
232,352,371593,1,0,0:0:0:0:
280,352,371608,1,0,0:0:0:0:
232,352,371623,1,0,0:0:0:0:
280,352,371638,1,0,0:0:0:0:
232,352,371653,1,0,0:0:0:0:
280,352,371668,1,0,0:0:0:0:
300,220,371683,1,0,0:0:0:0:
256,224,371683,1,0,0:0:0:0:
216,224,371683,1,0,0:0:0:0:
300,220,371698,1,0,0:0:0:0:
256,224,371698,1,0,0:0:0:0:
216,224,371698,1,0,0:0:0:0:
300,220,371713,1,0,0:0:0:0:
256,224,371713,1,0,0:0:0:0:
216,224,371713,1,0,0:0:0:0:
216,224,371728,1,0,0:0:0:0:
256,224,371728,1,0,0:0:0:0:
300,220,371728,1,0,0:0:0:0:
216,224,371743,1,0,0:0:0:0:
256,224,371743,1,0,0:0:0:0:
300,220,371743,1,0,0:0:0:0:
300,220,371758,1,0,0:0:0:0:
256,224,371758,1,0,0:0:0:0:
216,224,371758,1,0,0:0:0:0:
300,220,371773,1,0,0:0:0:0:
256,224,371773,1,0,0:0:0:0:
216,224,371773,1,0,0:0:0:0:
216,224,371788,1,0,0:0:0:0:
256,224,371788,1,0,0:0:0:0:
300,220,371788,1,0,0:0:0:0:
216,224,371803,1,0,0:0:0:0:
256,224,371803,1,0,0:0:0:0:
300,220,371803,1,0,0:0:0:0:
300,220,371818,1,0,0:0:0:0:
256,224,371818,1,0,0:0:0:0:
216,224,371818,1,0,0:0:0:0:
300,220,371833,1,0,0:0:0:0:
256,224,371833,1,0,0:0:0:0:
216,224,371833,1,0,0:0:0:0:
216,224,371848,1,0,0:0:0:0:
256,224,371848,1,0,0:0:0:0:
300,220,371848,1,0,0:0:0:0:
216,224,371863,1,0,0:0:0:0:
256,224,371863,1,0,0:0:0:0:
300,220,371863,1,0,0:0:0:0:
300,220,371878,1,0,0:0:0:0:
256,224,371878,1,0,0:0:0:0:
216,224,371878,1,0,0:0:0:0:
216,224,371893,1,0,0:0:0:0:
256,224,371893,1,0,0:0:0:0:
300,220,371893,1,0,0:0:0:0:
256,224,371908,1,0,0:0:0:0:
216,224,371908,1,0,0:0:0:0:
300,220,371908,1,0,0:0:0:0:
216,224,371923,1,0,0:0:0:0:
300,220,371923,1,0,0:0:0:0:
256,224,371923,1,0,0:0:0:0:
216,224,371938,1,0,0:0:0:0:
256,224,371938,1,0,0:0:0:0:
300,220,371938,1,0,0:0:0:0:
300,220,371953,1,0,0:0:0:0:
256,224,371953,1,0,0:0:0:0:
216,224,371953,1,0,0:0:0:0:
300,220,371968,1,0,0:0:0:0:
216,224,371968,1,0,0:0:0:0:
256,224,371968,1,0,0:0:0:0:
300,220,371983,1,0,0:0:0:0:
216,224,371983,1,0,0:0:0:0:
256,224,371983,1,0,0:0:0:0:
216,224,371998,1,0,0:0:0:0:
300,220,371998,1,0,0:0:0:0:
256,224,371998,1,0,0:0:0:0:
216,224,372013,1,0,0:0:0:0:
300,220,372013,1,0,0:0:0:0:
256,224,372013,1,0,0:0:0:0:
256,224,372028,1,0,0:0:0:0:
216,224,372028,1,0,0:0:0:0:
300,220,372028,1,0,0:0:0:0:
256,224,372043,1,0,0:0:0:0:
300,220,372043,1,0,0:0:0:0:
216,224,372043,1,0,0:0:0:0:
256,224,372058,1,0,0:0:0:0:
216,224,372058,1,0,0:0:0:0:
300,220,372058,1,0,0:0:0:0:
256,224,372073,1,0,0:0:0:0:
300,220,372073,1,0,0:0:0:0:
216,224,372073,1,0,0:0:0:0:
216,224,372088,1,0,0:0:0:0:
256,224,372088,1,0,0:0:0:0:
300,220,372088,1,0,0:0:0:0:
300,220,372103,1,0,0:0:0:0:
256,224,372103,1,0,0:0:0:0:
216,224,372103,1,0,0:0:0:0:
300,220,372118,1,0,0:0:0:0:
216,224,372118,1,0,0:0:0:0:
256,224,372118,1,0,0:0:0:0:
256,224,372133,1,0,0:0:0:0:
300,220,372133,1,0,0:0:0:0:
216,224,372133,1,0,0:0:0:0:
300,220,372148,1,0,0:0:0:0:
256,224,372148,1,0,0:0:0:0:
216,224,372148,1,0,0:0:0:0:
216,224,372163,1,0,0:0:0:0:
256,224,372163,1,0,0:0:0:0:
300,220,372163,1,0,0:0:0:0:
256,224,372178,1,0,0:0:0:0:
216,224,372178,1,0,0:0:0:0:
300,220,372178,1,0,0:0:0:0:
256,224,372193,1,0,0:0:0:0:
216,224,372193,1,0,0:0:0:0:
300,220,372193,1,0,0:0:0:0:
256,224,372208,1,0,0:0:0:0:
300,220,372208,1,0,0:0:0:0:
216,224,372208,1,0,0:0:0:0:
256,224,372223,1,0,0:0:0:0:
300,220,372223,1,0,0:0:0:0:
216,224,372223,1,0,0:0:0:0:
300,220,372238,1,0,0:0:0:0:
216,224,372238,1,0,0:0:0:0:
256,224,372238,1,0,0:0:0:0:
216,224,372253,1,0,0:0:0:0:
300,220,372253,1,0,0:0:0:0:
256,224,372253,1,0,0:0:0:0:
300,220,372268,1,0,0:0:0:0:
216,224,372268,1,0,0:0:0:0:
256,224,372268,1,0,0:0:0:0:
216,224,372283,1,0,0:0:0:0:
300,220,372283,1,0,0:0:0:0:
256,224,372283,1,0,0:0:0:0:
300,220,372298,1,0,0:0:0:0:
256,224,372298,1,0,0:0:0:0:
216,224,372298,1,0,0:0:0:0:
216,224,372313,1,0,0:0:0:0:
256,224,372313,1,0,0:0:0:0:
300,220,372313,1,0,0:0:0:0:
256,224,372328,1,0,0:0:0:0:
216,224,372328,1,0,0:0:0:0:
300,220,372328,1,0,0:0:0:0:
216,224,372343,1,0,0:0:0:0:
300,220,372343,1,0,0:0:0:0:
256,224,372343,1,0,0:0:0:0:
216,224,372358,1,0,0:0:0:0:
256,224,372358,1,0,0:0:0:0:
300,220,372358,1,0,0:0:0:0:
300,220,372373,1,0,0:0:0:0:
256,224,372373,1,0,0:0:0:0:
216,224,372373,1,0,0:0:0:0:
300,220,372388,1,0,0:0:0:0:
216,224,372388,1,0,0:0:0:0:
256,224,372388,1,0,0:0:0:0:
300,220,372403,1,0,0:0:0:0:
216,224,372403,1,0,0:0:0:0:
256,224,372403,1,0,0:0:0:0:
216,224,372418,1,0,0:0:0:0:
300,220,372418,1,0,0:0:0:0:
256,224,372418,1,0,0:0:0:0:
216,224,372433,1,0,0:0:0:0:
300,220,372433,1,0,0:0:0:0:
256,224,372433,1,0,0:0:0:0:
256,224,372448,1,0,0:0:0:0:
216,224,372448,1,0,0:0:0:0:
300,220,372448,1,0,0:0:0:0:
256,224,372463,1,0,0:0:0:0:
300,220,372463,1,0,0:0:0:0:
216,224,372463,1,0,0:0:0:0:
256,224,372478,1,0,0:0:0:0:
216,224,372478,1,0,0:0:0:0:
300,220,372478,1,0,0:0:0:0:
256,224,372493,1,0,0:0:0:0:
300,220,372493,1,0,0:0:0:0:
216,224,372493,1,0,0:0:0:0:
216,224,372508,1,0,0:0:0:0:
256,224,372508,1,0,0:0:0:0:
300,220,372508,1,0,0:0:0:0:
300,220,372523,1,0,0:0:0:0:
256,224,372523,1,0,0:0:0:0:
216,224,372523,1,0,0:0:0:0:
300,220,372538,1,0,0:0:0:0:
216,224,372538,1,0,0:0:0:0:
256,224,372538,1,0,0:0:0:0:
256,224,372553,1,0,0:0:0:0:
300,220,372553,1,0,0:0:0:0:
216,224,372553,1,0,0:0:0:0:
300,220,372568,1,0,0:0:0:0:
256,224,372568,1,0,0:0:0:0:
216,224,372568,1,0,0:0:0:0:
216,224,372583,1,0,0:0:0:0:
256,224,372583,1,0,0:0:0:0:
300,220,372583,1,0,0:0:0:0:
256,224,372598,1,0,0:0:0:0:
216,224,372598,1,0,0:0:0:0:
300,220,372598,1,0,0:0:0:0:
256,224,372613,1,0,0:0:0:0:
216,224,372613,1,0,0:0:0:0:
300,220,372613,1,0,0:0:0:0:
256,224,372628,1,0,0:0:0:0:
300,220,372628,1,0,0:0:0:0:
216,224,372628,1,0,0:0:0:0:
256,224,372643,1,0,0:0:0:0:
300,220,372643,1,0,0:0:0:0:
216,224,372643,1,0,0:0:0:0:
300,220,372658,1,0,0:0:0:0:
216,224,372658,1,0,0:0:0:0:
256,224,372658,1,0,0:0:0:0:
216,224,372673,1,0,0:0:0:0:
300,220,372673,1,0,0:0:0:0:
256,224,372673,1,0,0:0:0:0:
300,220,372688,1,0,0:0:0:0:
216,224,372688,1,0,0:0:0:0:
256,224,372688,1,0,0:0:0:0:
216,224,372703,1,0,0:0:0:0:
300,220,372703,1,0,0:0:0:0:
256,224,372703,1,0,0:0:0:0:
300,220,372718,1,0,0:0:0:0:
256,224,372718,1,0,0:0:0:0:
216,224,372718,1,0,0:0:0:0:
300,220,372733,1,0,0:0:0:0:
256,224,372733,1,0,0:0:0:0:
216,224,372733,1,0,0:0:0:0:
300,220,372748,1,0,0:0:0:0:
216,224,372748,1,0,0:0:0:0:
256,224,372748,1,0,0:0:0:0:
256,224,372763,1,0,0:0:0:0:
300,220,372763,1,0,0:0:0:0:
216,224,372763,1,0,0:0:0:0:
300,220,372778,1,0,0:0:0:0:
256,224,372778,1,0,0:0:0:0:
216,224,372778,1,0,0:0:0:0:
216,224,372793,1,0,0:0:0:0:
256,224,372793,1,0,0:0:0:0:
300,220,372793,1,0,0:0:0:0:
256,224,372808,1,0,0:0:0:0:
216,224,372808,1,0,0:0:0:0:
300,220,372808,1,0,0:0:0:0:
256,224,372823,1,0,0:0:0:0:
216,224,372823,1,0,0:0:0:0:
300,220,372823,1,0,0:0:0:0:
256,224,372838,1,0,0:0:0:0:
300,220,372838,1,0,0:0:0:0:
216,224,372838,1,0,0:0:0:0:
256,224,372853,1,0,0:0:0:0:
300,220,372853,1,0,0:0:0:0:
216,224,372853,1,0,0:0:0:0:
300,220,372868,1,0,0:0:0:0:
216,224,372868,1,0,0:0:0:0:
256,224,372868,1,0,0:0:0:0:
216,224,372883,1,0,0:0:0:0:
300,220,372883,1,0,0:0:0:0:
256,224,372883,1,0,0:0:0:0:
300,220,372898,1,0,0:0:0:0:
216,224,372898,1,0,0:0:0:0:
256,224,372898,1,0,0:0:0:0:
216,224,372913,1,0,0:0:0:0:
300,220,372913,1,0,0:0:0:0:
256,224,372913,1,0,0:0:0:0:
300,220,372928,1,0,0:0:0:0:
256,224,372928,1,0,0:0:0:0:
216,224,372928,1,0,0:0:0:0:
216,224,372943,1,0,0:0:0:0:
256,224,372943,1,0,0:0:0:0:
300,220,372943,1,0,0:0:0:0:
256,224,372958,1,0,0:0:0:0:
216,224,372958,1,0,0:0:0:0:
300,220,372958,1,0,0:0:0:0:
216,224,372973,1,0,0:0:0:0:
300,220,372973,1,0,0:0:0:0:
256,224,372973,1,0,0:0:0:0:
216,224,372988,1,0,0:0:0:0:
256,224,372988,1,0,0:0:0:0:
300,220,372988,1,0,0:0:0:0:
300,220,373003,1,0,0:0:0:0:
256,224,373003,1,0,0:0:0:0:
216,224,373003,1,0,0:0:0:0:
300,220,373018,1,0,0:0:0:0:
216,224,373018,1,0,0:0:0:0:
256,224,373018,1,0,0:0:0:0:
300,220,373033,1,0,0:0:0:0:
216,224,373033,1,0,0:0:0:0:
256,224,373033,1,0,0:0:0:0:
216,224,373048,1,0,0:0:0:0:
300,220,373048,1,0,0:0:0:0:
256,224,373048,1,0,0:0:0:0:
216,224,373063,1,0,0:0:0:0:
300,220,373063,1,0,0:0:0:0:
256,224,373063,1,0,0:0:0:0:
256,224,373078,1,0,0:0:0:0:
216,224,373078,1,0,0:0:0:0:
300,220,373078,1,0,0:0:0:0:
256,224,373093,1,0,0:0:0:0:
300,220,373093,1,0,0:0:0:0:
216,224,373093,1,0,0:0:0:0:
256,224,373108,1,0,0:0:0:0:
216,224,373108,1,0,0:0:0:0:
300,220,373108,1,0,0:0:0:0:
256,224,373123,1,0,0:0:0:0:
300,220,373123,1,0,0:0:0:0:
216,224,373123,1,0,0:0:0:0:
216,224,373138,1,0,0:0:0:0:
256,224,373138,1,0,0:0:0:0:
300,220,373138,1,0,0:0:0:0:
300,220,373153,1,0,0:0:0:0:
256,224,373153,1,0,0:0:0:0:
216,224,373153,1,0,0:0:0:0:
300,220,373168,1,0,0:0:0:0:
216,224,373168,1,0,0:0:0:0:
256,224,373168,1,0,0:0:0:0:
256,224,373183,1,0,0:0:0:0:
300,220,373183,1,0,0:0:0:0:
216,224,373183,1,0,0:0:0:0:
300,220,373198,1,0,0:0:0:0:
256,224,373198,1,0,0:0:0:0:
216,224,373198,1,0,0:0:0:0:
216,224,373213,1,0,0:0:0:0:
256,224,373213,1,0,0:0:0:0:
300,220,373213,1,0,0:0:0:0:
256,224,373228,1,0,0:0:0:0:
216,224,373228,1,0,0:0:0:0:
300,220,373228,1,0,0:0:0:0:
256,224,373243,1,0,0:0:0:0:
216,224,373243,1,0,0:0:0:0:
300,220,373243,1,0,0:0:0:0:
256,224,373258,1,0,0:0:0:0:
300,220,373258,1,0,0:0:0:0:
216,224,373258,1,0,0:0:0:0:
256,224,373273,1,0,0:0:0:0:
300,220,373273,1,0,0:0:0:0:
216,224,373273,1,0,0:0:0:0:
300,220,373288,1,0,0:0:0:0:
216,224,373288,1,0,0:0:0:0:
256,224,373288,1,0,0:0:0:0:
216,224,373303,1,0,0:0:0:0:
300,220,373303,1,0,0:0:0:0:
256,224,373303,1,0,0:0:0:0:
300,220,373318,1,0,0:0:0:0:
216,224,373318,1,0,0:0:0:0:
256,224,373318,1,0,0:0:0:0:
216,224,373333,1,0,0:0:0:0:
300,220,373333,1,0,0:0:0:0:
256,224,373333,1,0,0:0:0:0:
300,220,373348,1,0,0:0:0:0:
256,224,373348,1,0,0:0:0:0:
216,224,373348,1,0,0:0:0:0:
216,224,373363,1,0,0:0:0:0:
256,224,373363,1,0,0:0:0:0:
300,220,373363,1,0,0:0:0:0:
256,224,373378,1,0,0:0:0:0:
216,224,373378,1,0,0:0:0:0:
300,220,373378,1,0,0:0:0:0:
216,224,373393,1,0,0:0:0:0:
300,220,373393,1,0,0:0:0:0:
256,224,373393,1,0,0:0:0:0:
216,224,373408,1,0,0:0:0:0:
256,224,373408,1,0,0:0:0:0:
300,220,373408,1,0,0:0:0:0:
300,220,373423,1,0,0:0:0:0:
256,224,373423,1,0,0:0:0:0:
216,224,373423,1,0,0:0:0:0:
300,220,373438,1,0,0:0:0:0:
216,224,373438,1,0,0:0:0:0:
256,224,373438,1,0,0:0:0:0:
300,220,373453,1,0,0:0:0:0:
216,224,373453,1,0,0:0:0:0:
256,224,373453,1,0,0:0:0:0:
216,224,373468,1,0,0:0:0:0:
300,220,373468,1,0,0:0:0:0:
256,224,373468,1,0,0:0:0:0:
216,224,373483,1,0,0:0:0:0:
300,220,373483,1,0,0:0:0:0:
256,224,373483,1,0,0:0:0:0:
256,224,373498,1,0,0:0:0:0:
216,224,373498,1,0,0:0:0:0:
300,220,373498,1,0,0:0:0:0:
256,224,373513,1,0,0:0:0:0:
300,220,373513,1,0,0:0:0:0:
216,224,373513,1,0,0:0:0:0:
256,224,373528,1,0,0:0:0:0:
216,224,373528,1,0,0:0:0:0:
300,220,373528,1,0,0:0:0:0:
256,224,373543,1,0,0:0:0:0:
300,220,373543,1,0,0:0:0:0:
216,224,373543,1,0,0:0:0:0:
216,224,373558,1,0,0:0:0:0:
256,224,373558,1,0,0:0:0:0:
300,220,373558,1,0,0:0:0:0:
300,220,373573,1,0,0:0:0:0:
256,224,373573,1,0,0:0:0:0:
216,224,373573,1,0,0:0:0:0:
300,220,373588,1,0,0:0:0:0:
256,224,373588,1,0,0:0:0:0:
216,224,373588,1,0,0:0:0:0:
216,216,373603,1,0,0:0:0:0:
296,216,373603,1,0,0:0:0:0:
212,152,373603,1,0,0:0:0:0:
300,152,373603,1,0,0:0:0:0:
212,152,373618,1,0,0:0:0:0:
300,152,373618,1,0,0:0:0:0:
216,216,373618,1,0,0:0:0:0:
296,216,373618,1,0,0:0:0:0:
216,216,373633,1,0,0:0:0:0:
296,216,373633,1,0,0:0:0:0:
212,152,373633,1,0,0:0:0:0:
300,152,373633,1,0,0:0:0:0:
212,152,373648,1,0,0:0:0:0:
300,152,373648,1,0,0:0:0:0:
216,216,373648,1,0,0:0:0:0:
296,216,373648,1,0,0:0:0:0:
216,216,373663,1,0,0:0:0:0:
296,216,373663,1,0,0:0:0:0:
212,152,373663,1,0,0:0:0:0:
300,152,373663,1,0,0:0:0:0:
212,152,373678,1,0,0:0:0:0:
300,152,373678,1,0,0:0:0:0:
216,216,373678,1,0,0:0:0:0:
296,216,373678,1,0,0:0:0:0:
216,216,373693,1,0,0:0:0:0:
296,216,373693,1,0,0:0:0:0:
212,152,373693,1,0,0:0:0:0:
300,152,373693,1,0,0:0:0:0:
212,152,373708,1,0,0:0:0:0:
300,152,373708,1,0,0:0:0:0:
216,216,373708,1,0,0:0:0:0:
296,216,373708,1,0,0:0:0:0:
216,216,373723,1,0,0:0:0:0:
296,216,373723,1,0,0:0:0:0:
212,152,373723,1,0,0:0:0:0:
300,152,373723,1,0,0:0:0:0:
212,152,373738,1,0,0:0:0:0:
300,152,373738,1,0,0:0:0:0:
216,216,373738,1,0,0:0:0:0:
296,216,373738,1,0,0:0:0:0:
216,216,373753,1,0,0:0:0:0:
296,216,373753,1,0,0:0:0:0:
212,152,373753,1,0,0:0:0:0:
300,152,373753,1,0,0:0:0:0:
212,152,373768,1,0,0:0:0:0:
300,152,373768,1,0,0:0:0:0:
216,216,373768,1,0,0:0:0:0:
296,216,373768,1,0,0:0:0:0:
216,216,373783,1,0,0:0:0:0:
296,216,373783,1,0,0:0:0:0:
212,152,373783,1,0,0:0:0:0:
300,152,373783,1,0,0:0:0:0:
212,152,373798,1,0,0:0:0:0:
300,152,373798,1,0,0:0:0:0:
216,216,373798,1,0,0:0:0:0:
296,216,373798,1,0,0:0:0:0:
216,216,373813,1,0,0:0:0:0:
296,216,373813,1,0,0:0:0:0:
212,152,373813,1,0,0:0:0:0:
300,152,373813,1,0,0:0:0:0:
212,152,373828,1,0,0:0:0:0:
300,152,373828,1,0,0:0:0:0:
216,216,373828,1,0,0:0:0:0:
296,216,373828,1,0,0:0:0:0:
296,216,373843,1,0,0:0:0:0:
216,216,373843,1,0,0:0:0:0:
300,152,373843,1,0,0:0:0:0:
212,152,373843,1,0,0:0:0:0:
300,152,373858,1,0,0:0:0:0:
216,216,373858,1,0,0:0:0:0:
296,216,373858,1,0,0:0:0:0:
212,152,373858,1,0,0:0:0:0:
216,216,373873,1,0,0:0:0:0:
296,216,373873,1,0,0:0:0:0:
300,152,373873,1,0,0:0:0:0:
212,152,373873,1,0,0:0:0:0:
216,216,373888,1,0,0:0:0:0:
296,216,373888,1,0,0:0:0:0:
212,152,373888,1,0,0:0:0:0:
300,152,373888,1,0,0:0:0:0:
212,152,373903,1,0,0:0:0:0:
296,216,373903,1,0,0:0:0:0:
216,216,373903,1,0,0:0:0:0:
300,152,373903,1,0,0:0:0:0:
300,152,373918,1,0,0:0:0:0:
212,152,373918,1,0,0:0:0:0:
296,216,373918,1,0,0:0:0:0:
216,216,373918,1,0,0:0:0:0:
216,216,373933,1,0,0:0:0:0:
212,152,373933,1,0,0:0:0:0:
300,152,373933,1,0,0:0:0:0:
296,216,373933,1,0,0:0:0:0:
212,152,373948,1,0,0:0:0:0:
296,216,373948,1,0,0:0:0:0:
300,152,373948,1,0,0:0:0:0:
216,216,373948,1,0,0:0:0:0:
216,216,373963,1,0,0:0:0:0:
212,152,373963,1,0,0:0:0:0:
300,152,373963,1,0,0:0:0:0:
296,216,373963,1,0,0:0:0:0:
216,216,373978,1,0,0:0:0:0:
296,216,373978,1,0,0:0:0:0:
300,152,373978,1,0,0:0:0:0:
212,152,373978,1,0,0:0:0:0:
216,216,373993,1,0,0:0:0:0:
296,216,373993,1,0,0:0:0:0:
212,152,373993,1,0,0:0:0:0:
300,152,373993,1,0,0:0:0:0:
296,216,374008,1,0,0:0:0:0:
216,216,374008,1,0,0:0:0:0:
300,152,374008,1,0,0:0:0:0:
212,152,374008,1,0,0:0:0:0:
212,152,374023,1,0,0:0:0:0:
296,216,374023,1,0,0:0:0:0:
300,152,374023,1,0,0:0:0:0:
216,216,374023,1,0,0:0:0:0:
300,152,374038,1,0,0:0:0:0:
212,152,374038,1,0,0:0:0:0:
216,216,374038,1,0,0:0:0:0:
296,216,374038,1,0,0:0:0:0:
300,152,374053,1,0,0:0:0:0:
216,216,374053,1,0,0:0:0:0:
212,152,374053,1,0,0:0:0:0:
296,216,374053,1,0,0:0:0:0:
216,216,374068,1,0,0:0:0:0:
300,152,374068,1,0,0:0:0:0:
212,152,374068,1,0,0:0:0:0:
296,216,374068,1,0,0:0:0:0:
300,152,374083,1,0,0:0:0:0:
212,152,374083,1,0,0:0:0:0:
296,216,374083,1,0,0:0:0:0:
216,216,374083,1,0,0:0:0:0:
296,216,374098,1,0,0:0:0:0:
212,152,374098,1,0,0:0:0:0:
300,152,374098,1,0,0:0:0:0:
216,216,374098,1,0,0:0:0:0:
300,152,374113,1,0,0:0:0:0:
212,152,374113,1,0,0:0:0:0:
216,216,374113,1,0,0:0:0:0:
296,216,374113,1,0,0:0:0:0:
212,152,374128,1,0,0:0:0:0:
300,152,374128,1,0,0:0:0:0:
216,216,374128,1,0,0:0:0:0:
296,216,374128,1,0,0:0:0:0:
216,216,374143,1,0,0:0:0:0:
300,152,374143,1,0,0:0:0:0:
212,152,374143,1,0,0:0:0:0:
296,216,374143,1,0,0:0:0:0:
296,216,374158,1,0,0:0:0:0:
216,216,374158,1,0,0:0:0:0:
300,152,374158,1,0,0:0:0:0:
212,152,374158,1,0,0:0:0:0:
300,152,374173,1,0,0:0:0:0:
296,216,374173,1,0,0:0:0:0:
216,216,374173,1,0,0:0:0:0:
212,152,374173,1,0,0:0:0:0:
300,152,374188,1,0,0:0:0:0:
216,216,374188,1,0,0:0:0:0:
212,152,374188,1,0,0:0:0:0:
296,216,374188,1,0,0:0:0:0:
300,152,374203,1,0,0:0:0:0:
296,216,374203,1,0,0:0:0:0:
216,216,374203,1,0,0:0:0:0:
212,152,374203,1,0,0:0:0:0:
300,152,374218,1,0,0:0:0:0:
212,152,374218,1,0,0:0:0:0:
216,216,374218,1,0,0:0:0:0:
296,216,374218,1,0,0:0:0:0:
212,152,374233,1,0,0:0:0:0:
300,152,374233,1,0,0:0:0:0:
216,216,374233,1,0,0:0:0:0:
296,216,374233,1,0,0:0:0:0:
300,152,374248,1,0,0:0:0:0:
212,152,374248,1,0,0:0:0:0:
296,216,374248,1,0,0:0:0:0:
216,216,374248,1,0,0:0:0:0:
300,152,374263,1,0,0:0:0:0:
216,216,374263,1,0,0:0:0:0:
212,152,374263,1,0,0:0:0:0:
296,216,374263,1,0,0:0:0:0:
216,216,374278,1,0,0:0:0:0:
296,216,374278,1,0,0:0:0:0:
300,152,374278,1,0,0:0:0:0:
212,152,374278,1,0,0:0:0:0:
212,152,374293,1,0,0:0:0:0:
296,216,374293,1,0,0:0:0:0:
300,152,374293,1,0,0:0:0:0:
216,216,374293,1,0,0:0:0:0:
212,152,374308,1,0,0:0:0:0:
296,216,374308,1,0,0:0:0:0:
216,216,374308,1,0,0:0:0:0:
300,152,374308,1,0,0:0:0:0:
296,216,374323,1,0,0:0:0:0:
216,216,374323,1,0,0:0:0:0:
300,152,374323,1,0,0:0:0:0:
212,152,374323,1,0,0:0:0:0:
300,152,374338,1,0,0:0:0:0:
216,216,374338,1,0,0:0:0:0:
296,216,374338,1,0,0:0:0:0:
212,152,374338,1,0,0:0:0:0:
216,216,374353,1,0,0:0:0:0:
296,216,374353,1,0,0:0:0:0:
300,152,374353,1,0,0:0:0:0:
212,152,374353,1,0,0:0:0:0:
216,216,374368,1,0,0:0:0:0:
296,216,374368,1,0,0:0:0:0:
212,152,374368,1,0,0:0:0:0:
300,152,374368,1,0,0:0:0:0:
212,152,374383,1,0,0:0:0:0:
296,216,374383,1,0,0:0:0:0:
216,216,374383,1,0,0:0:0:0:
300,152,374383,1,0,0:0:0:0:
300,152,374398,1,0,0:0:0:0:
212,152,374398,1,0,0:0:0:0:
296,216,374398,1,0,0:0:0:0:
216,216,374398,1,0,0:0:0:0:
216,216,374413,1,0,0:0:0:0:
212,152,374413,1,0,0:0:0:0:
300,152,374413,1,0,0:0:0:0:
296,216,374413,1,0,0:0:0:0:
212,152,374428,1,0,0:0:0:0:
296,216,374428,1,0,0:0:0:0:
300,152,374428,1,0,0:0:0:0:
216,216,374428,1,0,0:0:0:0:
216,216,374443,1,0,0:0:0:0:
212,152,374443,1,0,0:0:0:0:
300,152,374443,1,0,0:0:0:0:
296,216,374443,1,0,0:0:0:0:
216,216,374458,1,0,0:0:0:0:
296,216,374458,1,0,0:0:0:0:
300,152,374458,1,0,0:0:0:0:
212,152,374458,1,0,0:0:0:0:
216,216,374473,1,0,0:0:0:0:
296,216,374473,1,0,0:0:0:0:
212,152,374473,1,0,0:0:0:0:
300,152,374473,1,0,0:0:0:0:
296,216,374488,1,0,0:0:0:0:
216,216,374488,1,0,0:0:0:0:
300,152,374488,1,0,0:0:0:0:
212,152,374488,1,0,0:0:0:0:
212,152,374503,1,0,0:0:0:0:
296,216,374503,1,0,0:0:0:0:
300,152,374503,1,0,0:0:0:0:
216,216,374503,1,0,0:0:0:0:
300,152,374518,1,0,0:0:0:0:
212,152,374518,1,0,0:0:0:0:
216,216,374518,1,0,0:0:0:0:
296,216,374518,1,0,0:0:0:0:
300,152,374533,1,0,0:0:0:0:
216,216,374533,1,0,0:0:0:0:
212,152,374533,1,0,0:0:0:0:
296,216,374533,1,0,0:0:0:0:
216,216,374548,1,0,0:0:0:0:
300,152,374548,1,0,0:0:0:0:
212,152,374548,1,0,0:0:0:0:
296,216,374548,1,0,0:0:0:0:
256,352,374563,2,0,L|256:8,1,340
256,368,375523,1,0,0:0:0:0:
256,192,375643,12,0,383143,0:0:0:0:
256,192,383203,5,0,0:0:0:0:
256,192,383263,12,0,390883,0:0:0:0:
