osu file format v14

[General]
AudioFilename: audio.mp3
AudioLeadIn: 0
PreviewTime: 20989
Countdown: 1
SampleSet: None
StackLeniency: 0.4
Mode: 0
LetterboxInBreaks: 0
WidescreenStoryboard: 0

[Editor]
Bookmarks: 418,3846,7275,20989,24417,38132,39846,43275,55275,56989,59560,61360,68471,75547,92689,94404,108118,109832,114975,128689,140689,144975,145832
DistanceSpacing: 0.4
BeatDivisor: 4
GridSize: 32
TimelineZoom: 3.999998

[Metadata]
Title:ATHAZA
TitleUnicode:ATHAZA
Artist:LeaF
ArtistUnicode:LeaF
Creator:Lnea
Version:Flurry
Source:BMS
Tags:bofu the bms of fighters ultimate 2016 legendary again bofu2016
BeatmapID:1252473
BeatmapSetID:591905

[Difficulty]
HPDrainRate:5
CircleSize:3.2
OverallDifficulty:9
ApproachRate:10
SliderMultiplier:1.4
SliderTickRate:1

[Events]
//Background and Video events
0,0,"55679257_p0.jpg",0,0
//Break Periods
2,61560,68021
//Storyboard Layer 0 (Background)
//Storyboard Layer 1 (Fail)
//Storyboard Layer 2 (Pass)
//Storyboard Layer 3 (Foreground)
//Storyboard Sound Samples

[TimingPoints]
418,214.285714285714,4,2,0,60,1,0
3846,-200,4,2,0,60,0,0
4489,-100,4,2,0,60,0,0
4703,-66.6666666666667,4,2,0,60,0,0
4846,-100,4,2,0,60,0,0
5775,-66.6666666666667,4,2,0,60,0,0
5917,-100,4,2,0,60,0,0
6042,-100,4,2,0,10,0,0
6096,-100,4,2,0,60,0,0
6632,-133.333333333333,4,2,0,60,0,0
6739,-100,4,2,0,60,0,0
10060,-66.6666666666667,4,2,0,60,0,0
10167,-100,4,2,0,60,0,0
11239,-100,4,2,0,10,0,0
11346,-100,4,2,0,60,0,0
11453,-100,4,2,0,10,0,0
11560,-100,4,2,0,60,0,0
13167,-100,4,2,0,10,0,0
13275,-100,4,2,0,60,0,0
13435,-100,4,2,0,10,0,0
13489,-200,4,2,0,60,0,0
13650,-200,4,2,0,10,0,0
13703,-50,4,2,0,60,0,1
13810,-100,4,2,0,10,0,0
14132,-100,4,2,0,60,0,0
17132,-66.6666666666667,4,2,0,60,0,0
17239,-100,4,2,0,10,0,0
17346,-100,4,2,0,60,0,0
18096,-100,4,2,0,10,0,0
18203,-100,4,2,0,60,0,0
18310,-100,4,2,0,10,0,0
18417,-100,4,2,0,60,0,0
20078,-100,4,2,0,10,0,0
20132,-200,4,2,0,60,0,0
20507,-200,4,2,0,10,0,0
20560,-50,4,2,0,60,0,1
20667,-100,4,2,0,10,0,0
20989,-100,4,2,0,60,0,0
23292,-100,4,2,0,10,0,0
23346,-200,4,2,0,60,0,0
23507,-200,4,2,0,10,0,0
23560,-100,4,2,0,60,0,0
24096,-100,4,2,0,10,0,0
24203,-100,4,2,0,60,0,0
24417,-50,4,2,0,60,0,1
24578,-50,4,2,0,10,0,1
24632,-50,4,2,0,60,0,1
24792,-50,4,2,0,10,0,1
24846,-100,4,2,0,60,0,1
25275,-50,4,2,0,60,0,1
25435,-50,4,2,0,10,0,1
25489,-100,4,2,0,60,0,1
26078,-100,4,2,0,10,0,1
26132,-50,4,2,0,60,0,1
26292,-50,4,2,0,10,0,1
26346,-100,4,2,0,60,0,1
26560,-100,4,2,0,10,0,1
26667,-100,4,2,0,60,0,1
27846,-50,4,2,0,60,0,1
28007,-50,4,2,0,10,0,1
28060,-50,4,2,0,60,0,1
28221,-50,4,2,0,10,0,1
28275,-100,4,2,0,60,0,1
28703,-50,4,2,0,60,0,1
29560,-100,4,2,0,60,0,0
29667,-100,4,2,0,10,0,0
29775,-100,4,2,0,60,0,0
30096,-100,4,2,0,10,0,0
30203,-100,4,2,0,60,0,0
30417,-100,4,2,0,60,0,1
31060,-100,4,2,0,60,0,0
31275,-50,4,2,0,60,0,1
31435,-50,4,2,0,10,0,1
31489,-50,4,2,0,60,0,1
31650,-50,4,2,0,10,0,1
31703,-100,4,2,0,60,0,1
32078,-100,4,2,0,10,0,1
32132,-66.6666666666667,4,2,0,60,0,1
32989,-100,4,2,0,60,0,1
34221,-100,4,2,0,10,0,1
34275,-66.6666666666667,4,2,0,60,0,1
34435,-66.6666666666667,4,2,0,10,0,1
34489,-66.6666666666667,4,2,0,60,0,1
34650,-66.6666666666667,4,2,0,10,0,1
34703,-50,4,2,0,60,0,1
35078,-50,4,2,0,10,0,1
35132,-133.333333333333,4,2,0,60,0,1
35239,-133.333333333333,4,2,0,20,0,1
35346,-133.333333333333,4,2,0,60,0,1
35453,-133.333333333333,4,2,0,20,0,1
35560,-100,4,2,0,60,0,1
35667,-100,4,2,0,20,0,1
35775,-100,4,2,0,60,0,1
36310,-100,4,2,0,20,0,1
36417,-100,4,2,0,60,0,1
37275,-200,4,2,0,60,0,0
37650,-200,4,2,0,10,0,0
37703,-50,4,2,0,60,0,1
37810,-50,4,2,0,10,0,0
38132,-100,4,2,0,60,0,0
39846,-62.5,4,2,0,60,0,0
39953,-66.6666666666667,4,2,0,20,0,0
40060,-100,4,2,0,60,0,0
40917,-66.6666666666667,4,2,0,60,0,0
41078,-66.6666666666667,4,2,0,10,0,0
41132,-50,4,2,0,60,0,0
41292,-50,4,2,0,10,0,0
41346,-100,4,2,0,60,0,0
41507,-100,4,2,0,10,0,0
41560,-100,4,2,0,60,0,0
41828,-100,4,2,0,10,0,0
41882,-66.6666666666667,4,2,0,60,0,0
41935,-66.6666666666667,4,2,0,10,0,0
41989,-66.6666666666667,4,2,0,60,0,0
42846,-50,4,2,0,60,0,1
42953,-50,4,2,0,10,0,0
43060,-66.6666666666667,4,2,0,60,0,0
43275,-66.6666666666667,4,2,0,60,0,1
44560,-50,4,2,0,60,0,1
44721,-50,4,2,0,10,0,1
44775,-50,4,2,0,60,0,1
44935,-50,4,2,0,10,0,1
44989,-66.6666666666667,4,2,0,60,0,1
45150,-66.6666666666667,4,2,0,10,0,1
45203,-100,4,2,0,60,0,1
45417,-50,4,2,0,60,0,1
46275,-66.6666666666667,4,2,0,60,0,1
46382,-66.6666666666667,4,2,0,30,0,1
46489,-50,4,2,0,60,0,1
46864,-50,4,2,0,10,0,1
46917,-66.6666666666667,4,2,0,60,0,1
47292,-66.6666666666667,4,2,0,10,0,1
47346,-66.6666666666667,4,2,0,60,0,1
47507,-66.6666666666667,4,2,0,10,0,1
47560,-100,4,2,0,60,0,1
47721,-100,4,2,0,10,0,1
47775,-100,4,2,0,60,0,1
47935,-100,4,2,0,10,0,1
47989,-50,4,2,0,60,0,1
48150,-50,4,2,0,10,0,1
48203,-66.6666666666667,4,2,0,60,0,1
48364,-66.6666666666667,4,2,0,10,0,1
48417,-66.6666666666667,4,2,0,60,0,1
48578,-66.6666666666667,4,2,0,10,0,1
48632,-66.6666666666667,4,2,0,60,0,1
48792,-66.6666666666667,4,2,0,10,0,1
48846,-66.6666666666667,4,2,0,60,0,1
51417,-50,4,2,0,60,0,1
51578,-50,4,2,0,10,0,1
51632,-50,4,2,0,60,0,1
51792,-50,4,2,0,10,0,1
51846,-66.6666666666667,4,2,0,60,0,1
52007,-66.6666666666667,4,2,0,10,0,1
52060,-100,4,2,0,60,0,1
52275,-50,4,2,0,60,0,1
53132,-66.6666666666667,4,2,0,60,0,1
53239,-66.6666666666667,4,2,0,30,0,1
53346,-50,4,2,0,60,0,1
53775,-66.6666666666667,4,2,0,60,0,1
54150,-66.6666666666667,4,2,0,10,0,1
54203,-66.6666666666667,4,2,0,60,0,1
54364,-66.6666666666667,4,2,0,10,0,1
54417,-100,4,2,0,60,0,1
54578,-100,4,2,0,10,0,1
54632,-100,4,2,0,60,0,1
54792,-100,4,2,0,10,0,1
54846,-100,4,2,0,60,0,1
55007,-100,4,2,0,10,0,1
55060,-100,4,2,0,60,0,1
55221,-100,4,2,0,10,0,1
55275,-100,4,2,0,60,0,0
56507,-100,4,2,0,10,0,0
56560,-66.6666666666667,4,2,0,60,0,0
56721,-66.6666666666667,4,2,0,10,0,0
56775,-50,4,2,0,60,0,1
56935,-50,4,2,0,10,0,0
56989,-100,4,2,0,60,0,1
58596,-100,4,2,0,60,0,0
58703,-100,4,2,0,60,0,1
59239,-100,4,2,0,30,0,1
59346,-100,4,2,0,60,0,1
59453,-100,4,2,0,30,0,1
59560,-100,4,2,0,60,0,0
60417,222.222222222222,4,2,0,60,1,0
60639,230.769230769231,4,2,0,60,1,0
60870,240,4,2,0,60,1,0
61110,250,4,2,0,60,1,0
61360,222.222222222222,4,2,0,60,1,0
68471,214.285714285714,4,2,0,60,1,0
72756,222.222222222222,4,2,0,60,1,0
73644,230.769230769231,4,2,0,60,1,0
74567,240,4,2,0,60,1,0
75047,250,4,2,0,60,1,0
75047,-100,4,2,0,60,0,1
75547,214.285714285714,4,2,0,60,1,0
75547,-100,4,2,0,60,0,0
79511,-100,4,2,0,10,0,0
79618,-100,4,2,0,60,0,0
79725,-100,4,2,0,10,0,0
79832,-100,4,2,0,60,0,0
81172,-100,4,2,0,20,0,0
81332,-100,4,2,0,60,0,0
81386,-100,4,2,0,20,0,0
81546,-100,4,2,0,60,0,0
81707,-100,4,2,0,10,0,0
81761,-100,4,2,0,60,0,0
84225,-100,4,2,0,30,0,0
84332,-100,4,2,0,60,0,0
84439,-100,4,2,0,30,0,0
84546,-100,4,2,0,60,0,0
85082,-100,4,2,0,30,0,0
85189,-100,4,2,0,60,0,0
85296,-100,4,2,0,30,0,0
85404,-100,4,2,0,60,0,0
88779,-100,4,2,0,10,0,0
88832,-100,4,2,0,60,0,0
88993,-100,4,2,0,10,0,0
89046,-100,4,2,0,60,0,0
90279,-100,4,2,0,10,0,0
90332,-100,4,2,0,60,0,0
91136,-100,4,2,0,10,0,0
91189,-100,4,2,0,60,0,0
92154,-100,4,2,0,30,0,0
92261,-66.6666666666667,4,2,0,60,0,0
92421,-100,4,2,0,10,0,0
92475,-50,4,2,0,60,0,0
92636,-50,4,2,0,10,0,0
92689,-100,4,2,0,60,0,0
93761,-50,4,2,0,60,0,0
93814,-100,4,2,0,60,0,0
94082,-50,4,2,0,60,0,0
94136,-100,4,2,0,60,0,0
94404,-50,4,2,0,60,0,1
94564,-50,4,2,0,10,0,1
94618,-50,4,2,0,60,0,1
94779,-50,4,2,0,10,0,1
94832,-100,4,2,0,60,0,1
95207,-100,4,2,0,10,0,1
95261,-100,4,2,0,60,0,1
97832,-50,4,2,0,60,0,1
97993,-50,4,2,0,10,0,1
98046,-50,4,2,0,60,0,1
98207,-50,4,2,0,10,0,1
98261,-50,4,2,0,60,0,1
98689,-50,4,2,0,60,0,1
98743,-50,4,2,0,10,0,1
98796,-50,4,2,0,60,0,1
98957,-50,4,2,0,10,0,1
99011,-50,4,2,0,60,0,1
99064,-50,4,2,0,10,0,1
99118,-50,4,2,0,60,0,1
99279,-50,4,2,0,10,0,1
99332,-100,4,2,0,60,0,1
99546,-100,4,2,0,60,0,0
99654,-100,4,2,0,10,0,0
99761,-100,4,2,0,60,0,0
100082,-100,4,2,0,10,0,0
100189,-100,4,2,0,60,0,0
100404,-100,4,2,0,60,0,1
101046,-100,4,2,0,60,0,0
101261,-50,4,2,0,60,0,1
101421,-50,4,2,0,10,0,1
101475,-50,4,2,0,60,0,1
101636,-50,4,2,0,10,0,1
101689,-100,4,2,0,60,0,1
102064,-100,4,2,0,10,0,1
102118,-66.6666666666667,4,2,0,60,0,1
102975,-200,4,2,0,60,0,1
103564,-200,4,2,0,10,0,1
103618,-100,4,2,0,60,0,1
104689,-50,4,2,0,60,0,1
105064,-50,4,2,0,10,0,1
105118,-100,4,2,0,60,0,1
105493,-100,4,2,0,10,0,1
105546,-100,4,2,0,60,0,1
105654,-100,4,2,0,20,0,1
105761,-100,4,2,0,60,0,1
106296,-100,4,2,0,20,0,1
106404,-100,4,2,0,60,0,1
107261,-200,4,2,0,60,0,0
107636,-200,4,2,0,10,0,0
107689,-50,4,2,0,60,0,1
107796,-50,4,2,0,10,0,0
108118,-100,4,2,0,60,0,0
109832,-83.3333333333333,4,2,0,60,0,0
109939,-83.3333333333333,4,2,0,20,0,0
110046,-100,4,2,0,60,0,0
110689,-71.4285714285714,4,2,0,60,0,0
110796,-71.4285714285714,4,2,0,20,0,0
110904,-100,4,2,0,60,0,0
111546,-62.5,4,2,0,60,0,0
111654,-62.5,4,2,0,20,0,0
111761,-100,4,2,0,60,0,0
112618,-66.6666666666667,4,2,0,60,0,0
112779,-66.6666666666667,4,2,0,10,0,0
112832,-50,4,2,0,60,0,0
112993,-50,4,2,0,10,0,0
113046,-100,4,2,0,60,0,0
113207,-100,4,2,0,10,0,0
113261,-100,4,2,0,60,0,0
113529,-100,4,2,0,10,0,0
113582,-66.6666666666667,4,2,0,60,0,0
113636,-66.6666666666667,4,2,0,10,0,0
113689,-66.6666666666667,4,2,0,60,0,0
114546,-50,4,2,0,60,0,1
114654,-50,4,2,0,10,0,0
114761,-66.6666666666667,4,2,0,60,0,0
114975,-66.6666666666667,4,2,0,60,0,1
116261,-50,4,2,0,60,0,1
116421,-50,4,2,0,10,0,1
116475,-50,4,2,0,60,0,1
116636,-50,4,2,0,10,0,1
116689,-66.6666666666667,4,2,0,60,0,1
116850,-66.6666666666667,4,2,0,10,0,1
116904,-100,4,2,0,60,0,1
117118,-50,4,2,0,60,0,1
117975,-66.6666666666667,4,2,0,60,0,1
118082,-66.6666666666667,4,2,0,30,0,1
118189,-50,4,2,0,60,0,1
118832,-66.6666666666667,4,2,0,60,0,1
118993,-66.6666666666667,4,2,0,10,0,1
119046,-66.6666666666667,4,2,0,60,0,1
119207,-66.6666666666667,4,2,0,10,0,1
119261,-100,4,2,0,60,0,1
119421,-100,4,2,0,10,0,1
119475,-100,4,2,0,60,0,1
119636,-100,4,2,0,10,0,1
119689,-50,4,2,0,60,0,1
119850,-50,4,2,0,10,0,1
119904,-66.6666666666667,4,2,0,60,0,1
120064,-66.6666666666667,4,2,0,10,0,1
120118,-66.6666666666667,4,2,0,60,0,1
120279,-66.6666666666667,4,2,0,10,0,1
120332,-66.6666666666667,4,2,0,60,0,1
120493,-66.6666666666667,4,2,0,10,0,1
120546,-66.6666666666667,4,2,0,60,0,1
123118,-50,4,2,0,60,0,1
123279,-50,4,2,0,10,0,1
123332,-50,4,2,0,60,0,1
123493,-50,4,2,0,10,0,1
123546,-66.6666666666667,4,2,0,60,0,1
123707,-66.6666666666667,4,2,0,10,0,1
123761,-66.6666666666667,4,2,0,60,0,1
123975,-50,4,2,0,60,0,1
124832,-66.6666666666667,4,2,0,60,0,1
124939,-66.6666666666667,4,2,0,30,0,1
125046,-50,4,2,0,60,0,1
125421,-50,4,2,0,10,0,1
125475,-50,4,2,0,60,0,1
125689,-66.6666666666667,4,2,0,60,0,1
125850,-66.6666666666667,4,2,0,10,0,1
125904,-66.6666666666667,4,2,0,60,0,1
126064,-66.6666666666667,4,2,0,10,0,1
126118,-100,4,2,0,60,0,1
126493,-100,4,2,0,10,0,1
126546,-50,4,2,0,60,0,1
126600,-50,4,2,0,10,0,1
126654,-50,4,2,0,60,0,1
126707,-50,4,2,0,10,0,1
126761,-66.6666666666667,4,2,0,60,0,1
126921,-66.6666666666667,4,2,0,10,0,1
126975,-66.6666666666667,4,2,0,60,0,1
127136,-66.6666666666667,4,2,0,10,0,1
127189,-66.6666666666667,4,2,0,60,0,1
127350,-66.6666666666667,4,2,0,10,0,1
127404,-66.6666666666667,4,2,0,60,0,0
128261,-50,4,2,0,60,0,1
128368,-50,4,2,0,10,0,0
128475,-66.6666666666667,4,2,0,60,0,0
128689,-66.6666666666667,4,2,0,60,0,1
129975,-50,4,2,0,60,0,1
130136,-50,4,2,0,10,0,1
130189,-50,4,2,0,60,0,1
130350,-50,4,2,0,10,0,1
130404,-66.6666666666667,4,2,0,60,0,1
130564,-66.6666666666667,4,2,0,10,0,1
130618,-100,4,2,0,60,0,1
131689,-133.333333333333,4,2,0,60,0,1
131796,-133.333333333333,4,2,0,30,0,1
131904,-100,4,2,0,60,0,1
132118,-66.6666666666667,4,2,0,60,0,1
132279,-66.6666666666667,4,2,0,10,0,1
132332,-66.6666666666667,4,2,0,60,0,1
132707,-66.6666666666667,4,2,0,10,0,1
132761,-66.6666666666667,4,2,0,60,0,1
132921,-66.6666666666667,4,2,0,10,0,1
132975,-100,4,2,0,60,0,1
133136,-100,4,2,0,10,0,1
133189,-100,4,2,0,60,0,1
133350,-100,4,2,0,10,0,1
133404,-50,4,2,0,60,0,1
133564,-50,4,2,0,10,0,1
133618,-66.6666666666667,4,2,0,60,0,1
133779,-66.6666666666667,4,2,0,10,0,1
133832,-66.6666666666667,4,2,0,60,0,1
133993,-66.6666666666667,4,2,0,10,0,1
134046,-66.6666666666667,4,2,0,60,0,1
134207,-66.6666666666667,4,2,0,10,0,1
134261,-66.6666666666667,4,2,0,60,0,1
134850,-66.6666666666667,4,2,0,10,0,1
134904,-66.6666666666667,4,2,0,60,0,1
136832,-50,4,2,0,60,0,1
136993,-50,4,2,0,10,0,1
137046,-50,4,2,0,60,0,1
137207,-50,4,2,0,10,0,1
137261,-66.6666666666667,4,2,0,60,0,1
137421,-66.6666666666667,4,2,0,10,0,1
137475,-66.6666666666667,4,2,0,60,0,1
137689,-50,4,2,0,60,0,1
138546,-66.6666666666667,4,2,0,60,0,1
138654,-66.6666666666667,4,2,0,30,0,1
138761,-50,4,2,0,60,0,1
139136,-50,4,2,0,10,0,1
139189,-50,4,2,0,60,0,1
139404,-66.6666666666667,4,2,0,60,0,1
139564,-66.6666666666667,4,2,0,10,0,1
139618,-50,4,2,0,60,0,1
139779,-50,4,2,0,10,0,1
139832,-50,4,2,0,60,0,1
139993,-50,4,2,0,10,0,1
140046,-50,4,2,0,60,0,1
140207,-50,4,2,0,10,0,1
140261,-66.6666666666667,4,2,0,60,0,1
140421,-66.6666666666667,4,2,0,10,0,1
140475,-100,4,2,0,60,0,0
140636,-100,4,2,0,10,0,1
140689,-100,4,2,0,60,0,1
144118,-100,4,2,0,60,0,0
145832,222.222222222222,4,2,0,60,1,0
147609,230.769230769231,4,2,0,60,1,0
149455,240,4,2,0,60,1,0
151375,250,4,2,0,60,1,0
153375,260.869565217391,4,2,0,60,1,0
155461,272.727272727273,4,2,0,60,1,0
157642,285.714285714286,4,2,0,60,1,0
159927,300,4,2,0,60,1,0

[HitObjects]
162,75,418,6,0,P|230:81|275:132,1,140
185,170,739,1,0,0:0:0:0:
171,173,846,2,0,P|119:218|113:286,1,140
346,277,1275,6,0,L|177:259,1,140
162,75,1703,1,0,0:0:0:0:
112,285,1917,1,0,0:0:0:0:
338,185,2132,6,0,B|409:193|409:193|472:167,1,140
395,92,2453,1,0,0:0:0:0:
381,92,2560,2,0,B|310:83|310:83|237:33,1,140
18,255,2989,6,0,P|56:198|123:182,1,140
219,198,3310,1,0,0:0:0:0:
249,288,3417,6,0,L|388:295,1,140
451,218,3739,1,0,0:0:0:0:
482,347,3846,6,0,B|532:240|419:238|498:126,1,210
482,139,4542,1,0,0:0:0:0:
479,132,4596,1,0,0:0:0:0:
476,125,4650,1,0,0:0:0:0:
490,106,4703,6,0,L|418:101,2,70.0000026702882
215,89,5132,5,0,0:0:0:0:
376,241,5560,5,0,0:0:0:0:
382,268,5667,1,0,0:0:0:0:
388,295,5775,2,0,L|472:305,2,70.0000026702882
299,336,5989,6,0,L|292:397,1,35
251,264,6096,1,0,0:0:0:0:
170,235,6203,1,0,0:0:0:0:
88,260,6310,1,0,0:0:0:0:
38,330,6417,5,0,0:0:0:0:
37,336,6471,1,0,0:0:0:0:
36,343,6525,1,0,0:0:0:0:
167,378,6632,6,0,L|227:387,1,52.5000020027161
388,295,6846,1,0,0:0:0:0:
493,311,6953,1,0,0:0:0:0:
509,206,7060,5,0,0:0:0:0:
506,198,7114,1,0,0:0:0:0:
503,191,7167,1,0,0:0:0:0:
501,184,7221,1,0,0:0:0:0:
512,156,7275,6,0,L|347:159,1,140
75,91,7703,2,0,L|240:88,1,140
372,17,8132,5,0,0:0:0:0:
215,230,8346,1,0,0:0:0:0:
479,259,8560,2,0,P|445:199|463:134,1,140
278,310,8989,5,0,0:0:0:0:
178,324,9096,1,0,0:0:0:0:
115,246,9203,1,0,0:0:0:0:
308,140,9417,6,0,P|276:201|214:229,1,140
479,259,9846,1,0,0:0:0:0:
441,14,10060,2,0,L|326:0,1,105.000004005432
308,140,10275,5,0,0:0:0:0:
207,125,10382,1,0,0:0:0:0:
139,195,10489,5,0,0:0:0:0:
40,180,10596,1,0,0:0:0:0:
103,90,10703,5,0,0:0:0:0:
139,195,10810,1,0,0:0:0:0:
75,286,10917,1,0,0:0:0:0:
321,229,11132,6,0,P|352:242|376:267,1,70
450,197,11346,2,0,P|470:224|478:257,1,70
293,327,11560,6,0,L|127:335,1,140
103,90,11989,5,0,0:0:0:0:
75,286,12203,1,0,0:0:0:0:
321,229,12417,1,0,0:0:0:0:
63,183,12632,5,0,0:0:0:0:
62,210,12739,1,0,0:0:0:0:
61,237,12846,1,0,0:0:0:0:
103,90,13060,6,0,L|105:14,1,70
320,228,13275,2,0,P|370:245|419:229,1,105
496,265,13489,6,0,L|442:269,1,52.5
370,157,13703,6,0,B|373:203|373:203|360:271|360:271|366:332,1,140
451,50,14132,6,0,P|374:22|312:37,1,140
63,183,14560,2,0,P|140:211|202:195,1,140
370,157,14989,5,0,0:0:0:0:
144,76,15203,1,0,0:0:0:0:
188,310,15417,2,0,B|216:244|216:244|276:204,1,140
451,50,15846,5,0,0:0:0:0:
359,10,15953,1,0,0:0:0:0:
276,70,16060,1,0,0:0:0:0:
399,237,16275,6,0,P|407:169|370:110,1,140
66,23,16703,1,0,0:0:0:0:
305,192,16917,5,0,0:0:0:0:
299,220,17025,1,0,0:0:0:0:
294,247,17132,6,0,L|403:236,1,105.000004005432
443,337,17346,1,0,0:0:0:0:
429,338,17453,1,0,0:0:0:0:
415,339,17560,5,0,0:0:0:0:
317,349,17667,1,0,0:0:0:0:
218,360,17775,1,0,0:0:0:0:
94,227,17989,6,0,L|20:235,1,70
224,254,18203,2,0,L|293:246,1,70
139,85,18417,6,0,L|0:101,1,140
417,51,18846,1,0,0:0:0:0:
224,254,19060,5,0,0:0:0:0:
122,266,19167,1,0,0:0:0:0:
160,173,19275,1,0,0:0:0:0:
224,254,19489,5,0,0:0:0:0:
186,347,19596,1,0,0:0:0:0:
288,335,19703,1,0,0:0:0:0:
160,173,19917,6,0,L|55:186,1,105
5,255,20132,6,0,B|1:212|1:212|14:176|14:176|10:135,1,122.5
156,80,20560,6,0,P|221:103|253:164,1,140
160,173,20989,5,0,0:0:0:0:
160,173,21203,5,0,0:0:0:0:
252,162,21310,1,0,0:0:0:0:
334,85,21417,5,0,0:0:0:0:
406,142,21525,1,0,0:0:0:0:
478,199,21632,5,0,0:0:0:0:
475,226,21739,1,0,0:0:0:0:
472,253,21846,6,0,P|451:308|371:340,1,140
284,284,22167,1,0,0:0:0:0:
188,341,22275,5,0,0:0:0:0:
188,341,22489,1,0,0:0:0:0:
156,80,22703,5,0,0:0:0:0:
156,80,22917,5,0,0:0:0:0:
253,67,23025,1,0,0:0:0:0:
350,54,23132,2,0,L|456:63,1,105
512,150,23346,6,0,L|446:145,1,52.5
350,54,23560,5,0,0:0:0:0:
301,60,23667,1,0,0:0:0:0:
253,67,23775,1,0,0:0:0:0:
156,80,23882,5,0,0:0:0:0:
317,168,23989,2,0,L|331:259,1,70
123,194,24203,5,0,0:0:0:0:
116,195,24257,1,0,0:0:0:0:
109,196,24310,1,0,0:0:0:0:
102,197,24364,1,0,0:0:0:0:
95,198,24417,6,0,B|11:208|11:208|28:118|28:118|76:94,1,210
71,98,24632,6,0,B|37:206|122:202|63:321,1,210
79,313,24846,5,0,0:0:0:0:
123,194,24953,1,0,0:0:0:0:
223,336,25060,2,0,L|352:332,1,105
399,294,25275,6,0,B|351:303|351:303|303:293|303:293|255:301|255:301|207:293|207:293|192:296,1,210
179,301,25489,5,0,0:0:0:0:
327,332,25596,1,0,0:0:0:0:
255,192,25703,5,0,0:0:0:0:
255,178,25810,1,0,0:0:0:0:
255,163,25917,6,0,P|271:115|315:87,1,105
339,173,26132,6,0,P|400:117|362:10,1,210
348,3,26346,5,0,0:0:0:0:
429,94,26453,2,0,L|442:166,1,70
433,9,26667,1,0,0:0:0:0:
315,86,26775,5,0,0:0:0:0:
296,85,26882,1,0,0:0:0:0:
254,170,26989,5,0,0:0:0:0:
429,94,27096,1,0,0:0:0:0:
339,174,27203,5,0,0:0:0:0:
348,4,27310,1,0,0:0:0:0:
424,179,27417,5,0,0:0:0:0:
263,0,27525,1,0,0:0:0:0:
254,170,27632,5,0,0:0:0:0:
433,9,27739,1,0,0:0:0:0:
296,85,27846,6,0,B|224:81|224:81|171:127|171:127|164:194,1,210
162,208,28060,6,0,P|147:177|254:174,1,210
253,184,28275,5,0,0:0:0:0:
255,197,28328,1,0,0:0:0:0:
259,210,28382,1,0,0:0:0:0:
266,223,28435,1,0,0:0:0:0:
275,233,28489,1,0,0:0:0:0:
286,242,28542,1,0,0:0:0:0:
299,248,28596,1,0,0:0:0:0:
312,252,28650,1,0,0:0:0:0:
320,254,28703,6,0,L|134:267,1,140
53,308,28917,2,0,L|192:298,1,140
388,329,29132,6,0,P|421:245|396:185,1,140
132,223,29346,2,0,P|99:307|124:367,1,140
477,272,29560,6,0,L|398:263,1,70
320,254,29775,1,0,0:0:0:0:
53,308,29989,6,0,L|132:317,1,70
210,326,30203,1,0,0:0:0:0:
477,272,30417,5,0,0:0:0:0:
447,363,30525,1,0,0:0:0:0:
361,325,30632,5,0,0:0:0:0:
347,324,30685,1,0,0:0:0:0:
334,324,30739,1,0,0:0:0:0:
477,272,30846,6,0,P|406:278|357:337,1,140
334,324,31275,6,0,B|279:324|279:324|306:236|306:236|301:148,1,210
305,160,31489,6,0,P|301:211|189:169,1,210
190,169,31703,5,0,0:0:0:0:
361,325,31810,1,0,0:0:0:0:
186,334,31917,2,0,P|137:334|81:366,1,105
84,369,32132,6,0,L|75:240,1,105.000004005432
361,325,32346,2,0,L|370:196,1,105.000004005432
51,179,32560,6,0,P|36:129|46:78,1,105.000004005432
390,135,32775,2,0,P|404:85|394:34,1,105.000004005432
136,56,32989,6,0,L|135:125,1,70
184,264,33203,1,0,0:0:0:0:
304,80,33310,6,0,L|304:149,1,70
351,287,33525,1,0,0:0:0:0:
471,103,33632,5,0,0:0:0:0:
304,80,33739,1,0,0:0:0:0:
136,56,33846,2,0,L|45:43,1,70
211,135,34060,6,0,P|259:181|298:189,1,105
315,194,34275,6,0,P|217:191|155:220,1,157.500006008148
148,228,34489,6,0,P|157:141|227:147,1,157.500006008148
220,148,34703,6,0,B|252:319|252:319|342:331|342:331|326:245|326:245|476:264,1,490
472,265,35132,6,0,L|485:336,1,52.5000020027161
304,80,35346,2,0,L|294:28,1,52.5000020027161
163,316,35560,6,0,L|174:384,1,70
220,148,35775,1,0,0:0:0:0:
321,188,35882,1,0,0:0:0:0:
304,77,35989,5,0,0:0:0:0:
302,70,36042,1,0,0:0:0:0:
301,63,36096,1,0,0:0:0:0:
338,296,36203,2,0,L|349:367,1,70
472,265,36417,5,0,0:0:0:0:
422,136,36525,1,0,0:0:0:0:
302,70,36632,1,0,0:0:0:0:
167,95,36739,1,0,0:0:0:0:
80,201,36846,1,0,0:0:0:0:
80,201,37060,5,0,0:0:0:0:
80,201,37275,6,0,L|78:329,1,122.5
211,307,37703,6,0,P|259:278|368:342,1,140
508,61,38132,5,0,0:0:0:0:
508,61,38346,5,0,0:0:0:0:
452,54,38453,1,0,0:0:0:0:
389,129,38560,5,0,0:0:0:0:
333,122,38667,1,0,0:0:0:0:
277,116,38775,1,0,0:0:0:0:
228,28,38882,5,0,0:0:0:0:
172,21,38989,1,0,0:0:0:0:
116,15,39096,1,0,0:0:0:0:
53,90,39203,5,0,0:0:0:0:
46,146,39310,1,0,0:0:0:0:
40,202,39417,1,0,0:0:0:0:
114,265,39525,5,0,0:0:0:0:
107,321,39632,1,0,0:0:0:0:
101,377,39739,1,0,0:0:0:0:
218,339,39846,6,0,L|234:204,1,112
228,28,40060,5,0,0:0:0:0:
277,116,40167,1,0,0:0:0:0:
116,15,40275,5,0,0:0:0:0:
389,129,40382,1,0,0:0:0:0:
193,106,40489,5,0,0:0:0:0:
313,38,40596,1,0,0:0:0:0:
232,228,40703,5,0,0:0:0:0:
232,228,40917,6,0,L|419:236,1,157.500006008148
403,237,41132,6,0,P|376:161|471:186,1,210
470,188,41346,6,0,L|465:298,1,105
477,306,41560,6,0,L|485:123,1,175
486,115,41882,6,0,L|488:56,1,52.5000020027161
378,41,41989,6,0,L|256:46,1,105.000004005432
53,90,42203,2,0,L|157:94,1,105.000004005432
390,141,42417,6,0,L|268:146,1,105.000004005432
65,190,42632,2,0,L|169:194,1,105.000004005432
403,237,42846,6,0,P|309:277|289:323,1,140
53,90,43060,6,0,L|157:94,1,105.000004005432
377,40,43275,6,0,B|391:62|391:62|395:153,1,105.000004005432
403,237,43489,2,0,B|389:215|389:215|385:136,1,105.000004005432
479,287,43703,6,0,B|493:265|493:265|496:186,1,105.000004005432
493,8,43917,2,0,B|479:30|479:30|475:108,1,105.000004005432
381,357,44132,6,0,P|331:342|279:351,1,105.000004005432
143,313,44346,2,0,P|91:321|41:306,1,105.000004005432
230,259,44507,1,0,0:0:0:0:
243,257,44560,6,0,B|394:258|394:258|450:292,1,210
455,297,44775,6,0,P|387:315|327:188,1,210
318,197,44989,6,0,L|317:373,1,157.500006008148
317,370,45203,5,0,0:0:0:0:
230,259,45310,1,0,0:0:0:0:
221,245,45364,1,0,0:0:0:0:
211,233,45417,6,0,B|102:232|102:232|66:205,1,140
347,0,45632,2,0,B|456:0|456:0|492:28,1,140
163,311,45846,6,0,B|54:310|54:310|18:283,1,140
297,78,46060,2,0,B|406:79|406:79|442:106,1,140
213,233,46275,6,0,L|211:342,1,105.000004005432
450,231,46489,6,0,B|449:122|449:122|422:86,1,140
136,212,46703,6,0,P|152:287|277:281,1,210
276,280,46917,5,0,0:0:0:0:
283,268,46971,1,0,0:0:0:0:
289,255,47025,1,0,0:0:0:0:
292,241,47078,1,0,0:0:0:0:
293,227,47132,6,0,P|308:301|378:329,1,157.500006008148
394,328,47346,6,0,L|216:348,1,157.500006008148
223,349,47560,6,0,B|180:376|180:376|126:382,1,105
54,335,47775,2,0,B|96:307|96:307|150:301,1,105
223,349,47989,6,0,P|198:264|294:228,1,210
306,234,48203,6,0,B|229:241|229:241|141:209,1,157.500006008148
138,209,48417,6,0,L|294:194,1,157.500006008148
310,193,48632,5,0,0:0:0:0:
122,212,48739,2,0,L|69:217,1,52.5000020027161
0,129,48846,6,0,P|48:107|109:112,1,105.000004005432
191,292,49060,2,0,P|143:314|82:309,1,105.000004005432
243,113,49275,6,0,P|291:91|352:96,1,105.000004005432
434,276,49489,2,0,P|386:298|325:293,1,105.000004005432
460,83,49703,6,0,B|458:136|458:136|482:209,1,105.000004005432
243,113,49917,6,0,P|291:91|352:96,1,105.000004005432
91,312,50132,6,0,B|94:233|94:233|108:211,1,105.000004005432
121,100,50346,2,0,B|118:179|118:179|104:201,1,105.000004005432
8,287,50560,6,0,B|11:208|11:208|25:186,1,105.000004005432
37,0,50775,2,0,B|33:78|33:78|19:100,1,105.000004005432
173,338,50989,6,0,P|223:323|275:332,1,105.000004005432
411,294,51203,2,0,P|463:302|513:287,1,105.000004005432
324,240,51364,1,0,0:0:0:0:
311,245,51417,6,0,B|229:242|229:242|196:226|196:226|100:223,1,210
90,224,51632,6,0,P|179:237|142:354,1,210
162,349,51846,6,0,L|169:158,1,157.500006008148
169,175,52060,5,0,0:0:0:0:
323,243,52167,1,0,0:0:0:0:
336,250,52221,1,0,0:0:0:0:
349,257,52275,6,0,P|413:231|454:175,1,140
231,29,52489,2,0,P|163:12|97:32,1,140
286,356,52703,6,0,P|353:372|419:352,1,140
165,126,52917,2,0,P|100:151|59:207,1,140
349,257,53132,6,0,L|493:256,1,105.000004005432
512,33,53346,6,0,L|364:35,1,140
270,269,53560,6,0,P|315:331|426:274,1,210
425,274,53775,5,0,0:0:0:0:
427,260,53828,1,0,0:0:0:0:
427,246,53882,1,0,0:0:0:0:
424,232,53935,1,0,0:0:0:0:
419,218,53989,6,0,B|456:188|456:188|338:189,1,157.500006008148
330,191,54203,6,0,P|327:152|424:103,1,157.500006008148
430,106,54417,6,0,L|310:95,1,105
252,46,54632,2,0,L|134:57,1,105
153,151,54846,6,0,L|257:141,1,105
330,191,55060,2,0,L|434:200,1,105
430,106,55275,5,0,0:0:0:0:
252,46,55489,6,0,L|309:41,1,35
147,55,55596,1,0,0:0:0:0:
140,55,55650,1,0,0:0:0:0:
133,56,55703,1,0,0:0:0:0:
153,151,55810,5,0,0:0:0:0:
252,46,55917,2,0,L|321:40,1,70
252,46,56132,6,0,B|388:35|388:35|304:134,1,245
309,130,56560,6,0,P|376:127|413:224,1,157.500006008148
417,211,56775,6,0,P|315:272|364:326,1,210
360,324,56989,5,0,0:0:0:0:
360,324,57203,5,0,0:0:0:0:
257,303,57310,1,0,0:0:0:0:
154,283,57417,1,0,0:0:0:0:
41,334,57525,5,0,0:0:0:0:
62,230,57632,1,0,0:0:0:0:
82,127,57739,1,0,0:0:0:0:
102,24,57846,5,0,0:0:0:0:
205,44,57953,1,0,0:0:0:0:
185,147,58060,1,0,0:0:0:0:
82,127,58167,1,0,0:0:0:0:
102,24,58275,5,0,0:0:0:0:
205,44,58382,1,0,0:0:0:0:
309,65,58489,1,0,0:0:0:0:
412,85,58596,1,0,0:0:0:0:
449,294,58703,5,0,0:0:0:0:
343,164,58810,1,0,0:0:0:0:
463,198,58917,5,0,0:0:0:0:
360,324,59025,1,0,0:0:0:0:
212,257,59132,6,0,L|136:263,1,70
343,164,59346,2,0,L|267:170,1,70
212,257,59560,5,0,0:0:0:0:
212,257,59775,5,0,0:0:0:0:
208,257,59882,1,0,0:0:0:0:
113,234,59989,5,0,0:0:0:0:
112,227,60096,1,0,0:0:0:0:
111,220,60203,1,0,0:0:0:0:
134,124,60310,5,0,0:0:0:0:
145,124,60417,1,0,0:0:0:0:
155,123,60528,1,0,0:0:0:0:
251,145,60639,5,0,0:0:0:0:
252,159,60754,1,0,0:0:0:0:
253,173,60869,1,0,0:0:0:0:
231,269,60990,5,0,0:0:0:0:
213,270,61110,1,0,0:0:0:0:
196,271,61235,1,0,0:0:0:0:
56,282,61360,5,0,0:0:0:0:
56,282,68471,5,0,0:0:0:0:
274,304,68899,5,0,0:0:0:0:
248,85,69328,5,0,0:0:0:0:
41,159,69756,5,0,0:0:0:0:
159,345,70185,5,0,0:0:0:0:
314,188,70613,5,0,0:0:0:0:
126,72,71042,5,0,0:0:0:0:
56,282,71471,5,0,0:0:0:0:
174,205,71685,5,0,0:0:0:0:
277,297,71899,5,0,0:0:0:0:
278,324,72006,1,0,0:0:0:0:
368,194,72221,5,0,0:0:0:0:
395,193,72328,1,0,0:0:0:0:
266,102,72542,5,0,0:0:0:0:
265,75,72649,1,0,0:0:0:0:
174,205,72867,5,0,0:0:0:0:
147,206,72978,1,0,0:0:0:0:
277,297,73200,5,0,0:0:0:0:
374,291,73311,6,0,L|405:322,2,35
368,194,73533,5,0,0:0:0:0:
395,193,73644,1,0,0:0:0:0:
363,97,73759,6,0,L|394:66,2,35
266,102,73990,5,0,0:0:0:0:
169,108,74105,6,0,L|138:77,2,35
174,205,74336,5,0,0:0:0:0:
180,302,74451,6,0,L|149:333,2,35
277,297,74687,5,0,0:0:0:0:
374,291,74807,6,0,L|405:322,2,35
363,97,75047,5,0,0:0:0:0:
169,108,75172,1,0,0:0:0:0:
180,302,75297,1,0,0:0:0:0:
374,291,75422,1,0,0:0:0:0:
313,198,75547,6,0,L|172:205,1,140
0,26,75975,2,0,L|139:19,1,140
401,70,76404,5,0,0:0:0:0:
173,204,76618,1,0,0:0:0:0:
403,335,76832,2,0,P|412:260|464:212,1,140
222,293,77261,5,0,0:0:0:0:
120,290,77368,1,0,0:0:0:0:
17,289,77475,1,0,0:0:0:0:
312,209,77689,6,0,L|172:203,1,140
455,216,78118,1,0,0:0:0:0:
172,203,78332,5,0,0:0:0:0:
70,200,78439,1,0,0:0:0:0:
123,114,78547,2,0,L|128:253,1,140
401,258,78975,5,0,0:0:0:0:
398,156,79082,1,0,0:0:0:0:
397,53,79189,1,0,0:0:0:0:
317,348,79404,6,0,L|306:278,1,70
401,258,79618,2,0,L|411:188,1,70
298,39,79832,6,0,L|303:178,1,140
317,348,80261,6,0,P|232:343|188:377,1,140
123,114,80689,1,0,0:0:0:0:
41,272,80904,5,0,0:0:0:0:
38,306,81011,1,0,0:0:0:0:
35,340,81118,6,0,L|64:358,3,35
161,355,81332,2,0,L|190:373,3,35
41,272,81546,6,0,L|48:165,1,105
53,62,81761,1,0,0:0:0:0:
87,64,81868,1,0,0:0:0:0:
121,66,81975,5,0,0:0:0:0:
179,149,82082,1,0,0:0:0:0:
237,66,82189,1,0,0:0:0:0:
295,149,82296,1,0,0:0:0:0:
353,66,82404,6,0,L|498:66,1,140
179,149,82832,2,0,L|39:149,1,140
394,216,83261,5,0,0:0:0:0:
131,240,83475,1,0,0:0:0:0:
240,0,83689,2,0,P|291:55|361:63,1,140
41,79,84118,6,0,L|38:155,1,70
131,240,84332,2,0,L|128:316,1,70
30,384,84546,2,0,L|35:244,1,140
240,0,84975,6,0,P|276:6|309:36,1,70
102,105,85189,2,0,P|66:98|33:68,1,70
392,17,85404,2,0,P|370:86|298:116,1,140
40,78,85832,6,0,L|196:82,1,140
453,119,86261,2,0,L|313:115,1,140
138,232,86689,5,0,0:0:0:0:
292,16,86904,1,0,0:0:0:0:
401,256,87118,1,0,0:0:0:0:
40,78,87332,5,0,0:0:0:0:
37,180,87439,1,0,0:0:0:0:
36,283,87546,1,0,0:0:0:0:
288,221,87761,5,0,0:0:0:0:
289,118,87868,1,0,0:0:0:0:
292,16,87975,1,0,0:0:0:0:
352,285,88189,5,0,0:0:0:0:
138,232,88404,5,0,0:0:0:0:
439,297,88618,6,0,P|426:233|388:201,1,105
385,201,88832,6,0,P|320:199|280:228,1,105
352,285,89046,6,0,L|349:359,1,70
473,46,89261,5,0,0:0:0:0:
184,26,89475,1,0,0:0:0:0:
173,128,89582,1,0,0:0:0:0:
162,228,89689,1,0,0:0:0:0:
292,16,89904,5,0,0:0:0:0:
49,132,90118,2,0,L|40:260,1,105
33,340,90332,1,0,0:0:0:0:
67,347,90439,1,0,0:0:0:0:
100,353,90546,5,0,0:0:0:0:
250,109,90761,1,0,0:0:0:0:
383,359,90975,6,0,P|439:356|491:391,1,105
497,277,91189,1,0,0:0:0:0:
509,236,91296,1,0,0:0:0:0:
505,195,91404,5,0,0:0:0:0:
258,342,91618,1,0,0:0:0:0:
390,227,91832,6,0,B|294:281|286:187|175:264,1,210
472,155,92261,6,0,P|404:118|330:137,1,157.500006008148
315,135,92475,6,0,P|196:135|102:188,1,210
104,260,92689,6,0,L|16:246,1,70
0,104,92904,5,0,0:0:0:0:
21,76,93011,1,0,0:0:0:0:
120,105,93118,6,0,L|116:188,1,70
34,249,93332,2,0,L|30:332,1,70
171,308,93546,5,0,0:0:0:0:
205,318,93654,1,0,0:0:0:0:
306,349,93761,6,0,L|303:383,2,35
292,243,93868,5,0,0:0:0:0:
258,233,93975,1,0,0:0:0:0:
157,202,94082,6,0,L|159:167,2,35
311,157,94189,5,0,0:0:0:0:
292,243,94296,1,0,0:0:0:0:
305,248,94350,1,0,0:0:0:0:
318,252,94404,6,0,B|387:278|387:278|382:207|382:207|456:232,1,210
455,234,94618,6,0,P|455:319|348:349,1,210
335,346,94832,5,0,0:0:0:0:
311,157,94939,1,0,0:0:0:0:
171,308,95046,2,0,L|66:322,1,105
52,325,95261,5,0,0:0:0:0:
35,206,95368,1,0,0:0:0:0:
154,189,95475,1,0,0:0:0:0:
171,308,95582,1,0,0:0:0:0:
18,269,95689,5,0,0:0:0:0:
90,172,95796,1,0,0:0:0:0:
187,244,95904,1,0,0:0:0:0:
115,341,96011,1,0,0:0:0:0:
18,116,96118,6,0,L|22:33,1,70
194,1,96332,1,0,0:0:0:0:
187,244,96439,6,0,L|191:161,1,70
363,129,96654,1,0,0:0:0:0:
356,372,96761,6,0,L|360:289,1,70
362,164,96975,5,0,0:0:0:0:
363,129,97082,1,0,0:0:0:0:
450,49,97189,5,0,0:0:0:0:
450,13,97296,1,0,0:0:0:0:
445,163,97404,5,0,0:0:0:0:
444,198,97511,1,0,0:0:0:0:
357,278,97618,5,0,0:0:0:0:
357,314,97725,1,0,0:0:0:0:
362,164,97832,6,0,B|365:128|365:128|233:174|233:174|235:115,1,210
236,125,98046,6,0,P|281:207|180:268,1,210
190,269,98261,5,0,0:0:0:0:
176,265,98314,1,0,0:0:0:0:
164,258,98368,1,0,0:0:0:0:
153,249,98421,1,0,0:0:0:0:
144,239,98475,1,0,0:0:0:0:
137,227,98529,1,0,0:0:0:0:
133,214,98582,1,0,0:0:0:0:
131,200,98636,1,0,0:0:0:0:
130,186,98689,6,0,P|142:153|167:129,1,70
134,42,98796,6,0,B|190:45|190:45|241:31|241:31|287:49|287:49|351:51,1,210
352,51,99011,6,0,L|446:56,1,70
482,130,99118,6,0,P|416:154|438:278,1,210
443,278,99332,5,0,0:0:0:0:
362,164,99439,1,0,0:0:0:0:
316,341,99546,6,0,L|214:348,1,70
106,354,99761,1,0,0:0:0:0:
64,46,99975,6,0,L|166:39,1,70
273,32,100189,1,0,0:0:0:0:
211,257,100404,5,0,0:0:0:0:
117,231,100511,1,0,0:0:0:0:
115,327,100618,5,0,0:0:0:0:
110,341,100671,1,0,0:0:0:0:
106,354,100725,1,0,0:0:0:0:
211,257,100832,6,0,B|186:322|186:322|113:327,1,140
106,354,101261,6,0,B|274:343|274:343|296:277,1,210
294,291,101475,6,0,P|348:258|349:378,1,210
375,367,101689,5,0,0:0:0:0:
211,257,101796,1,0,0:0:0:0:
363,212,101904,2,0,P|412:226|443:267,1,105
455,278,102118,6,0,L|444:161,1,105.000004005432
211,257,102332,2,0,L|220:152,1,105.000004005432
512,119,102546,6,0,P|523:69|512:18,1,105.000004005432
154,101,102761,2,0,P|143:47|169:-26,1,105.000004005432
256,51,102975,6,0,B|260:134|260:134|231:173|231:173|257:237,1,192.5
258,242,103618,5,0,0:0:0:0:
154,101,103725,1,0,0:0:0:0:
349,188,103832,2,0,L|426:182,1,70
509,128,104046,5,0,0:0:0:0:
418,301,104154,2,0,L|349:296,1,70
258,242,104368,1,0,0:0:0:0:
348,68,104475,6,0,L|417:73,1,70
509,128,104689,6,0,B|506:185|506:185|464:214|464:214|462:271|462:271|502:311|502:311|500:366|500:366|436:400|436:400|371:363|371:363|375:284,1,490
376,283,105118,6,0,P|415:308|405:189,1,245
421,184,105546,6,0,L|426:105,1,70
252,316,105761,1,0,0:0:0:0:
260,208,105868,1,0,0:0:0:0:
353,268,105975,5,0,0:0:0:0:
364,275,106029,1,0,0:0:0:0:
376,283,106082,1,0,0:0:0:0:
167,148,106189,2,0,L|93:146,1,70
347,28,106404,5,0,0:0:0:0:
407,150,106511,1,0,0:0:0:0:
376,283,106618,1,0,0:0:0:0:
267,365,106725,1,0,0:0:0:0:
131,360,106832,1,0,0:0:0:0:
131,360,107046,5,0,0:0:0:0:
131,360,107261,6,0,B|81:324|81:324|8:323,1,122.5
121,232,107689,6,0,L|288:235,1,140
508,61,108118,5,0,0:0:0:0:
508,61,108332,5,0,0:0:0:0:
466,66,108439,1,0,0:0:0:0:
421,137,108546,5,0,0:0:0:0:
379,142,108654,1,0,0:0:0:0:
337,148,108761,1,0,0:0:0:0:
292,219,108868,5,0,0:0:0:0:
250,224,108975,1,0,0:0:0:0:
208,230,109082,1,0,0:0:0:0:
144,174,109189,5,0,0:0:0:0:
139,132,109296,1,0,0:0:0:0:
133,90,109404,1,0,0:0:0:0:
197,34,109511,5,0,0:0:0:0:
239,28,109618,1,0,0:0:0:0:
281,23,109725,1,0,0:0:0:0:
408,53,109832,6,0,L|425:166,1,83.9999974365235
393,331,110046,5,0,0:0:0:0:
482,262,110154,1,0,0:0:0:0:
331,205,110261,5,0,0:0:0:0:
497,374,110368,1,0,0:0:0:0:
435,248,110474,5,0,0:0:0:0:
346,317,110582,1,0,0:0:0:0:
420,136,110689,6,0,L|404:34,1,97.9999970092774
331,205,110904,5,0,0:0:0:0:
435,248,111011,1,0,0:0:0:0:
318,94,111118,5,0,0:0:0:0:
299,331,111225,1,2,0:0:0:0:
286,220,111332,5,0,0:0:0:0:
182,177,111439,1,0,0:0:0:0:
390,263,111546,6,0,L|508:244,1,112
195,288,111761,5,0,0:0:0:0:
273,109,111868,1,2,0:0:0:0:
299,331,111975,5,0,0:0:0:0:
169,66,112082,1,0,0:0:0:0:
286,220,112189,5,0,0:0:0:0:
182,177,112296,1,0,0:0:0:0:
108,356,112404,5,0,0:0:0:0:
108,356,112618,6,0,B|72:306|72:306|83:185,1,157.500006008148
83,195,112832,6,0,P|176:181|145:280,1,210
159,280,113046,6,0,L|286:277,1,105
278,288,113261,6,0,L|72:292,1,175
87,292,113582,6,0,L|12:293,1,52.5000020027161
83,195,113689,6,0,L|91:67,1,105.000004005432
279,4,113904,2,0,L|272:108,1,105.000004005432
159,280,114118,6,0,L|167:152,1,105.000004005432
355,89,114333,2,0,L|348:193,1,105.000004005432
235,365,114546,6,0,P|269:296|331:279,1,140
279,4,114761,6,0,L|272:108,1,105.000004005432
83,195,114975,6,0,B|145:194|145:194|210:224,1,105.000004005432
284,221,115189,2,0,B|221:221|221:221|183:203,1,105.000004005432
60,286,115404,6,0,B|122:285|122:285|187:315,1,105.000004005432
350,328,115618,2,0,B|287:328|287:328|249:310,1,105.000004005432
1,133,115832,6,0,P|52:94|115:98,1,105.000004005432
225,46,116046,2,0,P|276:85|339:81,1,105.000004005432
181,145,116207,1,0,0:0:0:0:
170,154,116261,6,0,B|175:230|175:230|145:286|145:286|152:374,1,210
152,370,116475,6,0,P|123:284|229:309,1,210
218,286,116689,6,0,L|46:298,1,157.500006008148
50,299,116904,5,0,0:0:0:0:
170,154,117011,1,0,0:0:0:0:
181,145,117064,1,0,0:0:0:0:
192,136,117118,6,0,B|243:96|243:96|327:102,1,140
512,350,117332,2,0,B|461:390|461:390|377:384,1,140
48,160,117546,6,0,B|56:95|56:95|121:41,1,140
427,92,117761,2,0,B|418:156|418:156|353:210,1,140
152,167,117975,6,0,L|47:159,1,105.000004005432
392,330,118189,6,0,B|399:255|399:255|360:204,1,140
197,101,118404,6,0,P|120:93|87:213,1,210
88,212,118618,5,0,0:0:0:0:
98,222,118672,1,0,0:0:0:0:
108,232,118726,1,0,0:0:0:0:
121,239,118779,1,0,0:0:0:0:
133,245,118832,6,0,B|179:236|179:236|241:256|241:256|291:251,1,157.500006008148
302,248,119046,6,0,P|336:176|417:196,1,157.500006008148
401,197,119261,6,0,B|394:266|394:266|409:318,1,105
483,258,119475,2,0,B|488:187|488:187|474:136,1,105
401,197,119689,6,0,P|486:160|464:61,1,210
449,58,119904,6,0,B|371:65|371:65|282:13,1,157.500006008148
288,16,120118,6,0,L|450:3,1,157.500006008148
460,2,120332,5,0,0:0:0:0:
270,18,120439,2,0,L|217:22,1,52.5000020027161
119,29,120546,6,0,P|136:79|177:113,1,105.000004005432
401,197,120761,2,0,P|440:163|456:113,1,105.000004005432
174,111,120975,6,0,P|134:144|118:194,1,105.000004005432
455,278,121189,2,0,P|438:228|397:194,1,105.000004005432
191,354,121404,6,0,B|243:339|243:339|294:344,1,105.000004005432
174,111,121618,6,0,P|134:144|118:194,1,105.000004005432
387,111,121832,6,0,B|345:101|345:101|284:115,1,105.000004005432
173,110,122046,2,0,B|215:119|215:119|276:106,1,105.000004005432
462,7,122261,6,0,B|420:-1|420:-1|360:12,1,105.000004005432
168,11,122475,2,0,B|209:20|209:20|270:6,1,105.000004005432
433,272,122689,6,0,P|447:334|418:390,1,105.000004005432
296,344,122903,2,0,P|232:352|190:399,1,105.000004005432
332,245,123064,1,0,0:0:0:0:
336,231,123118,6,0,P|410:169|516:207,1,210
512,215,123332,6,0,B|509:163|509:163|352:127,1,210
339,124,123546,6,0,B|343:65|343:65|485:31,1,157.500006008148
454,40,123761,5,0,0:0:0:0:
512,215,123868,1,0,0:0:0:0:
509,230,123921,1,0,0:0:0:0:
506,245,123975,6,0,P|477:296|382:328,1,140
28,229,124189,2,0,P|57:178|152:146,1,140
414,89,124404,6,0,P|429:156|402:220,1,140
119,384,124618,2,0,P|103:316|131:253,1,140
402,219,124832,6,0,B|455:245|455:245|533:244,1,105.000004005432
143,122,125046,6,0,P|115:185|130:252,1,140
451,281,125261,6,0,P|482:210|378:141,1,210
379,143,125475,5,0,0:0:0:0:
366,149,125529,1,0,0:0:0:0:
353,155,125583,1,0,0:0:0:0:
343,166,125636,1,0,0:0:0:0:
333,175,125689,6,0,P|361:75|430:52,1,157.500006008148
418,58,125904,6,0,B|380:33|380:33|258:50,1,157.500006008148
255,53,126118,5,0,0:0:0:0:
138,75,126225,1,0,0:0:0:0:
21,97,126332,2,0,B|56:140|56:140|62:197,1,105
62,202,126546,6,0,L|70:285,1,70
181,180,126654,6,0,L|189:263,1,70
298,158,126761,6,0,L|316:337,1,157.500006008148
315,330,126975,6,0,P|331:268|431:244,1,157.500006008148
427,243,127189,5,0,0:0:0:0:
216,350,127296,2,0,L|164:358,1,52.5000020027161
68,271,127404,6,0,L|171:256,1,105.000004005432
427,243,127618,2,0,L|324:258,1,105.000004005432
42,170,127832,6,0,L|145:155,1,105.000004005432
401,142,128046,5,0,0:0:0:0:
504,126,128118,5,0,0:0:0:0:
441,44,128189,5,0,0:0:0:0:
338,60,128261,6,0,P|302:109|309:191,1,140
42,170,128475,6,0,L|145:155,1,105.000004005432
401,142,128689,6,0,P|397:195|411:245,1,105.000004005432
409,340,128904,2,0,P|423:290|420:238,1,105.000004005432
512,304,129118,6,0,P|515:251|501:201,1,105.000004005432
498,7,129332,2,0,P|484:57|488:110,1,105.000004005432
278,274,129546,6,0,L|148:286,1,105.000004005432
36,347,129761,2,0,L|24:217,1,105.000004005432
119,194,129921,1,0,0:0:0:0:
130,185,129975,6,0,B|296:169|296:169|213:134,1,210
242,149,130189,6,0,P|317:143|392:257,1,210
389,257,130404,6,0,L|372:73,1,157.500006008148
371,87,130618,5,0,0:0:0:0:
288,245,130725,1,0,0:0:0:0:
289,259,130779,1,0,0:0:0:0:
290,272,130832,6,0,L|188:284,1,70
130,185,131046,2,0,L|28:197,1,70
371,87,131261,6,0,L|269:99,1,70
211,0,131475,2,0,L|109:12,1,70
8,198,131689,6,0,L|77:190,1,52.5000020027161
290,272,131904,6,0,L|188:284,1,70
371,87,132118,6,0,L|388:249,1,157.500006008148
390,259,132332,5,0,0:0:0:0:
403,269,132386,1,0,0:0:0:0:
414,279,132439,1,0,0:0:0:0:
427,289,132493,1,0,0:0:0:0:
442,300,132546,6,0,P|374:289|302:363,1,157.500006008148
302,356,132761,6,0,B|251:328|251:328|125:336,1,157.500006008148
137,336,132975,6,0,P|84:321|49:266,1,105
55,190,133189,2,0,P|108:205|142:259,1,105
137,336,133404,6,0,P|165:214|264:212,1,210
247,209,133618,6,0,B|239:115|239:115|279:66,1,157.500006008148
293,57,133832,6,0,L|306:213,1,157.500006008148
308,229,134046,5,0,0:0:0:0:
397,45,134154,2,0,L|449:40,1,52.5000020027161
512,139,134261,6,0,P|520:190|494:238,1,105.000004005432
214,95,134475,2,0,P|206:44|232:-4,1,105.000004005432
343,308,134689,6,0,P|292:316|221:227,1,157.500006008148
217,230,134904,5,0,0:0:0:0:
211,216,134958,1,0,0:0:0:0:
201,204,135011,1,0,0:0:0:0:
20,253,135118,6,0,P|65:276|117:269,1,105.000004005432
229,0,135332,6,0,P|206:43|214:95,1,105.000004005432
238,311,135546,6,0,L|374:306,1,105.000004005432
440,311,135761,2,0,L|335:314,1,105.000004005432
484,225,135975,6,0,L|379:228,1,105.000004005432
178,211,136189,2,0,L|282:207,1,105.000004005432
512,50,136404,6,0,B|500:22|500:22|400:-9,1,105.000004005432
297,44,136618,2,0,B|285:72|285:72|213:94,1,105.000004005432
388,95,136779,1,0,0:0:0:0:
401,99,136832,6,0,P|394:199|501:217,1,210
491,218,137046,6,0,P|373:256|422:299,1,210
383,281,137261,6,0,B|365:324|365:324|228:340,1,157.500006008148
244,339,137475,5,0,0:0:0:0:
88,303,137582,1,0,0:0:0:0:
72,304,137636,1,0,0:0:0:0:
55,305,137689,6,0,P|29:240|46:173,1,140
374,149,137904,2,0,P|399:213|383:280,1,140
136,46,138118,6,0,P|200:20|267:37,1,140
293,364,138333,2,0,P|228:390|161:373,1,140
126,148,138546,6,0,B|121:98|121:98|136:45,1,105.000004005432
30,364,138761,6,0,P|94:389|161:372,1,140
203,128,138975,6,0,P|151:70|46:137,1,210
48,138,139189,5,0,0:0:0:0:
49,152,139243,1,0,0:0:0:0:
50,166,139297,1,0,0:0:0:0:
55,180,139350,1,0,0:0:0:0:
61,194,139403,6,0,B|103:226|103:226|224:222|224:222|274:251,1,210
266,250,139618,6,0,P|182:229|237:121,1,210
218,129,139832,6,0,B|203:279|203:279|240:341,1,210
238,342,140046,6,0,P|327:319|332:188,1,210
340,200,140261,6,0,B|374:255|374:255|367:347,1,157.500006008148
455,347,140475,6,0,L|466:214,1,105
465,228,140689,5,0,0:0:0:0:
373,48,140796,2,0,L|304:43,1,70
266,250,141011,5,0,0:0:0:0:
174,70,141118,2,0,L|105:65,1,70
67,272,141332,5,0,0:0:0:0:
159,92,141439,2,0,L|228:87,1,70
266,250,141654,5,0,0:0:0:0:
358,70,141761,2,0,L|427:65,1,70
465,228,141975,5,0,0:0:0:0:
388,300,142082,1,0,0:0:0:0:
374,301,142135,1,0,0:0:0:0:
359,302,142189,1,0,0:0:0:0:
266,250,142296,1,0,0:0:0:0:
158,199,142404,5,0,0:0:0:0:
67,272,142511,1,0,0:0:0:0:
53,273,142564,1,0,0:0:0:0:
38,274,142618,1,0,0:0:0:0:
175,323,142725,5,0,0:0:0:0:
266,250,142832,1,0,0:0:0:0:
281,249,142886,1,0,0:0:0:0:
295,248,142939,1,0,0:0:0:0:
357,177,143046,5,0,0:0:0:0:
465,228,143153,1,0,0:0:0:0:
480,227,143207,1,0,0:0:0:0:
494,226,143260,1,0,0:0:0:0:
374,301,143367,5,0,0:0:0:0:
266,250,143476,1,0,0:0:0:0:
252,251,143529,1,0,0:0:0:0:
237,252,143583,1,0,0:0:0:0:
107,175,143689,5,0,0:0:0:0:
399,143,143796,1,0,0:0:0:0:
132,356,143904,1,0,0:0:0:0:
424,324,144011,1,0,0:0:0:0:
266,250,144975,5,0,0:0:0:0:
