osu file format v14

[General]
AudioFilename: LeaF - ATHAZA.mp3
AudioLeadIn: 0
PreviewTime: 112820
Countdown: 0
SampleSet: Soft
StackLeniency: 0.7
Mode: 3
LetterboxInBreaks: 0
SpecialStyle: 0
WidescreenStoryboard: 0

[Editor]
DistanceSpacing: 0.8
BeatDivisor: 4
GridSize: 32
TimelineZoom: 2

[Metadata]
Title:ATHAZA
TitleUnicode:ATHAZA
Artist:LeaF
ArtistUnicode:LeaF
Creator:FAMoss
Version:ARIES' NORMAL
Source:osu!
Tags:raveille -_aries_- bms featured artist fa mappers' guild mg BOFU2016 - Legendary Again anthony imaginary flower doppelganger instrumental electronic drum and bass dnb breakcore idm LEAF-0001 video game
BeatmapID:2409874
BeatmapSetID:1154007

[Difficulty]
HPDrainRate:7.5
CircleSize:4
OverallDifficulty:7.5
ApproachRate:5
SliderMultiplier:1.4
SliderTickRate:1

[Events]
//Background and Video events
0,0,"beautiful-bloom-blooming.jpg",0,0
//Break Periods
//Storyboard Layer 0 (Background)
//Storyboard Layer 1 (Fail)
//Storyboard Layer 2 (Pass)
//Storyboard Layer 3 (Foreground)
//Storyboard Layer 4 (Overlay)
//Storyboard Sound Samples
Sample,423,0,"EP.wav",100
Sample,423,0,"EI.wav",100
Sample,637,0,"EJ.wav",100
Sample,744,0,"EK.wav",100
Sample,851,0,"EQ.wav",100
Sample,851,0,"EL.wav",100
Sample,1065,0,"EK.wav",100
Sample,1280,0,"EO.wav",100
Sample,1280,0,"EP.wav",100
Sample,1494,0,"EK.wav",100
Sample,1708,0,"EQ.wav",100
Sample,1708,0,"EO.wav",100
Sample,1922,0,"EJ.wav",100
Sample,2137,0,"EI.wav",100
Sample,2137,0,"EP.wav",100
Sample,2351,0,"EJ.wav",100
Sample,2458,0,"EK.wav",100
Sample,2565,0,"EL.wav",100
Sample,2565,0,"EQ.wav",100
Sample,2780,0,"EK.wav",100
Sample,2994,0,"ER.wav",100
Sample,2994,0,"EO.wav",100
Sample,3422,0,"EY.wav",100
Sample,7280,0,"3P.wav",100
Sample,7280,0,"Sweepdown.wav",100
Sample,8351,0,"FN.wav",100
Sample,8458,0,"FO.wav",100
Sample,8780,0,"FQ.wav",100
Sample,10172,0,"FY.wav",100
Sample,10387,0,"XE.wav",100
Sample,10494,0,"XF.wav",100
Sample,10601,0,"XE.wav",100
Sample,10815,0,"G1.wav",100
Sample,11887,0,"G7.wav",100
Sample,12208,0,"G9.wav",100
Sample,13065,0,"GC.wav",100
Sample,15208,0,"FN.wav",100
Sample,15315,0,"FO.wav",100
Sample,15637,0,"FQ.wav",100
Sample,17672,0,"G1.wav",100
Sample,18744,0,"G7.wav",100
Sample,19065,0,"GH.wav",100
Sample,19172,0,"GI.wav",100
Sample,19494,0,"GK.wav",100
Sample,19601,0,"GL.wav",100
Sample,19922,0,"GN.wav",100
Sample,20994,0,"EP.wav",100
Sample,20994,0,"EI.wav",100
Sample,21315,0,"EK.wav",100
Sample,21422,0,"EL.wav",100
Sample,21422,0,"EQ.wav",100
Sample,21530,0,"EJ.wav",100
Sample,21530,0,"ER.wav",100
Sample,21637,0,"EK.wav",100
Sample,21744,0,"EJ.wav",100
Sample,21851,0,"EP.wav",100
Sample,21851,0,"EM.wav",100
Sample,22065,0,"ER.wav",100
Sample,22172,0,"EK.wav",100
Sample,22280,0,"ER.wav",100
Sample,22280,0,"EJ.wav",100
Sample,22494,0,"H5.wav",100
Sample,22708,0,"EI.wav",100
Sample,22708,0,"EP.wav",100
Sample,22922,0,"EQ.wav",100
Sample,23030,0,"EK.wav",100
Sample,23137,0,"EL.wav",100
Sample,23137,0,"EQ.wav",100
Sample,23351,0,"H6.wav",100
Sample,24637,0,"cymbal.wav",70
Sample,24851,0,"cymbal.wav",70
Sample,24958,0,"cymbal.wav",70
Sample,25065,0,"cymbal.wav",70
Sample,25922,0,"cymbal.wav",70
Sample,26458,0,"cymbal.wav",70
Sample,26780,0,"cymbal.wav",70
Sample,28280,0,"cymbal.wav",70
Sample,28387,0,"cymbal.wav",70
Sample,30208,0,"3O.wav",100
Sample,31708,0,"cymbal.wav",70
Sample,31815,0,"cymbal.wav",70
Sample,35137,0,"cymbal.wav",70
Sample,35351,0,"cymbal.wav",70
Sample,35780,0,"cymbal.wav",70
Sample,35887,0,"cymbal.wav",70
Sample,36530,0,"cymbal.wav",70
Sample,36637,0,"cymbal.wav",70
Sample,36744,0,"cymbal.wav",70
Sample,36851,0,"cymbal.wav",70
Sample,38137,0,"EI.wav",100
Sample,38137,0,"EP.wav",100
Sample,38351,0,"EJ.wav",100
Sample,38458,0,"EK.wav",100
Sample,38565,0,"EL.wav",100
Sample,38672,0,"EJ.wav",100
Sample,38672,0,"ER.wav",100
Sample,38780,0,"EK.wav",100
Sample,38887,0,"EL.wav",100
Sample,38994,0,"EJ.wav",100
Sample,39101,0,"ER.wav",100
Sample,39101,0,"EK.wav",100
Sample,39208,0,"EL.wav",100
Sample,39315,0,"EJ.wav",100
Sample,39422,0,"EK.wav",100
Sample,39530,0,"ER.wav",100
Sample,39530,0,"EL.wav",100
Sample,39637,0,"EK.wav",100
Sample,39744,0,"EJ.wav",100
Sample,40065,0,"cymbal.wav",70
Sample,40172,0,"cymbal.wav",70
Sample,40280,0,"cymbal.wav",70
Sample,40387,0,"cymbal.wav",70
Sample,40494,0,"cymbal.wav",70
Sample,40601,0,"cymbal.wav",70
Sample,42851,0,"3C.wav",100
Sample,43280,0,"B4.wav",70
Sample,57208,0,"cymbal.wav",70
Sample,57315,0,"cymbal.wav",70
Sample,57422,0,"cymbal.wav",70
Sample,57530,0,"cymbal.wav",70
Sample,57637,0,"cymbal.wav",70
Sample,57744,0,"cymbal.wav",70
Sample,57851,0,"cymbal.wav",70
Sample,57958,0,"cymbal.wav",70
Sample,58065,0,"cymbal.wav",70
Sample,58172,0,"cymbal.wav",70
Sample,58280,0,"cymbal.wav",70
Sample,58387,0,"cymbal.wav",70
Sample,58494,0,"cymbal.wav",70
Sample,58601,0,"cymbal.wav",70
Sample,58708,0,"cymbal.wav",70
Sample,58815,0,"cymbal.wav",70
Sample,58922,0,"cymbal.wav",70
Sample,59030,0,"cymbal.wav",70
Sample,60101,0,"K8.wav",100
Sample,60422,0,"KB.wav",100
Sample,60533,0,"KC.wav",100
Sample,60533,0,"KM.wav",100
Sample,60644,0,"KD.wav",100
Sample,60759,0,"KE.wav",100
Sample,60874,0,"KF.wav",100
Sample,60995,0,"KO.wav",100
Sample,60995,0,"KG.wav",100
Sample,61116,0,"KH.wav",100
Sample,61243,0,"KI.wav",100
Sample,61371,0,"BassKickReverbXD.wav",70
Sample,61371,0,"KP.wav",100
Sample,61371,0,"Sweepdown.wav",100
Sample,61593,0,"KQ.wav",100
Sample,61704,0,"KR.wav",100
Sample,61815,0,"KS.wav",100
Sample,62037,0,"KT.wav",100
Sample,62259,0,"KU.wav",100
Sample,62482,0,"KS.wav",100
Sample,62704,0,"KR.wav",100
Sample,62926,0,"KQ.wav",100
Sample,63148,0,"KV.wav",100
Sample,63371,0,"KQ.wav",100
Sample,63482,0,"KR.wav",100
Sample,63593,0,"KS.wav",100
Sample,63815,0,"KW.wav",100
Sample,64037,0,"KX.wav",100
Sample,64482,0,"KY.wav",100
Sample,64926,0,"L3.wav",100
Sample,65148,0,"L4.wav",100
Sample,65259,0,"L5.wav",100
Sample,65370,0,"L6.wav",100
Sample,65593,0,"L7.wav",100
Sample,65815,0,"L8.wav",100
Sample,66037,0,"L6.wav",100
Sample,66259,0,"L5.wav",100
Sample,66482,0,"L4.wav",100
Sample,66704,0,"L9.wav",100
Sample,66926,0,"L4.wav",100
Sample,67037,0,"L5.wav",100
Sample,67148,0,"L6.wav",100
Sample,67371,0,"LA.wav",100
Sample,67593,0,"LH.wav",100
Sample,68037,0,"LI.wav",100
Sample,75062,0,"cymbal.wav",70
Sample,75187,0,"cymbal.wav",70
Sample,75312,0,"cymbal.wav",70
Sample,75437,0,"cymbal.wav",70
Sample,75562,0,"Sweepdown.wav",100
Sample,76633,0,"FN.wav",100
Sample,76740,0,"FO.wav",100
Sample,77062,0,"FQ.wav",100
Sample,79097,0,"G1.wav",100
Sample,80169,0,"G7.wav",100
Sample,80490,0,"G9.wav",100
Sample,81347,0,"GC.wav",100
Sample,82419,0,"N4.wav",100
Sample,83490,0,"FN.wav",100
Sample,83597,0,"FO.wav",100
Sample,83919,0,"FQ.wav",100
Sample,85311,0,"FY.wav",100
Sample,85954,0,"G1.wav",100
Sample,87026,0,"G7.wav",100
Sample,87347,0,"GH.wav",100
Sample,87776,0,"GK.wav",100
Sample,88204,0,"GN.wav",100
Sample,89276,0,"NX.wav",100
Sample,90133,0,"O2.wav",100
Sample,90990,0,"O8.wav",100
Sample,91311,0,"OA.wav",100
Sample,91419,0,"OB.wav",100
Sample,91847,0,"OD.wav",100
Sample,92919,0,"cymbal.wav",70
Sample,93026,0,"cymbal.wav",70
Sample,93883,0,"cymbal.wav",70
Sample,94204,0,"cymbal.wav",70
Sample,94633,0,"cymbal.wav",70
Sample,94847,0,"cymbal.wav",70
Sample,94954,0,"cymbal.wav",70
Sample,95061,0,"cymbal.wav",70
Sample,98276,0,"cymbal.wav",70
Sample,98383,0,"cymbal.wav",70
Sample,98704,0,"cymbal.wav",70
Sample,101490,0,"cymbal.wav",70
Sample,101704,0,"cymbal.wav",70
Sample,101811,0,"cymbal.wav",70
Sample,102990,0,"cymbal.wav",70
Sample,103633,0,"cymbal.wav",70
Sample,103740,0,"cymbal.wav",70
Sample,104169,0,"cymbal.wav",70
Sample,104490,0,"cymbal.wav",70
Sample,105133,0,"cymbal.wav",70
Sample,105776,0,"cymbal.wav",70
Sample,105883,0,"cymbal.wav",70
Sample,106419,0,"cymbal.wav",70
Sample,106526,0,"cymbal.wav",70
Sample,106633,0,"cymbal.wav",70
Sample,106740,0,"cymbal.wav",70
Sample,108669,0,"EJ.wav",100
Sample,110061,0,"cymbal.wav",70
Sample,110169,0,"cymbal.wav",70
Sample,110276,0,"cymbal.wav",70
Sample,110383,0,"cymbal.wav",70
Sample,110490,0,"cymbal.wav",70
Sample,110704,0,"cymbal.wav",70
Sample,110919,0,"cymbal.wav",70
Sample,111026,0,"cymbal.wav",70
Sample,111240,0,"cymbal.wav",70
Sample,111347,0,"cymbal.wav",70
Sample,111561,0,"cymbal.wav",70
Sample,111776,0,"cymbal.wav",70
Sample,111883,0,"cymbal.wav",70
Sample,111990,0,"cymbal.wav",70
Sample,112097,0,"cymbal.wav",70
Sample,112204,0,"cymbal.wav",70
Sample,112311,0,"cymbal.wav",70
Sample,112419,0,"cymbal.wav",70
Sample,114561,0,"3C.wav",100
Sample,114990,0,"B4.wav",70
Sample,128276,0,"3C.wav",100
Sample,128704,0,"B4.wav",70
Sample,142097,0,"cymbal.wav",70
Sample,142419,0,"cymbal.wav",70
Sample,142526,0,"cymbal.wav",70
Sample,142847,0,"cymbal.wav",70
Sample,143169,0,"cymbal.wav",70
Sample,143276,0,"Sweepdown.wav",100
Sample,143490,0,"cymbal.wav",70
Sample,143811,0,"cymbal.wav",70
Sample,143919,0,"cymbal.wav",70
Sample,144026,0,"cymbal.wav",70

[TimingPoints]
423,214.285714285714,4,2,1,70,1,0
43280,-100,4,2,1,70,0,1
55280,-100,4,2,1,70,0,0
60422,222.222222222222,4,2,1,70,1,0
60422,-96.4286,4,2,1,70,0,0
60644,230.769230769231,4,2,1,70,1,0
60644,-92.8571,4,2,1,70,0,0
60874,242.424242424242,4,2,1,70,1,0
60874,-88.3929,4,2,1,70,0,0
61116,255.31914893617,4,2,1,70,1,0
61116,-83.9286,4,2,1,70,0,0
61371,222.222222222222,4,2,1,70,1,0
61371,-96.4286,4,2,1,70,0,0
68482,214.285714285714,4,2,1,70,1,0
72767,222.222222222222,4,2,1,70,1,0
72767,-96.4286,4,2,1,70,0,0
73655,230.769230769231,4,2,1,70,1,0
73655,-92.8571,4,2,1,70,0,0
74578,242.424242424242,4,2,1,70,1,0
74578,-88.3929,4,2,1,70,0,0
75062,250,4,2,1,70,1,0
75062,-85.7143,4,2,1,70,0,0
75562,214.285714285714,4,2,1,70,1,0
114990,-100,4,2,1,70,0,1
126990,-100,4,2,1,70,0,0
128704,-100,4,2,1,70,0,1
140704,-100,4,2,1,70,0,0

[HitObjects]
64,192,423,5,0,0:0:0:100:3O.wav
448,192,637,1,0,0:0:0:100:EQ.wav
320,192,744,1,0,0:0:0:100:ER.wav
192,192,851,1,0,0:0:0:100:3O.wav
448,192,1065,1,0,0:0:0:100:ER.wav
64,192,1280,1,0,0:0:0:100:3O.wav
320,192,1494,1,0,0:0:0:100:ER.wav
192,192,1708,1,0,0:0:0:100:3O.wav
320,192,1922,1,0,0:0:0:100:ER.wav
448,192,2137,1,0,0:0:0:100:3O.wav
64,192,2351,1,0,0:0:0:100:EQ.wav
192,192,2458,1,0,0:0:0:100:ER.wav
320,192,2565,1,0,0:0:0:100:3O.wav
64,192,2780,1,0,0:0:0:100:ER.wav
448,192,2994,1,0,0:0:0:100:3O.wav
192,192,3208,128,0,3422:0:0:0:100:EX.wav
320,192,3422,128,0,3637:0:0:0:100:3O.wav
448,192,3637,128,0,3851:0:0:0:100:EX.wav
64,192,3851,128,2,5565:0:0:0:0:
192,192,3851,1,4,0:0:0:0:
448,192,4708,1,0,0:0:0:0:
192,192,5565,1,0,0:0:0:0:
448,192,5672,1,0,0:0:0:0:
320,192,5780,1,0,0:0:0:0:
64,192,5887,1,0,0:0:0:0:
192,192,5994,1,0,0:0:0:0:
320,192,6101,1,2,0:0:0:0:
448,192,6208,1,2,0:0:0:0:
192,192,6315,1,2,0:0:0:0:
320,192,6422,128,2,6637:0:0:0:0:
64,192,6637,1,2,0:0:0:0:
192,192,6744,1,2,0:0:0:0:
448,192,6851,1,2,0:0:0:0:
320,192,6958,1,2,0:0:0:0:
192,192,7065,128,2,7280:0:0:0:0:
64,192,7280,1,4,0:0:0:0:
448,192,7280,1,0,0:0:0:100:05.wav
192,192,7494,1,0,0:0:0:0:
320,192,7708,1,0,0:0:0:100:3P.wav
448,192,7708,1,0,0:0:0:0:
64,192,7922,1,0,0:0:0:0:
192,192,8137,1,0,0:0:0:100:3P.wav
448,192,8137,1,0,0:0:0:0:
320,192,8351,128,0,8565:0:0:0:100:3P.wav
64,192,8565,1,0,0:0:0:100:3P.wav
448,192,8565,1,0,0:0:0:100:FP.wav
192,192,8780,1,0,0:0:0:100:3P.wav
320,192,8994,1,0,0:0:0:100:3P.wav
448,192,8994,128,0,9208:0:0:0:100:FR.wav
64,192,9208,1,0,0:0:0:100:FT.wav
192,192,9422,1,0,0:0:0:100:3P.wav
320,192,9422,1,0,0:0:0:100:FU.wav
448,192,9637,1,0,0:0:0:100:FV.wav
64,192,9851,1,0,0:0:0:100:3P.wav
320,192,9851,1,0,0:0:0:100:FW.wav
192,192,10065,128,0,10280:0:0:0:100:FX.wav
64,192,10280,1,0,0:0:0:100:3P.wav
320,192,10280,1,0,0:0:0:100:FZ.wav
448,192,10494,1,0,0:0:0:100:3P.wav
320,192,10601,1,0,0:0:0:100:3P.wav
64,192,10708,1,0,0:0:0:100:3P.wav
192,192,10708,128,0,10922:0:0:0:100:G0.wav
448,192,10922,1,0,0:0:0:100:G2.wav
64,192,11137,1,0,0:0:0:100:3P.wav
320,192,11137,1,0,0:0:0:0:
448,192,11351,1,0,0:0:0:0:
64,192,11565,1,0,0:0:0:100:3P.wav
192,192,11565,1,0,0:0:0:0:
320,192,11780,128,0,11994:0:0:0:100:G6.wav
64,192,11994,1,0,0:0:0:100:3P.wav
448,192,11994,1,0,0:0:0:100:G8.wav
192,192,12208,1,0,0:0:0:100:3P.wav
320,192,12422,1,0,0:0:0:100:3P.wav
448,192,12422,1,0,0:0:0:100:GA.wav
192,192,12637,1,0,0:0:0:100:3P.wav
448,192,12851,1,0,0:0:0:100:GB.wav
64,192,12851,1,0,0:0:0:100:3P.wav
192,192,13065,1,0,0:0:0:100:3P.wav
320,192,13280,1,0,0:0:0:100:3P.wav
448,192,13280,128,0,14137:0:0:0:100:GD.wav
64,192,13708,1,0,0:0:0:100:28.wav
192,192,13708,1,0,0:0:0:100:GE.wav
320,192,13922,1,0,0:0:0:100:GF.wav
64,192,14137,1,4,0:0:0:0:
192,192,14137,1,0,0:0:0:100:3P.wav
320,192,14351,1,0,0:0:0:0:
64,192,14565,1,0,0:0:0:100:3P.wav
448,192,14565,1,0,0:0:0:0:
192,192,14780,1,0,0:0:0:0:
64,192,14994,1,0,0:0:0:100:3P.wav
320,192,14994,1,0,0:0:0:0:
448,192,15208,128,0,15422:0:0:0:100:3P.wav
64,192,15422,1,0,0:0:0:100:3P.wav
192,192,15422,1,0,0:0:0:100:FP.wav
320,192,15637,1,0,0:0:0:100:3P.wav
64,192,15851,128,0,16065:0:0:0:100:3P.wav
192,192,15851,1,0,0:0:0:100:FR.wav
448,192,16065,1,0,0:0:0:100:FT.wav
192,192,16280,1,0,0:0:0:100:3P.wav
320,192,16280,1,0,0:0:0:100:FU.wav
64,192,16494,1,0,0:0:0:100:FV.wav
320,192,16708,1,0,0:0:0:100:3P.wav
448,192,16708,1,0,0:0:0:100:FW.wav
192,192,16922,1,0,0:0:0:100:FX.wav
320,192,17030,1,0,0:0:0:100:FY.wav
64,192,17137,128,0,17565:0:0:0:100:3P.wav
448,192,17137,1,0,0:0:0:100:FZ.wav
320,192,17565,1,0,0:0:0:100:3P.wav
448,192,17565,128,0,17780:0:0:0:100:G0.wav
192,192,17780,1,0,0:0:0:100:G2.wav
64,192,17994,1,0,0:0:0:100:3P.wav
320,192,17994,1,0,0:0:0:0:
448,192,18208,1,0,0:0:0:0:
192,192,18422,1,0,0:0:0:100:3P.wav
320,192,18422,1,0,0:0:0:100:G5.wav
448,192,18637,128,0,18851:0:0:0:100:G6.wav
64,192,18851,1,0,0:0:0:100:3P.wav
192,192,18851,1,0,0:0:0:100:GG.wav
320,192,19065,128,0,19280:0:0:0:100:3P.wav
64,192,19280,1,0,0:0:0:100:3P.wav
448,192,19280,1,0,0:0:0:100:GJ.wav
192,192,19494,128,0,19708:0:0:0:100:3P.wav
320,192,19708,1,0,0:0:0:100:3P.wav
448,192,19708,1,0,0:0:0:100:GM.wav
448,192,19922,1,0,0:0:0:100:3P.wav
64,192,20137,128,0,20565:0:0:0:100:3P.wav
192,192,20137,1,0,0:0:0:100:GO.wav
320,192,20565,1,0,0:0:0:100:28.wav
448,192,20565,1,0,0:0:0:0:
192,192,20994,1,0,0:0:0:100:3O.wav
448,192,21208,1,0,0:0:0:100:EQ.wav
320,192,21315,1,0,0:0:0:100:ER.wav
192,192,21422,1,0,0:0:0:100:3O.wav
64,192,21637,1,0,0:0:0:100:EQ.wav
448,192,21744,1,0,0:0:0:100:ER.wav
320,192,21851,1,0,0:0:0:100:3O.wav
64,192,22065,1,0,0:0:0:100:EL.wav
192,192,22172,1,0,0:0:0:100:EQ.wav
320,192,22280,1,0,0:0:0:100:3O.wav
448,192,22494,1,0,0:0:0:100:EQ.wav
64,192,22708,1,0,0:0:0:100:3O.wav
192,192,22922,1,0,0:0:0:100:EJ.wav
320,192,23030,1,0,0:0:0:100:ER.wav
448,192,23137,1,0,0:0:0:100:3O.wav
64,192,23351,1,0,0:0:0:100:ER.wav
320,192,23565,1,0,0:0:0:100:3P.wav
448,192,23565,1,0,0:0:0:100:EU.wav
64,192,23672,1,0,0:0:0:0:
320,192,23887,1,0,0:0:0:100:3P.wav
448,192,23887,1,0,0:0:0:0:
64,192,23994,1,2,0:0:0:0:
320,192,24208,1,2,0:0:0:0:
448,192,24208,1,0,0:0:0:100:0O.wav
64,192,24422,1,4,0:0:0:0:
192,192,24422,1,2,0:0:0:0:
64,192,24637,1,8,0:0:0:0:
448,192,24851,1,2,0:0:0:0:
192,192,24958,1,2,0:0:0:0:
448,192,25065,1,2,0:0:0:0:
64,192,25280,1,2,0:0:0:0:
192,192,25280,1,4,0:0:0:0:
64,192,25494,1,0,0:0:0:100:3O.wav
192,192,25494,1,0,0:0:0:0:
448,192,25601,1,2,0:0:0:0:
64,192,25815,1,0,0:0:0:100:3O.wav
192,192,25815,1,0,0:0:0:0:
320,192,25922,1,2,0:0:0:0:
64,192,26137,1,2,0:0:0:0:
192,192,26137,1,0,0:0:0:70:cymbal.wav
320,192,26351,1,8,0:0:0:0:
448,192,26351,1,0,0:0:0:0:
64,192,26458,1,2,0:0:0:0:
320,192,26672,1,8,0:0:0:0:
448,192,26672,1,0,0:0:0:0:
192,192,26780,1,2,0:0:0:0:
320,192,26994,1,2,0:0:0:0:
448,192,26994,1,4,0:0:0:0:
64,192,27208,1,8,0:0:0:0:
448,192,27422,1,6,0:0:0:0:
320,192,27530,1,0,0:0:0:0:
192,192,27637,1,8,0:0:0:0:
64,192,27744,1,0,0:0:0:0:
320,192,27851,1,4,0:0:0:0:
448,192,27851,1,2,0:0:0:0:
448,192,28065,1,12,0:0:0:0:
64,192,28280,1,2,0:0:0:0:
320,192,28387,1,2,0:0:0:0:
64,192,28494,1,2,0:0:0:0:
192,192,28494,1,0,0:0:0:70:cymbal.wav
320,192,28708,1,2,0:0:0:0:
448,192,28708,128,0,28922:0:0:0:70:cymbal.wav
64,192,28922,128,8,29137:0:0:0:0:
192,192,29137,128,0,29351:0:0:0:0:
320,192,29351,128,2,29565:0:0:0:0:
64,192,29565,1,2,0:0:0:0:
192,192,29565,1,4,0:0:0:0:
448,192,29780,1,0,0:0:0:100:3O.wav
64,192,29994,1,2,0:0:0:0:
192,192,29994,1,4,0:0:0:0:
448,192,30208,1,4,0:0:0:0:
64,192,30422,1,2,0:0:0:0:
192,192,30422,1,4,0:0:0:0:
320,192,30530,1,2,0:0:0:0:
192,192,30637,128,2,30851:0:0:0:0:
320,192,30851,1,4,0:0:0:0:
448,192,30851,128,2,31065:0:0:0:0:
64,192,31065,128,0,31280:0:0:0:0:
320,192,31280,1,4,0:0:0:0:
448,192,31280,1,2,0:0:0:0:
448,192,31494,1,8,0:0:0:0:
64,192,31708,1,2,0:0:0:0:
320,192,31815,1,2,0:0:0:0:
64,192,31922,1,2,0:0:0:0:
192,192,31922,1,0,0:0:0:70:cymbal.wav
320,192,32137,1,2,0:0:0:0:
448,192,32137,128,4,32351:0:0:0:0:
64,192,32351,128,8,32565:0:0:0:0:
320,192,32565,128,2,32780:0:0:0:0:
192,192,32780,128,8,32994:0:0:0:0:
320,192,32994,1,2,0:0:0:0:
448,192,32994,1,0,0:0:0:70:cymbal.wav
64,192,33208,1,8,0:0:0:0:
320,192,33315,1,2,0:0:0:0:
448,192,33315,1,0,0:0:0:70:cymbal.wav
64,192,33530,1,8,0:0:0:0:
320,192,33637,1,2,0:0:0:0:
448,192,33637,1,0,0:0:0:70:cymbal.wav
192,192,33744,1,2,0:0:0:0:
448,192,33851,1,6,0:0:0:0:
64,192,34065,1,8,0:0:0:0:
192,192,34065,1,0,0:0:0:0:
320,192,34280,1,6,0:0:0:0:
64,192,34494,1,8,0:0:0:0:
192,192,34494,1,0,0:0:0:0:
320,192,34708,1,4,0:0:0:0:
448,192,34708,128,2,35137:0:0:0:0:
64,192,35137,1,2,0:0:0:0:
64,192,35351,1,2,0:0:0:0:
320,192,35565,1,2,0:0:0:0:
448,192,35565,1,0,0:0:0:70:cymbal.wav
448,192,35780,1,2,0:0:0:0:
192,192,35887,1,2,0:0:0:0:
320,192,35994,1,2,0:0:0:0:
448,192,35994,1,0,0:0:0:70:cymbal.wav
64,192,36208,1,2,0:0:0:0:
192,192,36208,1,0,0:0:0:70:cymbal.wav
320,192,36422,1,2,0:0:0:0:
448,192,36422,1,0,0:0:0:70:cymbal.wav
64,192,36530,1,2,0:0:0:0:
192,192,36637,1,8,0:0:0:0:
320,192,36744,1,2,0:0:0:0:
448,192,36851,1,2,0:0:0:0:
64,192,37065,1,2,0:0:0:0:
192,192,37065,1,0,0:0:0:70:cymbal.wav
320,192,37280,1,2,0:0:0:0:
448,192,37280,128,4,37708:0:0:0:0:
64,192,37708,1,0,0:0:0:100:28.wav
192,192,37708,1,0,0:0:0:0:
64,192,38137,1,0,0:0:0:100:05.wav
320,192,38351,1,0,0:0:0:100:EQ.wav
192,192,38458,1,0,0:0:0:100:ER.wav
64,192,38565,1,0,0:0:0:100:EQ.wav
192,192,38780,1,0,0:0:0:100:EQ.wav
320,192,38887,1,0,0:0:0:100:ER.wav
448,192,38994,1,0,0:0:0:100:EQ.wav
64,192,39208,1,0,0:0:0:100:EQ.wav
192,192,39315,1,0,0:0:0:100:ER.wav
320,192,39422,1,0,0:0:0:100:EQ.wav
448,192,39637,1,0,0:0:0:100:EQ.wav
320,192,39744,1,0,0:0:0:100:ER.wav
64,192,39851,1,2,0:0:0:0:
192,192,39851,1,0,0:0:0:70:cymbal.wav
448,192,40065,1,2,0:0:0:0:
320,192,40172,1,2,0:0:0:0:
192,192,40280,1,2,0:0:0:0:
320,192,40387,1,2,0:0:0:0:
64,192,40494,1,2,0:0:0:0:
192,192,40601,1,2,0:0:0:0:
320,192,40708,1,2,0:0:0:0:
448,192,40708,1,0,0:0:0:70:cymbal.wav
64,192,40922,128,0,41137:0:0:0:100:ID.wav
192,192,41137,128,0,41351:0:0:0:100:IE.wav
320,192,41351,128,0,41565:0:0:0:100:ID.wav
64,192,41565,1,2,0:0:0:0:
448,192,41565,1,4,0:0:0:0:
192,192,41887,1,0,0:0:0:0:
448,192,41994,1,0,0:0:0:0:
64,192,42101,1,0,0:0:0:0:
320,192,42208,1,0,0:0:0:0:
192,192,42315,1,0,0:0:0:0:
448,192,42422,1,0,0:0:0:0:
64,192,42530,1,0,0:0:0:0:
320,192,42637,1,0,0:0:0:0:
192,192,42744,1,0,0:0:0:0:
448,192,42851,1,0,0:0:0:100:28.wav
64,192,43065,1,0,0:0:0:0:
320,192,43280,1,2,0:0:0:0:
448,192,43280,128,4,43494:0:0:0:0:
64,192,43494,1,8,0:0:0:0:
192,192,43494,128,0,43708:0:0:0:0:
448,192,43708,128,2,43922:0:0:0:0:
64,192,43922,1,8,0:0:0:0:
320,192,43922,128,0,44137:0:0:0:0:
192,192,44137,128,2,44351:0:0:0:0:
64,192,44351,1,8,0:0:0:0:
448,192,44351,1,0,0:0:0:0:
320,192,44458,1,0,0:0:0:0:
448,192,44565,128,2,44780:0:0:0:0:
64,192,44780,128,8,44994:0:0:0:0:
192,192,44780,1,0,0:0:0:0:
320,192,44994,128,2,45208:0:0:0:0:
64,192,45208,1,8,0:0:0:0:
448,192,45208,1,0,0:0:0:0:
192,192,45315,1,0,0:0:0:0:
64,192,45422,128,2,45637:0:0:0:0:
320,192,45637,128,8,45851:0:0:0:0:
448,192,45637,1,0,0:0:0:0:
64,192,45851,128,2,46065:0:0:0:0:
320,192,46065,128,8,46280:0:0:0:0:
448,192,46065,1,0,0:0:0:0:
192,192,46280,128,2,46494:0:0:0:0:
64,192,46494,1,8,0:0:0:0:
448,192,46494,128,0,46708:0:0:0:0:
320,192,46708,128,2,46922:0:0:0:0:
64,192,46922,1,8,0:0:0:0:
448,192,46922,1,0,0:0:0:0:
192,192,47030,1,0,0:0:0:0:
64,192,47137,128,2,47351:0:0:0:0:
320,192,47351,1,8,0:0:0:0:
448,192,47351,128,0,47565:0:0:0:0:
192,192,47565,128,2,47994:0:0:0:0:
320,192,47780,1,8,0:0:0:0:
448,192,47780,1,0,0:0:0:0:
64,192,47994,128,2,48208:0:0:0:0:
320,192,48208,128,8,48422:0:0:0:0:
448,192,48208,1,0,0:0:0:0:
64,192,48422,1,4,0:0:0:0:
192,192,48422,128,2,48637:0:0:0:0:
320,192,48637,1,8,0:0:0:0:
448,192,48637,1,0,0:0:0:0:
64,192,48744,1,0,0:0:0:0:
448,192,48851,128,2,49065:0:0:0:0:
64,192,49065,1,8,0:0:0:0:
192,192,49065,128,0,49280:0:0:0:0:
448,192,49280,128,2,49494:0:0:0:0:
64,192,49494,1,8,0:0:0:0:
192,192,49494,128,0,49708:0:0:0:0:
320,192,49708,128,2,49922:0:0:0:0:
64,192,49922,128,8,50137:0:0:0:0:
448,192,49922,1,0,0:0:0:0:
192,192,50137,1,2,0:0:0:0:
320,192,50351,1,8,0:0:0:0:
448,192,50351,128,0,50565:0:0:0:0:
192,192,50565,128,2,50780:0:0:0:0:
64,192,50780,1,8,0:0:0:0:
320,192,50780,128,0,50994:0:0:0:0:
64,192,50994,128,2,51208:0:0:0:0:
192,192,51208,1,8,0:0:0:0:
448,192,51208,1,0,0:0:0:0:
320,192,51315,1,0,0:0:0:0:
448,192,51422,128,2,51637:0:0:0:0:
64,192,51637,1,8,0:0:0:0:
320,192,51637,128,0,51851:0:0:0:0:
192,192,51851,128,2,52065:0:0:0:0:
64,192,52065,1,8,0:0:0:0:
448,192,52065,1,0,0:0:0:0:
320,192,52172,1,0,0:0:0:0:
64,192,52280,128,2,52494:0:0:0:0:
320,192,52494,128,8,52708:0:0:0:0:
448,192,52494,1,0,0:0:0:0:
64,192,52708,128,2,52922:0:0:0:0:
320,192,52922,128,8,53137:0:0:0:0:
448,192,52922,1,0,0:0:0:0:
192,192,53137,128,2,53351:0:0:0:0:
64,192,53351,1,8,0:0:0:0:
448,192,53351,128,0,53565:0:0:0:0:
320,192,53565,128,2,53780:0:0:0:0:
64,192,53780,1,8,0:0:0:0:
448,192,53780,1,0,0:0:0:0:
192,192,53887,1,0,0:0:0:0:
64,192,53994,128,2,54208:0:0:0:0:
320,192,54208,128,8,54422:0:0:0:0:
448,192,54208,1,0,0:0:0:0:
64,192,54422,128,2,54637:0:0:0:0:
320,192,54637,1,8,0:0:0:0:
448,192,54637,1,0,0:0:0:0:
192,192,54851,1,2,0:0:0:0:
64,192,55065,1,8,0:0:0:0:
448,192,55065,1,0,0:0:0:0:
320,192,55280,1,2,0:0:0:0:
448,192,55280,1,0,0:0:0:70:cymbal.wav
64,192,55494,128,0,55708:0:0:0:0:
192,192,55708,1,0,0:0:0:0:
320,192,55922,1,0,0:0:0:0:
448,192,56137,128,0,56565:0:0:0:0:
64,192,56351,1,0,0:0:0:0:
320,192,56565,128,0,56994:0:0:0:0:
64,192,56994,1,2,0:0:0:0:
192,192,56994,1,0,0:0:0:70:cymbal.wav
448,192,57208,1,2,0:0:0:0:
192,192,57315,1,2,0:0:0:0:
448,192,57422,1,2,0:0:0:0:
192,192,57530,1,2,0:0:0:0:
320,192,57637,1,2,0:0:0:0:
448,192,57744,1,2,0:0:0:0:
64,192,57851,1,2,0:0:0:0:
320,192,57958,1,2,0:0:0:0:
64,192,58065,1,2,0:0:0:0:
320,192,58172,1,2,0:0:0:0:
192,192,58280,1,2,0:0:0:0:
64,192,58387,1,2,0:0:0:0:
448,192,58494,1,2,0:0:0:0:
320,192,58601,1,2,0:0:0:0:
64,192,58708,1,10,0:0:0:0:
320,192,58815,1,2,0:0:0:0:
192,192,58922,1,10,0:0:0:0:
448,192,59030,1,2,0:0:0:0:
64,192,59137,1,10,0:0:0:0:
320,192,59137,1,0,0:0:0:70:cymbal.wav
192,192,59351,1,10,0:0:0:0:
448,192,59351,1,0,0:0:0:70:cymbal.wav
320,192,59565,1,2,0:0:0:0:
448,192,59565,1,0,0:0:0:0:
64,192,59780,1,0,0:0:0:100:K5.wav
192,192,59887,1,0,0:0:0:100:K6.wav
320,192,59994,1,0,0:0:0:100:K7.wav
192,192,60208,1,0,0:0:0:100:K9.wav
320,192,60315,1,0,0:0:0:100:KA.wav
448,192,60422,1,0,0:0:0:100:KL.wav
64,192,60644,1,0,0:0:0:100:KL.wav
192,192,60759,1,0,0:0:0:100:KM.wav
320,192,60874,1,0,0:0:0:100:KN.wav
448,192,61116,1,0,0:0:0:100:KN.wav
192,192,61243,1,0,0:0:0:100:KO.wav
320,192,61371,1,6,0:0:0:0:
448,192,61371,1,0,0:0:0:100:KZ.wav
64,192,61593,1,0,0:0:0:100:L0.wav
192,192,61704,1,0,0:0:0:100:L1.wav
320,192,61815,1,0,0:0:0:100:L0.wav
448,192,62037,1,0,0:0:0:100:L1.wav
64,192,62259,1,0,0:0:0:100:KZ.wav
448,192,62482,1,0,0:0:0:100:L1.wav
192,192,62704,1,0,0:0:0:100:L0.wav
320,192,62926,1,0,0:0:0:100:L1.wav
192,192,63148,1,0,0:0:0:100:KZ.wav
448,192,63371,1,0,0:0:0:100:L0.wav
320,192,63482,1,0,0:0:0:100:L1.wav
192,192,63593,1,0,0:0:0:100:L0.wav
64,192,63815,1,0,0:0:0:100:L1.wav
448,192,64037,1,0,0:0:0:100:L2.wav
64,192,64482,1,0,0:0:0:100:L2.wav
320,192,64926,1,0,0:0:0:100:LD.wav
64,192,65148,1,0,0:0:0:100:LE.wav
192,192,65259,1,0,0:0:0:100:LF.wav
320,192,65370,1,0,0:0:0:100:LE.wav
448,192,65593,1,0,0:0:0:100:LF.wav
192,192,65815,1,0,0:0:0:100:LD.wav
448,192,66037,1,0,0:0:0:100:LF.wav
64,192,66259,1,0,0:0:0:100:LE.wav
320,192,66482,1,0,0:0:0:100:LF.wav
192,192,66704,1,0,0:0:0:100:LD.wav
448,192,66926,1,0,0:0:0:100:LE.wav
320,192,67037,1,0,0:0:0:100:LF.wav
192,192,67148,1,0,0:0:0:100:LE.wav
64,192,67371,1,0,0:0:0:100:LF.wav
448,192,67593,1,0,0:0:0:100:LG.wav
64,192,68037,1,0,0:0:0:100:LE.wav
320,192,68482,1,4,0:0:0:0:
448,192,68482,1,2,0:0:0:0:
64,192,68910,1,2,0:0:0:0:
192,192,68910,1,4,0:0:0:0:
320,192,69339,1,4,0:0:0:0:
448,192,69339,1,2,0:0:0:0:
64,192,69767,1,2,0:0:0:0:
192,192,69767,1,4,0:0:0:0:
192,192,70196,1,4,0:0:0:0:
448,192,70196,1,2,0:0:0:0:
64,192,70624,1,2,0:0:0:0:
320,192,70624,1,4,0:0:0:0:
192,192,71053,1,4,0:0:0:0:
448,192,71053,1,2,0:0:0:0:
64,192,71482,1,2,0:0:0:0:
320,192,71482,1,4,0:0:0:0:
448,192,71910,1,2,0:0:0:0:
64,192,72017,1,2,0:0:0:0:
192,192,72017,1,0,0:0:0:70:cymbal.wav
448,192,72232,1,2,0:0:0:0:
64,192,72339,1,2,0:0:0:0:
192,192,72339,1,0,0:0:0:70:cymbal.wav
320,192,72553,1,2,0:0:0:0:
64,192,72660,1,2,0:0:0:0:
192,192,72660,1,0,0:0:0:70:cymbal.wav
320,192,72878,1,2,0:0:0:0:
64,192,72989,1,2,0:0:0:0:
192,192,72989,1,0,0:0:0:70:cymbal.wav
320,192,73211,1,2,0:0:0:0:
448,192,73211,1,4,0:0:0:0:
64,192,73433,1,2,0:0:0:0:
192,192,73433,1,4,0:0:0:0:
320,192,73655,1,2,0:0:0:0:
448,192,73655,1,0,0:0:0:70:cymbal.wav
192,192,73770,1,2,0:0:0:0:
320,192,74001,1,2,0:0:0:0:
448,192,74001,1,0,0:0:0:70:cymbal.wav
192,192,74116,1,2,0:0:0:0:
320,192,74347,1,2,0:0:0:0:
448,192,74347,1,0,0:0:0:70:cymbal.wav
64,192,74462,1,2,0:0:0:0:
320,192,74699,1,2,0:0:0:0:
448,192,74699,1,0,0:0:0:70:cymbal.wav
64,192,74820,1,2,0:0:0:0:
192,192,75062,1,2,0:0:0:0:
448,192,75187,1,2,0:0:0:0:
192,192,75312,1,2,0:0:0:0:
448,192,75437,1,2,0:0:0:0:
64,192,75562,1,6,0:0:0:0:
192,192,75562,1,0,0:0:0:100:3P.wav
320,192,75776,1,0,0:0:0:0:
192,192,75990,1,0,0:0:0:100:3P.wav
448,192,75990,1,0,0:0:0:0:
320,192,76204,1,0,0:0:0:0:
64,192,76419,1,0,0:0:0:100:3P.wav
448,192,76419,1,0,0:0:0:0:
192,192,76633,128,0,76847:0:0:0:100:3P.wav
320,192,76847,1,0,0:0:0:100:3P.wav
448,192,76847,1,0,0:0:0:100:FP.wav
192,192,77062,1,0,0:0:0:100:3P.wav
64,192,77276,128,0,77490:0:0:0:100:3P.wav
448,192,77276,1,0,0:0:0:100:FR.wav
192,192,77490,1,0,0:0:0:100:FT.wav
320,192,77704,1,0,0:0:0:100:3P.wav
448,192,77704,1,0,0:0:0:100:FU.wav
192,192,77919,1,0,0:0:0:100:FV.wav
64,192,78133,1,0,0:0:0:100:3P.wav
448,192,78133,1,0,0:0:0:100:FW.wav
192,192,78347,1,0,0:0:0:100:FX.wav
320,192,78454,1,0,0:0:0:100:FY.wav
64,192,78562,1,0,0:0:0:100:3P.wav
448,192,78562,128,0,78990:0:0:0:100:FZ.wav
192,192,78990,1,0,0:0:0:100:3P.wav
320,192,78990,128,0,79204:0:0:0:100:G0.wav
64,192,79204,1,0,0:0:0:100:G2.wav
192,192,79419,1,0,0:0:0:100:3P.wav
448,192,79419,1,0,0:0:0:0:
64,192,79633,1,0,0:0:0:0:
320,192,79847,1,0,0:0:0:100:3P.wav
448,192,79847,1,0,0:0:0:0:
192,192,80062,128,0,80276:0:0:0:100:G6.wav
64,192,80276,1,0,0:0:0:100:3P.wav
448,192,80276,1,0,0:0:0:100:G8.wav
320,192,80490,1,0,0:0:0:100:3P.wav
192,192,80704,1,0,0:0:0:100:GA.wav
64,192,80704,1,0,0:0:0:100:3P.wav
448,192,80919,1,0,0:0:0:100:3P.wav
192,192,81133,1,0,0:0:0:100:3P.wav
320,192,81133,1,0,0:0:0:100:GB.wav
64,192,81347,1,0,0:0:0:100:3P.wav
192,192,81561,1,0,0:0:0:100:3P.wav
448,192,81561,128,0,81990:0:0:0:100:GE.wav
64,192,81990,1,0,0:0:0:100:GE.wav
192,192,82097,1,0,0:0:0:0:
320,192,82204,1,0,0:0:0:100:GF.wav
448,192,82311,1,0,0:0:0:0:
192,192,82419,1,0,0:0:0:100:3P.wav
64,192,82419,1,4,0:0:0:0:
320,192,82633,1,0,0:0:0:0:
64,192,82847,1,0,0:0:0:100:3P.wav
448,192,82847,1,0,0:0:0:0:
192,192,83061,1,0,0:0:0:0:
448,192,83276,1,0,0:0:0:0:
320,192,83276,1,0,0:0:0:100:3P.wav
64,192,83490,128,0,83704:0:0:0:100:3P.wav
448,192,83704,1,0,0:0:0:100:FP.wav
192,192,83704,1,0,0:0:0:100:3P.wav
320,192,83919,1,0,0:0:0:100:3P.wav
448,192,84133,128,0,84347:0:0:0:100:3P.wav
64,192,84133,1,0,0:0:0:100:FR.wav
320,192,84347,1,0,0:0:0:100:FT.wav
192,192,84561,1,0,0:0:0:100:FU.wav
64,192,84561,1,0,0:0:0:100:3P.wav
320,192,84776,1,0,0:0:0:100:FV.wav
64,192,84990,1,0,0:0:0:100:3P.wav
448,192,84990,1,0,0:0:0:100:FW.wav
192,192,85204,1,0,0:0:0:100:FX.wav
64,192,85419,128,0,85847:0:0:0:100:3P.wav
320,192,85419,1,0,0:0:0:100:FZ.wav
192,192,85847,1,0,0:0:0:100:3P.wav
448,192,85847,128,0,86061:0:0:0:100:G0.wav
64,192,86061,1,0,0:0:0:100:G2.wav
448,192,86276,1,0,0:0:0:0:
320,192,86276,1,0,0:0:0:100:3P.wav
192,192,86490,1,0,0:0:0:0:
64,192,86704,1,0,0:0:0:100:3P.wav
320,192,86704,1,0,0:0:0:100:G5.wav
448,192,86919,128,0,87133:0:0:0:100:G6.wav
320,192,87133,1,0,0:0:0:100:GG.wav
64,192,87133,1,0,0:0:0:100:3P.wav
192,192,87347,128,0,87561:0:0:0:100:3P.wav
64,192,87561,1,0,0:0:0:100:3P.wav
448,192,87561,1,0,0:0:0:100:GJ.wav
320,192,87776,128,0,87990:0:0:0:100:3P.wav
64,192,87990,1,0,0:0:0:100:GM.wav
192,192,87990,1,0,0:0:0:100:3P.wav
64,192,88204,1,0,0:0:0:100:3P.wav
320,192,88419,1,0,0:0:0:100:3P.wav
448,192,88419,128,0,89276:0:0:0:100:GO.wav
64,192,88847,1,0,0:0:0:0:
320,192,89061,1,0,0:0:0:0:
192,192,89276,1,0,0:0:0:100:3P.wav
64,192,89276,128,4,89704:0:0:0:0:
320,192,89704,1,0,0:0:0:100:3P.wav
448,192,89704,1,0,0:0:0:100:O0.wav
192,192,89919,1,0,0:0:0:100:O1.wav
64,192,90133,128,4,90561:0:0:0:0:
320,192,90133,1,0,0:0:0:100:3P.wav
192,192,90561,1,0,0:0:0:100:3P.wav
448,192,90561,1,0,0:0:0:0:
320,192,90776,1,0,0:0:0:100:3P.wav
64,192,90990,1,4,0:0:0:0:
448,192,90990,128,0,91419:0:0:0:100:3P.wav
64,192,91419,128,4,91847:0:0:0:0:
192,192,91419,1,0,0:0:0:100:3P.wav
448,192,91633,1,0,0:0:0:100:OC.wav
192,192,91847,1,4,0:0:0:0:
320,192,91847,128,0,92276:0:0:0:100:3P.wav
64,192,92276,128,0,92490:0:0:0:100:OO.wav
192,192,92490,128,0,92704:0:0:0:100:OP.wav
320,192,92704,1,2,0:0:0:0:
448,192,92704,1,0,0:0:0:70:cymbal.wav
64,192,92919,1,2,0:0:0:0:
320,192,93026,1,2,0:0:0:0:
64,192,93133,1,2,0:0:0:0:
192,192,93133,1,4,0:0:0:0:
64,192,93347,1,2,0:0:0:0:
192,192,93347,1,4,0:0:0:0:
320,192,93561,1,2,0:0:0:0:
448,192,93561,1,4,0:0:0:0:
192,192,93669,1,2,0:0:0:0:
448,192,93776,1,2,0:0:0:0:
64,192,93883,1,2,0:0:0:0:
320,192,93990,1,2,0:0:0:0:
192,192,94097,1,2,0:0:0:0:
448,192,94204,1,2,0:0:0:0:
320,192,94311,1,2,0:0:0:0:
64,192,94419,1,2,0:0:0:0:
192,192,94419,1,4,0:0:0:0:
192,192,94633,1,8,0:0:0:0:
320,192,94847,1,2,0:0:0:0:
64,192,94954,1,2,0:0:0:0:
320,192,95061,1,2,0:0:0:0:
448,192,95276,1,6,0:0:0:0:
192,192,95383,1,0,0:0:0:0:
320,192,95490,1,0,0:0:0:0:
64,192,95597,1,0,0:0:0:0:
192,192,95704,1,0,0:0:0:0:
320,192,95811,1,0,0:0:0:0:
448,192,95919,1,0,0:0:0:0:
320,192,96026,1,0,0:0:0:0:
64,192,96133,1,2,0:0:0:0:
192,192,96133,1,0,0:0:0:70:cymbal.wav
448,192,96347,1,8,0:0:0:0:
64,192,96454,1,2,0:0:0:0:
192,192,96454,1,0,0:0:0:70:cymbal.wav
448,192,96669,1,8,0:0:0:0:
64,192,96776,1,2,0:0:0:0:
192,192,96776,1,0,0:0:0:70:cymbal.wav
320,192,96990,1,2,0:0:0:0:
448,192,96990,128,4,97204:0:0:0:0:
64,192,97204,1,0,0:0:0:0:
320,192,97419,1,2,0:0:0:0:
448,192,97419,128,4,97633:0:0:0:0:
64,192,97633,1,2,0:0:0:0:
192,192,97740,1,0,0:0:0:0:
320,192,97847,1,4,0:0:0:0:
448,192,97847,1,2,0:0:0:0:
448,192,98061,1,12,0:0:0:0:
64,192,98276,1,2,0:0:0:0:
320,192,98383,1,2,0:0:0:0:
64,192,98490,1,2,0:0:0:0:
192,192,98490,1,0,0:0:0:70:cymbal.wav
448,192,98704,1,2,0:0:0:0:
320,192,98811,128,0,99026:0:0:0:0:
64,192,99026,1,0,0:0:0:0:
192,192,99133,128,0,99347:0:0:0:0:
448,192,99347,1,0,0:0:0:0:
320,192,99454,1,0,0:0:0:0:
64,192,99561,1,6,0:0:0:0:
320,192,99776,1,0,0:0:0:100:3O.wav
448,192,99776,1,0,0:0:0:0:
192,192,99990,1,6,0:0:0:0:
320,192,100204,1,4,0:0:0:0:
448,192,100204,1,0,0:0:0:100:3O.wav
64,192,100419,128,2,100633:0:0:0:0:
192,192,100419,1,4,0:0:0:0:
320,192,100633,128,2,100847:0:0:0:0:
64,192,100847,1,4,0:0:0:0:
448,192,100847,1,2,0:0:0:0:
320,192,101061,1,0,0:0:0:0:
64,192,101276,1,4,0:0:0:0:
192,192,101276,1,2,0:0:0:0:
64,192,101490,1,8,0:0:0:0:
448,192,101704,1,2,0:0:0:0:
192,192,101811,1,2,0:0:0:0:
320,192,101919,1,8,0:0:0:0:
448,192,101919,1,0,0:0:0:70:cymbal.wav
64,192,102133,128,6,102347:0:0:0:0:
192,192,102347,128,8,102561:0:0:0:0:
448,192,102347,1,0,0:0:0:70:cymbal.wav
320,192,102561,128,2,102776:0:0:0:0:
64,192,102776,1,8,0:0:0:0:
448,192,102776,128,0,102990:0:0:0:70:cymbal.wav
64,192,102990,128,2,103633:0:0:0:0:
448,192,103633,1,2,0:0:0:0:
192,192,103740,1,2,0:0:0:0:
320,192,103847,1,4,0:0:0:0:
448,192,103847,1,2,0:0:0:0:
320,192,104061,1,8,0:0:0:0:
448,192,104061,1,0,0:0:0:0:
64,192,104169,1,2,0:0:0:0:
320,192,104383,1,8,0:0:0:0:
448,192,104383,1,0,0:0:0:0:
64,192,104490,1,2,0:0:0:0:
192,192,104704,1,2,0:0:0:0:
448,192,104704,128,4,105133:0:0:0:0:
320,192,105133,128,2,105561:0:0:0:0:
64,192,105561,1,2,0:0:0:0:
192,192,105561,1,0,0:0:0:70:cymbal.wav
448,192,105776,1,2,0:0:0:0:
192,192,105883,1,2,0:0:0:0:
320,192,105990,1,2,0:0:0:0:
448,192,105990,1,0,0:0:0:70:cymbal.wav
64,192,106204,1,2,0:0:0:0:
192,192,106204,1,0,0:0:0:70:cymbal.wav
320,192,106419,1,2,0:0:0:0:
64,192,106526,1,2,0:0:0:0:
448,192,106633,1,2,0:0:0:0:
64,192,106740,1,2,0:0:0:0:
320,192,106847,1,2,0:0:0:0:
448,192,106847,1,0,0:0:0:70:cymbal.wav
64,192,107061,1,2,0:0:0:0:
448,192,107061,1,0,0:0:0:70:cymbal.wav
64,192,107276,128,2,107704:0:0:0:0:
192,192,107276,1,4,0:0:0:0:
320,192,107704,1,0,0:0:0:100:28.wav
448,192,107704,1,0,0:0:0:0:
64,192,108133,1,0,0:0:0:100:EI.wav
448,192,108347,1,0,0:0:0:100:EJ.wav
320,192,108454,1,0,0:0:0:100:EK.wav
192,192,108561,1,0,0:0:0:100:EL.wav
64,192,108776,1,0,0:0:0:100:EK.wav
192,192,108883,1,0,0:0:0:100:EL.wav
320,192,108990,1,0,0:0:0:100:EJ.wav
448,192,109204,1,0,0:0:0:100:EL.wav
320,192,109311,1,0,0:0:0:100:EJ.wav
192,192,109419,1,0,0:0:0:100:EK.wav
64,192,109633,1,0,0:0:0:100:EK.wav
192,192,109740,1,0,0:0:0:100:EJ.wav
320,192,109847,1,2,0:0:0:0:
448,192,109847,1,0,0:0:0:70:cymbal.wav
64,192,110061,1,2,0:0:0:0:
192,192,110169,1,2,0:0:0:0:
320,192,110276,1,2,0:0:0:0:
192,192,110383,1,2,0:0:0:0:
448,192,110490,1,2,0:0:0:0:
320,192,110597,1,0,0:0:0:0:
192,192,110704,1,2,0:0:0:0:
448,192,110919,1,2,0:0:0:0:
64,192,111026,1,2,0:0:0:0:
192,192,111133,1,0,0:0:0:0:
320,192,111240,1,2,0:0:0:0:
64,192,111347,1,2,0:0:0:0:
448,192,111454,1,0,0:0:0:0:
192,192,111561,1,2,0:0:0:0:
64,192,111776,1,2,0:0:0:0:
448,192,111883,1,2,0:0:0:0:
320,192,111990,1,2,0:0:0:0:
192,192,112097,1,2,0:0:0:0:
448,192,112204,1,2,0:0:0:0:
64,192,112311,1,2,0:0:0:0:
320,192,112419,1,2,0:0:0:0:
64,192,112633,128,0,112847:0:0:0:100:Q9.wav
192,192,112847,128,0,113061:0:0:0:100:QA.wav
320,192,113061,128,0,113276:0:0:0:100:Q9.wav
64,192,113276,1,2,0:0:0:0:
448,192,113276,1,4,0:0:0:0:
64,192,113597,1,0,0:0:0:0:
448,192,113704,1,0,0:0:0:0:
192,192,113811,1,0,0:0:0:0:
320,192,113919,1,0,0:0:0:0:
64,192,114026,1,0,0:0:0:0:
448,192,114133,1,0,0:0:0:0:
192,192,114240,1,0,0:0:0:0:
320,192,114347,1,0,0:0:0:0:
64,192,114454,1,0,0:0:0:0:
448,192,114561,1,0,0:0:0:100:28.wav
320,192,114776,1,0,0:0:0:0:
64,192,114990,128,4,115204:0:0:0:0:
192,192,114990,1,2,0:0:0:0:
320,192,115204,128,8,115419:0:0:0:0:
448,192,115204,1,0,0:0:0:0:
64,192,115419,128,2,115633:0:0:0:0:
192,192,115633,128,8,115847:0:0:0:0:
448,192,115633,1,0,0:0:0:0:
320,192,115847,128,2,116061:0:0:0:0:
64,192,116061,1,8,0:0:0:0:
448,192,116061,1,0,0:0:0:0:
192,192,116169,1,0,0:0:0:0:
64,192,116276,128,2,116490:0:0:0:0:
320,192,116490,1,8,0:0:0:0:
448,192,116490,128,0,116704:0:0:0:0:
192,192,116704,128,2,116919:0:0:0:0:
64,192,116919,1,8,0:0:0:0:
448,192,116919,1,0,0:0:0:0:
320,192,117026,1,0,0:0:0:0:
448,192,117133,128,2,117347:0:0:0:0:
64,192,117347,1,8,0:0:0:0:
192,192,117347,128,0,117561:0:0:0:0:
448,192,117561,128,2,117776:0:0:0:0:
64,192,117776,1,8,0:0:0:0:
192,192,117776,128,0,117990:0:0:0:0:
320,192,117990,128,2,118204:0:0:0:0:
64,192,118204,128,8,118419:0:0:0:0:
448,192,118204,1,0,0:0:0:0:
192,192,118419,128,2,118633:0:0:0:0:
64,192,118633,1,8,0:0:0:0:
448,192,118633,1,0,0:0:0:0:
320,192,118740,1,0,0:0:0:0:
448,192,118847,128,2,119061:0:0:0:0:
64,192,119061,128,8,119276:0:0:0:0:
192,192,119061,1,0,0:0:0:0:
320,192,119276,128,2,119704:0:0:0:0:
64,192,119490,1,8,0:0:0:0:
192,192,119490,1,0,0:0:0:0:
448,192,119704,128,2,119919:0:0:0:0:
64,192,119919,1,8,0:0:0:0:
192,192,119919,128,0,120133:0:0:0:0:
320,192,120133,128,4,120347:0:0:0:0:
448,192,120133,1,2,0:0:0:0:
64,192,120347,1,8,0:0:0:0:
192,192,120347,1,0,0:0:0:0:
448,192,120454,1,0,0:0:0:0:
64,192,120561,128,2,120776:0:0:0:0:
320,192,120776,128,8,120990:0:0:0:0:
448,192,120776,1,0,0:0:0:0:
64,192,120990,128,2,121204:0:0:0:0:
320,192,121204,128,8,121419:0:0:0:0:
448,192,121204,1,0,0:0:0:0:
192,192,121419,128,2,121633:0:0:0:0:
64,192,121633,1,8,0:0:0:0:
448,192,121633,1,0,0:0:0:0:
320,192,121740,1,0,0:0:0:0:
448,192,121847,128,2,122061:0:0:0:0:
64,192,122061,128,8,122276:0:0:0:0:
192,192,122061,1,0,0:0:0:0:
320,192,122276,128,2,122490:0:0:0:0:
192,192,122490,128,8,122704:0:0:0:0:
448,192,122490,1,0,0:0:0:0:
448,192,122704,128,2,122919:0:0:0:0:
64,192,122919,1,8,0:0:0:0:
320,192,122919,1,0,0:0:0:0:
192,192,123026,1,0,0:0:0:0:
64,192,123133,128,2,123347:0:0:0:0:
192,192,123347,128,8,123561:0:0:0:0:
448,192,123347,1,0,0:0:0:0:
320,192,123561,128,2,123776:0:0:0:0:
64,192,123776,1,8,0:0:0:0:
448,192,123776,1,0,0:0:0:0:
192,192,123883,1,0,0:0:0:0:
448,192,123990,128,2,124204:0:0:0:0:
64,192,124204,1,8,0:0:0:0:
192,192,124204,128,0,124419:0:0:0:0:
448,192,124419,128,2,124633:0:0:0:0:
64,192,124633,1,8,0:0:0:0:
192,192,124633,128,0,124847:0:0:0:0:
320,192,124847,128,2,125061:0:0:0:0:
64,192,125061,128,8,125276:0:0:0:0:
448,192,125061,1,0,0:0:0:0:
192,192,125276,128,2,125490:0:0:0:0:
64,192,125490,1,8,0:0:0:0:
448,192,125490,1,0,0:0:0:0:
320,192,125597,1,0,0:0:0:0:
448,192,125704,128,2,125919:0:0:0:0:
64,192,125919,1,8,0:0:0:0:
192,192,125919,128,0,126133:0:0:0:0:
320,192,126133,128,2,126561:0:0:0:0:
64,192,126347,1,8,0:0:0:0:
192,192,126347,1,0,0:0:0:0:
64,192,126561,128,2,126776:0:0:0:0:
320,192,126776,1,8,0:0:0:0:
448,192,126776,128,0,126990:0:0:0:0:
64,192,126990,1,2,0:0:0:0:
192,192,126990,1,4,0:0:0:0:
448,192,127311,1,0,0:0:0:0:
64,192,127419,1,0,0:0:0:0:
320,192,127526,1,0,0:0:0:0:
192,192,127633,1,0,0:0:0:0:
448,192,127740,1,0,0:0:0:0:
64,192,127847,1,0,0:0:0:0:
320,192,127954,1,0,0:0:0:0:
192,192,128061,1,0,0:0:0:0:
448,192,128169,1,0,0:0:0:0:
64,192,128276,1,0,0:0:0:100:28.wav
192,192,128490,1,0,0:0:0:0:
320,192,128704,1,2,0:0:0:0:
448,192,128704,128,4,128919:0:0:0:0:
64,192,128919,1,8,0:0:0:0:
192,192,128919,128,0,129133:0:0:0:0:
448,192,129133,128,2,129347:0:0:0:0:
64,192,129347,128,8,129561:0:0:0:0:
320,192,129347,1,0,0:0:0:0:
192,192,129561,128,2,129776:0:0:0:0:
64,192,129776,1,8,0:0:0:0:
448,192,129776,1,0,0:0:0:0:
320,192,129883,1,0,0:0:0:0:
448,192,129990,128,2,130204:0:0:0:0:
64,192,130204,128,8,130419:0:0:0:0:
192,192,130204,1,0,0:0:0:0:
320,192,130419,128,2,130633:0:0:0:0:
64,192,130633,1,8,0:0:0:0:
448,192,130633,1,0,0:0:0:0:
192,192,130740,1,0,0:0:0:0:
64,192,130847,128,2,131061:0:0:0:0:
320,192,131061,128,8,131276:0:0:0:0:
448,192,131061,1,0,0:0:0:0:
192,192,131276,128,2,131490:0:0:0:0:
64,192,131490,1,8,0:0:0:0:
448,192,131490,128,0,131704:0:0:0:0:
320,192,131704,128,2,131919:0:0:0:0:
64,192,131919,128,8,132133:0:0:0:0:
192,192,131919,1,0,0:0:0:0:
320,192,132133,128,2,132347:0:0:0:0:
64,192,132347,1,8,0:0:0:0:
448,192,132347,1,0,0:0:0:0:
192,192,132454,1,0,0:0:0:0:
64,192,132561,128,2,132776:0:0:0:0:
320,192,132776,1,8,0:0:0:0:
448,192,132776,128,0,132990:0:0:0:0:
192,192,132990,128,2,133419:0:0:0:0:
320,192,133204,1,8,0:0:0:0:
448,192,133204,1,0,0:0:0:0:
64,192,133419,128,2,133633:0:0:0:0:
320,192,133633,128,8,133847:0:0:0:0:
448,192,133633,1,0,0:0:0:0:
64,192,133847,1,4,0:0:0:0:
192,192,133847,128,2,134061:0:0:0:0:
320,192,134061,1,8,0:0:0:0:
448,192,134061,1,0,0:0:0:0:
64,192,134169,1,0,0:0:0:0:
448,192,134276,128,2,134490:0:0:0:0:
64,192,134490,1,8,0:0:0:0:
192,192,134490,128,0,134704:0:0:0:0:
448,192,134704,128,2,134919:0:0:0:0:
64,192,134919,1,8,0:0:0:0:
320,192,134919,1,0,0:0:0:0:
192,192,135026,1,0,0:0:0:0:
320,192,135133,128,2,135347:0:0:0:0:
64,192,135347,128,8,135561:0:0:0:0:
448,192,135347,1,0,0:0:0:0:
192,192,135561,128,2,135776:0:0:0:0:
320,192,135776,1,8,0:0:0:0:
448,192,135776,128,0,135990:0:0:0:0:
192,192,135990,128,2,136204:0:0:0:0:
64,192,136204,1,8,0:0:0:0:
320,192,136204,128,0,136419:0:0:0:0:
64,192,136419,128,2,136633:0:0:0:0:
192,192,136633,1,8,0:0:0:0:
448,192,136633,1,0,0:0:0:0:
320,192,136740,1,0,0:0:0:0:
448,192,136847,128,2,137061:0:0:0:0:
64,192,137061,1,8,0:0:0:0:
320,192,137061,128,0,137276:0:0:0:0:
192,192,137276,128,2,137490:0:0:0:0:
64,192,137490,1,8,0:0:0:0:
448,192,137490,1,0,0:0:0:0:
320,192,137597,1,0,0:0:0:0:
64,192,137704,128,2,137919:0:0:0:0:
320,192,137919,128,8,138133:0:0:0:0:
448,192,137919,1,0,0:0:0:0:
64,192,138133,128,2,138347:0:0:0:0:
320,192,138347,128,8,138561:0:0:0:0:
448,192,138347,1,0,0:0:0:0:
192,192,138561,128,2,138776:0:0:0:0:
64,192,138776,1,8,0:0:0:0:
448,192,138776,128,0,138990:0:0:0:0:
320,192,138990,128,2,139204:0:0:0:0:
64,192,139204,1,8,0:0:0:0:
448,192,139204,1,0,0:0:0:0:
192,192,139311,1,0,0:0:0:0:
64,192,139419,128,2,139633:0:0:0:0:
320,192,139633,128,8,139847:0:0:0:0:
448,192,139633,1,0,0:0:0:0:
192,192,139847,128,2,140276:0:0:0:0:
320,192,140061,1,8,0:0:0:0:
448,192,140061,1,0,0:0:0:0:
64,192,140276,128,2,140490:0:0:0:0:
320,192,140490,128,8,140704:0:0:0:0:
64,192,140704,1,2,0:0:0:0:
192,192,140704,1,0,0:0:0:70:cymbal.wav
320,192,140811,1,2,0:0:0:0:
448,192,140811,1,0,0:0:0:70:cymbal.wav
64,192,141026,1,2,0:0:0:0:
192,192,141026,1,0,0:0:0:70:cymbal.wav
320,192,141133,1,2,0:0:0:0:
448,192,141133,1,0,0:0:0:70:cymbal.wav
320,192,141347,1,2,0:0:0:0:
448,192,141347,1,0,0:0:0:70:cymbal.wav
64,192,141454,1,2,0:0:0:0:
192,192,141454,1,0,0:0:0:70:cymbal.wav
320,192,141669,1,2,0:0:0:0:
448,192,141669,1,0,0:0:0:70:cymbal.wav
64,192,141776,1,2,0:0:0:0:
192,192,141776,1,0,0:0:0:70:cymbal.wav
64,192,141990,1,2,0:0:0:0:
192,192,141990,1,0,0:0:0:70:cymbal.wav
320,192,142097,1,2,0:0:0:0:
64,192,142311,1,2,0:0:0:0:
448,192,142311,1,0,0:0:0:70:cymbal.wav
320,192,142419,1,2,0:0:0:0:
192,192,142526,1,2,0:0:0:0:
64,192,142740,1,2,0:0:0:0:
448,192,142740,1,0,0:0:0:70:cymbal.wav
320,192,142847,1,2,0:0:0:0:
64,192,143061,1,2,0:0:0:0:
448,192,143061,1,0,0:0:0:70:cymbal.wav
192,192,143169,1,2,0:0:0:0:
64,192,143383,1,2,0:0:0:0:
448,192,143383,1,0,0:0:0:70:cymbal.wav
320,192,143490,1,2,0:0:0:0:
64,192,143704,1,2,0:0:0:0:
448,192,143704,1,0,0:0:0:70:cymbal.wav
192,192,143811,1,2,0:0:0:0:
320,192,143919,1,2,0:0:0:0:
192,192,144026,1,2,0:0:0:0:
