osu file format v14

[General]
AudioFilename: audio.mp3
AudioLeadIn: 0
PreviewTime: 144532
Countdown: 0
SampleSet: Normal
StackLeniency: 0.7
Mode: 3
LetterboxInBreaks: 0
SpecialStyle: 0
WidescreenStoryboard: 0

[Editor]
Bookmarks: 100818,189961,232818,246532,271390,316531,335388,335816,422388
DistanceSpacing: 0.8
BeatDivisor: 4
GridSize: 32
TimelineZoom: 2.2

[Metadata]
Title:ATHAZA
TitleUnicode:ATHAZA
Artist:LeaF
ArtistUnicode:LeaF
Creator:Div
Version:Forgotten
Source:BMS
Tags:Imaginary Flower
BeatmapID:1762570
BeatmapSetID:842330

[Difficulty]
HPDrainRate:8
CircleSize:4
OverallDifficulty:8
ApproachRate:5
SliderMultiplier:1.6
SliderTickRate:1

[Events]
//Background and Video events
0,0,"forgetmenot.jpg",0,0
//Break Periods
//Storyboard Layer 0 (Background)
//Storyboard Layer 1 (Fail)
//Storyboard Layer 2 (Pass)
//Storyboard Layer 3 (Foreground)
//Storyboard Sound Samples

[TimingPoints]
533,214.285714285714,4,1,0,30,1,0
144532,-100,4,1,0,30,0,1
174532,-100,4,1,0,30,0,0
287675,222.222222222222,4,1,0,30,1,0
287675,-96.4292257697463,4,1,0,30,0,0
287897,230.769230769231,4,1,0,30,1,0
287897,-92.8571494897964,4,1,0,30,0,0
288127,240,4,1,0,30,1,0
288127,-89.2857142857143,4,1,0,30,0,0
288367,250,4,1,0,30,1,0
288367,-85.7142862040816,4,1,0,30,0,0
288617,222.222222222222,4,1,0,30,1,0
288617,-96.1538461538461,4,1,0,30,0,0
295728,214.285714285714,4,1,0,30,1,0
299906,222.222222222222,4,1,0,30,1,0
299906,-96.1538461538461,4,1,0,30,0,0
300794,230.769230769231,4,1,0,30,1,0
300794,-92.5925925925926,4,1,0,30,0,0
301717,240,4,1,0,30,1,0
301717,-89.2857142857143,4,1,0,30,0,0
302317,250,4,1,0,30,1,0
302317,-85.4700854700855,4,1,0,30,0,0
302817,214.285714285714,4,1,0,30,1,0
393674,-100,4,1,0,30,0,1
438245,-100,4,1,0,30,0,0

[HitObjects]
448,192,533,5,0,0:0:0:0:
64,192,533,1,0,0:0:0:0:
320,192,747,1,0,0:0:0:0:
192,192,854,1,0,0:0:0:0:
64,192,961,1,0,0:0:0:0:
448,192,961,1,0,0:0:0:0:
320,192,1175,1,0,0:0:0:0:
192,192,1390,1,0,0:0:0:0:
64,192,1390,1,0,0:0:0:0:
320,192,1604,1,0,0:0:0:0:
448,192,1818,1,0,0:0:0:0:
64,192,1818,1,0,0:0:0:0:
192,192,2032,1,0,0:0:0:0:
320,192,2247,1,0,0:0:0:0:
448,192,2247,1,0,0:0:0:0:
192,192,2461,1,0,0:0:0:0:
320,192,2568,1,0,0:0:0:0:
64,192,2675,1,0,0:0:0:0:
448,192,2675,1,0,0:0:0:0:
320,192,2890,1,0,0:0:0:0:
64,192,3104,1,0,0:0:0:0:
192,192,3104,1,0,0:0:0:0:
320,192,3318,1,0,0:0:0:0:
448,192,3318,1,0,0:0:0:0:
320,192,3425,1,0,0:0:0:0:
448,192,3425,1,0,0:0:0:0:
448,192,3532,1,0,0:0:0:0:
64,192,3532,1,0,0:0:0:0:
64,192,3747,1,0,0:0:0:0:
192,192,3747,1,0,0:0:0:0:
64,192,3854,1,0,0:0:0:0:
192,192,3854,1,0,0:0:0:0:
64,192,3961,1,0,0:0:0:0:
320,192,3961,1,0,0:0:0:0:
448,192,3961,128,0,5675:0:0:0:0:
64,192,4818,1,0,0:0:0:0:
192,192,5675,1,0,0:0:0:0:
64,192,5675,128,0,6532:0:0:0:0:
320,192,6532,128,0,7390:0:0:0:0:
448,192,6532,1,0,0:0:0:0:
192,192,7390,128,0,8247:0:0:0:0:
448,192,7390,1,0,0:0:0:0:
64,192,8247,128,0,9104:0:0:0:0:
448,192,8247,1,0,0:0:0:0:
320,192,8675,1,0,0:0:0:0:
192,192,8890,1,0,0:0:0:0:
448,192,9104,128,0,9961:0:0:0:0:
320,192,9104,1,0,0:0:0:0:
320,192,9961,128,0,10390:0:0:0:0:
192,192,9961,1,0,0:0:0:0:
192,192,10390,128,0,10818:0:0:0:0:
64,192,10390,1,0,0:0:0:0:
64,192,10818,128,0,12532:0:0:0:0:
448,192,10818,1,0,0:0:0:0:
192,192,12104,1,0,0:0:0:0:
320,192,12318,1,0,0:0:0:0:
192,192,12532,1,0,0:0:0:0:
448,192,12532,128,0,13390:0:0:0:0:
192,192,13390,128,0,14247:0:0:0:0:
64,192,13390,1,0,0:0:0:0:
320,192,14247,128,0,15104:0:0:0:0:
448,192,14247,1,0,0:0:0:0:
64,192,15104,128,0,15532:0:0:0:0:
448,192,15104,1,0,0:0:0:0:
192,192,15532,128,0,15961:0:0:0:0:
320,192,15532,1,0,0:0:0:0:
320,192,15961,128,0,16604:0:0:0:0:
64,192,15961,1,0,0:0:0:0:
448,192,16604,1,0,0:0:0:0:
64,192,16711,1,0,0:0:0:0:
320,192,16818,1,0,0:0:0:0:
192,192,16818,128,0,17675:0:0:0:0:
64,192,17675,1,0,0:0:0:0:
448,192,17675,1,0,0:0:0:0:
320,192,17890,1,0,0:0:0:0:
192,192,17997,1,0,0:0:0:0:
64,192,18104,1,0,0:0:0:0:
448,192,18211,1,0,0:0:0:0:
64,192,18318,1,0,0:0:0:0:
192,192,18425,1,0,0:0:0:0:
320,192,18532,128,0,19390:0:0:0:0:
64,192,19390,1,0,0:0:0:0:
448,192,19390,1,0,0:0:0:0:
192,192,19604,1,0,0:0:0:0:
192,192,19818,1,0,0:0:0:0:
192,192,20032,1,0,0:0:0:0:
320,192,20247,1,0,0:0:0:0:
192,192,20461,1,0,0:0:0:0:
64,192,20568,1,0,0:0:0:0:
192,192,20675,1,0,0:0:0:0:
448,192,20890,1,0,0:0:0:0:
64,192,21104,1,0,0:0:0:0:
64,192,21211,1,0,0:0:0:0:
192,192,21318,1,0,0:0:0:0:
320,192,21532,1,0,0:0:0:0:
448,192,21747,1,0,0:0:0:0:
448,192,21961,1,0,0:0:0:0:
192,192,22175,1,0,0:0:0:0:
64,192,22282,1,0,0:0:0:0:
320,192,22390,128,0,22818:0:0:0:0:
64,192,22818,1,0,0:0:0:0:
192,192,22925,1,0,0:0:0:0:
448,192,23032,1,0,0:0:0:0:
448,192,23247,1,0,0:0:0:0:
448,192,23461,1,0,0:0:0:0:
448,192,23675,128,0,24532:0:0:0:0:
320,192,23675,1,0,0:0:0:0:
64,192,23890,1,0,0:0:0:0:
320,192,23997,1,0,0:0:0:0:
192,192,24104,1,0,0:0:0:0:
320,192,24318,1,0,0:0:0:0:
64,192,24532,128,0,24961:0:0:0:0:
192,192,24532,1,0,0:0:0:0:
448,192,24747,1,0,0:0:0:0:
448,192,24854,1,0,0:0:0:0:
192,192,24961,128,0,25390:0:0:0:0:
320,192,24961,1,0,0:0:0:0:
448,192,25175,1,0,0:0:0:0:
320,192,25390,128,0,26032:0:0:0:0:
64,192,25390,1,0,0:0:0:0:
64,192,26032,128,0,26247:0:0:0:0:
448,192,26247,128,0,27640:0:0:0:0:
192,192,26247,1,0,0:0:0:0:
64,192,26461,1,0,0:0:0:0:
64,192,26675,1,0,0:0:0:0:
64,192,26890,1,0,0:0:0:0:
192,192,27104,1,0,0:0:0:0:
320,192,27318,1,0,0:0:0:0:
64,192,27425,1,0,0:0:0:0:
192,192,27532,1,0,0:0:0:0:
64,192,27640,128,0,27961:0:0:0:0:
320,192,27747,1,0,0:0:0:0:
192,192,27961,128,0,28818:0:0:0:0:
448,192,27961,1,0,0:0:0:0:
448,192,28068,1,0,0:0:0:0:
320,192,28175,1,0,0:0:0:0:
448,192,28390,1,0,0:0:0:0:
64,192,28604,1,0,0:0:0:0:
64,192,28818,1,0,0:0:0:0:
448,192,28818,128,0,29247:0:0:0:0:
320,192,29032,1,0,0:0:0:0:
192,192,29140,1,0,0:0:0:0:
64,192,29247,1,0,0:0:0:0:
320,192,29247,128,0,29675:0:0:0:0:
64,192,29675,128,0,30532:0:0:0:0:
192,192,29675,1,0,0:0:0:0:
320,192,29782,1,0,0:0:0:0:
448,192,29890,1,0,0:0:0:0:
448,192,30104,1,0,0:0:0:0:
448,192,30318,1,0,0:0:0:0:
448,192,30532,1,0,0:0:0:0:
192,192,30532,128,0,31390:0:0:0:0:
448,192,30747,1,0,0:0:0:0:
320,192,30854,1,0,0:0:0:0:
64,192,30961,1,0,0:0:0:0:
320,192,31175,1,0,0:0:0:0:
448,192,31390,128,0,32247:0:0:0:0:
64,192,31390,1,0,0:0:0:0:
320,192,31604,1,0,0:0:0:0:
192,192,31711,1,0,0:0:0:0:
64,192,31818,1,0,0:0:0:0:
192,192,32032,1,0,0:0:0:0:
64,192,32247,128,0,33104:0:0:0:0:
320,192,32247,1,0,0:0:0:0:
320,192,33104,1,0,0:0:0:0:
448,192,33104,1,0,0:0:0:0:
192,192,33318,1,0,0:0:0:0:
192,192,33532,1,0,0:0:0:0:
192,192,33747,1,0,0:0:0:0:
448,192,33961,1,0,0:0:0:0:
64,192,33961,1,0,0:0:0:0:
320,192,34175,1,0,0:0:0:0:
192,192,34390,128,0,34818:0:0:0:0:
64,192,34818,1,0,0:0:0:0:
448,192,34818,1,0,0:0:0:0:
320,192,35032,1,0,0:0:0:0:
64,192,35140,1,0,0:0:0:0:
320,192,35247,1,0,0:0:0:0:
448,192,35247,1,0,0:0:0:0:
192,192,35354,1,0,0:0:0:0:
448,192,35461,1,0,0:0:0:0:
64,192,35461,1,0,0:0:0:0:
320,192,35568,1,0,0:0:0:0:
192,192,35675,1,0,0:0:0:0:
64,192,35675,1,0,0:0:0:0:
320,192,35890,1,0,0:0:0:0:
448,192,35890,1,0,0:0:0:0:
64,192,36104,128,0,36318:0:0:0:0:
448,192,36318,1,0,0:0:0:0:
320,192,36372,1,0,0:0:0:0:
192,192,36425,1,0,0:0:0:0:
64,192,36479,1,0,0:0:0:0:
320,192,36532,1,0,0:0:0:0:
448,192,36532,1,0,0:0:0:0:
64,192,36747,1,0,0:0:0:0:
64,192,36961,1,0,0:0:0:0:
64,192,37175,1,0,0:0:0:0:
192,192,37390,1,0,0:0:0:0:
448,192,37390,1,0,0:0:0:0:
320,192,37604,1,0,0:0:0:0:
320,192,37818,1,0,0:0:0:0:
192,192,38032,1,0,0:0:0:0:
448,192,38247,1,0,0:0:0:0:
64,192,38247,128,0,38675:0:0:0:0:
192,192,38675,1,0,0:0:0:0:
320,192,38890,1,0,0:0:0:0:
448,192,39104,1,0,0:0:0:0:
64,192,39104,1,0,0:0:0:0:
64,192,39318,1,0,0:0:0:0:
192,192,39318,1,0,0:0:0:0:
64,192,39425,1,0,0:0:0:0:
192,192,39425,1,0,0:0:0:0:
64,192,39532,1,0,0:0:0:0:
192,192,39532,1,0,0:0:0:0:
320,192,39747,1,0,0:0:0:0:
448,192,39747,1,0,0:0:0:0:
64,192,39961,1,0,0:0:0:0:
192,192,39961,1,0,0:0:0:0:
448,192,39961,1,0,0:0:0:0:
320,192,40175,1,0,0:0:0:0:
320,192,40390,1,0,0:0:0:0:
320,192,40604,1,0,0:0:0:0:
64,192,40818,1,0,0:0:0:0:
448,192,40818,1,0,0:0:0:0:
192,192,41032,1,0,0:0:0:0:
192,192,41247,128,0,41675:0:0:0:0:
64,192,41675,1,0,0:0:0:0:
448,192,41675,1,0,0:0:0:0:
320,192,41890,1,0,0:0:0:0:
320,192,42104,1,0,0:0:0:0:
320,192,42318,1,0,0:0:0:0:
64,192,42532,1,0,0:0:0:0:
192,192,42532,1,0,0:0:0:0:
448,192,42747,1,0,0:0:0:0:
448,192,42961,128,0,43282:0:0:0:0:
64,192,43282,1,0,0:0:0:0:
192,192,43309,1,0,0:0:0:0:
320,192,43336,1,0,0:0:0:0:
448,192,43363,1,0,0:0:0:0:
64,192,43390,1,0,0:0:0:0:
192,192,43390,1,0,0:0:0:0:
448,192,43604,1,0,0:0:0:0:
448,192,43818,1,0,0:0:0:0:
448,192,44032,1,0,0:0:0:0:
64,192,44247,1,0,0:0:0:0:
192,192,44247,1,0,0:0:0:0:
320,192,44461,1,0,0:0:0:0:
320,192,44675,1,0,0:0:0:0:
192,192,44890,1,0,0:0:0:0:
64,192,45104,1,0,0:0:0:0:
448,192,45104,1,0,0:0:0:0:
320,192,45318,1,0,0:0:0:0:
192,192,45425,1,0,0:0:0:0:
448,192,45532,1,0,0:0:0:0:
192,192,45747,1,0,0:0:0:0:
64,192,45961,1,0,0:0:0:0:
448,192,45961,128,0,46818:0:0:0:0:
64,192,46818,1,0,0:0:0:0:
192,192,46818,1,0,0:0:0:0:
320,192,46818,1,0,0:0:0:0:
320,192,47032,1,0,0:0:0:0:
320,192,47247,1,0,0:0:0:0:
320,192,47461,1,0,0:0:0:0:
64,192,47675,1,0,0:0:0:0:
448,192,47675,1,0,0:0:0:0:
320,192,47890,1,0,0:0:0:0:
320,192,48104,128,0,48532:0:0:0:0:
64,192,48532,1,0,0:0:0:0:
192,192,48532,1,0,0:0:0:0:
448,192,48747,1,0,0:0:0:0:
448,192,48961,1,0,0:0:0:0:
448,192,49175,1,0,0:0:0:0:
64,192,49390,1,0,0:0:0:0:
320,192,49390,1,0,0:0:0:0:
192,192,49604,1,0,0:0:0:0:
192,192,49818,128,0,50247:0:0:0:0:
64,192,50247,1,0,0:0:0:0:
448,192,50247,1,0,0:0:0:0:
320,192,50461,1,0,0:0:0:0:
320,192,50675,1,0,0:0:0:0:
320,192,50890,1,0,0:0:0:0:
192,192,51104,1,0,0:0:0:0:
448,192,51104,1,0,0:0:0:0:
64,192,51318,1,0,0:0:0:0:
64,192,51532,1,0,0:0:0:0:
192,192,51747,1,0,0:0:0:0:
320,192,51961,1,0,0:0:0:0:
448,192,51961,1,0,0:0:0:0:
320,192,52175,1,0,0:0:0:0:
320,192,52282,1,0,0:0:0:0:
64,192,52390,1,0,0:0:0:0:
192,192,52604,1,0,0:0:0:0:
448,192,52818,1,0,0:0:0:0:
64,192,52818,1,0,0:0:0:0:
320,192,53032,1,0,0:0:0:0:
448,192,53032,1,0,0:0:0:0:
320,192,53140,1,0,0:0:0:0:
448,192,53140,1,0,0:0:0:0:
320,192,53247,1,0,0:0:0:0:
448,192,53247,1,0,0:0:0:0:
64,192,53461,1,0,0:0:0:0:
192,192,53461,1,0,0:0:0:0:
64,192,53675,1,0,0:0:0:0:
320,192,53675,1,0,0:0:0:0:
448,192,53675,1,0,0:0:0:0:
192,192,53890,1,0,0:0:0:0:
192,192,54104,1,0,0:0:0:0:
192,192,54318,1,0,0:0:0:0:
64,192,54532,1,0,0:0:0:0:
448,192,54532,1,0,0:0:0:0:
192,192,54747,1,0,0:0:0:0:
192,192,54961,1,0,0:0:0:0:
192,192,55175,1,0,0:0:0:0:
448,192,55390,1,0,0:0:0:0:
64,192,55390,1,0,0:0:0:0:
320,192,55604,1,0,0:0:0:0:
320,192,55818,1,0,0:0:0:0:
320,192,56032,1,0,0:0:0:0:
64,192,56247,1,0,0:0:0:0:
192,192,56247,1,0,0:0:0:0:
448,192,56461,1,0,0:0:0:0:
448,192,56675,128,0,57104:0:0:0:0:
64,192,57104,1,0,0:0:0:0:
320,192,57104,1,0,0:0:0:0:
192,192,57318,1,0,0:0:0:0:
192,192,57532,1,0,0:0:0:0:
192,192,57747,1,0,0:0:0:0:
64,192,57961,1,0,0:0:0:0:
448,192,57961,1,0,0:0:0:0:
320,192,58175,1,0,0:0:0:0:
320,192,58390,1,0,0:0:0:0:
192,192,58604,1,0,0:0:0:0:
64,192,58818,1,0,0:0:0:0:
320,192,58818,1,0,0:0:0:0:
448,192,59032,1,0,0:0:0:0:
320,192,59140,1,0,0:0:0:0:
192,192,59247,1,0,0:0:0:0:
64,192,59461,1,0,0:0:0:0:
320,192,59675,1,0,0:0:0:0:
448,192,59675,128,0,60104:0:0:0:0:
64,192,60104,1,0,0:0:0:0:
192,192,60157,1,0,0:0:0:0:
448,192,60211,1,0,0:0:0:0:
320,192,60265,1,0,0:0:0:0:
64,192,60318,1,0,0:0:0:0:
192,192,60372,1,0,0:0:0:0:
448,192,60425,1,0,0:0:0:0:
320,192,60479,1,0,0:0:0:0:
64,192,60532,1,0,0:0:0:0:
192,192,60532,1,0,0:0:0:0:
448,192,60961,1,0,0:0:0:0:
320,192,61175,1,0,0:0:0:0:
192,192,61390,1,0,0:0:0:0:
64,192,61818,1,0,0:0:0:0:
320,192,62032,1,0,0:0:0:0:
448,192,62032,1,0,0:0:0:0:
448,192,62247,1,0,0:0:0:0:
192,192,62247,1,0,0:0:0:0:
320,192,62675,1,0,0:0:0:0:
64,192,62890,1,0,0:0:0:0:
192,192,63104,1,0,0:0:0:0:
64,192,63318,1,0,0:0:0:0:
448,192,63318,1,0,0:0:0:0:
192,192,63532,1,0,0:0:0:0:
320,192,63532,1,0,0:0:0:0:
320,192,63747,1,0,0:0:0:0:
448,192,63747,1,0,0:0:0:0:
448,192,63961,1,0,0:0:0:0:
64,192,63961,1,0,0:0:0:0:
192,192,64390,1,0,0:0:0:0:
320,192,64604,1,0,0:0:0:0:
448,192,64818,1,0,0:0:0:0:
320,192,65247,1,0,0:0:0:0:
192,192,65461,1,0,0:0:0:0:
64,192,65461,1,0,0:0:0:0:
64,192,65675,1,0,0:0:0:0:
448,192,65675,1,0,0:0:0:0:
320,192,65890,1,0,0:0:0:0:
192,192,65997,1,0,0:0:0:0:
64,192,66104,1,0,0:0:0:0:
320,192,66318,1,0,0:0:0:0:
64,192,66532,1,0,0:0:0:0:
448,192,66532,1,0,0:0:0:0:
448,192,66747,1,0,0:0:0:0:
320,192,66800,1,0,0:0:0:0:
192,192,66854,1,0,0:0:0:0:
64,192,66907,1,0,0:0:0:0:
448,192,66961,1,0,0:0:0:0:
320,192,66961,1,0,0:0:0:0:
448,192,67175,1,0,0:0:0:0:
320,192,67175,1,0,0:0:0:0:
320,192,67282,1,0,0:0:0:0:
448,192,67282,1,0,0:0:0:0:
448,192,67390,1,0,0:0:0:0:
192,192,67390,1,0,0:0:0:0:
64,192,67390,128,0,67604:0:0:0:0:
448,192,67604,1,0,0:0:0:0:
320,192,67657,1,0,0:0:0:0:
192,192,67711,1,0,0:0:0:0:
64,192,67765,1,0,0:0:0:0:
320,192,67818,1,0,0:0:0:0:
448,192,67872,1,0,0:0:0:0:
64,192,67925,1,0,0:0:0:0:
192,192,67979,1,0,0:0:0:0:
320,192,68032,1,0,0:0:0:0:
448,192,68086,1,0,0:0:0:0:
192,192,68140,1,0,0:0:0:0:
64,192,68193,1,0,0:0:0:0:
448,192,68247,1,0,0:0:0:0:
320,192,68300,1,0,0:0:0:0:
192,192,68354,1,0,0:0:0:0:
64,192,68407,1,0,0:0:0:0:
320,192,68461,1,0,0:0:0:0:
192,192,68515,1,0,0:0:0:0:
448,192,68568,1,0,0:0:0:0:
320,192,68622,1,0,0:0:0:0:
64,192,68675,1,0,0:0:0:0:
192,192,68729,1,0,0:0:0:0:
320,192,68782,1,0,0:0:0:0:
448,192,68836,1,0,0:0:0:0:
64,192,68890,1,0,0:0:0:0:
192,192,68943,1,0,0:0:0:0:
448,192,68997,1,0,0:0:0:0:
320,192,69050,1,0,0:0:0:0:
192,192,69104,1,0,0:0:0:0:
64,192,69104,1,0,0:0:0:0:
320,192,69157,1,0,0:0:0:0:
448,192,69211,1,0,0:0:0:0:
64,192,69265,1,0,0:0:0:0:
320,192,69318,1,0,0:0:0:0:
192,192,69318,1,0,0:0:0:0:
448,192,69372,1,0,0:0:0:0:
64,192,69425,1,0,0:0:0:0:
192,192,69479,1,0,0:0:0:0:
320,192,69532,1,0,0:0:0:0:
448,192,69532,1,0,0:0:0:0:
64,192,69586,1,0,0:0:0:0:
192,192,69640,1,0,0:0:0:0:
320,192,69693,1,0,0:0:0:0:
448,192,69747,1,0,0:0:0:0:
64,192,69747,1,0,0:0:0:0:
192,192,69800,1,0,0:0:0:0:
320,192,69854,1,0,0:0:0:0:
192,192,69907,1,0,0:0:0:0:
64,192,69961,1,0,0:0:0:0:
448,192,69961,1,0,0:0:0:0:
320,192,70015,1,0,0:0:0:0:
192,192,70068,1,0,0:0:0:0:
64,192,70068,1,0,0:0:0:0:
448,192,70122,1,0,0:0:0:0:
320,192,70175,1,0,0:0:0:0:
192,192,70175,1,0,0:0:0:0:
64,192,70229,1,0,0:0:0:0:
448,192,70282,1,0,0:0:0:0:
320,192,70282,1,0,0:0:0:0:
192,192,70336,1,0,0:0:0:0:
64,192,70390,1,0,0:0:0:0:
448,192,70390,1,0,0:0:0:0:
320,192,70443,1,0,0:0:0:0:
192,192,70497,1,0,0:0:0:0:
64,192,70497,1,0,0:0:0:0:
320,192,70550,1,0,0:0:0:0:
448,192,70604,1,0,0:0:0:0:
64,192,70604,1,0,0:0:0:0:
192,192,70657,1,0,0:0:0:0:
320,192,70711,1,0,0:0:0:0:
448,192,70711,1,0,0:0:0:0:
64,192,70765,1,0,0:0:0:0:
448,192,70818,1,0,0:0:0:0:
320,192,70818,1,0,0:0:0:0:
192,192,70818,1,0,0:0:0:0:
320,192,71032,1,0,0:0:0:0:
64,192,71247,1,0,0:0:0:0:
448,192,71247,1,0,0:0:0:0:
192,192,71461,1,0,0:0:0:0:
64,192,71675,1,0,0:0:0:0:
448,192,71675,1,0,0:0:0:0:
320,192,71890,1,0,0:0:0:0:
192,192,71997,1,0,0:0:0:0:
64,192,72104,1,0,0:0:0:0:
448,192,72104,1,0,0:0:0:0:
320,192,72318,1,0,0:0:0:0:
64,192,72532,1,0,0:0:0:0:
192,192,72532,1,0,0:0:0:0:
192,192,72640,1,0,0:0:0:0:
320,192,72747,1,0,0:0:0:0:
64,192,72961,1,0,0:0:0:0:
448,192,72961,1,0,0:0:0:0:
192,192,73175,1,0,0:0:0:0:
320,192,73390,1,0,0:0:0:0:
448,192,73390,1,0,0:0:0:0:
192,192,73604,1,0,0:0:0:0:
64,192,73711,1,0,0:0:0:0:
320,192,73818,1,0,0:0:0:0:
448,192,73818,1,0,0:0:0:0:
64,192,73925,1,0,0:0:0:0:
192,192,74032,1,0,0:0:0:0:
320,192,74140,1,0,0:0:0:0:
448,192,74247,1,0,0:0:0:0:
64,192,74247,1,0,0:0:0:0:
320,192,74354,1,0,0:0:0:0:
192,192,74461,1,0,0:0:0:0:
448,192,74675,1,0,0:0:0:0:
64,192,74675,1,0,0:0:0:0:
320,192,74890,1,0,0:0:0:0:
192,192,75104,1,0,0:0:0:0:
64,192,75104,1,0,0:0:0:0:
192,192,75318,1,0,0:0:0:0:
320,192,75425,1,0,0:0:0:0:
64,192,75532,1,0,0:0:0:0:
448,192,75532,1,0,0:0:0:0:
192,192,75747,1,0,0:0:0:0:
320,192,75961,1,0,0:0:0:0:
448,192,75961,1,0,0:0:0:0:
64,192,76175,1,0,0:0:0:0:
64,192,76282,1,0,0:0:0:0:
192,192,76390,1,0,0:0:0:0:
448,192,76390,1,0,0:0:0:0:
320,192,76604,1,0,0:0:0:0:
64,192,76818,1,0,0:0:0:0:
192,192,76818,1,0,0:0:0:0:
320,192,77032,128,0,77247:0:0:0:0:
64,192,77247,1,0,0:0:0:0:
448,192,77247,1,0,0:0:0:0:
192,192,77247,1,0,0:0:0:0:
320,192,77461,1,0,0:0:0:0:
64,192,77675,1,0,0:0:0:0:
448,192,77675,1,0,0:0:0:0:
192,192,77890,1,0,0:0:0:0:
64,192,78104,1,0,0:0:0:0:
448,192,78104,1,0,0:0:0:0:
320,192,78318,1,0,0:0:0:0:
64,192,78532,1,0,0:0:0:0:
448,192,78532,1,0,0:0:0:0:
192,192,78747,1,0,0:0:0:0:
64,192,78854,1,0,0:0:0:0:
448,192,78961,1,0,0:0:0:0:
320,192,78961,1,0,0:0:0:0:
192,192,79175,1,0,0:0:0:0:
64,192,79390,1,0,0:0:0:0:
448,192,79390,1,0,0:0:0:0:
448,192,79497,1,0,0:0:0:0:
320,192,79604,1,0,0:0:0:0:
64,192,79711,1,0,0:0:0:0:
192,192,79818,1,0,0:0:0:0:
320,192,79925,1,0,0:0:0:0:
448,192,80032,1,0,0:0:0:0:
320,192,80140,1,0,0:0:0:0:
64,192,80247,1,0,0:0:0:0:
448,192,80247,1,0,0:0:0:0:
192,192,80354,1,0,0:0:0:0:
320,192,80461,1,0,0:0:0:0:
448,192,80568,1,0,0:0:0:0:
192,192,80675,1,0,0:0:0:0:
64,192,80675,1,0,0:0:0:0:
448,192,80782,1,0,0:0:0:0:
320,192,80890,1,0,0:0:0:0:
192,192,80997,1,0,0:0:0:0:
64,192,81104,1,0,0:0:0:0:
448,192,81104,1,0,0:0:0:0:
320,192,81211,1,0,0:0:0:0:
192,192,81318,1,0,0:0:0:0:
64,192,81532,1,0,0:0:0:0:
448,192,81532,1,0,0:0:0:0:
320,192,81747,1,0,0:0:0:0:
192,192,81854,1,0,0:0:0:0:
448,192,81961,1,0,0:0:0:0:
64,192,81961,128,0,82175:0:0:0:0:
320,192,82175,1,0,0:0:0:0:
64,192,82282,1,0,0:0:0:0:
320,192,82390,1,0,0:0:0:0:
448,192,82390,128,0,82604:0:0:0:0:
192,192,82604,1,0,0:0:0:0:
448,192,82711,1,0,0:0:0:0:
64,192,82818,1,0,0:0:0:0:
320,192,82818,1,0,0:0:0:0:
192,192,83032,1,0,0:0:0:0:
320,192,83140,1,0,0:0:0:0:
448,192,83247,1,0,0:0:0:0:
64,192,83247,1,0,0:0:0:0:
320,192,83461,1,0,0:0:0:0:
448,192,83675,1,0,0:0:0:0:
192,192,83675,128,0,84104:0:0:0:0:
64,192,84104,1,0,0:0:0:0:
320,192,84104,1,0,0:0:0:0:
448,192,84104,1,0,0:0:0:0:
64,192,84532,1,0,0:0:0:0:
192,192,84532,1,0,0:0:0:0:
448,192,84532,1,0,0:0:0:0:
192,192,84747,1,0,0:0:0:0:
320,192,84961,1,0,0:0:0:0:
448,192,84961,1,0,0:0:0:0:
64,192,85175,1,0,0:0:0:0:
192,192,85390,1,0,0:0:0:0:
448,192,85390,1,0,0:0:0:0:
320,192,85604,1,0,0:0:0:0:
192,192,85711,1,0,0:0:0:0:
64,192,85818,1,0,0:0:0:0:
448,192,85818,1,0,0:0:0:0:
320,192,86032,1,0,0:0:0:0:
64,192,86247,1,0,0:0:0:0:
192,192,86247,1,0,0:0:0:0:
320,192,86461,1,0,0:0:0:0:
320,192,86568,1,0,0:0:0:0:
64,192,86675,1,0,0:0:0:0:
448,192,86675,1,0,0:0:0:0:
192,192,86890,1,0,0:0:0:0:
448,192,87104,1,0,0:0:0:0:
64,192,87104,1,0,0:0:0:0:
320,192,87318,1,0,0:0:0:0:
64,192,87532,1,0,0:0:0:0:
448,192,87532,128,0,87961:0:0:0:0:
64,192,87961,1,0,0:0:0:0:
192,192,87961,1,0,0:0:0:0:
320,192,88068,1,0,0:0:0:0:
448,192,88175,1,0,0:0:0:0:
64,192,88390,1,0,0:0:0:0:
320,192,88390,1,0,0:0:0:0:
192,192,88604,1,0,0:0:0:0:
192,192,88818,1,0,0:0:0:0:
448,192,88818,128,0,89032:0:0:0:0:
320,192,89032,1,0,0:0:0:0:
192,192,89140,1,0,0:0:0:0:
64,192,89247,1,0,0:0:0:0:
448,192,89247,1,0,0:0:0:0:
320,192,89461,1,0,0:0:0:0:
64,192,89675,1,0,0:0:0:0:
192,192,89675,1,0,0:0:0:0:
448,192,89890,1,0,0:0:0:0:
448,192,89997,1,0,0:0:0:0:
320,192,90104,1,0,0:0:0:0:
192,192,90104,1,0,0:0:0:0:
64,192,90318,1,0,0:0:0:0:
448,192,90532,1,0,0:0:0:0:
320,192,90532,128,0,90961:0:0:0:0:
64,192,90961,1,0,0:0:0:0:
448,192,91068,1,0,0:0:0:0:
192,192,91175,1,0,0:0:0:0:
320,192,91282,1,0,0:0:0:0:
64,192,91390,1,0,0:0:0:0:
192,192,91390,1,0,0:0:0:0:
448,192,91390,1,0,0:0:0:0:
64,192,91604,1,0,0:0:0:0:
320,192,91818,1,0,0:0:0:0:
448,192,91818,1,0,0:0:0:0:
192,192,92032,1,0,0:0:0:0:
448,192,92247,1,0,0:0:0:0:
64,192,92247,1,0,0:0:0:0:
320,192,92461,1,0,0:0:0:0:
192,192,92568,1,0,0:0:0:0:
64,192,92675,1,0,0:0:0:0:
448,192,92675,1,0,0:0:0:0:
192,192,92890,1,0,0:0:0:0:
448,192,93104,1,0,0:0:0:0:
320,192,93104,128,0,93318:0:0:0:0:
64,192,93318,1,0,0:0:0:0:
192,192,93425,1,0,0:0:0:0:
448,192,93532,1,0,0:0:0:0:
64,192,93532,1,0,0:0:0:0:
320,192,93747,1,0,0:0:0:0:
64,192,93961,1,0,0:0:0:0:
192,192,93961,1,0,0:0:0:0:
448,192,94175,1,0,0:0:0:0:
320,192,94390,1,0,0:0:0:0:
64,192,94390,1,0,0:0:0:0:
192,192,94604,1,0,0:0:0:0:
320,192,94711,1,0,0:0:0:0:
64,192,94818,1,0,0:0:0:0:
448,192,94818,1,0,0:0:0:0:
320,192,94925,1,0,0:0:0:0:
192,192,95032,1,0,0:0:0:0:
64,192,95247,1,0,0:0:0:0:
448,192,95247,1,0,0:0:0:0:
192,192,95354,1,0,0:0:0:0:
320,192,95461,1,0,0:0:0:0:
448,192,95675,1,0,0:0:0:0:
192,192,95675,1,0,0:0:0:0:
64,192,95890,1,0,0:0:0:0:
192,192,95997,1,0,0:0:0:0:
320,192,96104,1,0,0:0:0:0:
448,192,96104,1,0,0:0:0:0:
448,192,96318,1,0,0:0:0:0:
320,192,96425,1,0,0:0:0:0:
192,192,96532,1,0,0:0:0:0:
64,192,96532,1,0,0:0:0:0:
64,192,96747,1,0,0:0:0:0:
192,192,96854,1,0,0:0:0:0:
320,192,96961,1,0,0:0:0:0:
448,192,96961,1,0,0:0:0:0:
320,192,97175,1,0,0:0:0:0:
64,192,97390,128,0,97818:0:0:0:0:
448,192,97390,128,0,97818:0:0:0:0:
64,192,98247,1,0,0:0:0:0:
192,192,98247,1,0,0:0:0:0:
192,192,98461,1,0,0:0:0:0:
320,192,98568,1,0,0:0:0:0:
448,192,98675,1,0,0:0:0:0:
192,192,98890,1,0,0:0:0:0:
320,192,99104,1,0,0:0:0:0:
448,192,99104,1,0,0:0:0:0:
192,192,99318,1,0,0:0:0:0:
64,192,99532,1,0,0:0:0:0:
320,192,99747,1,0,0:0:0:0:
192,192,99961,1,0,0:0:0:0:
448,192,99961,1,0,0:0:0:0:
448,192,100175,1,0,0:0:0:0:
320,192,100282,1,0,0:0:0:0:
192,192,100390,1,0,0:0:0:0:
64,192,100390,1,0,0:0:0:0:
320,192,100604,1,0,0:0:0:0:
448,192,100818,1,0,0:0:0:0:
64,192,100818,1,0,0:0:0:0:
192,192,101247,128,0,101675:0:0:0:0:
64,192,101675,1,0,0:0:0:0:
448,192,101675,1,0,0:0:0:0:
320,192,101890,1,0,0:0:0:0:
192,192,101997,1,0,0:0:0:0:
64,192,102104,1,0,0:0:0:0:
320,192,102211,1,0,0:0:0:0:
192,192,102318,1,0,0:0:0:0:
64,192,102425,1,0,0:0:0:0:
448,192,102532,1,0,0:0:0:0:
320,192,102532,1,0,0:0:0:0:
64,192,102747,1,0,0:0:0:0:
192,192,102854,1,0,0:0:0:0:
320,192,102961,1,0,0:0:0:0:
192,192,103175,1,0,0:0:0:0:
64,192,103390,1,0,0:0:0:0:
448,192,103390,1,0,0:0:0:0:
192,192,103604,1,0,0:0:0:0:
320,192,103711,1,0,0:0:0:0:
64,192,103818,1,0,0:0:0:0:
448,192,103818,1,0,0:0:0:0:
192,192,104032,1,0,0:0:0:0:
64,192,104247,1,0,0:0:0:0:
448,192,104247,1,0,0:0:0:0:
448,192,104890,1,0,0:0:0:0:
320,192,105104,1,0,0:0:0:0:
64,192,105104,1,0,0:0:0:0:
192,192,105318,1,0,0:0:0:0:
320,192,105425,1,0,0:0:0:0:
448,192,105532,1,0,0:0:0:0:
320,192,105747,1,0,0:0:0:0:
64,192,105961,1,0,0:0:0:0:
448,192,105961,1,0,0:0:0:0:
320,192,106175,1,0,0:0:0:0:
192,192,106390,1,0,0:0:0:0:
64,192,106604,1,0,0:0:0:0:
320,192,106818,1,0,0:0:0:0:
448,192,106818,1,0,0:0:0:0:
448,192,107032,1,0,0:0:0:0:
320,192,107140,1,0,0:0:0:0:
64,192,107247,1,0,0:0:0:0:
192,192,107247,1,0,0:0:0:0:
192,192,107461,1,0,0:0:0:0:
448,192,107675,1,0,0:0:0:0:
64,192,107675,1,0,0:0:0:0:
320,192,108318,1,0,0:0:0:0:
64,192,108532,1,0,0:0:0:0:
448,192,108532,1,0,0:0:0:0:
192,192,108747,1,0,0:0:0:0:
320,192,108854,1,0,0:0:0:0:
448,192,108961,1,0,0:0:0:0:
192,192,109068,1,0,0:0:0:0:
320,192,109175,1,0,0:0:0:0:
448,192,109282,1,0,0:0:0:0:
64,192,109390,1,0,0:0:0:0:
192,192,109390,1,0,0:0:0:0:
320,192,109604,1,0,0:0:0:0:
192,192,109711,1,0,0:0:0:0:
64,192,109818,1,0,0:0:0:0:
320,192,110032,1,0,0:0:0:0:
64,192,110247,1,0,0:0:0:0:
448,192,110247,1,0,0:0:0:0:
320,192,110461,1,0,0:0:0:0:
192,192,110568,1,0,0:0:0:0:
64,192,110675,1,0,0:0:0:0:
448,192,110675,1,0,0:0:0:0:
320,192,110890,1,0,0:0:0:0:
64,192,111104,1,0,0:0:0:0:
192,192,111104,1,0,0:0:0:0:
448,192,111104,1,0,0:0:0:0:
320,192,111211,1,0,0:0:0:0:
320,192,111318,1,0,0:0:0:0:
64,192,111425,1,0,0:0:0:0:
192,192,111425,1,0,0:0:0:0:
64,192,111532,1,0,0:0:0:0:
448,192,111532,1,0,0:0:0:0:
192,192,111640,1,0,0:0:0:0:
448,192,111747,1,0,0:0:0:0:
320,192,111747,128,0,111961:0:0:0:0:
64,192,111961,1,0,0:0:0:0:
192,192,111961,1,0,0:0:0:0:
448,192,111961,1,0,0:0:0:0:
64,192,112175,1,0,0:0:0:0:
192,192,112175,1,0,0:0:0:0:
448,192,112175,1,0,0:0:0:0:
64,192,112390,1,0,0:0:0:0:
192,192,112390,1,0,0:0:0:0:
448,192,112390,1,0,0:0:0:0:
64,192,112497,1,0,0:0:0:0:
192,192,112497,1,0,0:0:0:0:
448,192,112497,1,0,0:0:0:0:
64,192,112604,1,0,0:0:0:0:
448,192,112604,1,0,0:0:0:0:
320,192,112604,128,0,112818:0:0:0:0:
64,192,112818,1,0,0:0:0:0:
192,192,112818,1,0,0:0:0:0:
448,192,112818,1,0,0:0:0:0:
320,192,112925,1,0,0:0:0:0:
64,192,113032,1,0,0:0:0:0:
192,192,113032,1,0,0:0:0:0:
448,192,113032,1,0,0:0:0:0:
192,192,113140,1,0,0:0:0:0:
320,192,113140,1,0,0:0:0:0:
64,192,113247,1,0,0:0:0:0:
448,192,113247,1,0,0:0:0:0:
320,192,113247,1,0,0:0:0:0:
64,192,113354,1,0,0:0:0:0:
448,192,113354,1,0,0:0:0:0:
64,192,113461,1,0,0:0:0:0:
320,192,113461,1,0,0:0:0:0:
192,192,113461,128,0,113675:0:0:0:0:
64,192,113675,1,0,0:0:0:0:
320,192,113675,1,0,0:0:0:0:
448,192,113675,128,0,113997:0:0:0:0:
192,192,113782,1,0,0:0:0:0:
320,192,113890,1,0,0:0:0:0:
320,192,113997,128,0,114318:0:0:0:0:
64,192,113997,1,0,0:0:0:0:
192,192,113997,1,0,0:0:0:0:
448,192,114104,1,0,0:0:0:0:
192,192,114211,1,0,0:0:0:0:
64,192,114318,1,0,0:0:0:0:
448,192,114318,1,0,0:0:0:0:
192,192,114318,1,0,0:0:0:0:
64,192,114425,1,0,0:0:0:0:
448,192,114425,1,0,0:0:0:0:
64,192,114532,1,0,0:0:0:0:
320,192,114532,1,0,0:0:0:0:
448,192,114532,128,0,115390:0:0:0:0:
192,192,114640,1,0,0:0:0:0:
64,192,114747,1,0,0:0:0:0:
320,192,114854,1,0,0:0:0:0:
192,192,114961,1,0,0:0:0:0:
64,192,114961,1,0,0:0:0:0:
320,192,115068,1,0,0:0:0:0:
64,192,115175,1,0,0:0:0:0:
192,192,115282,1,0,0:0:0:0:
320,192,115390,1,0,0:0:0:0:
192,192,115390,1,0,0:0:0:0:
64,192,115390,128,0,115604:0:0:0:0:
192,192,115604,1,0,0:0:0:0:
320,192,115604,1,0,0:0:0:0:
448,192,115604,1,0,0:0:0:0:
64,192,115818,1,0,0:0:0:0:
448,192,115818,1,0,0:0:0:0:
192,192,115818,1,0,0:0:0:0:
64,192,115925,1,0,0:0:0:0:
448,192,115925,1,0,0:0:0:0:
192,192,115925,1,0,0:0:0:0:
320,192,116032,128,0,116193:0:0:0:0:
448,192,116032,128,0,116193:0:0:0:0:
64,192,116140,128,0,116193:0:0:0:0:
192,192,116140,128,0,116193:0:0:0:0:
64,192,116247,1,0,0:0:0:0:
320,192,116247,1,0,0:0:0:0:
448,192,116247,1,0,0:0:0:0:
192,192,116354,1,0,0:0:0:0:
64,192,116461,1,0,0:0:0:0:
448,192,116461,1,0,0:0:0:0:
192,192,116568,1,0,0:0:0:0:
320,192,116568,1,0,0:0:0:0:
64,192,116568,1,0,0:0:0:0:
448,192,116675,1,0,0:0:0:0:
64,192,116782,1,0,0:0:0:0:
192,192,116782,1,0,0:0:0:0:
192,192,116890,1,0,0:0:0:0:
320,192,116890,1,0,0:0:0:0:
448,192,116890,1,0,0:0:0:0:
320,192,116997,1,0,0:0:0:0:
192,192,117104,1,0,0:0:0:0:
64,192,117104,1,0,0:0:0:0:
448,192,117104,1,0,0:0:0:0:
64,192,117318,1,0,0:0:0:0:
448,192,117318,1,0,0:0:0:0:
64,192,117532,1,0,0:0:0:0:
448,192,117532,1,0,0:0:0:0:
192,192,117532,1,0,0:0:0:0:
192,192,117640,1,0,0:0:0:0:
64,192,117747,1,0,0:0:0:0:
448,192,117747,1,0,0:0:0:0:
320,192,117782,1,0,0:0:0:0:
448,192,117854,1,0,0:0:0:0:
320,192,117890,1,0,0:0:0:0:
64,192,117961,1,0,0:0:0:0:
448,192,117961,1,0,0:0:0:0:
320,192,117997,1,0,0:0:0:0:
448,192,118068,1,0,0:0:0:0:
64,192,118068,1,0,0:0:0:0:
320,192,118104,1,0,0:0:0:0:
448,192,118175,1,0,0:0:0:0:
64,192,118175,1,0,0:0:0:0:
320,192,118202,1,0,0:0:0:0:
192,192,118229,1,0,0:0:0:0:
64,192,118256,1,0,0:0:0:0:
448,192,118282,1,0,0:0:0:0:
320,192,118336,1,0,0:0:0:0:
64,192,118390,1,0,0:0:0:0:
448,192,118390,1,0,0:0:0:0:
192,192,118390,128,0,118604:0:0:0:0:
320,192,118604,128,0,118818:0:0:0:0:
192,192,118818,1,0,0:0:0:0:
448,192,118818,1,0,0:0:0:0:
64,192,118818,128,0,119032:0:0:0:0:
320,192,119032,1,0,0:0:0:0:
448,192,119032,1,0,0:0:0:0:
192,192,119032,128,0,119247:0:0:0:0:
64,192,119247,128,0,119300:0:0:0:0:
448,192,119247,128,0,119300:0:0:0:0:
320,192,119247,1,0,0:0:0:0:
64,192,119354,128,0,119407:0:0:0:0:
448,192,119354,128,0,119407:0:0:0:0:
320,192,119354,1,0,0:0:0:0:
64,192,119461,128,0,119622:0:0:0:0:
448,192,119461,128,0,119675:0:0:0:0:
320,192,119461,1,0,0:0:0:0:
64,192,119675,1,0,0:0:0:0:
192,192,119675,1,0,0:0:0:0:
320,192,119675,1,0,0:0:0:0:
320,192,119782,128,0,119890:0:0:0:0:
64,192,119890,128,0,119997:0:0:0:0:
192,192,119890,128,0,119997:0:0:0:0:
448,192,119890,128,0,119997:0:0:0:0:
320,192,119997,128,0,120050:0:0:0:0:
64,192,120104,128,0,120265:0:0:0:0:
192,192,120104,128,0,120265:0:0:0:0:
448,192,120104,128,0,120265:0:0:0:0:
64,192,120318,1,0,0:0:0:0:
192,192,120318,1,0,0:0:0:0:
448,192,120318,1,0,0:0:0:0:
192,192,120425,1,0,0:0:0:0:
64,192,120532,1,0,0:0:0:0:
320,192,120532,1,0,0:0:0:0:
448,192,120532,1,0,0:0:0:0:
320,192,120640,1,0,0:0:0:0:
64,192,120747,1,0,0:0:0:0:
448,192,120747,1,0,0:0:0:0:
64,192,120854,1,0,0:0:0:0:
192,192,120854,1,0,0:0:0:0:
320,192,120854,1,0,0:0:0:0:
192,192,120961,1,0,0:0:0:0:
320,192,121068,1,0,0:0:0:0:
448,192,121068,1,0,0:0:0:0:
64,192,121175,1,0,0:0:0:0:
448,192,121175,1,0,0:0:0:0:
192,192,121175,1,0,0:0:0:0:
192,192,121282,1,0,0:0:0:0:
320,192,121282,1,0,0:0:0:0:
64,192,121390,1,0,0:0:0:0:
320,192,121390,1,0,0:0:0:0:
448,192,121390,1,0,0:0:0:0:
192,192,121497,1,0,0:0:0:0:
64,192,121604,1,0,0:0:0:0:
448,192,121604,1,0,0:0:0:0:
320,192,121711,1,0,0:0:0:0:
64,192,121818,1,0,0:0:0:0:
192,192,121818,1,0,0:0:0:0:
448,192,121818,1,0,0:0:0:0:
192,192,121925,1,0,0:0:0:0:
320,192,122032,1,0,0:0:0:0:
64,192,122032,1,0,0:0:0:0:
64,192,122247,1,0,0:0:0:0:
448,192,122247,1,0,0:0:0:0:
320,192,122247,128,0,122622:0:0:0:0:
64,192,122461,1,0,0:0:0:0:
448,192,122461,1,0,0:0:0:0:
192,192,122461,128,0,122675:0:0:0:0:
64,192,122675,1,0,0:0:0:0:
320,192,122675,1,0,0:0:0:0:
448,192,122675,1,0,0:0:0:0:
64,192,122782,1,0,0:0:0:0:
320,192,122782,1,0,0:0:0:0:
448,192,122782,1,0,0:0:0:0:
64,192,122890,1,0,0:0:0:0:
448,192,122890,1,0,0:0:0:0:
192,192,122890,1,0,0:0:0:0:
192,192,122997,1,0,0:0:0:0:
320,192,123104,1,0,0:0:0:0:
448,192,123104,1,0,0:0:0:0:
64,192,123104,1,0,0:0:0:0:
192,192,123211,1,0,0:0:0:0:
64,192,123318,1,0,0:0:0:0:
448,192,123318,1,0,0:0:0:0:
64,192,123425,1,0,0:0:0:0:
192,192,123425,1,0,0:0:0:0:
320,192,123425,1,0,0:0:0:0:
448,192,123532,1,0,0:0:0:0:
192,192,123640,1,0,0:0:0:0:
320,192,123640,1,0,0:0:0:0:
64,192,123747,1,0,0:0:0:0:
448,192,123747,1,0,0:0:0:0:
192,192,123747,1,0,0:0:0:0:
64,192,123854,1,0,0:0:0:0:
192,192,123961,1,0,0:0:0:0:
448,192,123961,1,0,0:0:0:0:
320,192,123961,1,0,0:0:0:0:
64,192,124175,1,0,0:0:0:0:
448,192,124175,1,0,0:0:0:0:
64,192,124390,1,0,0:0:0:0:
192,192,124390,1,0,0:0:0:0:
320,192,124390,1,0,0:0:0:0:
448,192,124604,1,0,0:0:0:0:
192,192,124604,1,0,0:0:0:0:
64,192,124818,1,0,0:0:0:0:
320,192,124818,1,0,0:0:0:0:
448,192,124818,1,0,0:0:0:0:
64,192,124925,1,0,0:0:0:0:
320,192,124925,1,0,0:0:0:0:
448,192,124925,1,0,0:0:0:0:
448,192,125032,1,0,0:0:0:0:
320,192,125059,1,0,0:0:0:0:
64,192,125086,1,0,0:0:0:0:
192,192,125113,1,0,0:0:0:0:
320,192,125140,1,0,0:0:0:0:
448,192,125140,1,0,0:0:0:0:
64,192,125166,1,0,0:0:0:0:
192,192,125193,1,0,0:0:0:0:
448,192,125220,1,0,0:0:0:0:
320,192,125247,1,0,0:0:0:0:
64,192,125247,128,0,125675:0:0:0:0:
320,192,125675,1,0,0:0:0:0:
448,192,125675,1,0,0:0:0:0:
192,192,125675,1,0,0:0:0:0:
64,192,125890,1,0,0:0:0:0:
192,192,125890,1,0,0:0:0:0:
320,192,125890,1,0,0:0:0:0:
64,192,126104,1,0,0:0:0:0:
320,192,126104,1,0,0:0:0:0:
448,192,126104,1,0,0:0:0:0:
64,192,126211,1,0,0:0:0:0:
320,192,126211,1,0,0:0:0:0:
448,192,126211,1,0,0:0:0:0:
64,192,126318,1,0,0:0:0:0:
448,192,126318,1,0,0:0:0:0:
320,192,126318,128,0,126532:0:0:0:0:
64,192,126532,1,0,0:0:0:0:
192,192,126532,1,0,0:0:0:0:
448,192,126532,1,0,0:0:0:0:
192,192,126640,1,0,0:0:0:0:
64,192,126747,1,0,0:0:0:0:
448,192,126747,1,0,0:0:0:0:
320,192,126854,1,0,0:0:0:0:
448,192,126854,1,0,0:0:0:0:
64,192,126854,1,0,0:0:0:0:
192,192,126961,1,0,0:0:0:0:
320,192,126961,1,0,0:0:0:0:
64,192,127068,1,0,0:0:0:0:
448,192,127068,1,0,0:0:0:0:
64,192,127175,1,0,0:0:0:0:
320,192,127175,1,0,0:0:0:0:
192,192,127175,128,0,127390:0:0:0:0:
64,192,127390,1,0,0:0:0:0:
320,192,127390,1,0,0:0:0:0:
448,192,127390,1,0,0:0:0:0:
192,192,127497,1,0,0:0:0:0:
64,192,127604,1,0,0:0:0:0:
448,192,127604,1,0,0:0:0:0:
64,192,127711,1,0,0:0:0:0:
192,192,127711,1,0,0:0:0:0:
320,192,127711,1,0,0:0:0:0:
448,192,127818,1,0,0:0:0:0:
64,192,127925,1,0,0:0:0:0:
192,192,127925,1,0,0:0:0:0:
320,192,128032,1,0,0:0:0:0:
448,192,128032,1,0,0:0:0:0:
64,192,128032,1,0,0:0:0:0:
64,192,128140,1,0,0:0:0:0:
192,192,128140,1,0,0:0:0:0:
448,192,128140,1,0,0:0:0:0:
64,192,128247,1,0,0:0:0:0:
320,192,128247,1,0,0:0:0:0:
448,192,128247,1,0,0:0:0:0:
192,192,128354,128,0,128407:0:0:0:0:
320,192,128461,128,0,128515:0:0:0:0:
64,192,128461,1,0,0:0:0:0:
448,192,128568,128,0,128622:0:0:0:0:
64,192,128675,1,0,0:0:0:0:
192,192,128675,1,0,0:0:0:0:
448,192,128675,128,0,128729:0:0:0:0:
320,192,128782,128,0,128836:0:0:0:0:
192,192,128890,128,0,128943:0:0:0:0:
64,192,128890,1,0,0:0:0:0:
448,192,128890,1,0,0:0:0:0:
64,192,128997,128,0,129050:0:0:0:0:
192,192,129104,1,0,0:0:0:0:
320,192,129104,1,0,0:0:0:0:
448,192,129104,128,0,129318:0:0:0:0:
64,192,129318,1,0,0:0:0:0:
320,192,129318,1,0,0:0:0:0:
192,192,129318,128,0,129532:0:0:0:0:
64,192,129532,1,0,0:0:0:0:
320,192,129532,1,0,0:0:0:0:
448,192,129532,1,0,0:0:0:0:
64,192,129640,1,0,0:0:0:0:
320,192,129640,1,0,0:0:0:0:
448,192,129640,1,0,0:0:0:0:
64,192,129747,1,0,0:0:0:0:
448,192,129747,1,0,0:0:0:0:
192,192,129800,1,0,0:0:0:0:
320,192,129854,1,0,0:0:0:0:
192,192,129907,1,0,0:0:0:0:
64,192,129961,1,0,0:0:0:0:
448,192,129961,128,0,130175:0:0:0:0:
320,192,130175,128,0,130336:0:0:0:0:
64,192,130175,1,0,0:0:0:0:
64,192,130282,1,0,0:0:0:0:
192,192,130282,1,0,0:0:0:0:
320,192,130390,128,0,130604:0:0:0:0:
64,192,130497,1,0,0:0:0:0:
448,192,130497,1,0,0:0:0:0:
64,192,130604,1,0,0:0:0:0:
192,192,130604,128,0,130818:0:0:0:0:
64,192,130818,1,0,0:0:0:0:
320,192,130818,1,0,0:0:0:0:
448,192,130818,1,0,0:0:0:0:
64,192,131032,1,0,0:0:0:0:
448,192,131032,1,0,0:0:0:0:
64,192,131247,1,0,0:0:0:0:
192,192,131247,1,0,0:0:0:0:
448,192,131247,1,0,0:0:0:0:
192,192,131461,1,0,0:0:0:0:
320,192,131461,1,0,0:0:0:0:
64,192,131675,1,0,0:0:0:0:
320,192,131675,1,0,0:0:0:0:
448,192,131675,1,0,0:0:0:0:
64,192,131782,1,0,0:0:0:0:
320,192,131782,1,0,0:0:0:0:
448,192,131782,1,0,0:0:0:0:
64,192,131890,1,0,0:0:0:0:
192,192,131916,1,0,0:0:0:0:
448,192,131943,1,0,0:0:0:0:
320,192,131970,1,0,0:0:0:0:
64,192,131997,1,0,0:0:0:0:
192,192,131997,1,0,0:0:0:0:
64,192,132104,1,0,0:0:0:0:
448,192,132104,1,0,0:0:0:0:
320,192,132104,128,0,132318:0:0:0:0:
192,192,132318,128,0,132479:0:0:0:0:
448,192,132532,1,0,0:0:0:0:
64,192,132532,128,0,132747:0:0:0:0:
192,192,132532,1,0,0:0:0:0:
192,192,132747,1,0,0:0:0:0:
320,192,132747,1,0,0:0:0:0:
448,192,132747,1,0,0:0:0:0:
64,192,132961,1,0,0:0:0:0:
192,192,132961,1,0,0:0:0:0:
448,192,132961,1,0,0:0:0:0:
64,192,133068,1,0,0:0:0:0:
192,192,133068,1,0,0:0:0:0:
448,192,133068,1,0,0:0:0:0:
448,192,133175,1,0,0:0:0:0:
192,192,133175,1,0,0:0:0:0:
64,192,133175,128,0,133390:0:0:0:0:
320,192,133390,1,0,0:0:0:0:
448,192,133390,1,0,0:0:0:0:
192,192,133390,1,0,0:0:0:0:
448,192,133497,1,0,0:0:0:0:
320,192,133604,1,0,0:0:0:0:
192,192,133604,1,0,0:0:0:0:
64,192,133604,1,0,0:0:0:0:
320,192,133711,1,0,0:0:0:0:
64,192,133818,1,0,0:0:0:0:
192,192,133818,1,0,0:0:0:0:
448,192,133818,1,0,0:0:0:0:
192,192,133925,1,0,0:0:0:0:
64,192,134032,1,0,0:0:0:0:
320,192,134032,1,0,0:0:0:0:
448,192,134032,1,0,0:0:0:0:
64,192,134140,1,0,0:0:0:0:
192,192,134247,1,0,0:0:0:0:
320,192,134247,1,0,0:0:0:0:
448,192,134247,1,0,0:0:0:0:
64,192,134354,1,0,0:0:0:0:
320,192,134461,1,0,0:0:0:0:
448,192,134461,1,0,0:0:0:0:
448,192,134568,1,0,0:0:0:0:
192,192,134568,1,0,0:0:0:0:
64,192,134568,1,0,0:0:0:0:
320,192,134675,1,0,0:0:0:0:
64,192,134782,1,0,0:0:0:0:
192,192,134782,1,0,0:0:0:0:
64,192,134890,1,0,0:0:0:0:
320,192,134890,1,0,0:0:0:0:
448,192,134890,1,0,0:0:0:0:
192,192,134997,1,0,0:0:0:0:
320,192,134997,1,0,0:0:0:0:
192,192,135104,1,0,0:0:0:0:
448,192,135104,1,0,0:0:0:0:
64,192,135104,128,0,135532:0:0:0:0:
320,192,135211,1,0,0:0:0:0:
320,192,135318,1,0,0:0:0:0:
448,192,135318,1,0,0:0:0:0:
192,192,135532,128,0,135961:0:0:0:0:
320,192,135532,1,0,0:0:0:0:
448,192,135532,1,0,0:0:0:0:
64,192,135747,1,0,0:0:0:0:
448,192,135747,1,0,0:0:0:0:
320,192,135961,1,0,0:0:0:0:
64,192,135961,128,0,136336:0:0:0:0:
448,192,135961,128,0,136390:0:0:0:0:
64,192,136390,1,0,0:0:0:0:
192,192,136390,1,0,0:0:0:0:
320,192,136390,1,0,0:0:0:0:
448,192,136604,1,0,0:0:0:0:
64,192,136604,1,0,0:0:0:0:
192,192,136604,1,0,0:0:0:0:
64,192,136818,1,0,0:0:0:0:
320,192,136818,1,0,0:0:0:0:
448,192,136818,1,0,0:0:0:0:
64,192,137032,1,0,0:0:0:0:
192,192,137032,1,0,0:0:0:0:
448,192,137032,1,0,0:0:0:0:
64,192,137140,1,0,0:0:0:0:
192,192,137140,1,0,0:0:0:0:
448,192,137140,1,0,0:0:0:0:
448,192,137247,1,0,0:0:0:0:
320,192,137274,1,0,0:0:0:0:
64,192,137300,1,0,0:0:0:0:
192,192,137327,1,0,0:0:0:0:
320,192,137354,1,0,0:0:0:0:
448,192,137354,1,0,0:0:0:0:
64,192,137461,1,0,0:0:0:0:
192,192,137461,1,0,0:0:0:0:
320,192,137461,1,0,0:0:0:0:
64,192,137675,1,0,0:0:0:0:
320,192,137675,1,0,0:0:0:0:
448,192,137675,1,0,0:0:0:0:
64,192,137782,1,0,0:0:0:0:
320,192,137782,1,0,0:0:0:0:
448,192,137782,1,0,0:0:0:0:
64,192,137890,1,0,0:0:0:0:
320,192,137890,1,0,0:0:0:0:
448,192,137890,1,0,0:0:0:0:
64,192,137997,1,0,0:0:0:0:
192,192,137997,1,0,0:0:0:0:
448,192,137997,1,0,0:0:0:0:
320,192,138104,1,0,0:0:0:0:
192,192,138104,1,0,0:0:0:0:
64,192,138104,1,0,0:0:0:0:
192,192,138318,1,0,0:0:0:0:
320,192,138318,1,0,0:0:0:0:
448,192,138318,1,0,0:0:0:0:
64,192,138532,1,0,0:0:0:0:
448,192,138532,1,0,0:0:0:0:
192,192,138532,128,0,138961:0:0:0:0:
64,192,138961,1,0,0:0:0:0:
448,192,138961,1,0,0:0:0:0:
320,192,139390,1,0,0:0:0:0:
448,192,139390,1,0,0:0:0:0:
192,192,139604,1,0,0:0:0:0:
320,192,139711,1,0,0:0:0:0:
64,192,139818,1,0,0:0:0:0:
448,192,139818,1,0,0:0:0:0:
320,192,139925,1,0,0:0:0:0:
192,192,140032,1,0,0:0:0:0:
64,192,140140,1,0,0:0:0:0:
320,192,140247,1,0,0:0:0:0:
448,192,140247,1,0,0:0:0:0:
64,192,140354,1,0,0:0:0:0:
192,192,140461,1,0,0:0:0:0:
320,192,140568,1,0,0:0:0:0:
64,192,140675,1,0,0:0:0:0:
448,192,140675,1,0,0:0:0:0:
192,192,140782,1,0,0:0:0:0:
448,192,140890,1,0,0:0:0:0:
320,192,140997,1,0,0:0:0:0:
64,192,141104,1,0,0:0:0:0:
192,192,141104,1,0,0:0:0:0:
448,192,141104,1,0,0:0:0:0:
64,192,141318,1,0,0:0:0:0:
448,192,141318,1,0,0:0:0:0:
192,192,141318,1,0,0:0:0:0:
64,192,141425,1,0,0:0:0:0:
448,192,141425,1,0,0:0:0:0:
320,192,141425,1,0,0:0:0:0:
192,192,141532,1,0,0:0:0:0:
320,192,141532,1,0,0:0:0:0:
448,192,141532,1,0,0:0:0:0:
64,192,141640,1,0,0:0:0:0:
192,192,141640,1,0,0:0:0:0:
320,192,141640,1,0,0:0:0:0:
192,192,141747,1,0,0:0:0:0:
320,192,141747,1,0,0:0:0:0:
448,192,141747,1,0,0:0:0:0:
64,192,141854,1,0,0:0:0:0:
320,192,141854,1,0,0:0:0:0:
448,192,141854,1,0,0:0:0:0:
64,192,141961,1,0,0:0:0:0:
192,192,141961,1,0,0:0:0:0:
448,192,141961,1,0,0:0:0:0:
64,192,142175,128,0,142390:0:0:0:0:
320,192,142390,128,0,142604:0:0:0:0:
192,192,142604,128,0,142818:0:0:0:0:
64,192,142818,1,0,0:0:0:0:
448,192,142818,1,0,0:0:0:0:
320,192,142872,1,0,0:0:0:0:
192,192,142925,1,0,0:0:0:0:
64,192,142979,1,0,0:0:0:0:
320,192,143032,1,0,0:0:0:0:
448,192,143086,1,0,0:0:0:0:
192,192,143140,1,0,0:0:0:0:
64,192,143193,1,0,0:0:0:0:
448,192,143247,1,0,0:0:0:0:
320,192,143300,1,0,0:0:0:0:
64,192,143354,1,0,0:0:0:0:
192,192,143407,1,0,0:0:0:0:
448,192,143461,1,0,0:0:0:0:
320,192,143515,1,0,0:0:0:0:
192,192,143568,1,0,0:0:0:0:
64,192,143622,1,0,0:0:0:0:
448,192,143675,1,0,0:0:0:0:
320,192,143729,1,0,0:0:0:0:
64,192,143782,1,0,0:0:0:0:
192,192,143836,1,0,0:0:0:0:
448,192,143890,1,0,0:0:0:0:
320,192,143943,1,0,0:0:0:0:
64,192,143997,1,0,0:0:0:0:
192,192,144050,1,0,0:0:0:0:
448,192,144104,128,0,144318:0:0:0:0:
64,192,144104,1,0,0:0:0:0:
320,192,144318,128,0,144532:0:0:0:0:
64,192,144532,1,0,0:0:0:0:
192,192,144532,1,0,0:0:0:0:
448,192,144532,1,0,0:0:0:0:
192,192,144640,1,0,0:0:0:0:
64,192,144747,1,0,0:0:0:0:
320,192,144747,1,0,0:0:0:0:
448,192,144747,1,0,0:0:0:0:
192,192,144854,1,0,0:0:0:0:
64,192,144961,1,0,0:0:0:0:
320,192,144961,1,0,0:0:0:0:
448,192,144961,1,0,0:0:0:0:
320,192,145068,1,0,0:0:0:0:
64,192,145175,1,0,0:0:0:0:
192,192,145175,1,0,0:0:0:0:
448,192,145175,1,0,0:0:0:0:
192,192,145282,1,0,0:0:0:0:
64,192,145390,1,0,0:0:0:0:
320,192,145390,1,0,0:0:0:0:
448,192,145390,1,0,0:0:0:0:
192,192,145497,1,0,0:0:0:0:
64,192,145604,1,0,0:0:0:0:
320,192,145604,1,0,0:0:0:0:
448,192,145604,1,0,0:0:0:0:
320,192,145711,1,0,0:0:0:0:
64,192,145818,1,0,0:0:0:0:
192,192,145818,1,0,0:0:0:0:
448,192,145818,1,0,0:0:0:0:
448,192,145925,1,0,0:0:0:0:
320,192,146032,1,0,0:0:0:0:
192,192,146032,1,0,0:0:0:0:
64,192,146032,1,0,0:0:0:0:
64,192,146140,1,0,0:0:0:0:
192,192,146247,1,0,0:0:0:0:
320,192,146247,1,0,0:0:0:0:
448,192,146247,1,0,0:0:0:0:
320,192,146354,1,0,0:0:0:0:
64,192,146461,1,0,0:0:0:0:
192,192,146461,1,0,0:0:0:0:
448,192,146461,1,0,0:0:0:0:
320,192,146568,1,0,0:0:0:0:
64,192,146675,1,0,0:0:0:0:
192,192,146675,1,0,0:0:0:0:
448,192,146675,1,0,0:0:0:0:
320,192,146782,1,0,0:0:0:0:
64,192,146890,1,0,0:0:0:0:
192,192,146890,1,0,0:0:0:0:
448,192,146890,1,0,0:0:0:0:
320,192,146997,1,0,0:0:0:0:
64,192,147104,1,0,0:0:0:0:
192,192,147104,1,0,0:0:0:0:
448,192,147104,1,0,0:0:0:0:
320,192,147211,1,0,0:0:0:0:
64,192,147318,1,0,0:0:0:0:
192,192,147318,1,0,0:0:0:0:
448,192,147318,1,0,0:0:0:0:
192,192,147425,1,0,0:0:0:0:
64,192,147532,1,0,0:0:0:0:
320,192,147532,1,0,0:0:0:0:
448,192,147532,1,0,0:0:0:0:
64,192,147640,1,0,0:0:0:0:
192,192,147747,1,0,0:0:0:0:
320,192,147747,1,0,0:0:0:0:
448,192,147747,1,0,0:0:0:0:
448,192,147854,1,0,0:0:0:0:
64,192,147961,1,0,0:0:0:0:
192,192,147961,1,0,0:0:0:0:
320,192,147961,1,0,0:0:0:0:
192,192,148068,1,0,0:0:0:0:
64,192,148175,1,0,0:0:0:0:
320,192,148175,1,0,0:0:0:0:
448,192,148175,1,0,0:0:0:0:
192,192,148247,1,0,0:0:0:0:
320,192,148318,1,0,0:0:0:0:
448,192,148390,1,0,0:0:0:0:
192,192,148390,1,0,0:0:0:0:
64,192,148390,1,0,0:0:0:0:
64,192,148497,1,0,0:0:0:0:
192,192,148604,1,0,0:0:0:0:
320,192,148604,1,0,0:0:0:0:
448,192,148604,1,0,0:0:0:0:
320,192,148711,1,0,0:0:0:0:
64,192,148818,1,0,0:0:0:0:
192,192,148818,1,0,0:0:0:0:
448,192,148818,1,0,0:0:0:0:
192,192,148925,1,0,0:0:0:0:
64,192,149032,1,0,0:0:0:0:
320,192,149032,1,0,0:0:0:0:
448,192,149032,1,0,0:0:0:0:
448,192,149140,1,0,0:0:0:0:
64,192,149247,1,0,0:0:0:0:
192,192,149247,1,0,0:0:0:0:
320,192,149247,1,0,0:0:0:0:
64,192,149354,1,0,0:0:0:0:
192,192,149461,1,0,0:0:0:0:
320,192,149461,1,0,0:0:0:0:
448,192,149461,1,0,0:0:0:0:
448,192,149568,1,0,0:0:0:0:
64,192,149675,1,0,0:0:0:0:
192,192,149675,1,0,0:0:0:0:
320,192,149675,1,0,0:0:0:0:
192,192,149782,1,0,0:0:0:0:
64,192,149890,1,0,0:0:0:0:
320,192,149890,1,0,0:0:0:0:
448,192,149890,1,0,0:0:0:0:
320,192,149997,1,0,0:0:0:0:
64,192,150104,1,0,0:0:0:0:
192,192,150104,1,0,0:0:0:0:
448,192,150104,1,0,0:0:0:0:
320,192,150211,1,0,0:0:0:0:
192,192,150318,1,0,0:0:0:0:
64,192,150318,1,0,0:0:0:0:
448,192,150318,1,0,0:0:0:0:
320,192,150425,1,0,0:0:0:0:
64,192,150532,1,0,0:0:0:0:
192,192,150532,1,0,0:0:0:0:
448,192,150532,1,0,0:0:0:0:
320,192,150640,1,0,0:0:0:0:
64,192,150747,1,0,0:0:0:0:
192,192,150747,1,0,0:0:0:0:
448,192,150747,1,0,0:0:0:0:
192,192,150854,1,0,0:0:0:0:
64,192,150961,1,0,0:0:0:0:
320,192,150961,1,0,0:0:0:0:
448,192,150961,1,0,0:0:0:0:
64,192,151068,1,0,0:0:0:0:
192,192,151175,1,0,0:0:0:0:
448,192,151175,1,0,0:0:0:0:
320,192,151175,1,0,0:0:0:0:
448,192,151282,1,0,0:0:0:0:
320,192,151390,1,0,0:0:0:0:
192,192,151390,1,0,0:0:0:0:
64,192,151390,1,0,0:0:0:0:
192,192,151497,1,0,0:0:0:0:
64,192,151604,1,0,0:0:0:0:
320,192,151604,1,0,0:0:0:0:
448,192,151604,1,0,0:0:0:0:
192,192,151711,1,0,0:0:0:0:
64,192,151818,1,0,0:0:0:0:
320,192,151818,1,0,0:0:0:0:
448,192,151818,1,0,0:0:0:0:
320,192,151925,1,0,0:0:0:0:
64,192,152032,1,0,0:0:0:0:
192,192,152032,1,0,0:0:0:0:
448,192,152032,1,0,0:0:0:0:
192,192,152140,1,0,0:0:0:0:
64,192,152247,1,0,0:0:0:0:
320,192,152247,1,0,0:0:0:0:
448,192,152247,1,0,0:0:0:0:
192,192,152354,1,0,0:0:0:0:
64,192,152461,1,0,0:0:0:0:
320,192,152461,1,0,0:0:0:0:
448,192,152461,1,0,0:0:0:0:
320,192,152568,1,0,0:0:0:0:
448,192,152675,1,0,0:0:0:0:
192,192,152675,1,0,0:0:0:0:
64,192,152675,1,0,0:0:0:0:
448,192,152782,1,0,0:0:0:0:
320,192,152890,1,0,0:0:0:0:
192,192,152890,1,0,0:0:0:0:
64,192,152890,1,0,0:0:0:0:
64,192,152997,1,0,0:0:0:0:
192,192,153104,1,0,0:0:0:0:
320,192,153104,1,0,0:0:0:0:
448,192,153104,1,0,0:0:0:0:
320,192,153211,1,0,0:0:0:0:
64,192,153318,1,0,0:0:0:0:
192,192,153318,1,0,0:0:0:0:
448,192,153318,1,0,0:0:0:0:
320,192,153425,1,0,0:0:0:0:
192,192,153479,1,0,0:0:0:0:
64,192,153532,1,0,0:0:0:0:
320,192,153532,1,0,0:0:0:0:
448,192,153532,1,0,0:0:0:0:
192,192,153640,1,0,0:0:0:0:
64,192,153747,1,0,0:0:0:0:
448,192,153747,1,0,0:0:0:0:
320,192,153747,1,0,0:0:0:0:
192,192,153854,1,0,0:0:0:0:
64,192,153961,1,0,0:0:0:0:
320,192,153961,1,0,0:0:0:0:
448,192,153961,1,0,0:0:0:0:
192,192,154068,1,0,0:0:0:0:
64,192,154175,1,0,0:0:0:0:
320,192,154175,1,0,0:0:0:0:
448,192,154175,1,0,0:0:0:0:
320,192,154282,1,0,0:0:0:0:
64,192,154390,1,0,0:0:0:0:
192,192,154390,1,0,0:0:0:0:
448,192,154390,1,0,0:0:0:0:
192,192,154497,1,0,0:0:0:0:
320,192,154604,1,0,0:0:0:0:
448,192,154604,1,0,0:0:0:0:
64,192,154604,1,0,0:0:0:0:
64,192,154711,1,0,0:0:0:0:
192,192,154818,1,0,0:0:0:0:
320,192,154818,1,0,0:0:0:0:
448,192,154818,1,0,0:0:0:0:
320,192,154925,1,0,0:0:0:0:
448,192,155032,1,0,0:0:0:0:
192,192,155032,1,0,0:0:0:0:
64,192,155032,1,0,0:0:0:0:
320,192,155104,1,0,0:0:0:0:
192,192,155175,1,0,0:0:0:0:
64,192,155247,1,0,0:0:0:0:
320,192,155247,1,0,0:0:0:0:
448,192,155247,1,0,0:0:0:0:
448,192,155354,1,0,0:0:0:0:
64,192,155461,1,0,0:0:0:0:
192,192,155461,1,0,0:0:0:0:
320,192,155461,1,0,0:0:0:0:
192,192,155568,1,0,0:0:0:0:
64,192,155675,1,0,0:0:0:0:
320,192,155675,1,0,0:0:0:0:
448,192,155675,1,0,0:0:0:0:
320,192,155782,1,0,0:0:0:0:
64,192,155890,1,0,0:0:0:0:
192,192,155890,1,0,0:0:0:0:
448,192,155890,1,0,0:0:0:0:
64,192,155997,1,0,0:0:0:0:
192,192,156104,1,0,0:0:0:0:
320,192,156104,1,0,0:0:0:0:
448,192,156104,1,0,0:0:0:0:
448,192,156211,1,0,0:0:0:0:
64,192,156318,1,0,0:0:0:0:
192,192,156318,1,0,0:0:0:0:
320,192,156318,1,0,0:0:0:0:
192,192,156425,1,0,0:0:0:0:
64,192,156532,1,0,0:0:0:0:
320,192,156532,1,0,0:0:0:0:
448,192,156532,1,0,0:0:0:0:
448,192,156640,1,0,0:0:0:0:
320,192,156747,1,0,0:0:0:0:
192,192,156747,1,0,0:0:0:0:
64,192,156747,1,0,0:0:0:0:
192,192,156854,1,0,0:0:0:0:
64,192,156961,1,0,0:0:0:0:
448,192,156961,1,0,0:0:0:0:
320,192,156961,1,0,0:0:0:0:
192,192,157068,1,0,0:0:0:0:
64,192,157175,1,0,0:0:0:0:
320,192,157175,1,0,0:0:0:0:
448,192,157175,1,0,0:0:0:0:
192,192,157282,1,0,0:0:0:0:
64,192,157390,1,0,0:0:0:0:
320,192,157390,1,0,0:0:0:0:
448,192,157390,1,0,0:0:0:0:
192,192,157497,1,0,0:0:0:0:
64,192,157604,1,0,0:0:0:0:
320,192,157604,1,0,0:0:0:0:
448,192,157604,1,0,0:0:0:0:
192,192,157711,1,0,0:0:0:0:
64,192,157818,1,0,0:0:0:0:
448,192,157818,1,0,0:0:0:0:
320,192,157818,1,0,0:0:0:0:
320,192,157925,1,0,0:0:0:0:
192,192,158032,1,0,0:0:0:0:
64,192,158032,1,0,0:0:0:0:
448,192,158032,1,0,0:0:0:0:
64,192,158140,1,0,0:0:0:0:
192,192,158247,1,0,0:0:0:0:
320,192,158247,1,0,0:0:0:0:
448,192,158247,1,0,0:0:0:0:
320,192,158354,1,0,0:0:0:0:
64,192,158461,1,0,0:0:0:0:
192,192,158461,1,0,0:0:0:0:
448,192,158461,1,0,0:0:0:0:
320,192,158568,1,0,0:0:0:0:
64,192,158675,1,0,0:0:0:0:
192,192,158675,1,0,0:0:0:0:
448,192,158675,1,0,0:0:0:0:
192,192,158782,1,0,0:0:0:0:
320,192,158890,1,0,0:0:0:0:
448,192,158890,1,0,0:0:0:0:
64,192,158890,1,0,0:0:0:0:
320,192,158997,1,0,0:0:0:0:
64,192,159104,1,0,0:0:0:0:
192,192,159104,1,0,0:0:0:0:
448,192,159104,1,0,0:0:0:0:
192,192,159211,1,0,0:0:0:0:
64,192,159318,1,0,0:0:0:0:
320,192,159318,1,0,0:0:0:0:
448,192,159318,1,0,0:0:0:0:
192,192,159425,1,0,0:0:0:0:
64,192,159532,1,0,0:0:0:0:
320,192,159532,1,0,0:0:0:0:
448,192,159532,1,0,0:0:0:0:
448,192,159640,1,0,0:0:0:0:
320,192,159747,1,0,0:0:0:0:
192,192,159747,1,0,0:0:0:0:
64,192,159747,1,0,0:0:0:0:
64,192,159854,1,0,0:0:0:0:
192,192,159961,1,0,0:0:0:0:
320,192,159961,1,0,0:0:0:0:
448,192,159961,1,0,0:0:0:0:
320,192,160068,1,0,0:0:0:0:
64,192,160175,1,0,0:0:0:0:
192,192,160175,1,0,0:0:0:0:
448,192,160175,1,0,0:0:0:0:
320,192,160282,1,0,0:0:0:0:
192,192,160336,1,0,0:0:0:0:
64,192,160390,1,0,0:0:0:0:
448,192,160390,1,0,0:0:0:0:
320,192,160390,1,0,0:0:0:0:
192,192,160497,1,0,0:0:0:0:
64,192,160604,1,0,0:0:0:0:
320,192,160604,1,0,0:0:0:0:
448,192,160604,1,0,0:0:0:0:
192,192,160711,1,0,0:0:0:0:
64,192,160818,1,0,0:0:0:0:
320,192,160818,1,0,0:0:0:0:
448,192,160818,1,0,0:0:0:0:
192,192,160925,1,0,0:0:0:0:
64,192,161032,1,0,0:0:0:0:
320,192,161032,1,0,0:0:0:0:
448,192,161032,1,0,0:0:0:0:
64,192,161140,1,0,0:0:0:0:
192,192,161247,1,0,0:0:0:0:
320,192,161247,1,0,0:0:0:0:
448,192,161247,1,0,0:0:0:0:
320,192,161354,1,0,0:0:0:0:
192,192,161461,1,0,0:0:0:0:
64,192,161461,1,0,0:0:0:0:
448,192,161461,1,0,0:0:0:0:
192,192,161568,1,0,0:0:0:0:
64,192,161675,1,0,0:0:0:0:
320,192,161675,1,0,0:0:0:0:
448,192,161675,1,0,0:0:0:0:
448,192,161782,1,0,0:0:0:0:
64,192,161890,1,0,0:0:0:0:
192,192,161890,1,0,0:0:0:0:
320,192,161890,1,0,0:0:0:0:
448,192,161961,1,0,0:0:0:0:
320,192,162032,1,0,0:0:0:0:
192,192,162104,1,0,0:0:0:0:
64,192,162104,1,0,0:0:0:0:
448,192,162104,1,0,0:0:0:0:
64,192,162211,1,0,0:0:0:0:
192,192,162318,1,0,0:0:0:0:
320,192,162318,1,0,0:0:0:0:
448,192,162318,1,0,0:0:0:0:
448,192,162425,1,0,0:0:0:0:
64,192,162532,1,0,0:0:0:0:
320,192,162532,1,0,0:0:0:0:
192,192,162532,1,0,0:0:0:0:
192,192,162640,1,0,0:0:0:0:
64,192,162747,1,0,0:0:0:0:
320,192,162747,1,0,0:0:0:0:
448,192,162747,1,0,0:0:0:0:
320,192,162854,1,0,0:0:0:0:
64,192,162961,1,0,0:0:0:0:
192,192,162961,1,0,0:0:0:0:
448,192,162961,1,0,0:0:0:0:
64,192,163068,1,0,0:0:0:0:
192,192,163175,1,0,0:0:0:0:
320,192,163175,1,0,0:0:0:0:
448,192,163175,1,0,0:0:0:0:
448,192,163282,1,0,0:0:0:0:
64,192,163390,1,0,0:0:0:0:
192,192,163390,1,0,0:0:0:0:
320,192,163390,1,0,0:0:0:0:
192,192,163497,1,0,0:0:0:0:
64,192,163604,1,0,0:0:0:0:
320,192,163604,1,0,0:0:0:0:
448,192,163604,1,0,0:0:0:0:
192,192,163711,1,0,0:0:0:0:
64,192,163818,1,0,0:0:0:0:
320,192,163818,1,0,0:0:0:0:
448,192,163818,1,0,0:0:0:0:
192,192,163925,1,0,0:0:0:0:
64,192,164032,1,0,0:0:0:0:
320,192,164032,1,0,0:0:0:0:
448,192,164032,1,0,0:0:0:0:
192,192,164140,1,0,0:0:0:0:
64,192,164247,1,0,0:0:0:0:
320,192,164247,1,0,0:0:0:0:
448,192,164247,1,0,0:0:0:0:
192,192,164354,1,0,0:0:0:0:
64,192,164461,1,0,0:0:0:0:
448,192,164461,1,0,0:0:0:0:
320,192,164461,1,0,0:0:0:0:
192,192,164568,1,0,0:0:0:0:
64,192,164675,1,0,0:0:0:0:
320,192,164675,1,0,0:0:0:0:
448,192,164675,1,0,0:0:0:0:
320,192,164782,1,0,0:0:0:0:
64,192,164890,1,0,0:0:0:0:
192,192,164890,1,0,0:0:0:0:
448,192,164890,1,0,0:0:0:0:
64,192,164997,1,0,0:0:0:0:
448,192,165104,1,0,0:0:0:0:
320,192,165104,1,0,0:0:0:0:
192,192,165104,1,0,0:0:0:0:
320,192,165211,1,0,0:0:0:0:
64,192,165318,1,0,0:0:0:0:
192,192,165318,1,0,0:0:0:0:
448,192,165318,1,0,0:0:0:0:
320,192,165425,1,0,0:0:0:0:
64,192,165532,1,0,0:0:0:0:
192,192,165532,1,0,0:0:0:0:
448,192,165532,1,0,0:0:0:0:
320,192,165640,1,0,0:0:0:0:
64,192,165747,1,0,0:0:0:0:
192,192,165747,1,0,0:0:0:0:
448,192,165747,1,0,0:0:0:0:
64,192,165854,1,0,0:0:0:0:
448,192,165961,1,0,0:0:0:0:
192,192,165961,1,0,0:0:0:0:
320,192,165961,1,0,0:0:0:0:
448,192,166068,1,0,0:0:0:0:
64,192,166175,1,0,0:0:0:0:
192,192,166175,1,0,0:0:0:0:
320,192,166175,1,0,0:0:0:0:
192,192,166282,1,0,0:0:0:0:
64,192,166390,1,0,0:0:0:0:
320,192,166390,1,0,0:0:0:0:
448,192,166390,1,0,0:0:0:0:
320,192,166497,1,0,0:0:0:0:
64,192,166604,1,0,0:0:0:0:
192,192,166604,1,0,0:0:0:0:
448,192,166604,1,0,0:0:0:0:
448,192,166711,1,0,0:0:0:0:
64,192,166818,1,0,0:0:0:0:
192,192,166818,1,0,0:0:0:0:
320,192,166818,1,0,0:0:0:0:
192,192,166925,1,0,0:0:0:0:
448,192,167032,1,0,0:0:0:0:
64,192,167032,1,0,0:0:0:0:
320,192,167032,1,0,0:0:0:0:
192,192,167140,1,0,0:0:0:0:
320,192,167193,1,0,0:0:0:0:
64,192,167247,1,0,0:0:0:0:
448,192,167247,1,0,0:0:0:0:
192,192,167247,1,0,0:0:0:0:
320,192,167354,1,0,0:0:0:0:
64,192,167461,1,0,0:0:0:0:
192,192,167461,1,0,0:0:0:0:
448,192,167461,1,0,0:0:0:0:
320,192,167568,1,0,0:0:0:0:
64,192,167675,1,0,0:0:0:0:
192,192,167675,1,0,0:0:0:0:
448,192,167675,1,0,0:0:0:0:
320,192,167782,1,0,0:0:0:0:
192,192,167890,1,0,0:0:0:0:
64,192,167890,1,0,0:0:0:0:
448,192,167890,1,0,0:0:0:0:
320,192,167997,1,0,0:0:0:0:
64,192,168104,1,0,0:0:0:0:
192,192,168104,1,0,0:0:0:0:
448,192,168104,1,0,0:0:0:0:
64,192,168211,1,0,0:0:0:0:
192,192,168318,1,0,0:0:0:0:
320,192,168318,1,0,0:0:0:0:
448,192,168318,1,0,0:0:0:0:
448,192,168425,1,0,0:0:0:0:
64,192,168532,1,0,0:0:0:0:
192,192,168532,1,0,0:0:0:0:
320,192,168532,1,0,0:0:0:0:
192,192,168640,1,0,0:0:0:0:
64,192,168747,1,0,0:0:0:0:
320,192,168747,1,0,0:0:0:0:
448,192,168747,1,0,0:0:0:0:
192,192,168818,1,0,0:0:0:0:
320,192,168890,1,0,0:0:0:0:
448,192,168961,1,0,0:0:0:0:
64,192,168961,1,0,0:0:0:0:
192,192,168961,1,0,0:0:0:0:
64,192,169068,1,0,0:0:0:0:
192,192,169175,1,0,0:0:0:0:
320,192,169175,1,0,0:0:0:0:
448,192,169175,1,0,0:0:0:0:
320,192,169282,1,0,0:0:0:0:
64,192,169390,1,0,0:0:0:0:
192,192,169390,1,0,0:0:0:0:
448,192,169390,1,0,0:0:0:0:
192,192,169497,1,0,0:0:0:0:
64,192,169604,1,0,0:0:0:0:
320,192,169604,1,0,0:0:0:0:
448,192,169604,1,0,0:0:0:0:
448,192,169711,1,0,0:0:0:0:
320,192,169818,1,0,0:0:0:0:
192,192,169818,1,0,0:0:0:0:
64,192,169818,1,0,0:0:0:0:
64,192,169925,1,0,0:0:0:0:
192,192,170032,1,0,0:0:0:0:
320,192,170032,1,0,0:0:0:0:
448,192,170032,1,0,0:0:0:0:
320,192,170140,1,0,0:0:0:0:
64,192,170247,1,0,0:0:0:0:
192,192,170247,1,0,0:0:0:0:
448,192,170247,1,0,0:0:0:0:
320,192,170354,1,0,0:0:0:0:
448,192,170461,1,0,0:0:0:0:
64,192,170461,1,0,0:0:0:0:
192,192,170515,1,0,0:0:0:0:
320,192,170568,1,0,0:0:0:0:
448,192,170568,1,0,0:0:0:0:
64,192,170622,1,0,0:0:0:0:
192,192,170675,1,0,0:0:0:0:
448,192,170675,1,0,0:0:0:0:
64,192,170782,1,0,0:0:0:0:
320,192,170782,1,0,0:0:0:0:
64,192,170890,1,0,0:0:0:0:
448,192,170890,1,0,0:0:0:0:
320,192,170997,1,0,0:0:0:0:
448,192,170997,1,0,0:0:0:0:
320,192,171104,1,0,0:0:0:0:
64,192,171104,1,0,0:0:0:0:
64,192,171211,1,0,0:0:0:0:
192,192,171211,1,0,0:0:0:0:
448,192,171318,1,0,0:0:0:0:
192,192,171318,1,0,0:0:0:0:
320,192,171425,1,0,0:0:0:0:
448,192,171425,1,0,0:0:0:0:
320,192,171532,1,0,0:0:0:0:
64,192,171532,1,0,0:0:0:0:
64,192,171640,1,0,0:0:0:0:
192,192,171640,1,0,0:0:0:0:
192,192,171747,1,0,0:0:0:0:
320,192,171747,1,0,0:0:0:0:
320,192,171854,1,0,0:0:0:0:
448,192,171854,1,0,0:0:0:0:
192,192,171961,1,0,0:0:0:0:
64,192,171961,1,0,0:0:0:0:
448,192,171961,1,0,0:0:0:0:
64,192,172175,1,0,0:0:0:0:
192,192,172175,1,0,0:0:0:0:
448,192,172175,1,0,0:0:0:0:
64,192,172282,1,0,0:0:0:0:
320,192,172282,1,0,0:0:0:0:
448,192,172282,1,0,0:0:0:0:
192,192,172390,1,0,0:0:0:0:
320,192,172390,1,0,0:0:0:0:
448,192,172390,1,0,0:0:0:0:
64,192,172497,1,0,0:0:0:0:
192,192,172497,1,0,0:0:0:0:
320,192,172497,1,0,0:0:0:0:
192,192,172604,1,0,0:0:0:0:
320,192,172604,1,0,0:0:0:0:
448,192,172604,1,0,0:0:0:0:
64,192,172711,1,0,0:0:0:0:
320,192,172711,1,0,0:0:0:0:
448,192,172711,1,0,0:0:0:0:
64,192,172818,1,0,0:0:0:0:
192,192,172818,1,0,0:0:0:0:
448,192,172818,1,0,0:0:0:0:
64,192,172925,1,0,0:0:0:0:
320,192,172925,1,0,0:0:0:0:
448,192,172925,1,0,0:0:0:0:
192,192,173032,1,0,0:0:0:0:
320,192,173032,1,0,0:0:0:0:
448,192,173032,1,0,0:0:0:0:
64,192,173140,1,0,0:0:0:0:
320,192,173140,1,0,0:0:0:0:
448,192,173140,1,0,0:0:0:0:
64,192,173247,1,0,0:0:0:0:
192,192,173247,1,0,0:0:0:0:
448,192,173247,1,0,0:0:0:0:
64,192,173354,1,0,0:0:0:0:
320,192,173354,1,0,0:0:0:0:
448,192,173354,1,0,0:0:0:0:
192,192,173461,1,0,0:0:0:0:
320,192,173461,1,0,0:0:0:0:
448,192,173461,1,0,0:0:0:0:
64,192,173568,1,0,0:0:0:0:
192,192,173568,1,0,0:0:0:0:
320,192,173568,1,0,0:0:0:0:
64,192,173675,1,0,0:0:0:0:
192,192,173675,1,0,0:0:0:0:
448,192,173675,1,0,0:0:0:0:
64,192,173782,1,0,0:0:0:0:
320,192,173782,1,0,0:0:0:0:
448,192,173782,1,0,0:0:0:0:
192,192,173890,1,0,0:0:0:0:
320,192,173890,1,0,0:0:0:0:
448,192,173890,1,0,0:0:0:0:
64,192,173997,1,0,0:0:0:0:
448,192,173997,1,0,0:0:0:0:
192,192,173997,1,0,0:0:0:0:
64,192,174104,1,0,0:0:0:0:
320,192,174104,1,0,0:0:0:0:
448,192,174104,1,0,0:0:0:0:
192,192,174211,1,0,0:0:0:0:
320,192,174211,1,0,0:0:0:0:
64,192,174318,1,0,0:0:0:0:
192,192,174318,1,0,0:0:0:0:
448,192,174318,1,0,0:0:0:0:
320,192,174425,1,0,0:0:0:0:
448,192,174425,1,0,0:0:0:0:
320,192,174532,1,0,0:0:0:0:
64,192,174532,128,0,175390:0:0:0:0:
320,192,175390,1,0,0:0:0:0:
448,192,175390,1,0,0:0:0:0:
64,192,175461,1,0,0:0:0:0:
192,192,175532,1,0,0:0:0:0:
448,192,175604,1,0,0:0:0:0:
320,192,175675,1,0,0:0:0:0:
192,192,175747,1,0,0:0:0:0:
64,192,175818,1,0,0:0:0:0:
448,192,175818,1,0,0:0:0:0:
320,192,175890,1,0,0:0:0:0:
192,192,175961,1,0,0:0:0:0:
64,192,176032,1,0,0:0:0:0:
192,192,176104,1,0,0:0:0:0:
320,192,176175,1,0,0:0:0:0:
448,192,176247,1,0,0:0:0:0:
64,192,176247,1,0,0:0:0:0:
192,192,176247,1,0,0:0:0:0:
320,192,176461,1,0,0:0:0:0:
320,192,176675,1,0,0:0:0:0:
320,192,176890,1,0,0:0:0:0:
64,192,177104,1,0,0:0:0:0:
448,192,177104,1,0,0:0:0:0:
192,192,177318,1,0,0:0:0:0:
320,192,177532,128,0,177961:0:0:0:0:
64,192,177961,1,0,0:0:0:0:
448,192,177961,1,0,0:0:0:0:
192,192,178175,1,0,0:0:0:0:
448,192,178282,1,0,0:0:0:0:
192,192,178390,1,0,0:0:0:0:
448,192,178497,1,0,0:0:0:0:
192,192,178604,1,0,0:0:0:0:
64,192,178818,1,0,0:0:0:0:
320,192,178818,1,0,0:0:0:0:
448,192,179032,1,0,0:0:0:0:
448,192,179247,128,0,179675:0:0:0:0:
64,192,179675,1,0,0:0:0:0:
192,192,179675,1,0,0:0:0:0:
320,192,179890,1,0,0:0:0:0:
320,192,180104,1,0,0:0:0:0:
320,192,180318,1,0,0:0:0:0:
448,192,180532,1,0,0:0:0:0:
192,192,180532,1,0,0:0:0:0:
64,192,180747,1,0,0:0:0:0:
192,192,180961,1,0,0:0:0:0:
320,192,181175,1,0,0:0:0:0:
64,192,181390,1,0,0:0:0:0:
448,192,181390,1,0,0:0:0:0:
192,192,181604,1,0,0:0:0:0:
192,192,181711,1,0,0:0:0:0:
320,192,181818,1,0,0:0:0:0:
64,192,182032,1,0,0:0:0:0:
320,192,182247,1,0,0:0:0:0:
448,192,182247,1,0,0:0:0:0:
64,192,182461,1,0,0:0:0:0:
192,192,182461,1,0,0:0:0:0:
64,192,182568,1,0,0:0:0:0:
192,192,182568,1,0,0:0:0:0:
64,192,182675,1,0,0:0:0:0:
192,192,182675,1,0,0:0:0:0:
320,192,182890,1,0,0:0:0:0:
448,192,182890,1,0,0:0:0:0:
64,192,183104,1,0,0:0:0:0:
192,192,183104,1,0,0:0:0:0:
448,192,183104,1,0,0:0:0:0:
320,192,183318,1,0,0:0:0:0:
320,192,183532,1,0,0:0:0:0:
320,192,183747,1,0,0:0:0:0:
64,192,183961,1,0,0:0:0:0:
448,192,183961,1,0,0:0:0:0:
320,192,184175,1,0,0:0:0:0:
64,192,184282,1,0,0:0:0:0:
320,192,184390,128,0,184818:0:0:0:0:
64,192,184818,1,0,0:0:0:0:
192,192,184818,1,0,0:0:0:0:
448,192,185032,1,0,0:0:0:0:
192,192,185140,1,0,0:0:0:0:
448,192,185247,1,0,0:0:0:0:
192,192,185354,1,0,0:0:0:0:
448,192,185461,1,0,0:0:0:0:
64,192,185675,1,0,0:0:0:0:
320,192,185675,1,0,0:0:0:0:
192,192,185890,1,0,0:0:0:0:
192,192,186104,128,0,186532:0:0:0:0:
64,192,186532,1,0,0:0:0:0:
448,192,186532,1,0,0:0:0:0:
320,192,186747,1,0,0:0:0:0:
192,192,186854,1,0,0:0:0:0:
320,192,186961,1,0,0:0:0:0:
320,192,187175,1,0,0:0:0:0:
64,192,187390,1,0,0:0:0:0:
448,192,187390,1,0,0:0:0:0:
192,192,187604,1,0,0:0:0:0:
192,192,187818,1,0,0:0:0:0:
448,192,188032,1,0,0:0:0:0:
320,192,188140,1,0,0:0:0:0:
192,192,188247,1,0,0:0:0:0:
64,192,188247,1,0,0:0:0:0:
64,192,188461,1,0,0:0:0:0:
192,192,188568,1,0,0:0:0:0:
320,192,188675,1,0,0:0:0:0:
448,192,188675,1,0,0:0:0:0:
320,192,188890,1,0,0:0:0:0:
64,192,189104,1,0,0:0:0:0:
448,192,189104,128,0,189961:0:0:0:0:
320,192,189318,1,0,0:0:0:0:
192,192,189532,1,0,0:0:0:0:
64,192,189747,1,0,0:0:0:0:
320,192,189961,1,0,0:0:0:0:
64,192,189961,128,0,190818:0:0:0:0:
320,192,190604,1,0,0:0:0:0:
448,192,190818,1,0,0:0:0:0:
192,192,190818,128,0,191675:0:0:0:0:
320,192,191247,1,0,0:0:0:0:
64,192,191461,1,0,0:0:0:0:
320,192,191675,1,0,0:0:0:0:
448,192,191675,128,0,192532:0:0:0:0:
64,192,192318,1,0,0:0:0:0:
64,192,192532,128,0,193175:0:0:0:0:
448,192,193175,1,0,0:0:0:0:
320,192,193247,1,0,0:0:0:0:
192,192,193318,1,0,0:0:0:0:
448,192,193390,1,0,0:0:0:0:
320,192,193390,128,0,194247:0:0:0:0:
192,192,194032,1,0,0:0:0:0:
448,192,194247,128,0,194675:0:0:0:0:
64,192,194247,1,0,0:0:0:0:
320,192,194675,128,0,194890:0:0:0:0:
64,192,194675,1,0,0:0:0:0:
448,192,194890,1,0,0:0:0:0:
192,192,194890,128,0,195104:0:0:0:0:
64,192,195104,128,0,195961:0:0:0:0:
320,192,195747,1,0,0:0:0:0:
320,192,195961,128,0,196497:0:0:0:0:
448,192,195961,1,0,0:0:0:0:
64,192,196497,128,0,196604:0:0:0:0:
192,192,196604,128,0,196711:0:0:0:0:
320,192,196711,128,0,196818:0:0:0:0:
64,192,196818,1,0,0:0:0:0:
448,192,196818,128,0,197675:0:0:0:0:
192,192,197247,1,0,0:0:0:0:
320,192,197461,1,0,0:0:0:0:
64,192,197568,1,0,0:0:0:0:
192,192,197675,128,0,198318:0:0:0:0:
320,192,197675,1,0,0:0:0:0:
448,192,197890,1,0,0:0:0:0:
448,192,198104,1,0,0:0:0:0:
64,192,198318,1,0,0:0:0:0:
320,192,198425,1,0,0:0:0:0:
64,192,198532,128,0,198961:0:0:0:0:
192,192,198532,1,0,0:0:0:0:
448,192,198532,1,0,0:0:0:0:
320,192,198961,1,0,0:0:0:0:
448,192,198961,1,0,0:0:0:0:
192,192,198961,128,0,199390:0:0:0:0:
64,192,199390,1,0,0:0:0:0:
448,192,199390,1,0,0:0:0:0:
320,192,199390,128,0,199818:0:0:0:0:
448,192,199818,128,0,200247:0:0:0:0:
64,192,199818,1,0,0:0:0:0:
192,192,199818,1,0,0:0:0:0:
64,192,200247,128,0,201104:0:0:0:0:
320,192,200247,1,0,0:0:0:0:
192,192,200247,1,0,0:0:0:0:
448,192,200890,1,0,0:0:0:0:
320,192,200997,1,0,0:0:0:0:
448,192,201104,128,0,201532:0:0:0:0:
64,192,201318,1,0,0:0:0:0:
192,192,201318,1,0,0:0:0:0:
64,192,201532,1,0,0:0:0:0:
192,192,201532,1,0,0:0:0:0:
448,192,201640,1,0,0:0:0:0:
320,192,201747,1,0,0:0:0:0:
64,192,201747,1,0,0:0:0:0:
192,192,201854,1,0,0:0:0:0:
64,192,201961,1,0,0:0:0:0:
448,192,201961,1,0,0:0:0:0:
320,192,202068,1,0,0:0:0:0:
192,192,202175,1,0,0:0:0:0:
64,192,202282,1,0,0:0:0:0:
320,192,202390,1,0,0:0:0:0:
448,192,202497,1,0,0:0:0:0:
64,192,202604,1,0,0:0:0:0:
320,192,202711,1,0,0:0:0:0:
64,192,202818,1,0,0:0:0:0:
448,192,202925,1,0,0:0:0:0:
320,192,203032,1,0,0:0:0:0:
192,192,203032,1,0,0:0:0:0:
320,192,203140,1,0,0:0:0:0:
192,192,203247,1,0,0:0:0:0:
64,192,203247,1,0,0:0:0:0:
64,192,203354,1,0,0:0:0:0:
320,192,203461,1,0,0:0:0:0:
448,192,203461,1,0,0:0:0:0:
448,192,203568,1,0,0:0:0:0:
320,192,203675,1,0,0:0:0:0:
64,192,203675,1,0,0:0:0:0:
448,192,203890,1,0,0:0:0:0:
320,192,203961,1,0,0:0:0:0:
64,192,204032,1,0,0:0:0:0:
192,192,204104,1,0,0:0:0:0:
448,192,204104,1,0,0:0:0:0:
320,192,204175,1,0,0:0:0:0:
192,192,204247,1,0,0:0:0:0:
64,192,204318,1,0,0:0:0:0:
448,192,204318,1,0,0:0:0:0:
320,192,204390,1,0,0:0:0:0:
448,192,204461,1,0,0:0:0:0:
192,192,204532,1,0,0:0:0:0:
64,192,204532,1,0,0:0:0:0:
320,192,204640,1,0,0:0:0:0:
448,192,204640,1,0,0:0:0:0:
64,192,204854,1,0,0:0:0:0:
448,192,204854,1,0,0:0:0:0:
192,192,204961,1,0,0:0:0:0:
320,192,204961,1,0,0:0:0:0:
448,192,205175,1,0,0:0:0:0:
192,192,205175,1,0,0:0:0:0:
64,192,205390,1,0,0:0:0:0:
320,192,205390,1,0,0:0:0:0:
448,192,205390,1,0,0:0:0:0:
192,192,205604,1,0,0:0:0:0:
64,192,205818,1,0,0:0:0:0:
448,192,205818,1,0,0:0:0:0:
320,192,206032,1,0,0:0:0:0:
64,192,206247,1,0,0:0:0:0:
192,192,206247,1,0,0:0:0:0:
64,192,206461,1,0,0:0:0:0:
320,192,206461,1,0,0:0:0:0:
192,192,206675,1,0,0:0:0:0:
448,192,206675,1,0,0:0:0:0:
320,192,206890,1,0,0:0:0:0:
448,192,206890,1,0,0:0:0:0:
64,192,207104,1,0,0:0:0:0:
320,192,207104,1,0,0:0:0:0:
192,192,207318,1,0,0:0:0:0:
320,192,207425,1,0,0:0:0:0:
448,192,207425,1,0,0:0:0:0:
192,192,207532,1,0,0:0:0:0:
64,192,207532,1,0,0:0:0:0:
64,192,207747,1,0,0:0:0:0:
448,192,207747,1,0,0:0:0:0:
192,192,207961,1,0,0:0:0:0:
320,192,207961,1,0,0:0:0:0:
448,192,208175,1,0,0:0:0:0:
64,192,208390,1,0,0:0:0:0:
192,192,208390,1,0,0:0:0:0:
320,192,208604,1,0,0:0:0:0:
64,192,208818,1,0,0:0:0:0:
448,192,208818,1,0,0:0:0:0:
320,192,208925,1,0,0:0:0:0:
192,192,209032,1,0,0:0:0:0:
448,192,209247,1,0,0:0:0:0:
192,192,209247,1,0,0:0:0:0:
320,192,209461,1,0,0:0:0:0:
448,192,209461,1,0,0:0:0:0:
64,192,209675,1,0,0:0:0:0:
320,192,209675,1,0,0:0:0:0:
192,192,209890,1,0,0:0:0:0:
64,192,210104,1,0,0:0:0:0:
448,192,210104,1,0,0:0:0:0:
320,192,210318,1,0,0:0:0:0:
448,192,210318,1,0,0:0:0:0:
320,192,210532,1,0,0:0:0:0:
192,192,210532,1,0,0:0:0:0:
64,192,210747,1,0,0:0:0:0:
64,192,210854,1,0,0:0:0:0:
448,192,210961,1,0,0:0:0:0:
192,192,210961,1,0,0:0:0:0:
64,192,211175,1,0,0:0:0:0:
320,192,211175,1,0,0:0:0:0:
192,192,211390,1,0,0:0:0:0:
448,192,211390,1,0,0:0:0:0:
64,192,211604,1,0,0:0:0:0:
192,192,211604,1,0,0:0:0:0:
64,192,211711,1,0,0:0:0:0:
192,192,211711,1,0,0:0:0:0:
64,192,211818,1,0,0:0:0:0:
320,192,211818,1,0,0:0:0:0:
448,192,211818,1,0,0:0:0:0:
320,192,212032,1,0,0:0:0:0:
64,192,212247,1,0,0:0:0:0:
192,192,212247,1,0,0:0:0:0:
448,192,212247,1,0,0:0:0:0:
320,192,212461,1,0,0:0:0:0:
64,192,212675,1,0,0:0:0:0:
448,192,212675,1,0,0:0:0:0:
192,192,212890,1,0,0:0:0:0:
448,192,213104,1,0,0:0:0:0:
320,192,213104,1,0,0:0:0:0:
192,192,213318,1,0,0:0:0:0:
320,192,213318,1,0,0:0:0:0:
64,192,213532,1,0,0:0:0:0:
192,192,213532,1,0,0:0:0:0:
64,192,213747,1,0,0:0:0:0:
448,192,213747,1,0,0:0:0:0:
192,192,213961,1,0,0:0:0:0:
448,192,213961,1,0,0:0:0:0:
320,192,214175,1,0,0:0:0:0:
448,192,214282,1,0,0:0:0:0:
192,192,214282,1,0,0:0:0:0:
64,192,214390,1,0,0:0:0:0:
320,192,214390,1,0,0:0:0:0:
448,192,214604,1,0,0:0:0:0:
320,192,214604,1,0,0:0:0:0:
192,192,214711,1,0,0:0:0:0:
448,192,214818,1,0,0:0:0:0:
64,192,214818,1,0,0:0:0:0:
320,192,215032,1,0,0:0:0:0:
64,192,215247,1,0,0:0:0:0:
192,192,215247,1,0,0:0:0:0:
192,192,215461,1,0,0:0:0:0:
320,192,215461,1,0,0:0:0:0:
320,192,215675,1,0,0:0:0:0:
448,192,215675,1,0,0:0:0:0:
64,192,215782,1,0,0:0:0:0:
192,192,215890,1,0,0:0:0:0:
64,192,215997,1,0,0:0:0:0:
192,192,216104,1,0,0:0:0:0:
448,192,216104,1,0,0:0:0:0:
320,192,216318,1,0,0:0:0:0:
64,192,216532,1,0,0:0:0:0:
448,192,216532,1,0,0:0:0:0:
192,192,216747,1,0,0:0:0:0:
64,192,216961,1,0,0:0:0:0:
320,192,216961,1,0,0:0:0:0:
448,192,217175,1,0,0:0:0:0:
320,192,217282,1,0,0:0:0:0:
192,192,217390,1,0,0:0:0:0:
64,192,217390,1,0,0:0:0:0:
64,192,217604,1,0,0:0:0:0:
192,192,217711,1,0,0:0:0:0:
320,192,217818,1,0,0:0:0:0:
448,192,217818,1,0,0:0:0:0:
320,192,218032,1,0,0:0:0:0:
64,192,218247,1,0,0:0:0:0:
448,192,218247,1,0,0:0:0:0:
320,192,218890,1,0,0:0:0:0:
64,192,219104,1,0,0:0:0:0:
448,192,219104,1,0,0:0:0:0:
192,192,219104,1,0,0:0:0:0:
320,192,219318,1,0,0:0:0:0:
64,192,219532,1,0,0:0:0:0:
448,192,219532,1,0,0:0:0:0:
192,192,219747,1,0,0:0:0:0:
320,192,219961,1,0,0:0:0:0:
448,192,219961,1,0,0:0:0:0:
64,192,220175,1,0,0:0:0:0:
192,192,220390,1,0,0:0:0:0:
320,192,220390,1,0,0:0:0:0:
448,192,220604,1,0,0:0:0:0:
192,192,220818,1,0,0:0:0:0:
64,192,220818,1,0,0:0:0:0:
320,192,221032,1,0,0:0:0:0:
448,192,221247,1,0,0:0:0:0:
64,192,221247,1,0,0:0:0:0:
192,192,221461,1,0,0:0:0:0:
320,192,221461,1,0,0:0:0:0:
64,192,221675,1,0,0:0:0:0:
448,192,221675,1,0,0:0:0:0:
192,192,221890,1,0,0:0:0:0:
320,192,222104,1,0,0:0:0:0:
448,192,222104,1,0,0:0:0:0:
192,192,222318,1,0,0:0:0:0:
320,192,222318,1,0,0:0:0:0:
192,192,222532,1,0,0:0:0:0:
64,192,222532,1,0,0:0:0:0:
320,192,222640,1,0,0:0:0:0:
448,192,222747,1,0,0:0:0:0:
64,192,222961,1,0,0:0:0:0:
448,192,222961,1,0,0:0:0:0:
192,192,223175,1,0,0:0:0:0:
320,192,223390,1,0,0:0:0:0:
448,192,223390,1,0,0:0:0:0:
64,192,223604,1,0,0:0:0:0:
192,192,223818,1,0,0:0:0:0:
448,192,223818,1,0,0:0:0:0:
192,192,224032,1,0,0:0:0:0:
320,192,224032,1,0,0:0:0:0:
320,192,224247,1,0,0:0:0:0:
64,192,224247,1,0,0:0:0:0:
448,192,224461,1,0,0:0:0:0:
448,192,224568,1,0,0:0:0:0:
64,192,224675,1,0,0:0:0:0:
192,192,224675,1,0,0:0:0:0:
192,192,224890,1,0,0:0:0:0:
448,192,224890,1,0,0:0:0:0:
320,192,225104,1,0,0:0:0:0:
64,192,225104,1,0,0:0:0:0:
320,192,225318,1,0,0:0:0:0:
448,192,225318,1,0,0:0:0:0:
320,192,225425,1,0,0:0:0:0:
448,192,225425,1,0,0:0:0:0:
448,192,225532,1,0,0:0:0:0:
64,192,225532,1,0,0:0:0:0:
192,192,225532,1,0,0:0:0:0:
192,192,225747,1,0,0:0:0:0:
448,192,225961,1,0,0:0:0:0:
64,192,225961,1,0,0:0:0:0:
320,192,225961,1,0,0:0:0:0:
192,192,226175,1,0,0:0:0:0:
64,192,226390,1,0,0:0:0:0:
448,192,226390,1,0,0:0:0:0:
320,192,226604,1,0,0:0:0:0:
192,192,226818,1,0,0:0:0:0:
64,192,226818,1,0,0:0:0:0:
448,192,227032,1,0,0:0:0:0:
64,192,227140,1,0,0:0:0:0:
320,192,227247,1,0,0:0:0:0:
192,192,227247,1,0,0:0:0:0:
64,192,227461,1,0,0:0:0:0:
320,192,227675,1,0,0:0:0:0:
448,192,227675,1,0,0:0:0:0:
64,192,227890,1,0,0:0:0:0:
448,192,227997,1,0,0:0:0:0:
320,192,228104,1,0,0:0:0:0:
192,192,228104,1,0,0:0:0:0:
192,192,228318,1,0,0:0:0:0:
64,192,228532,1,0,0:0:0:0:
448,192,228532,1,0,0:0:0:0:
320,192,228747,1,0,0:0:0:0:
64,192,228961,1,0,0:0:0:0:
192,192,228961,1,0,0:0:0:0:
192,192,229175,1,0,0:0:0:0:
320,192,229175,1,0,0:0:0:0:
320,192,229390,1,0,0:0:0:0:
448,192,229390,1,0,0:0:0:0:
192,192,229497,1,0,0:0:0:0:
64,192,229604,1,0,0:0:0:0:
192,192,229711,1,0,0:0:0:0:
64,192,229818,1,0,0:0:0:0:
448,192,229818,1,0,0:0:0:0:
320,192,230032,1,0,0:0:0:0:
192,192,230247,1,0,0:0:0:0:
64,192,230247,1,0,0:0:0:0:
192,192,230461,1,0,0:0:0:0:
64,192,230675,1,0,0:0:0:0:
448,192,230675,1,0,0:0:0:0:
320,192,230890,1,0,0:0:0:0:
192,192,230997,1,0,0:0:0:0:
64,192,231104,1,0,0:0:0:0:
448,192,231104,1,0,0:0:0:0:
320,192,231318,1,0,0:0:0:0:
448,192,231425,1,0,0:0:0:0:
64,192,231532,1,0,0:0:0:0:
320,192,231532,1,0,0:0:0:0:
192,192,231747,1,0,0:0:0:0:
64,192,231961,1,0,0:0:0:0:
448,192,231961,1,0,0:0:0:0:
320,192,232390,1,0,0:0:0:0:
448,192,232390,1,0,0:0:0:0:
192,192,232497,1,0,0:0:0:0:
64,192,232497,1,0,0:0:0:0:
320,192,232604,1,0,0:0:0:0:
448,192,232604,1,0,0:0:0:0:
192,192,232711,1,0,0:0:0:0:
64,192,232711,1,0,0:0:0:0:
64,192,232818,1,0,0:0:0:0:
448,192,232818,1,0,0:0:0:0:
192,192,233032,1,0,0:0:0:0:
320,192,233140,1,0,0:0:0:0:
448,192,233247,1,0,0:0:0:0:
192,192,233461,1,0,0:0:0:0:
64,192,233675,1,0,0:0:0:0:
448,192,233675,1,0,0:0:0:0:
320,192,233890,1,0,0:0:0:0:
192,192,234104,1,0,0:0:0:0:
64,192,234318,1,0,0:0:0:0:
320,192,234532,1,0,0:0:0:0:
448,192,234532,1,0,0:0:0:0:
192,192,234747,1,0,0:0:0:0:
320,192,234854,1,0,0:0:0:0:
448,192,234961,1,0,0:0:0:0:
64,192,234961,1,0,0:0:0:0:
192,192,235175,1,0,0:0:0:0:
64,192,235390,1,0,0:0:0:0:
448,192,235390,1,0,0:0:0:0:
320,192,235461,1,0,0:0:0:0:
192,192,235532,1,0,0:0:0:0:
64,192,235604,1,0,0:0:0:0:
320,192,235675,1,0,0:0:0:0:
448,192,235747,1,0,0:0:0:0:
64,192,235818,1,0,0:0:0:0:
192,192,235890,1,0,0:0:0:0:
320,192,235961,1,0,0:0:0:0:
448,192,236032,1,0,0:0:0:0:
192,192,236104,1,0,0:0:0:0:
64,192,236175,1,0,0:0:0:0:
320,192,236247,1,0,0:0:0:0:
448,192,236247,1,0,0:0:0:0:
64,192,236461,1,0,0:0:0:0:
192,192,236568,1,0,0:0:0:0:
320,192,236675,1,0,0:0:0:0:
448,192,236782,1,0,0:0:0:0:
320,192,236890,1,0,0:0:0:0:
192,192,236997,1,0,0:0:0:0:
64,192,237104,1,0,0:0:0:0:
448,192,237104,1,0,0:0:0:0:
192,192,237318,1,0,0:0:0:0:
320,192,237425,1,0,0:0:0:0:
448,192,237532,1,0,0:0:0:0:
320,192,237747,1,0,0:0:0:0:
64,192,237961,1,0,0:0:0:0:
448,192,237961,1,0,0:0:0:0:
320,192,238175,1,0,0:0:0:0:
192,192,238282,1,0,0:0:0:0:
64,192,238390,1,0,0:0:0:0:
448,192,238390,1,0,0:0:0:0:
192,192,238604,1,0,0:0:0:0:
64,192,238818,1,0,0:0:0:0:
448,192,238818,1,0,0:0:0:0:
320,192,239032,1,0,0:0:0:0:
448,192,239032,1,0,0:0:0:0:
64,192,239247,1,0,0:0:0:0:
192,192,239247,1,0,0:0:0:0:
320,192,239461,1,0,0:0:0:0:
448,192,239461,1,0,0:0:0:0:
64,192,239675,1,0,0:0:0:0:
320,192,239675,1,0,0:0:0:0:
448,192,239890,1,0,0:0:0:0:
320,192,239997,1,0,0:0:0:0:
192,192,240104,1,0,0:0:0:0:
320,192,240318,1,0,0:0:0:0:
64,192,240532,1,0,0:0:0:0:
448,192,240532,1,0,0:0:0:0:
192,192,240747,1,0,0:0:0:0:
320,192,240961,1,0,0:0:0:0:
448,192,241175,1,0,0:0:0:0:
192,192,241390,1,0,0:0:0:0:
64,192,241390,1,0,0:0:0:0:
320,192,241604,1,0,0:0:0:0:
192,192,241711,1,0,0:0:0:0:
64,192,241818,1,0,0:0:0:0:
448,192,241818,1,0,0:0:0:0:
320,192,242032,1,0,0:0:0:0:
64,192,242247,1,0,0:0:0:0:
448,192,242247,1,0,0:0:0:0:
192,192,242461,1,0,0:0:0:0:
448,192,242568,1,0,0:0:0:0:
320,192,242675,1,0,0:0:0:0:
64,192,242890,1,0,0:0:0:0:
192,192,243104,1,0,0:0:0:0:
448,192,243104,1,0,0:0:0:0:
448,192,243318,1,0,0:0:0:0:
320,192,243425,1,0,0:0:0:0:
192,192,243532,1,0,0:0:0:0:
64,192,243640,1,0,0:0:0:0:
192,192,243747,1,0,0:0:0:0:
320,192,243854,1,0,0:0:0:0:
448,192,243961,1,0,0:0:0:0:
64,192,243961,1,0,0:0:0:0:
320,192,244175,1,0,0:0:0:0:
192,192,244282,1,0,0:0:0:0:
64,192,244390,1,0,0:0:0:0:
192,192,244604,1,0,0:0:0:0:
64,192,244818,1,0,0:0:0:0:
448,192,244818,1,0,0:0:0:0:
192,192,245032,1,0,0:0:0:0:
320,192,245140,1,0,0:0:0:0:
448,192,245247,1,0,0:0:0:0:
64,192,245247,1,0,0:0:0:0:
320,192,245461,1,0,0:0:0:0:
64,192,245675,1,0,0:0:0:0:
448,192,245675,1,0,0:0:0:0:
192,192,245675,1,0,0:0:0:0:
320,192,245782,1,0,0:0:0:0:
320,192,245890,1,0,0:0:0:0:
192,192,245997,1,0,0:0:0:0:
64,192,245997,1,0,0:0:0:0:
448,192,246104,1,0,0:0:0:0:
64,192,246104,1,0,0:0:0:0:
192,192,246211,1,0,0:0:0:0:
320,192,246318,128,0,246532:0:0:0:0:
64,192,246318,1,0,0:0:0:0:
448,192,246532,1,0,0:0:0:0:
64,192,246532,128,0,247390:0:0:0:0:
192,192,247282,128,0,247390:0:0:0:0:
448,192,247390,1,0,0:0:0:0:
320,192,247425,1,0,0:0:0:0:
192,192,247461,1,0,0:0:0:0:
64,192,247497,1,0,0:0:0:0:
320,192,247532,1,0,0:0:0:0:
448,192,247568,1,0,0:0:0:0:
64,192,247604,1,0,0:0:0:0:
192,192,247640,1,0,0:0:0:0:
320,192,247675,1,0,0:0:0:0:
448,192,247711,1,0,0:0:0:0:
192,192,247747,1,0,0:0:0:0:
64,192,247782,1,0,0:0:0:0:
448,192,247818,1,0,0:0:0:0:
320,192,247854,1,0,0:0:0:0:
192,192,247890,1,0,0:0:0:0:
64,192,247925,1,0,0:0:0:0:
320,192,247961,1,0,0:0:0:0:
448,192,247997,1,0,0:0:0:0:
64,192,248032,1,0,0:0:0:0:
192,192,248068,1,0,0:0:0:0:
320,192,248104,1,0,0:0:0:0:
448,192,248140,1,0,0:0:0:0:
192,192,248175,1,0,0:0:0:0:
64,192,248211,1,0,0:0:0:0:
320,192,248247,1,0,0:0:0:0:
448,192,248247,1,0,0:0:0:0:
64,192,248300,1,0,0:0:0:0:
192,192,248300,1,0,0:0:0:0:
320,192,248461,1,0,0:0:0:0:
448,192,248461,1,0,0:0:0:0:
192,192,248515,1,0,0:0:0:0:
64,192,248515,1,0,0:0:0:0:
320,192,248675,1,0,0:0:0:0:
448,192,248675,1,0,0:0:0:0:
192,192,248729,1,0,0:0:0:0:
64,192,248729,128,0,248997:0:0:0:0:
320,192,248890,128,0,249104:0:0:0:0:
192,192,249104,1,0,0:0:0:0:
64,192,249104,1,0,0:0:0:0:
448,192,249104,1,0,0:0:0:0:
64,192,249318,1,0,0:0:0:0:
192,192,249318,1,0,0:0:0:0:
64,192,249425,1,0,0:0:0:0:
192,192,249425,1,0,0:0:0:0:
64,192,249532,128,0,249854:0:0:0:0:
192,192,249532,128,0,249854:0:0:0:0:
64,192,249961,1,0,0:0:0:0:
320,192,249961,1,0,0:0:0:0:
320,192,250068,1,0,0:0:0:0:
320,192,250175,1,0,0:0:0:0:
320,192,250282,1,0,0:0:0:0:
64,192,250390,1,0,0:0:0:0:
320,192,250390,128,0,250604:0:0:0:0:
64,192,250604,1,0,0:0:0:0:
448,192,250604,1,0,0:0:0:0:
192,192,250711,1,0,0:0:0:0:
64,192,250818,1,0,0:0:0:0:
448,192,250818,1,0,0:0:0:0:
320,192,250818,1,0,0:0:0:0:
192,192,251032,1,0,0:0:0:0:
448,192,251032,1,0,0:0:0:0:
192,192,251140,1,0,0:0:0:0:
448,192,251140,1,0,0:0:0:0:
448,192,251247,128,0,251461:0:0:0:0:
192,192,251247,128,0,251622:0:0:0:0:
320,192,251407,128,0,251568:0:0:0:0:
64,192,251515,128,0,251675:0:0:0:0:
320,192,251675,1,0,0:0:0:0:
448,192,251675,1,0,0:0:0:0:
64,192,251711,1,0,0:0:0:0:
192,192,251747,1,0,0:0:0:0:
320,192,251782,1,0,0:0:0:0:
448,192,251818,1,0,0:0:0:0:
192,192,251854,1,0,0:0:0:0:
64,192,251890,1,0,0:0:0:0:
448,192,251925,1,0,0:0:0:0:
320,192,251961,1,0,0:0:0:0:
192,192,251997,1,0,0:0:0:0:
64,192,252032,1,0,0:0:0:0:
320,192,252068,1,0,0:0:0:0:
448,192,252104,1,0,0:0:0:0:
64,192,252140,1,0,0:0:0:0:
192,192,252175,1,0,0:0:0:0:
448,192,252211,1,0,0:0:0:0:
320,192,252247,1,0,0:0:0:0:
192,192,252282,1,0,0:0:0:0:
64,192,252318,1,0,0:0:0:0:
320,192,252354,1,0,0:0:0:0:
448,192,252390,1,0,0:0:0:0:
192,192,252425,1,0,0:0:0:0:
320,192,252461,1,0,0:0:0:0:
64,192,252497,1,0,0:0:0:0:
192,192,252532,1,0,0:0:0:0:
448,192,252532,1,0,0:0:0:0:
320,192,252586,1,0,0:0:0:0:
192,192,252640,1,0,0:0:0:0:
64,192,252693,1,0,0:0:0:0:
448,192,252747,1,0,0:0:0:0:
320,192,252800,1,0,0:0:0:0:
192,192,252854,1,0,0:0:0:0:
64,192,252907,1,0,0:0:0:0:
448,192,252961,1,0,0:0:0:0:
320,192,253015,1,0,0:0:0:0:
192,192,253068,1,0,0:0:0:0:
64,192,253122,1,0,0:0:0:0:
448,192,253175,1,0,0:0:0:0:
320,192,253229,1,0,0:0:0:0:
192,192,253282,1,0,0:0:0:0:
64,192,253336,1,0,0:0:0:0:
320,192,253390,1,0,0:0:0:0:
448,192,253390,1,0,0:0:0:0:
192,192,253425,1,0,0:0:0:0:
64,192,253461,1,0,0:0:0:0:
320,192,253497,1,0,0:0:0:0:
448,192,253532,1,0,0:0:0:0:
64,192,253568,1,0,0:0:0:0:
192,192,253604,1,0,0:0:0:0:
448,192,253640,1,0,0:0:0:0:
320,192,253675,1,0,0:0:0:0:
64,192,253711,1,0,0:0:0:0:
192,192,253747,1,0,0:0:0:0:
448,192,253782,1,0,0:0:0:0:
320,192,253818,1,0,0:0:0:0:
64,192,253818,1,0,0:0:0:0:
192,192,254032,1,0,0:0:0:0:
448,192,254032,1,0,0:0:0:0:
192,192,254140,1,0,0:0:0:0:
448,192,254140,1,0,0:0:0:0:
448,192,254247,1,0,0:0:0:0:
64,192,254247,1,0,0:0:0:0:
320,192,254247,1,0,0:0:0:0:
192,192,254354,128,0,254568:0:0:0:0:
448,192,254354,128,0,254568:0:0:0:0:
320,192,254568,128,0,254622:0:0:0:0:
64,192,254568,128,0,254622:0:0:0:0:
192,192,254675,128,0,254782:0:0:0:0:
448,192,254675,128,0,254782:0:0:0:0:
192,192,254890,128,0,254997:0:0:0:0:
448,192,254890,128,0,254997:0:0:0:0:
64,192,255104,1,0,0:0:0:0:
320,192,255104,1,0,0:0:0:0:
448,192,255318,1,0,0:0:0:0:
320,192,255354,1,0,0:0:0:0:
192,192,255390,1,0,0:0:0:0:
64,192,255425,1,0,0:0:0:0:
448,192,255461,1,0,0:0:0:0:
320,192,255497,1,0,0:0:0:0:
192,192,255532,1,0,0:0:0:0:
64,192,255568,1,0,0:0:0:0:
448,192,255640,1,0,0:0:0:0:
320,192,255675,1,0,0:0:0:0:
192,192,255711,1,0,0:0:0:0:
64,192,255747,1,0,0:0:0:0:
448,192,255782,1,0,0:0:0:0:
320,192,255818,1,0,0:0:0:0:
192,192,255854,1,0,0:0:0:0:
64,192,255890,1,0,0:0:0:0:
320,192,255961,1,0,0:0:0:0:
448,192,255961,1,0,0:0:0:0:
192,192,255961,1,0,0:0:0:0:
448,192,256068,1,0,0:0:0:0:
448,192,256175,1,0,0:0:0:0:
64,192,256282,1,0,0:0:0:0:
448,192,256390,1,0,0:0:0:0:
320,192,256443,1,0,0:0:0:0:
192,192,256497,1,0,0:0:0:0:
64,192,256550,1,0,0:0:0:0:
320,192,256604,1,0,0:0:0:0:
448,192,256657,1,0,0:0:0:0:
192,192,256711,1,0,0:0:0:0:
320,192,256765,1,0,0:0:0:0:
64,192,256818,1,0,0:0:0:0:
448,192,256818,1,0,0:0:0:0:
192,192,256872,1,0,0:0:0:0:
320,192,256925,1,0,0:0:0:0:
448,192,256979,1,0,0:0:0:0:
192,192,257032,1,0,0:0:0:0:
64,192,257086,1,0,0:0:0:0:
448,192,257140,1,0,0:0:0:0:
320,192,257193,1,0,0:0:0:0:
192,192,257247,1,0,0:0:0:0:
64,192,257300,1,0,0:0:0:0:
448,192,257354,1,0,0:0:0:0:
320,192,257407,1,0,0:0:0:0:
64,192,257461,1,0,0:0:0:0:
192,192,257461,1,0,0:0:0:0:
320,192,257515,1,0,0:0:0:0:
448,192,257568,1,0,0:0:0:0:
192,192,257622,1,0,0:0:0:0:
320,192,257675,1,0,0:0:0:0:
64,192,257675,1,0,0:0:0:0:
448,192,257675,128,0,257890:0:0:0:0:
64,192,257890,1,0,0:0:0:0:
192,192,257890,1,0,0:0:0:0:
320,192,257925,1,0,0:0:0:0:
448,192,257925,1,0,0:0:0:0:
64,192,257997,1,0,0:0:0:0:
192,192,257997,1,0,0:0:0:0:
320,192,258032,1,0,0:0:0:0:
448,192,258032,1,0,0:0:0:0:
64,192,258104,1,0,0:0:0:0:
192,192,258104,1,0,0:0:0:0:
320,192,258140,1,0,0:0:0:0:
448,192,258140,1,0,0:0:0:0:
320,192,258318,1,0,0:0:0:0:
448,192,258354,1,0,0:0:0:0:
64,192,258390,1,0,0:0:0:0:
192,192,258425,1,0,0:0:0:0:
448,192,258461,1,0,0:0:0:0:
320,192,258497,1,0,0:0:0:0:
192,192,258532,1,0,0:0:0:0:
64,192,258532,1,0,0:0:0:0:
64,192,258747,1,0,0:0:0:0:
320,192,258747,1,0,0:0:0:0:
192,192,258800,1,0,0:0:0:0:
448,192,258800,1,0,0:0:0:0:
64,192,258961,1,0,0:0:0:0:
320,192,258961,1,0,0:0:0:0:
192,192,259015,128,0,259390:0:0:0:0:
448,192,259015,1,0,0:0:0:0:
320,192,259175,1,0,0:0:0:0:
64,192,259390,1,0,0:0:0:0:
320,192,259390,1,0,0:0:0:0:
448,192,259390,1,0,0:0:0:0:
320,192,259604,1,0,0:0:0:0:
192,192,259657,1,0,0:0:0:0:
64,192,259711,1,0,0:0:0:0:
448,192,259818,1,0,0:0:0:0:
320,192,259925,1,0,0:0:0:0:
192,192,260032,1,0,0:0:0:0:
64,192,260166,1,0,0:0:0:0:
448,192,260247,1,0,0:0:0:0:
320,192,260247,128,0,261104:0:0:0:0:
64,192,261104,1,0,0:0:0:0:
448,192,261104,1,0,0:0:0:0:
192,192,261140,1,0,0:0:0:0:
320,192,261175,1,0,0:0:0:0:
448,192,261211,1,0,0:0:0:0:
192,192,261247,1,0,0:0:0:0:
64,192,261282,1,0,0:0:0:0:
448,192,261318,1,0,0:0:0:0:
320,192,261354,1,0,0:0:0:0:
192,192,261390,1,0,0:0:0:0:
64,192,261425,1,0,0:0:0:0:
448,192,261461,1,0,0:0:0:0:
320,192,261497,1,0,0:0:0:0:
192,192,261532,1,0,0:0:0:0:
64,192,261568,1,0,0:0:0:0:
320,192,261604,1,0,0:0:0:0:
448,192,261640,1,0,0:0:0:0:
64,192,261675,1,0,0:0:0:0:
192,192,261711,1,0,0:0:0:0:
320,192,261747,1,0,0:0:0:0:
448,192,261782,1,0,0:0:0:0:
64,192,261818,1,0,0:0:0:0:
192,192,261854,1,0,0:0:0:0:
448,192,261890,1,0,0:0:0:0:
320,192,261925,1,0,0:0:0:0:
192,192,261961,1,0,0:0:0:0:
64,192,261961,1,0,0:0:0:0:
448,192,262015,1,0,0:0:0:0:
320,192,262015,1,0,0:0:0:0:
192,192,262175,1,0,0:0:0:0:
64,192,262175,1,0,0:0:0:0:
320,192,262229,1,0,0:0:0:0:
448,192,262229,1,0,0:0:0:0:
192,192,262390,1,0,0:0:0:0:
64,192,262390,1,0,0:0:0:0:
320,192,262443,1,0,0:0:0:0:
448,192,262443,128,0,262711:0:0:0:0:
192,192,262604,128,0,262818:0:0:0:0:
320,192,262818,1,0,0:0:0:0:
448,192,262818,1,0,0:0:0:0:
64,192,262818,1,0,0:0:0:0:
448,192,263032,1,0,0:0:0:0:
320,192,263032,1,0,0:0:0:0:
448,192,263140,1,0,0:0:0:0:
320,192,263140,1,0,0:0:0:0:
448,192,263247,128,0,263568:0:0:0:0:
320,192,263247,128,0,263568:0:0:0:0:
448,192,263675,1,0,0:0:0:0:
192,192,263675,1,0,0:0:0:0:
192,192,263782,1,0,0:0:0:0:
192,192,263890,1,0,0:0:0:0:
192,192,263997,1,0,0:0:0:0:
448,192,264104,1,0,0:0:0:0:
192,192,264104,128,0,264318:0:0:0:0:
448,192,264318,1,0,0:0:0:0:
64,192,264318,1,0,0:0:0:0:
320,192,264425,1,0,0:0:0:0:
448,192,264532,1,0,0:0:0:0:
64,192,264532,1,0,0:0:0:0:
192,192,264532,1,0,0:0:0:0:
320,192,264747,1,0,0:0:0:0:
64,192,264747,1,0,0:0:0:0:
320,192,264854,1,0,0:0:0:0:
64,192,264854,1,0,0:0:0:0:
64,192,264961,128,0,265175:0:0:0:0:
320,192,264961,128,0,265336:0:0:0:0:
192,192,265122,128,0,265282:0:0:0:0:
448,192,265229,128,0,265390:0:0:0:0:
192,192,265390,1,0,0:0:0:0:
64,192,265390,1,0,0:0:0:0:
448,192,265425,1,0,0:0:0:0:
320,192,265461,1,0,0:0:0:0:
192,192,265497,1,0,0:0:0:0:
64,192,265532,1,0,0:0:0:0:
320,192,265568,1,0,0:0:0:0:
448,192,265604,1,0,0:0:0:0:
64,192,265640,1,0,0:0:0:0:
192,192,265675,1,0,0:0:0:0:
320,192,265711,1,0,0:0:0:0:
448,192,265747,1,0,0:0:0:0:
192,192,265782,1,0,0:0:0:0:
64,192,265818,1,0,0:0:0:0:
448,192,265854,1,0,0:0:0:0:
320,192,265890,1,0,0:0:0:0:
64,192,265925,1,0,0:0:0:0:
192,192,265961,1,0,0:0:0:0:
320,192,265997,1,0,0:0:0:0:
448,192,266032,1,0,0:0:0:0:
192,192,266068,1,0,0:0:0:0:
64,192,266104,1,0,0:0:0:0:
320,192,266140,1,0,0:0:0:0:
192,192,266175,1,0,0:0:0:0:
448,192,266211,1,0,0:0:0:0:
320,192,266247,1,0,0:0:0:0:
64,192,266247,1,0,0:0:0:0:
192,192,266300,1,0,0:0:0:0:
320,192,266354,1,0,0:0:0:0:
448,192,266407,1,0,0:0:0:0:
64,192,266461,1,0,0:0:0:0:
192,192,266515,1,0,0:0:0:0:
320,192,266568,1,0,0:0:0:0:
448,192,266622,1,0,0:0:0:0:
64,192,266675,1,0,0:0:0:0:
192,192,266729,1,0,0:0:0:0:
320,192,266782,1,0,0:0:0:0:
448,192,266836,1,0,0:0:0:0:
64,192,266890,1,0,0:0:0:0:
192,192,266943,1,0,0:0:0:0:
320,192,266997,1,0,0:0:0:0:
448,192,267050,1,0,0:0:0:0:
192,192,267104,1,0,0:0:0:0:
64,192,267104,1,0,0:0:0:0:
320,192,267140,1,0,0:0:0:0:
448,192,267175,1,0,0:0:0:0:
192,192,267211,1,0,0:0:0:0:
64,192,267247,1,0,0:0:0:0:
448,192,267282,1,0,0:0:0:0:
320,192,267318,1,0,0:0:0:0:
64,192,267354,1,0,0:0:0:0:
192,192,267390,1,0,0:0:0:0:
448,192,267425,1,0,0:0:0:0:
320,192,267461,1,0,0:0:0:0:
64,192,267497,1,0,0:0:0:0:
192,192,267532,1,0,0:0:0:0:
448,192,267532,1,0,0:0:0:0:
320,192,267747,1,0,0:0:0:0:
64,192,267747,1,0,0:0:0:0:
320,192,267854,1,0,0:0:0:0:
64,192,267854,1,0,0:0:0:0:
64,192,267961,1,0,0:0:0:0:
448,192,267961,1,0,0:0:0:0:
192,192,267961,1,0,0:0:0:0:
320,192,268068,128,0,268282:0:0:0:0:
64,192,268068,128,0,268282:0:0:0:0:
192,192,268282,128,0,268336:0:0:0:0:
448,192,268282,128,0,268336:0:0:0:0:
320,192,268390,128,0,268497:0:0:0:0:
64,192,268390,128,0,268497:0:0:0:0:
320,192,268604,128,0,268711:0:0:0:0:
64,192,268604,128,0,268711:0:0:0:0:
448,192,268818,1,0,0:0:0:0:
192,192,268818,1,0,0:0:0:0:
64,192,269032,1,0,0:0:0:0:
192,192,269068,1,0,0:0:0:0:
320,192,269104,1,0,0:0:0:0:
448,192,269140,1,0,0:0:0:0:
64,192,269175,1,0,0:0:0:0:
192,192,269211,1,0,0:0:0:0:
320,192,269247,1,0,0:0:0:0:
448,192,269282,1,0,0:0:0:0:
64,192,269354,1,0,0:0:0:0:
192,192,269390,1,0,0:0:0:0:
320,192,269425,1,0,0:0:0:0:
448,192,269461,1,0,0:0:0:0:
64,192,269497,1,0,0:0:0:0:
192,192,269532,1,0,0:0:0:0:
320,192,269568,1,0,0:0:0:0:
448,192,269604,1,0,0:0:0:0:
192,192,269675,1,0,0:0:0:0:
64,192,269675,1,0,0:0:0:0:
320,192,269675,1,0,0:0:0:0:
64,192,269782,1,0,0:0:0:0:
64,192,269890,1,0,0:0:0:0:
448,192,269997,1,0,0:0:0:0:
64,192,270104,1,0,0:0:0:0:
192,192,270157,1,0,0:0:0:0:
320,192,270211,1,0,0:0:0:0:
448,192,270265,1,0,0:0:0:0:
192,192,270318,1,0,0:0:0:0:
64,192,270372,1,0,0:0:0:0:
320,192,270425,1,0,0:0:0:0:
192,192,270479,1,0,0:0:0:0:
448,192,270532,1,0,0:0:0:0:
64,192,270532,1,0,0:0:0:0:
320,192,270586,1,0,0:0:0:0:
192,192,270640,1,0,0:0:0:0:
64,192,270693,1,0,0:0:0:0:
320,192,270747,1,0,0:0:0:0:
448,192,270800,1,0,0:0:0:0:
64,192,270854,1,0,0:0:0:0:
192,192,270907,1,0,0:0:0:0:
320,192,270961,1,0,0:0:0:0:
448,192,271015,1,0,0:0:0:0:
64,192,271068,1,0,0:0:0:0:
192,192,271122,1,0,0:0:0:0:
448,192,271175,1,0,0:0:0:0:
320,192,271229,1,0,0:0:0:0:
192,192,271282,1,0,0:0:0:0:
64,192,271336,1,0,0:0:0:0:
448,192,271390,1,0,0:0:0:0:
320,192,271818,1,0,0:0:0:0:
192,192,272247,1,0,0:0:0:0:
64,192,272675,1,0,0:0:0:0:
192,192,272890,1,0,0:0:0:0:
320,192,273104,1,0,0:0:0:0:
448,192,273318,128,0,273532:0:0:0:0:
192,192,273532,128,0,273747:0:0:0:0:
320,192,273747,128,0,273961:0:0:0:0:
64,192,273961,128,0,274818:0:0:0:0:
448,192,273961,1,0,0:0:0:0:
448,192,274818,128,0,275675:0:0:0:0:
192,192,274818,1,0,0:0:0:0:
320,192,275675,128,0,276532:0:0:0:0:
64,192,275675,1,0,0:0:0:0:
192,192,276532,128,0,277390:0:0:0:0:
448,192,276532,1,0,0:0:0:0:
64,192,277390,128,0,278247:0:0:0:0:
320,192,277390,1,0,0:0:0:0:
320,192,278247,128,0,279104:0:0:0:0:
192,192,278247,1,0,0:0:0:0:
448,192,278675,1,0,0:0:0:0:
192,192,278890,1,0,0:0:0:0:
448,192,279104,128,0,279961:0:0:0:0:
64,192,279104,1,0,0:0:0:0:
64,192,279961,128,0,280390:0:0:0:0:
320,192,279961,1,0,0:0:0:0:
192,192,280390,128,0,280818:0:0:0:0:
448,192,280390,1,0,0:0:0:0:
320,192,280818,128,0,282104:0:0:0:0:
64,192,280818,1,0,0:0:0:0:
192,192,282104,128,0,282532:0:0:0:0:
64,192,282104,1,0,0:0:0:0:
448,192,282532,128,0,283390:0:0:0:0:
320,192,282532,1,0,0:0:0:0:
64,192,283390,128,0,284247:0:0:0:0:
320,192,283390,1,0,0:0:0:0:
320,192,284247,128,0,285104:0:0:0:0:
192,192,284247,1,0,0:0:0:0:
192,192,285104,128,0,285532:0:0:0:0:
448,192,285104,1,0,0:0:0:0:
448,192,285532,128,0,285961:0:0:0:0:
64,192,285532,1,0,0:0:0:0:
192,192,285961,128,0,286818:0:0:0:0:
320,192,285961,1,0,0:0:0:0:
320,192,286604,1,0,0:0:0:0:
64,192,286818,128,0,288617:0:0:0:0:
320,192,286818,1,0,0:0:0:0:
448,192,287032,1,0,0:0:0:0:
320,192,287140,1,0,0:0:0:0:
192,192,287247,1,0,0:0:0:0:
448,192,287354,1,0,0:0:0:0:
320,192,287461,1,0,0:0:0:0:
192,192,287568,1,0,0:0:0:0:
448,192,287675,1,0,0:0:0:0:
320,192,287786,1,0,0:0:0:0:
192,192,287897,1,0,0:0:0:0:
448,192,288012,1,0,0:0:0:0:
320,192,288127,1,0,0:0:0:0:
192,192,288247,1,0,0:0:0:0:
448,192,288367,1,0,0:0:0:0:
320,192,288492,1,0,0:0:0:0:
192,192,288617,1,0,0:0:0:0:
320,192,288617,1,0,0:0:0:0:
448,192,288617,1,0,0:0:0:0:
64,192,288839,1,0,0:0:0:0:
192,192,288950,1,0,0:0:0:0:
320,192,289061,1,0,0:0:0:0:
448,192,289283,1,0,0:0:0:0:
192,192,289505,128,0,289728:0:0:0:0:
448,192,289728,1,0,0:0:0:0:
320,192,289950,1,0,0:0:0:0:
192,192,290172,1,0,0:0:0:0:
64,192,290394,128,0,290617:0:0:0:0:
192,192,290617,1,0,0:0:0:0:
320,192,290728,1,0,0:0:0:0:
448,192,290839,1,0,0:0:0:0:
64,192,291061,1,0,0:0:0:0:
320,192,291283,128,0,291728:0:0:0:0:
192,192,291283,1,0,0:0:0:0:
64,192,291728,128,0,292172:0:0:0:0:
448,192,291728,1,0,0:0:0:0:
192,192,292172,128,0,292394:0:0:0:0:
320,192,292172,1,0,0:0:0:0:
448,192,292394,1,0,0:0:0:0:
320,192,292505,1,0,0:0:0:0:
192,192,292617,1,0,0:0:0:0:
448,192,292839,1,0,0:0:0:0:
192,192,293061,128,0,293505:0:0:0:0:
320,192,293283,1,0,0:0:0:0:
64,192,293505,128,0,293728:0:0:0:0:
448,192,293505,1,0,0:0:0:0:
320,192,293728,1,0,0:0:0:0:
448,192,293728,128,0,293950:0:0:0:0:
192,192,293950,1,0,0:0:0:0:
64,192,293950,128,0,294172:0:0:0:0:
320,192,294172,1,0,0:0:0:0:
448,192,294283,1,0,0:0:0:0:
64,192,294394,1,0,0:0:0:0:
448,192,294617,1,0,0:0:0:0:
192,192,294839,128,0,295283:0:0:0:0:
64,192,294839,1,0,0:0:0:0:
320,192,295283,128,0,295505:0:0:0:0:
448,192,295283,1,0,0:0:0:0:
448,192,295505,128,0,295728:0:0:0:0:
64,192,295505,1,0,0:0:0:0:
64,192,295728,1,0,0:0:0:0:
320,192,295728,1,0,0:0:0:0:
192,192,295728,1,0,0:0:0:0:
64,192,296156,1,0,0:0:0:0:
448,192,296156,1,0,0:0:0:0:
192,192,296156,1,0,0:0:0:0:
64,192,296585,1,0,0:0:0:0:
320,192,296585,1,0,0:0:0:0:
448,192,296585,1,0,0:0:0:0:
192,192,297013,1,0,0:0:0:0:
320,192,297013,1,0,0:0:0:0:
448,192,297013,1,0,0:0:0:0:
64,192,297442,1,0,0:0:0:0:
320,192,297442,1,0,0:0:0:0:
448,192,297442,1,0,0:0:0:0:
64,192,297870,1,0,0:0:0:0:
192,192,297870,1,0,0:0:0:0:
448,192,297870,1,0,0:0:0:0:
64,192,298299,1,0,0:0:0:0:
192,192,298299,1,0,0:0:0:0:
320,192,298299,1,0,0:0:0:0:
64,192,298728,1,0,0:0:0:0:
320,192,298728,1,0,0:0:0:0:
448,192,298728,1,0,0:0:0:0:
192,192,298942,1,0,0:0:0:0:
320,192,298942,1,0,0:0:0:0:
192,192,299156,1,0,0:0:0:0:
64,192,299156,1,0,0:0:0:0:
64,192,299263,1,0,0:0:0:0:
448,192,299263,1,0,0:0:0:0:
320,192,299263,1,0,0:0:0:0:
320,192,299478,1,0,0:0:0:0:
448,192,299478,1,0,0:0:0:0:
64,192,299585,1,0,0:0:0:0:
192,192,299585,1,0,0:0:0:0:
448,192,299585,1,0,0:0:0:0:
64,192,299799,1,0,0:0:0:0:
192,192,299799,1,0,0:0:0:0:
64,192,299906,1,0,0:0:0:0:
320,192,299906,1,0,0:0:0:0:
448,192,299906,1,0,0:0:0:0:
320,192,300128,1,0,0:0:0:0:
448,192,300128,1,0,0:0:0:0:
64,192,300239,1,0,0:0:0:0:
192,192,300239,1,0,0:0:0:0:
448,192,300239,1,0,0:0:0:0:
64,192,300461,1,0,0:0:0:0:
192,192,300461,1,0,0:0:0:0:
448,192,300461,1,0,0:0:0:0:
320,192,300572,1,0,0:0:0:0:
448,192,300572,1,0,0:0:0:0:
192,192,300628,1,0,0:0:0:0:
64,192,300628,1,0,0:0:0:0:
320,192,300683,1,0,0:0:0:0:
448,192,300683,1,0,0:0:0:0:
64,192,300794,1,0,0:0:0:0:
192,192,300794,1,0,0:0:0:0:
448,192,300794,1,0,0:0:0:0:
320,192,300909,1,0,0:0:0:0:
192,192,300909,1,0,0:0:0:0:
64,192,301024,1,0,0:0:0:0:
448,192,301024,1,0,0:0:0:0:
192,192,301082,1,0,0:0:0:0:
320,192,301082,1,0,0:0:0:0:
64,192,301140,1,0,0:0:0:0:
448,192,301140,1,0,0:0:0:0:
64,192,301255,1,0,0:0:0:0:
192,192,301255,1,0,0:0:0:0:
320,192,301255,1,0,0:0:0:0:
320,192,301370,1,0,0:0:0:0:
448,192,301370,1,0,0:0:0:0:
192,192,301428,1,0,0:0:0:0:
64,192,301428,1,0,0:0:0:0:
320,192,301486,1,0,0:0:0:0:
448,192,301486,1,0,0:0:0:0:
64,192,301601,1,0,0:0:0:0:
192,192,301601,1,0,0:0:0:0:
448,192,301601,1,0,0:0:0:0:
320,192,301717,1,0,0:0:0:0:
64,192,301717,1,0,0:0:0:0:
192,192,301777,1,0,0:0:0:0:
448,192,301777,1,0,0:0:0:0:
320,192,301837,1,0,0:0:0:0:
64,192,301837,1,0,0:0:0:0:
192,192,301957,1,0,0:0:0:0:
320,192,301957,1,0,0:0:0:0:
448,192,301957,1,0,0:0:0:0:
64,192,302077,1,0,0:0:0:0:
192,192,302077,1,0,0:0:0:0:
320,192,302137,1,0,0:0:0:0:
448,192,302137,1,0,0:0:0:0:
192,192,302197,1,0,0:0:0:0:
64,192,302197,1,0,0:0:0:0:
64,192,302317,1,0,0:0:0:0:
320,192,302317,1,0,0:0:0:0:
448,192,302317,1,0,0:0:0:0:
64,192,302442,1,0,0:0:0:0:
192,192,302442,1,0,0:0:0:0:
448,192,302442,1,0,0:0:0:0:
192,192,302567,1,0,0:0:0:0:
320,192,302567,1,0,0:0:0:0:
448,192,302567,1,0,0:0:0:0:
320,192,302692,1,0,0:0:0:0:
192,192,302692,1,0,0:0:0:0:
64,192,302692,1,0,0:0:0:0:
64,192,302817,1,0,0:0:0:0:
320,192,302817,1,0,0:0:0:0:
448,192,302817,1,0,0:0:0:0:
192,192,303031,1,0,0:0:0:0:
192,192,303245,1,0,0:0:0:0:
192,192,303459,1,0,0:0:0:0:
320,192,303674,128,0,303888:0:0:0:0:
64,192,303888,1,0,0:0:0:0:
448,192,303995,1,0,0:0:0:0:
192,192,304102,128,0,304317:0:0:0:0:
320,192,304317,1,0,0:0:0:0:
64,192,304531,1,0,0:0:0:0:
64,192,304638,1,0,0:0:0:0:
448,192,304745,1,0,0:0:0:0:
320,192,304959,1,0,0:0:0:0:
192,192,305174,1,0,0:0:0:0:
64,192,305388,128,0,305602:0:0:0:0:
192,192,305602,1,0,0:0:0:0:
320,192,305709,1,0,0:0:0:0:
448,192,305817,128,0,306245:0:0:0:0:
320,192,306245,1,0,0:0:0:0:
192,192,306352,1,0,0:0:0:0:
64,192,306459,1,0,0:0:0:0:
64,192,306674,1,0,0:0:0:0:
64,192,306888,1,0,0:0:0:0:
64,192,307102,128,0,307317:0:0:0:0:
192,192,307317,1,0,0:0:0:0:
320,192,307424,1,0,0:0:0:0:
448,192,307531,128,0,307745:0:0:0:0:
192,192,307745,1,0,0:0:0:0:
320,192,307959,128,0,308388:0:0:0:0:
64,192,308388,1,0,0:0:0:0:
448,192,308602,1,0,0:0:0:0:
192,192,308817,128,0,309674:0:0:0:0:
64,192,309674,1,0,0:0:0:0:
448,192,309674,1,0,0:0:0:0:
320,192,309888,1,0,0:0:0:0:
320,192,310102,1,0,0:0:0:0:
320,192,310317,1,0,0:0:0:0:
64,192,310531,1,0,0:0:0:0:
448,192,310531,1,0,0:0:0:0:
192,192,310745,1,0,0:0:0:0:
448,192,310852,1,0,0:0:0:0:
320,192,310959,128,0,311174:0:0:0:0:
64,192,311174,1,0,0:0:0:0:
448,192,311388,1,0,0:0:0:0:
192,192,311388,1,0,0:0:0:0:
448,192,311495,1,0,0:0:0:0:
320,192,311602,1,0,0:0:0:0:
192,192,311817,1,0,0:0:0:0:
64,192,312031,1,0,0:0:0:0:
64,192,312245,128,0,312459:0:0:0:0:
448,192,312245,1,0,0:0:0:0:
192,192,312459,1,0,0:0:0:0:
320,192,312567,1,0,0:0:0:0:
448,192,312674,128,0,313102:0:0:0:0:
64,192,313102,1,0,0:0:0:0:
320,192,313102,1,0,0:0:0:0:
192,192,313209,1,0,0:0:0:0:
448,192,313317,1,0,0:0:0:0:
448,192,313531,1,0,0:0:0:0:
448,192,313745,1,0,0:0:0:0:
64,192,313959,1,0,0:0:0:0:
192,192,313959,128,0,314174:0:0:0:0:
448,192,314174,1,0,0:0:0:0:
320,192,314281,1,0,0:0:0:0:
64,192,314388,128,0,314602:0:0:0:0:
448,192,314602,1,0,0:0:0:0:
192,192,314817,128,0,315031:0:0:0:0:
320,192,314817,1,0,0:0:0:0:
448,192,315031,1,0,0:0:0:0:
64,192,315138,1,0,0:0:0:0:
192,192,315245,1,0,0:0:0:0:
448,192,315459,1,0,0:0:0:0:
320,192,315674,128,0,316102:0:0:0:0:
192,192,315674,1,0,0:0:0:0:
64,192,316102,1,0,0:0:0:0:
448,192,316102,1,0,0:0:0:0:
64,192,316531,1,0,0:0:0:0:
448,192,316531,1,0,0:0:0:0:
192,192,316531,1,0,0:0:0:0:
192,192,316745,1,0,0:0:0:0:
64,192,316959,1,0,0:0:0:0:
448,192,316959,1,0,0:0:0:0:
320,192,317174,1,0,0:0:0:0:
64,192,317388,1,0,0:0:0:0:
192,192,317388,1,0,0:0:0:0:
320,192,317602,1,0,0:0:0:0:
448,192,317602,1,0,0:0:0:0:
192,192,317709,1,0,0:0:0:0:
64,192,317817,1,0,0:0:0:0:
448,192,317817,1,0,0:0:0:0:
320,192,318031,1,0,0:0:0:0:
64,192,318245,1,0,0:0:0:0:
448,192,318245,1,0,0:0:0:0:
64,192,318352,1,0,0:0:0:0:
192,192,318459,1,0,0:0:0:0:
320,192,318674,1,0,0:0:0:0:
448,192,318674,1,0,0:0:0:0:
448,192,318888,1,0,0:0:0:0:
320,192,319102,1,0,0:0:0:0:
64,192,319102,1,0,0:0:0:0:
192,192,319317,1,0,0:0:0:0:
320,192,319424,1,0,0:0:0:0:
448,192,319531,128,0,319959:0:0:0:0:
64,192,319959,1,0,0:0:0:0:
320,192,319959,1,0,0:0:0:0:
192,192,320067,1,0,0:0:0:0:
64,192,320174,1,0,0:0:0:0:
320,192,320388,1,0,0:0:0:0:
448,192,320388,1,0,0:0:0:0:
192,192,320602,1,0,0:0:0:0:
64,192,320817,1,0,0:0:0:0:
448,192,320817,1,0,0:0:0:0:
192,192,321031,1,0,0:0:0:0:
320,192,321138,1,0,0:0:0:0:
448,192,321245,1,0,0:0:0:0:
64,192,321245,1,0,0:0:0:0:
320,192,321459,1,0,0:0:0:0:
64,192,321674,1,0,0:0:0:0:
448,192,321674,1,0,0:0:0:0:
192,192,321888,1,0,0:0:0:0:
192,192,321995,1,0,0:0:0:0:
320,192,322102,1,0,0:0:0:0:
448,192,322102,1,0,0:0:0:0:
64,192,322317,1,0,0:0:0:0:
192,192,322531,1,0,0:0:0:0:
448,192,322531,1,0,0:0:0:0:
320,192,322745,1,0,0:0:0:0:
448,192,322745,1,0,0:0:0:0:
64,192,322959,1,0,0:0:0:0:
192,192,322959,1,0,0:0:0:0:
448,192,323067,1,0,0:0:0:0:
192,192,323174,1,0,0:0:0:0:
320,192,323281,1,0,0:0:0:0:
64,192,323388,1,0,0:0:0:0:
192,192,323388,1,0,0:0:0:0:
320,192,323602,1,0,0:0:0:0:
192,192,323817,1,0,0:0:0:0:
448,192,323817,1,0,0:0:0:0:
320,192,324031,1,0,0:0:0:0:
64,192,324245,1,0,0:0:0:0:
448,192,324245,1,0,0:0:0:0:
192,192,324459,1,0,0:0:0:0:
64,192,324674,1,0,0:0:0:0:
448,192,324674,1,0,0:0:0:0:
320,192,324727,1,0,0:0:0:0:
192,192,324781,1,0,0:0:0:0:
64,192,324834,1,0,0:0:0:0:
320,192,324888,1,0,0:0:0:0:
448,192,324942,1,0,0:0:0:0:
64,192,324995,1,0,0:0:0:0:
192,192,325049,1,0,0:0:0:0:
320,192,325102,1,0,0:0:0:0:
448,192,325102,1,0,0:0:0:0:
64,192,325317,1,0,0:0:0:0:
192,192,325531,1,0,0:0:0:0:
448,192,325531,1,0,0:0:0:0:
320,192,325745,1,0,0:0:0:0:
64,192,325959,1,0,0:0:0:0:
192,192,325959,1,0,0:0:0:0:
192,192,326174,1,0,0:0:0:0:
64,192,326388,1,0,0:0:0:0:
448,192,326388,1,0,0:0:0:0:
320,192,326495,1,0,0:0:0:0:
192,192,326602,1,0,0:0:0:0:
64,192,326709,1,0,0:0:0:0:
320,192,326816,1,0,0:0:0:0:
448,192,326816,1,0,0:0:0:0:
192,192,327031,1,0,0:0:0:0:
64,192,327245,1,0,0:0:0:0:
448,192,327245,128,0,327459:0:0:0:0:
192,192,327459,1,0,0:0:0:0:
448,192,327566,1,0,0:0:0:0:
64,192,327674,1,0,0:0:0:0:
320,192,327674,1,0,0:0:0:0:
192,192,327888,1,0,0:0:0:0:
64,192,327888,1,0,0:0:0:0:
192,192,328102,1,0,0:0:0:0:
448,192,328102,128,0,328316:0:0:0:0:
64,192,328316,1,0,0:0:0:0:
192,192,328424,1,0,0:0:0:0:
448,192,328531,1,0,0:0:0:0:
320,192,328531,128,0,328745:0:0:0:0:
64,192,328745,1,0,0:0:0:0:
192,192,328852,1,0,0:0:0:0:
320,192,328959,1,0,0:0:0:0:
448,192,328959,1,0,0:0:0:0:
64,192,329174,1,0,0:0:0:0:
448,192,329174,1,0,0:0:0:0:
320,192,329388,1,0,0:0:0:0:
192,192,329388,128,0,329602:0:0:0:0:
448,192,329602,128,0,329816:0:0:0:0:
320,192,329816,128,0,330031:0:0:0:0:
192,192,330031,128,0,330245:0:0:0:0:
64,192,330245,128,0,330459:0:0:0:0:
448,192,330245,1,0,0:0:0:0:
192,192,330459,1,0,0:0:0:0:
320,192,330566,1,0,0:0:0:0:
448,192,330674,1,0,0:0:0:0:
64,192,330674,1,0,0:0:0:0:
192,192,330888,1,0,0:0:0:0:
64,192,331102,1,0,0:0:0:0:
320,192,331102,1,0,0:0:0:0:
448,192,331102,1,0,0:0:0:0:
448,192,331316,1,0,0:0:0:0:
320,192,331424,1,0,0:0:0:0:
192,192,331531,1,0,0:0:0:0:
64,192,331531,1,0,0:0:0:0:
64,192,331745,1,0,0:0:0:0:
448,192,331745,1,0,0:0:0:0:
192,192,331959,1,0,0:0:0:0:
448,192,331959,1,0,0:0:0:0:
64,192,331959,1,0,0:0:0:0:
64,192,332174,1,0,0:0:0:0:
192,192,332281,1,0,0:0:0:0:
64,192,332388,1,0,0:0:0:0:
448,192,332388,1,0,0:0:0:0:
320,192,332388,1,0,0:0:0:0:
320,192,332602,1,0,0:0:0:0:
192,192,332816,1,0,0:0:0:0:
448,192,332816,1,0,0:0:0:0:
64,192,332816,128,0,333245:0:0:0:0:
448,192,333245,128,0,333459:0:0:0:0:
320,192,333245,1,0,0:0:0:0:
192,192,333459,128,0,333674:0:0:0:0:
64,192,333459,1,0,0:0:0:0:
64,192,333674,1,0,0:0:0:0:
320,192,333674,1,0,0:0:0:0:
448,192,333674,1,0,0:0:0:0:
64,192,333888,1,0,0:0:0:0:
320,192,333888,1,0,0:0:0:0:
448,192,333888,1,0,0:0:0:0:
64,192,333995,1,0,0:0:0:0:
320,192,333995,1,0,0:0:0:0:
448,192,333995,1,0,0:0:0:0:
64,192,334102,1,0,0:0:0:0:
192,192,334102,1,0,0:0:0:0:
448,192,334102,1,0,0:0:0:0:
64,192,334316,1,0,0:0:0:0:
192,192,334316,1,0,0:0:0:0:
448,192,334316,1,0,0:0:0:0:
64,192,334531,1,0,0:0:0:0:
192,192,334531,1,0,0:0:0:0:
320,192,334531,1,0,0:0:0:0:
448,192,334638,1,0,0:0:0:0:
320,192,334638,1,0,0:0:0:0:
64,192,334745,128,0,334799:0:0:0:0:
448,192,334745,128,0,334799:0:0:0:0:
448,192,334852,1,0,0:0:0:0:
64,192,334852,1,0,0:0:0:0:
192,192,334852,1,0,0:0:0:0:
192,192,334959,1,0,0:0:0:0:
320,192,334959,1,0,0:0:0:0:
64,192,335066,128,0,335120:0:0:0:0:
448,192,335066,128,0,335120:0:0:0:0:
320,192,335174,1,0,0:0:0:0:
448,192,335174,1,0,0:0:0:0:
192,192,335174,1,0,0:0:0:0:
64,192,335281,1,0,0:0:0:0:
192,192,335281,1,0,0:0:0:0:
320,192,335334,1,0,0:0:0:0:
448,192,335388,1,0,0:0:0:0:
192,192,335388,1,0,0:0:0:0:
64,192,335388,1,0,0:0:0:0:
64,192,335602,1,0,0:0:0:0:
320,192,335602,1,0,0:0:0:0:
448,192,335602,1,0,0:0:0:0:
448,192,335816,1,0,0:0:0:0:
320,192,335816,1,0,0:0:0:0:
64,192,335816,1,0,0:0:0:0:
448,192,335924,1,0,0:0:0:0:
320,192,335924,1,0,0:0:0:0:
64,192,335924,1,0,0:0:0:0:
448,192,336031,1,0,0:0:0:0:
64,192,336031,1,0,0:0:0:0:
192,192,336031,128,0,336245:0:0:0:0:
448,192,336245,1,0,0:0:0:0:
320,192,336245,1,0,0:0:0:0:
64,192,336245,1,0,0:0:0:0:
192,192,336352,1,0,0:0:0:0:
448,192,336459,1,0,0:0:0:0:
320,192,336459,1,0,0:0:0:0:
64,192,336459,1,0,0:0:0:0:
320,192,336566,1,0,0:0:0:0:
192,192,336566,1,0,0:0:0:0:
448,192,336674,1,0,0:0:0:0:
64,192,336674,1,0,0:0:0:0:
192,192,336674,1,0,0:0:0:0:
448,192,336781,1,0,0:0:0:0:
64,192,336781,1,0,0:0:0:0:
448,192,336888,1,0,0:0:0:0:
192,192,336888,1,0,0:0:0:0:
320,192,336888,128,0,337102:0:0:0:0:
448,192,337102,1,0,0:0:0:0:
192,192,337102,1,0,0:0:0:0:
64,192,337102,128,0,337424:0:0:0:0:
320,192,337209,1,0,0:0:0:0:
192,192,337316,1,0,0:0:0:0:
192,192,337424,128,0,337745:0:0:0:0:
448,192,337424,1,0,0:0:0:0:
320,192,337424,1,0,0:0:0:0:
64,192,337531,1,0,0:0:0:0:
320,192,337638,1,0,0:0:0:0:
448,192,337745,1,0,0:0:0:0:
64,192,337745,1,0,0:0:0:0:
320,192,337745,1,0,0:0:0:0:
448,192,337852,1,0,0:0:0:0:
64,192,337852,1,0,0:0:0:0:
448,192,337959,1,0,0:0:0:0:
192,192,337959,1,0,0:0:0:0:
64,192,337959,128,0,338816:0:0:0:0:
320,192,338066,1,0,0:0:0:0:
448,192,338174,1,0,0:0:0:0:
192,192,338281,1,0,0:0:0:0:
320,192,338388,1,0,0:0:0:0:
448,192,338388,1,0,0:0:0:0:
192,192,338495,1,0,0:0:0:0:
448,192,338602,1,0,0:0:0:0:
320,192,338709,1,0,0:0:0:0:
192,192,338816,1,0,0:0:0:0:
320,192,338816,1,0,0:0:0:0:
448,192,338816,128,0,339031:0:0:0:0:
320,192,339031,1,0,0:0:0:0:
192,192,339031,1,0,0:0:0:0:
64,192,339031,1,0,0:0:0:0:
448,192,339245,1,0,0:0:0:0:
64,192,339245,1,0,0:0:0:0:
320,192,339245,1,0,0:0:0:0:
448,192,339352,1,0,0:0:0:0:
64,192,339352,1,0,0:0:0:0:
320,192,339352,1,0,0:0:0:0:
192,192,339459,128,0,339620:0:0:0:0:
64,192,339459,128,0,339620:0:0:0:0:
448,192,339566,128,0,339620:0:0:0:0:
320,192,339566,128,0,339620:0:0:0:0:
448,192,339674,1,0,0:0:0:0:
192,192,339674,1,0,0:0:0:0:
64,192,339674,1,0,0:0:0:0:
320,192,339781,1,0,0:0:0:0:
448,192,339888,1,0,0:0:0:0:
64,192,339888,1,0,0:0:0:0:
320,192,339995,1,0,0:0:0:0:
192,192,339995,1,0,0:0:0:0:
448,192,339995,1,0,0:0:0:0:
64,192,340102,1,0,0:0:0:0:
448,192,340209,1,0,0:0:0:0:
320,192,340209,1,0,0:0:0:0:
320,192,340316,1,0,0:0:0:0:
192,192,340316,1,0,0:0:0:0:
64,192,340316,1,0,0:0:0:0:
192,192,340424,1,0,0:0:0:0:
320,192,340531,1,0,0:0:0:0:
448,192,340531,1,0,0:0:0:0:
64,192,340531,1,0,0:0:0:0:
448,192,340745,1,0,0:0:0:0:
64,192,340745,1,0,0:0:0:0:
448,192,340959,1,0,0:0:0:0:
64,192,340959,1,0,0:0:0:0:
320,192,340959,1,0,0:0:0:0:
320,192,341066,1,0,0:0:0:0:
448,192,341174,1,0,0:0:0:0:
64,192,341174,1,0,0:0:0:0:
192,192,341209,1,0,0:0:0:0:
64,192,341281,1,0,0:0:0:0:
192,192,341316,1,0,0:0:0:0:
448,192,341388,1,0,0:0:0:0:
64,192,341388,1,0,0:0:0:0:
192,192,341424,1,0,0:0:0:0:
64,192,341495,1,0,0:0:0:0:
448,192,341495,1,0,0:0:0:0:
192,192,341531,1,0,0:0:0:0:
64,192,341602,1,0,0:0:0:0:
448,192,341602,1,0,0:0:0:0:
192,192,341629,1,0,0:0:0:0:
320,192,341656,1,0,0:0:0:0:
448,192,341683,1,0,0:0:0:0:
64,192,341709,1,0,0:0:0:0:
192,192,341763,1,0,0:0:0:0:
448,192,341816,1,0,0:0:0:0:
64,192,341816,1,0,0:0:0:0:
320,192,341816,128,0,342031:0:0:0:0:
192,192,342031,128,0,342245:0:0:0:0:
320,192,342245,1,0,0:0:0:0:
64,192,342245,1,0,0:0:0:0:
448,192,342245,128,0,342459:0:0:0:0:
192,192,342459,1,0,0:0:0:0:
64,192,342459,1,0,0:0:0:0:
320,192,342459,128,0,342674:0:0:0:0:
448,192,342674,128,0,342727:0:0:0:0:
64,192,342674,128,0,342727:0:0:0:0:
192,192,342674,1,0,0:0:0:0:
448,192,342781,128,0,342834:0:0:0:0:
64,192,342781,128,0,342834:0:0:0:0:
192,192,342781,1,0,0:0:0:0:
448,192,342888,128,0,343049:0:0:0:0:
64,192,342888,128,0,343102:0:0:0:0:
192,192,342888,1,0,0:0:0:0:
448,192,343102,1,0,0:0:0:0:
320,192,343102,1,0,0:0:0:0:
192,192,343102,1,0,0:0:0:0:
192,192,343209,128,0,343316:0:0:0:0:
448,192,343316,128,0,343424:0:0:0:0:
320,192,343316,128,0,343424:0:0:0:0:
64,192,343316,128,0,343424:0:0:0:0:
192,192,343424,128,0,343477:0:0:0:0:
448,192,343531,128,0,343691:0:0:0:0:
320,192,343531,128,0,343691:0:0:0:0:
64,192,343531,128,0,343691:0:0:0:0:
448,192,343745,1,0,0:0:0:0:
320,192,343745,1,0,0:0:0:0:
64,192,343745,1,0,0:0:0:0:
320,192,343852,1,0,0:0:0:0:
448,192,343959,1,0,0:0:0:0:
192,192,343959,1,0,0:0:0:0:
64,192,343959,1,0,0:0:0:0:
192,192,344066,1,0,0:0:0:0:
448,192,344174,1,0,0:0:0:0:
64,192,344174,1,0,0:0:0:0:
448,192,344281,1,0,0:0:0:0:
320,192,344281,1,0,0:0:0:0:
192,192,344281,1,0,0:0:0:0:
320,192,344388,1,0,0:0:0:0:
192,192,344495,1,0,0:0:0:0:
64,192,344495,1,0,0:0:0:0:
448,192,344602,1,0,0:0:0:0:
64,192,344602,1,0,0:0:0:0:
320,192,344602,1,0,0:0:0:0:
320,192,344709,1,0,0:0:0:0:
192,192,344709,1,0,0:0:0:0:
448,192,344816,1,0,0:0:0:0:
192,192,344816,1,0,0:0:0:0:
64,192,344816,1,0,0:0:0:0:
320,192,344924,1,0,0:0:0:0:
448,192,345031,1,0,0:0:0:0:
64,192,345031,1,0,0:0:0:0:
192,192,345138,1,0,0:0:0:0:
448,192,345245,1,0,0:0:0:0:
320,192,345245,1,0,0:0:0:0:
64,192,345245,1,0,0:0:0:0:
320,192,345352,1,0,0:0:0:0:
192,192,345459,1,0,0:0:0:0:
448,192,345459,1,0,0:0:0:0:
448,192,345674,1,0,0:0:0:0:
64,192,345674,1,0,0:0:0:0:
192,192,345674,128,0,346049:0:0:0:0:
448,192,345888,1,0,0:0:0:0:
64,192,345888,1,0,0:0:0:0:
320,192,345888,128,0,346102:0:0:0:0:
448,192,346102,1,0,0:0:0:0:
192,192,346102,1,0,0:0:0:0:
64,192,346102,1,0,0:0:0:0:
448,192,346209,1,0,0:0:0:0:
192,192,346209,1,0,0:0:0:0:
64,192,346209,1,0,0:0:0:0:
448,192,346316,1,0,0:0:0:0:
64,192,346316,1,0,0:0:0:0:
320,192,346316,1,0,0:0:0:0:
320,192,346424,1,0,0:0:0:0:
192,192,346531,1,0,0:0:0:0:
64,192,346531,1,0,0:0:0:0:
448,192,346531,1,0,0:0:0:0:
320,192,346638,1,0,0:0:0:0:
448,192,346745,1,0,0:0:0:0:
64,192,346745,1,0,0:0:0:0:
448,192,346852,1,0,0:0:0:0:
320,192,346852,1,0,0:0:0:0:
192,192,346852,1,0,0:0:0:0:
64,192,346959,1,0,0:0:0:0:
320,192,347066,1,0,0:0:0:0:
192,192,347066,1,0,0:0:0:0:
448,192,347174,1,0,0:0:0:0:
64,192,347174,1,0,0:0:0:0:
320,192,347174,1,0,0:0:0:0:
448,192,347281,1,0,0:0:0:0:
320,192,347388,1,0,0:0:0:0:
64,192,347388,1,0,0:0:0:0:
192,192,347388,1,0,0:0:0:0:
448,192,347602,1,0,0:0:0:0:
64,192,347602,1,0,0:0:0:0:
448,192,347816,1,0,0:0:0:0:
320,192,347816,1,0,0:0:0:0:
192,192,347816,1,0,0:0:0:0:
64,192,348031,1,0,0:0:0:0:
320,192,348031,1,0,0:0:0:0:
448,192,348245,1,0,0:0:0:0:
192,192,348245,1,0,0:0:0:0:
64,192,348245,1,0,0:0:0:0:
448,192,348352,1,0,0:0:0:0:
192,192,348352,1,0,0:0:0:0:
64,192,348352,1,0,0:0:0:0:
64,192,348459,1,0,0:0:0:0:
192,192,348486,1,0,0:0:0:0:
448,192,348513,1,0,0:0:0:0:
320,192,348540,1,0,0:0:0:0:
192,192,348566,1,0,0:0:0:0:
64,192,348566,1,0,0:0:0:0:
448,192,348593,1,0,0:0:0:0:
320,192,348620,1,0,0:0:0:0:
64,192,348647,1,0,0:0:0:0:
192,192,348674,1,0,0:0:0:0:
448,192,348674,128,0,349102:0:0:0:0:
320,192,349102,1,0,0:0:0:0:
192,192,349102,1,0,0:0:0:0:
64,192,349102,1,0,0:0:0:0:
448,192,349316,1,0,0:0:0:0:
320,192,349316,1,0,0:0:0:0:
192,192,349316,1,0,0:0:0:0:
448,192,349531,1,0,0:0:0:0:
192,192,349531,1,0,0:0:0:0:
64,192,349531,1,0,0:0:0:0:
448,192,349638,1,0,0:0:0:0:
192,192,349638,1,0,0:0:0:0:
64,192,349638,1,0,0:0:0:0:
448,192,349745,1,0,0:0:0:0:
64,192,349745,1,0,0:0:0:0:
192,192,349745,128,0,349959:0:0:0:0:
448,192,349959,1,0,0:0:0:0:
320,192,349959,1,0,0:0:0:0:
64,192,349959,1,0,0:0:0:0:
192,192,350066,1,0,0:0:0:0:
320,192,350066,1,0,0:0:0:0:
64,192,350174,1,0,0:0:0:0:
192,192,350174,1,0,0:0:0:0:
320,192,350281,1,0,0:0:0:0:
448,192,350281,1,0,0:0:0:0:
64,192,350388,1,0,0:0:0:0:
192,192,350388,1,0,0:0:0:0:
192,192,350495,1,0,0:0:0:0:
320,192,350495,1,0,0:0:0:0:
320,192,350602,1,0,0:0:0:0:
448,192,350602,1,0,0:0:0:0:
64,192,350709,1,0,0:0:0:0:
192,192,350709,1,0,0:0:0:0:
64,192,350816,1,0,0:0:0:0:
448,192,350816,1,0,0:0:0:0:
320,192,350816,1,0,0:0:0:0:
192,192,350924,1,0,0:0:0:0:
448,192,351031,1,0,0:0:0:0:
64,192,351031,1,0,0:0:0:0:
448,192,351138,1,0,0:0:0:0:
320,192,351138,1,0,0:0:0:0:
192,192,351138,1,0,0:0:0:0:
64,192,351245,1,0,0:0:0:0:
448,192,351352,1,0,0:0:0:0:
320,192,351352,1,0,0:0:0:0:
192,192,351459,1,0,0:0:0:0:
64,192,351459,1,0,0:0:0:0:
448,192,351459,1,0,0:0:0:0:
448,192,351566,1,0,0:0:0:0:
320,192,351566,1,0,0:0:0:0:
64,192,351566,1,0,0:0:0:0:
448,192,351674,1,0,0:0:0:0:
192,192,351674,1,0,0:0:0:0:
64,192,351674,1,0,0:0:0:0:
320,192,351781,1,0,0:0:0:0:
448,192,351888,1,0,0:0:0:0:
64,192,351888,1,0,0:0:0:0:
192,192,351995,1,0,0:0:0:0:
448,192,352102,1,0,0:0:0:0:
320,192,352102,1,0,0:0:0:0:
64,192,352102,1,0,0:0:0:0:
192,192,352209,1,0,0:0:0:0:
448,192,352316,1,0,0:0:0:0:
64,192,352316,1,0,0:0:0:0:
320,192,352424,1,0,0:0:0:0:
192,192,352531,1,0,0:0:0:0:
64,192,352531,128,0,352745:0:0:0:0:
448,192,352531,1,0,0:0:0:0:
448,192,352745,1,0,0:0:0:0:
192,192,352745,1,0,0:0:0:0:
320,192,352745,128,0,352959:0:0:0:0:
448,192,352959,1,0,0:0:0:0:
192,192,352959,1,0,0:0:0:0:
64,192,352959,1,0,0:0:0:0:
448,192,353066,1,0,0:0:0:0:
192,192,353066,1,0,0:0:0:0:
64,192,353066,1,0,0:0:0:0:
448,192,353174,1,0,0:0:0:0:
64,192,353174,1,0,0:0:0:0:
320,192,353227,1,0,0:0:0:0:
192,192,353281,1,0,0:0:0:0:
320,192,353334,1,0,0:0:0:0:
448,192,353388,1,0,0:0:0:0:
64,192,353388,1,0,0:0:0:0:
64,192,353495,128,0,353602:0:0:0:0:
64,192,353709,1,0,0:0:0:0:
64,192,353816,128,0,354031:0:0:0:0:
192,192,354031,128,0,354138:0:0:0:0:
320,192,354138,128,0,354245:0:0:0:0:
448,192,354245,1,0,0:0:0:0:
192,192,354245,1,0,0:0:0:0:
64,192,354245,1,0,0:0:0:0:
448,192,354459,1,0,0:0:0:0:
64,192,354459,1,0,0:0:0:0:
448,192,354674,1,0,0:0:0:0:
320,192,354674,1,0,0:0:0:0:
64,192,354674,1,0,0:0:0:0:
320,192,354888,1,0,0:0:0:0:
192,192,354888,1,0,0:0:0:0:
448,192,355102,1,0,0:0:0:0:
64,192,355102,1,0,0:0:0:0:
320,192,355156,1,0,0:0:0:0:
192,192,355209,1,0,0:0:0:0:
64,192,355263,1,0,0:0:0:0:
320,192,355316,1,0,0:0:0:0:
448,192,355370,1,0,0:0:0:0:
64,192,355424,1,0,0:0:0:0:
192,192,355477,1,0,0:0:0:0:
448,192,355531,1,0,0:0:0:0:
64,192,355531,1,0,0:0:0:0:
320,192,355531,128,0,355745:0:0:0:0:
192,192,355745,128,0,355906:0:0:0:0:
64,192,355959,1,0,0:0:0:0:
448,192,355959,128,0,356174:0:0:0:0:
192,192,355959,1,0,0:0:0:0:
320,192,356174,1,0,0:0:0:0:
192,192,356174,1,0,0:0:0:0:
64,192,356174,1,0,0:0:0:0:
448,192,356388,1,0,0:0:0:0:
320,192,356388,1,0,0:0:0:0:
64,192,356388,1,0,0:0:0:0:
448,192,356495,1,0,0:0:0:0:
320,192,356495,1,0,0:0:0:0:
64,192,356495,1,0,0:0:0:0:
64,192,356602,1,0,0:0:0:0:
320,192,356602,1,0,0:0:0:0:
448,192,356602,128,0,356816:0:0:0:0:
192,192,356816,1,0,0:0:0:0:
64,192,356816,1,0,0:0:0:0:
320,192,356816,1,0,0:0:0:0:
64,192,356924,1,0,0:0:0:0:
192,192,357031,1,0,0:0:0:0:
320,192,357031,1,0,0:0:0:0:
448,192,357031,1,0,0:0:0:0:
192,192,357138,1,0,0:0:0:0:
448,192,357245,1,0,0:0:0:0:
320,192,357245,1,0,0:0:0:0:
64,192,357245,1,0,0:0:0:0:
320,192,357352,1,0,0:0:0:0:
448,192,357459,1,0,0:0:0:0:
192,192,357459,1,0,0:0:0:0:
64,192,357459,1,0,0:0:0:0:
448,192,357566,1,0,0:0:0:0:
192,192,357674,1,0,0:0:0:0:
64,192,357674,1,0,0:0:0:0:
320,192,357674,128,0,358316:0:0:0:0:
448,192,358316,1,0,0:0:0:0:
192,192,358316,1,0,0:0:0:0:
64,192,358316,1,0,0:0:0:0:
64,192,358424,1,0,0:0:0:0:
320,192,358424,1,0,0:0:0:0:
448,192,358424,1,0,0:0:0:0:
192,192,358531,1,0,0:0:0:0:
320,192,358531,1,0,0:0:0:0:
448,192,358531,128,0,358852:0:0:0:0:
192,192,358745,1,0,0:0:0:0:
320,192,358852,1,0,0:0:0:0:
64,192,358852,128,0,359174:0:0:0:0:
192,192,359066,1,0,0:0:0:0:
448,192,359174,1,0,0:0:0:0:
320,192,359174,128,0,359388:0:0:0:0:
192,192,359388,1,0,0:0:0:0:
64,192,359388,128,0,359763:0:0:0:0:
448,192,359388,128,0,359763:0:0:0:0:
64,192,359816,1,0,0:0:0:0:
320,192,359816,128,0,360245:0:0:0:0:
448,192,359816,128,0,360191:0:0:0:0:
64,192,360245,1,0,0:0:0:0:
192,192,360245,1,0,0:0:0:0:
448,192,360245,1,0,0:0:0:0:
64,192,360459,1,0,0:0:0:0:
320,192,360459,1,0,0:0:0:0:
448,192,360459,1,0,0:0:0:0:
64,192,360566,1,0,0:0:0:0:
320,192,360566,1,0,0:0:0:0:
448,192,360566,1,0,0:0:0:0:
448,192,360674,1,0,0:0:0:0:
320,192,360700,1,0,0:0:0:0:
64,192,360727,1,0,0:0:0:0:
192,192,360754,1,0,0:0:0:0:
320,192,360781,1,0,0:0:0:0:
448,192,360781,1,0,0:0:0:0:
192,192,360888,1,0,0:0:0:0:
64,192,360888,1,0,0:0:0:0:
448,192,360888,1,0,0:0:0:0:
64,192,361102,1,0,0:0:0:0:
448,192,361102,1,0,0:0:0:0:
320,192,361102,1,0,0:0:0:0:
64,192,361209,1,0,0:0:0:0:
448,192,361209,1,0,0:0:0:0:
320,192,361209,1,0,0:0:0:0:
448,192,361316,1,0,0:0:0:0:
64,192,361316,1,0,0:0:0:0:
192,192,361316,1,0,0:0:0:0:
320,192,361424,1,0,0:0:0:0:
192,192,361424,1,0,0:0:0:0:
64,192,361424,1,0,0:0:0:0:
192,192,361531,1,0,0:0:0:0:
320,192,361531,1,0,0:0:0:0:
448,192,361531,1,0,0:0:0:0:
64,192,361745,1,0,0:0:0:0:
192,192,361745,1,0,0:0:0:0:
448,192,361745,1,0,0:0:0:0:
64,192,361959,1,0,0:0:0:0:
448,192,361959,1,0,0:0:0:0:
320,192,361959,128,0,362388:0:0:0:0:
448,192,362388,1,0,0:0:0:0:
64,192,362388,128,0,362816:0:0:0:0:
448,192,362816,128,0,363031:0:0:0:0:
64,192,363031,1,0,0:0:0:0:
192,192,363138,1,0,0:0:0:0:
320,192,363245,1,0,0:0:0:0:
192,192,363459,1,0,0:0:0:0:
64,192,363674,1,0,0:0:0:0:
448,192,363674,1,0,0:0:0:0:
320,192,363888,1,0,0:0:0:0:
64,192,364102,1,0,0:0:0:0:
192,192,364316,1,0,0:0:0:0:
320,192,364531,1,0,0:0:0:0:
448,192,364531,1,0,0:0:0:0:
192,192,364745,1,0,0:0:0:0:
320,192,364852,1,0,0:0:0:0:
448,192,364959,1,0,0:0:0:0:
64,192,364959,1,0,0:0:0:0:
192,192,365174,1,0,0:0:0:0:
64,192,365388,1,0,0:0:0:0:
448,192,365388,1,0,0:0:0:0:
320,192,365816,128,0,366245:0:0:0:0:
64,192,366245,1,0,0:0:0:0:
448,192,366245,1,0,0:0:0:0:
192,192,366245,1,0,0:0:0:0:
192,192,366459,1,0,0:0:0:0:
320,192,366566,1,0,0:0:0:0:
448,192,366674,1,0,0:0:0:0:
192,192,366781,1,0,0:0:0:0:
320,192,366888,1,0,0:0:0:0:
448,192,366995,1,0,0:0:0:0:
64,192,367102,128,0,367316:0:0:0:0:
192,192,367102,1,0,0:0:0:0:
320,192,367102,1,0,0:0:0:0:
448,192,367316,1,0,0:0:0:0:
320,192,367424,1,0,0:0:0:0:
192,192,367531,1,0,0:0:0:0:
64,192,367745,1,0,0:0:0:0:
448,192,367959,128,0,368174:0:0:0:0:
192,192,367959,1,0,0:0:0:0:
320,192,367959,1,0,0:0:0:0:
64,192,368174,1,0,0:0:0:0:
192,192,368281,1,0,0:0:0:0:
320,192,368388,1,0,0:0:0:0:
448,192,368388,1,0,0:0:0:0:
64,192,368388,1,0,0:0:0:0:
192,192,368602,1,0,0:0:0:0:
448,192,368816,128,0,369245:0:0:0:0:
64,192,368816,1,0,0:0:0:0:
320,192,368816,1,0,0:0:0:0:
192,192,369245,128,0,369674:0:0:0:0:
320,192,369459,1,0,0:0:0:0:
448,192,369674,1,0,0:0:0:0:
64,192,369674,1,0,0:0:0:0:
320,192,369674,1,0,0:0:0:0:
320,192,369888,1,0,0:0:0:0:
448,192,369888,1,0,0:0:0:0:
64,192,369995,1,0,0:0:0:0:
192,192,369995,1,0,0:0:0:0:
320,192,370102,1,0,0:0:0:0:
448,192,370102,1,0,0:0:0:0:
64,192,370316,1,0,0:0:0:0:
448,192,370316,1,0,0:0:0:0:
448,192,370531,1,0,0:0:0:0:
64,192,370531,1,0,0:0:0:0:
192,192,370531,1,0,0:0:0:0:
64,192,370745,1,0,0:0:0:0:
320,192,370745,1,0,0:0:0:0:
192,192,370959,1,0,0:0:0:0:
448,192,370959,1,0,0:0:0:0:
320,192,371174,1,0,0:0:0:0:
448,192,371174,1,0,0:0:0:0:
64,192,371388,1,0,0:0:0:0:
192,192,371388,1,0,0:0:0:0:
320,192,371388,1,0,0:0:0:0:
320,192,371602,1,0,0:0:0:0:
448,192,371602,1,0,0:0:0:0:
64,192,371709,1,0,0:0:0:0:
192,192,371709,1,0,0:0:0:0:
320,192,371816,1,0,0:0:0:0:
448,192,371816,1,0,0:0:0:0:
64,192,371816,1,0,0:0:0:0:
64,192,372031,1,0,0:0:0:0:
192,192,372031,1,0,0:0:0:0:
192,192,372245,1,0,0:0:0:0:
320,192,372245,1,0,0:0:0:0:
448,192,372245,128,0,372888:0:0:0:0:
192,192,372888,1,0,0:0:0:0:
64,192,373102,1,0,0:0:0:0:
320,192,373102,1,0,0:0:0:0:
448,192,373102,1,0,0:0:0:0:
64,192,373316,1,0,0:0:0:0:
192,192,373316,1,0,0:0:0:0:
192,192,373424,1,0,0:0:0:0:
320,192,373424,1,0,0:0:0:0:
320,192,373531,1,0,0:0:0:0:
448,192,373531,1,0,0:0:0:0:
64,192,373638,1,0,0:0:0:0:
192,192,373638,1,0,0:0:0:0:
320,192,373745,1,0,0:0:0:0:
448,192,373745,1,0,0:0:0:0:
192,192,373852,1,0,0:0:0:0:
320,192,373852,1,0,0:0:0:0:
64,192,373959,1,0,0:0:0:0:
192,192,373959,1,0,0:0:0:0:
448,192,373959,1,0,0:0:0:0:
320,192,374174,1,0,0:0:0:0:
448,192,374174,1,0,0:0:0:0:
64,192,374281,1,0,0:0:0:0:
192,192,374281,1,0,0:0:0:0:
320,192,374388,1,0,0:0:0:0:
448,192,374388,1,0,0:0:0:0:
448,192,374602,1,0,0:0:0:0:
64,192,374602,1,0,0:0:0:0:
64,192,374816,1,0,0:0:0:0:
192,192,374816,1,0,0:0:0:0:
320,192,374816,1,0,0:0:0:0:
320,192,375031,1,0,0:0:0:0:
448,192,375031,1,0,0:0:0:0:
320,192,375138,1,0,0:0:0:0:
192,192,375138,1,0,0:0:0:0:
64,192,375245,1,0,0:0:0:0:
192,192,375245,1,0,0:0:0:0:
448,192,375245,1,0,0:0:0:0:
192,192,375459,1,0,0:0:0:0:
320,192,375459,1,0,0:0:0:0:
320,192,375674,1,0,0:0:0:0:
448,192,375674,1,0,0:0:0:0:
64,192,375674,128,0,376316:0:0:0:0:
320,192,376316,1,0,0:0:0:0:
64,192,376531,1,0,0:0:0:0:
192,192,376531,1,0,0:0:0:0:
448,192,376531,1,0,0:0:0:0:
64,192,376745,1,0,0:0:0:0:
448,192,376745,1,0,0:0:0:0:
192,192,376852,1,0,0:0:0:0:
320,192,376852,1,0,0:0:0:0:
64,192,376959,1,0,0:0:0:0:
448,192,376959,1,0,0:0:0:0:
320,192,377174,1,0,0:0:0:0:
448,192,377174,1,0,0:0:0:0:
192,192,377388,1,0,0:0:0:0:
64,192,377388,1,0,0:0:0:0:
320,192,377388,1,0,0:0:0:0:
192,192,377602,1,0,0:0:0:0:
448,192,377602,1,0,0:0:0:0:
64,192,377816,1,0,0:0:0:0:
320,192,377816,1,0,0:0:0:0:
64,192,378031,1,0,0:0:0:0:
192,192,378031,1,0,0:0:0:0:
192,192,378245,1,0,0:0:0:0:
320,192,378245,1,0,0:0:0:0:
448,192,378245,1,0,0:0:0:0:
64,192,378459,1,0,0:0:0:0:
192,192,378459,1,0,0:0:0:0:
192,192,378566,1,0,0:0:0:0:
320,192,378566,1,0,0:0:0:0:
320,192,378674,1,0,0:0:0:0:
448,192,378674,1,0,0:0:0:0:
64,192,378888,1,0,0:0:0:0:
448,192,378888,1,0,0:0:0:0:
64,192,379102,1,0,0:0:0:0:
192,192,379102,1,0,0:0:0:0:
320,192,379102,1,0,0:0:0:0:
448,192,379316,1,0,0:0:0:0:
192,192,379316,1,0,0:0:0:0:
64,192,379531,1,0,0:0:0:0:
320,192,379531,1,0,0:0:0:0:
64,192,379745,1,0,0:0:0:0:
192,192,379745,1,0,0:0:0:0:
320,192,379959,1,0,0:0:0:0:
192,192,379959,1,0,0:0:0:0:
448,192,379959,1,0,0:0:0:0:
64,192,380174,1,0,0:0:0:0:
192,192,380174,1,0,0:0:0:0:
192,192,380281,1,0,0:0:0:0:
320,192,380281,1,0,0:0:0:0:
320,192,380388,1,0,0:0:0:0:
448,192,380388,1,0,0:0:0:0:
64,192,380388,1,0,0:0:0:0:
64,192,380495,1,0,0:0:0:0:
192,192,380495,1,0,0:0:0:0:
320,192,380602,1,0,0:0:0:0:
448,192,380602,1,0,0:0:0:0:
192,192,380709,1,0,0:0:0:0:
320,192,380709,1,0,0:0:0:0:
64,192,380816,1,0,0:0:0:0:
192,192,380816,1,0,0:0:0:0:
448,192,380816,1,0,0:0:0:0:
448,192,381031,1,0,0:0:0:0:
320,192,381031,1,0,0:0:0:0:
320,192,381138,1,0,0:0:0:0:
192,192,381138,1,0,0:0:0:0:
192,192,381245,1,0,0:0:0:0:
64,192,381245,1,0,0:0:0:0:
448,192,381245,1,0,0:0:0:0:
448,192,381352,1,0,0:0:0:0:
320,192,381352,1,0,0:0:0:0:
192,192,381459,1,0,0:0:0:0:
64,192,381459,1,0,0:0:0:0:
320,192,381566,1,0,0:0:0:0:
192,192,381566,1,0,0:0:0:0:
448,192,381674,1,0,0:0:0:0:
320,192,381674,1,0,0:0:0:0:
64,192,381674,1,0,0:0:0:0:
192,192,381888,1,0,0:0:0:0:
64,192,381888,1,0,0:0:0:0:
320,192,381995,1,0,0:0:0:0:
192,192,381995,1,0,0:0:0:0:
448,192,382102,1,0,0:0:0:0:
320,192,382102,1,0,0:0:0:0:
64,192,382102,1,0,0:0:0:0:
192,192,382209,1,0,0:0:0:0:
64,192,382209,1,0,0:0:0:0:
448,192,382316,1,0,0:0:0:0:
320,192,382316,1,0,0:0:0:0:
320,192,382424,1,0,0:0:0:0:
192,192,382424,1,0,0:0:0:0:
448,192,382531,1,0,0:0:0:0:
192,192,382531,1,0,0:0:0:0:
64,192,382531,1,0,0:0:0:0:
448,192,382745,1,0,0:0:0:0:
320,192,382745,1,0,0:0:0:0:
320,192,382852,1,0,0:0:0:0:
192,192,382852,1,0,0:0:0:0:
192,192,382959,1,0,0:0:0:0:
64,192,382959,1,0,0:0:0:0:
448,192,382959,1,0,0:0:0:0:
448,192,383066,1,0,0:0:0:0:
320,192,383066,1,0,0:0:0:0:
192,192,383174,1,0,0:0:0:0:
64,192,383174,1,0,0:0:0:0:
320,192,383281,1,0,0:0:0:0:
192,192,383281,1,0,0:0:0:0:
448,192,383388,1,0,0:0:0:0:
320,192,383388,1,0,0:0:0:0:
64,192,383388,1,0,0:0:0:0:
64,192,383602,1,0,0:0:0:0:
192,192,383602,1,0,0:0:0:0:
192,192,383709,1,0,0:0:0:0:
320,192,383709,1,0,0:0:0:0:
320,192,383816,1,0,0:0:0:0:
448,192,383816,1,0,0:0:0:0:
64,192,383816,1,0,0:0:0:0:
192,192,383924,1,0,0:0:0:0:
64,192,383924,1,0,0:0:0:0:
192,192,384031,1,0,0:0:0:0:
448,192,384031,1,0,0:0:0:0:
320,192,384138,1,0,0:0:0:0:
448,192,384138,1,0,0:0:0:0:
64,192,384245,1,0,0:0:0:0:
192,192,384245,1,0,0:0:0:0:
320,192,384245,1,0,0:0:0:0:
64,192,384352,1,0,0:0:0:0:
448,192,384352,1,0,0:0:0:0:
448,192,384459,1,0,0:0:0:0:
320,192,384459,1,0,0:0:0:0:
192,192,384566,1,0,0:0:0:0:
320,192,384566,1,0,0:0:0:0:
64,192,384674,1,0,0:0:0:0:
192,192,384674,1,0,0:0:0:0:
448,192,384674,1,0,0:0:0:0:
64,192,384781,1,0,0:0:0:0:
320,192,384781,1,0,0:0:0:0:
320,192,384888,1,0,0:0:0:0:
448,192,384888,1,0,0:0:0:0:
448,192,384995,1,0,0:0:0:0:
64,192,384995,1,0,0:0:0:0:
64,192,385102,1,0,0:0:0:0:
192,192,385102,1,0,0:0:0:0:
320,192,385102,1,0,0:0:0:0:
192,192,385209,1,0,0:0:0:0:
448,192,385209,1,0,0:0:0:0:
448,192,385316,1,0,0:0:0:0:
64,192,385316,1,0,0:0:0:0:
64,192,385424,1,0,0:0:0:0:
192,192,385424,1,0,0:0:0:0:
192,192,385531,1,0,0:0:0:0:
320,192,385531,1,0,0:0:0:0:
448,192,385531,1,0,0:0:0:0:
320,192,385638,1,0,0:0:0:0:
64,192,385638,1,0,0:0:0:0:
64,192,385745,1,0,0:0:0:0:
192,192,385745,1,0,0:0:0:0:
192,192,385852,1,0,0:0:0:0:
448,192,385852,1,0,0:0:0:0:
320,192,385959,1,0,0:0:0:0:
64,192,385959,1,0,0:0:0:0:
448,192,385959,1,0,0:0:0:0:
320,192,386066,1,0,0:0:0:0:
192,192,386066,1,0,0:0:0:0:
192,192,386174,1,0,0:0:0:0:
64,192,386174,1,0,0:0:0:0:
64,192,386281,1,0,0:0:0:0:
448,192,386281,1,0,0:0:0:0:
192,192,386388,1,0,0:0:0:0:
320,192,386388,1,0,0:0:0:0:
448,192,386388,1,0,0:0:0:0:
64,192,386495,1,0,0:0:0:0:
320,192,386495,1,0,0:0:0:0:
64,192,386602,1,0,0:0:0:0:
192,192,386602,1,0,0:0:0:0:
192,192,386709,1,0,0:0:0:0:
320,192,386709,1,0,0:0:0:0:
64,192,386816,1,0,0:0:0:0:
448,192,386816,128,0,388477:0:0:0:0:
192,192,387674,128,0,388531:0:0:0:0:
448,192,388531,1,0,0:0:0:0:
320,192,388531,1,0,0:0:0:0:
64,192,388531,1,0,0:0:0:0:
320,192,388745,1,0,0:0:0:0:
64,192,388745,1,0,0:0:0:0:
448,192,388745,1,0,0:0:0:0:
192,192,388852,1,0,0:0:0:0:
64,192,388852,1,0,0:0:0:0:
448,192,388852,1,0,0:0:0:0:
64,192,388959,1,0,0:0:0:0:
192,192,388959,1,0,0:0:0:0:
320,192,388959,1,0,0:0:0:0:
192,192,389066,1,0,0:0:0:0:
320,192,389066,1,0,0:0:0:0:
448,192,389066,1,0,0:0:0:0:
64,192,389174,1,0,0:0:0:0:
192,192,389174,1,0,0:0:0:0:
320,192,389174,1,0,0:0:0:0:
64,192,389281,1,0,0:0:0:0:
448,192,389281,1,0,0:0:0:0:
192,192,389388,1,0,0:0:0:0:
448,192,389388,1,0,0:0:0:0:
320,192,389388,128,0,389602:0:0:0:0:
64,192,389602,1,0,0:0:0:0:
448,192,389602,1,0,0:0:0:0:
192,192,389602,1,0,0:0:0:0:
64,192,389709,1,0,0:0:0:0:
320,192,389709,1,0,0:0:0:0:
448,192,389709,1,0,0:0:0:0:
192,192,389816,1,0,0:0:0:0:
320,192,389816,1,0,0:0:0:0:
64,192,389924,1,0,0:0:0:0:
192,192,389924,1,0,0:0:0:0:
448,192,389924,1,0,0:0:0:0:
64,192,390031,1,0,0:0:0:0:
320,192,390031,1,0,0:0:0:0:
448,192,390031,1,0,0:0:0:0:
192,192,390138,1,0,0:0:0:0:
320,192,390138,1,0,0:0:0:0:
192,192,390245,1,0,0:0:0:0:
448,192,390245,1,0,0:0:0:0:
64,192,390245,128,0,390459:0:0:0:0:
192,192,390459,1,0,0:0:0:0:
320,192,390459,1,0,0:0:0:0:
448,192,390459,1,0,0:0:0:0:
64,192,390566,1,0,0:0:0:0:
320,192,390566,1,0,0:0:0:0:
448,192,390566,1,0,0:0:0:0:
64,192,390674,1,0,0:0:0:0:
192,192,390674,1,0,0:0:0:0:
448,192,390674,1,0,0:0:0:0:
64,192,390781,1,0,0:0:0:0:
192,192,390781,1,0,0:0:0:0:
320,192,390781,1,0,0:0:0:0:
64,192,390888,1,0,0:0:0:0:
192,192,390888,1,0,0:0:0:0:
448,192,390888,1,0,0:0:0:0:
320,192,390995,1,0,0:0:0:0:
448,192,390995,1,0,0:0:0:0:
64,192,390995,1,0,0:0:0:0:
192,192,391102,1,0,0:0:0:0:
320,192,391102,1,0,0:0:0:0:
448,192,391102,1,0,0:0:0:0:
448,192,391316,128,0,391531:0:0:0:0:
192,192,391531,128,0,391745:0:0:0:0:
320,192,391745,128,0,391959:0:0:0:0:
64,192,391959,1,0,0:0:0:0:
448,192,391959,1,0,0:0:0:0:
192,192,392013,1,0,0:0:0:0:
320,192,392066,1,0,0:0:0:0:
448,192,392120,1,0,0:0:0:0:
192,192,392174,1,0,0:0:0:0:
64,192,392227,1,0,0:0:0:0:
320,192,392281,1,0,0:0:0:0:
448,192,392334,1,0,0:0:0:0:
64,192,392388,1,0,0:0:0:0:
192,192,392441,1,0,0:0:0:0:
448,192,392495,1,0,0:0:0:0:
320,192,392549,1,0,0:0:0:0:
64,192,392602,1,0,0:0:0:0:
192,192,392656,1,0,0:0:0:0:
320,192,392709,1,0,0:0:0:0:
448,192,392763,1,0,0:0:0:0:
64,192,392816,1,0,0:0:0:0:
192,192,392870,1,0,0:0:0:0:
448,192,392924,1,0,0:0:0:0:
320,192,392977,1,0,0:0:0:0:
64,192,393031,1,0,0:0:0:0:
192,192,393084,1,0,0:0:0:0:
448,192,393138,1,0,0:0:0:0:
320,192,393191,1,0,0:0:0:0:
448,192,393245,1,0,0:0:0:0:
64,192,393245,128,0,393459:0:0:0:0:
192,192,393459,128,0,393674:0:0:0:0:
64,192,393674,1,0,0:0:0:0:
320,192,393674,1,0,0:0:0:0:
448,192,393674,1,0,0:0:0:0:
320,192,393781,1,0,0:0:0:0:
64,192,393888,1,0,0:0:0:0:
192,192,393888,1,0,0:0:0:0:
448,192,393888,1,0,0:0:0:0:
320,192,393995,1,0,0:0:0:0:
64,192,394102,1,0,0:0:0:0:
192,192,394102,1,0,0:0:0:0:
448,192,394102,1,0,0:0:0:0:
192,192,394209,1,0,0:0:0:0:
64,192,394316,1,0,0:0:0:0:
320,192,394316,1,0,0:0:0:0:
448,192,394316,1,0,0:0:0:0:
320,192,394424,1,0,0:0:0:0:
64,192,394531,1,0,0:0:0:0:
192,192,394531,1,0,0:0:0:0:
448,192,394531,1,0,0:0:0:0:
320,192,394638,1,0,0:0:0:0:
64,192,394745,1,0,0:0:0:0:
192,192,394745,1,0,0:0:0:0:
448,192,394745,1,0,0:0:0:0:
192,192,394852,1,0,0:0:0:0:
64,192,394959,1,0,0:0:0:0:
320,192,394959,1,0,0:0:0:0:
448,192,394959,1,0,0:0:0:0:
64,192,395066,1,0,0:0:0:0:
448,192,395174,1,0,0:0:0:0:
320,192,395174,1,0,0:0:0:0:
192,192,395174,1,0,0:0:0:0:
448,192,395281,1,0,0:0:0:0:
64,192,395388,1,0,0:0:0:0:
192,192,395388,1,0,0:0:0:0:
320,192,395388,1,0,0:0:0:0:
192,192,395495,1,0,0:0:0:0:
64,192,395602,1,0,0:0:0:0:
320,192,395602,1,0,0:0:0:0:
448,192,395602,1,0,0:0:0:0:
192,192,395709,1,0,0:0:0:0:
64,192,395816,1,0,0:0:0:0:
320,192,395816,1,0,0:0:0:0:
448,192,395816,1,0,0:0:0:0:
192,192,395924,1,0,0:0:0:0:
64,192,396031,1,0,0:0:0:0:
320,192,396031,1,0,0:0:0:0:
448,192,396031,1,0,0:0:0:0:
192,192,396138,1,0,0:0:0:0:
64,192,396245,1,0,0:0:0:0:
320,192,396245,1,0,0:0:0:0:
448,192,396245,1,0,0:0:0:0:
192,192,396352,1,0,0:0:0:0:
64,192,396459,1,0,0:0:0:0:
320,192,396459,1,0,0:0:0:0:
448,192,396459,1,0,0:0:0:0:
320,192,396566,1,0,0:0:0:0:
64,192,396674,1,0,0:0:0:0:
192,192,396674,1,0,0:0:0:0:
448,192,396674,1,0,0:0:0:0:
448,192,396781,1,0,0:0:0:0:
64,192,396888,1,0,0:0:0:0:
192,192,396888,1,0,0:0:0:0:
320,192,396888,1,0,0:0:0:0:
64,192,396995,1,0,0:0:0:0:
192,192,397102,1,0,0:0:0:0:
320,192,397102,1,0,0:0:0:0:
448,192,397102,1,0,0:0:0:0:
320,192,397209,1,0,0:0:0:0:
64,192,397316,1,0,0:0:0:0:
192,192,397316,1,0,0:0:0:0:
448,192,397316,1,0,0:0:0:0:
320,192,397388,1,0,0:0:0:0:
192,192,397459,1,0,0:0:0:0:
448,192,397531,1,0,0:0:0:0:
320,192,397531,1,0,0:0:0:0:
64,192,397531,1,0,0:0:0:0:
448,192,397638,1,0,0:0:0:0:
64,192,397745,1,0,0:0:0:0:
192,192,397745,1,0,0:0:0:0:
320,192,397745,1,0,0:0:0:0:
192,192,397852,1,0,0:0:0:0:
64,192,397959,1,0,0:0:0:0:
320,192,397959,1,0,0:0:0:0:
448,192,397959,1,0,0:0:0:0:
320,192,398066,1,0,0:0:0:0:
64,192,398174,1,0,0:0:0:0:
192,192,398174,1,0,0:0:0:0:
448,192,398174,1,0,0:0:0:0:
64,192,398281,1,0,0:0:0:0:
192,192,398388,1,0,0:0:0:0:
320,192,398388,1,0,0:0:0:0:
448,192,398388,1,0,0:0:0:0:
448,192,398495,1,0,0:0:0:0:
64,192,398602,1,0,0:0:0:0:
192,192,398602,1,0,0:0:0:0:
320,192,398602,1,0,0:0:0:0:
64,192,398709,1,0,0:0:0:0:
192,192,398816,1,0,0:0:0:0:
320,192,398816,1,0,0:0:0:0:
448,192,398816,1,0,0:0:0:0:
320,192,398924,1,0,0:0:0:0:
64,192,399031,1,0,0:0:0:0:
192,192,399031,1,0,0:0:0:0:
448,192,399031,1,0,0:0:0:0:
192,192,399138,1,0,0:0:0:0:
64,192,399245,1,0,0:0:0:0:
320,192,399245,1,0,0:0:0:0:
448,192,399245,1,0,0:0:0:0:
192,192,399352,1,0,0:0:0:0:
64,192,399459,1,0,0:0:0:0:
448,192,399459,1,0,0:0:0:0:
320,192,399459,1,0,0:0:0:0:
192,192,399566,1,0,0:0:0:0:
64,192,399674,1,0,0:0:0:0:
320,192,399674,1,0,0:0:0:0:
448,192,399674,1,0,0:0:0:0:
192,192,399781,1,0,0:0:0:0:
64,192,399888,1,0,0:0:0:0:
320,192,399888,1,0,0:0:0:0:
448,192,399888,1,0,0:0:0:0:
320,192,399995,1,0,0:0:0:0:
64,192,400102,1,0,0:0:0:0:
192,192,400102,1,0,0:0:0:0:
448,192,400102,1,0,0:0:0:0:
448,192,400209,1,0,0:0:0:0:
192,192,400316,1,0,0:0:0:0:
64,192,400316,1,0,0:0:0:0:
320,192,400316,1,0,0:0:0:0:
64,192,400424,1,0,0:0:0:0:
448,192,400531,1,0,0:0:0:0:
320,192,400531,1,0,0:0:0:0:
192,192,400531,1,0,0:0:0:0:
320,192,400638,1,0,0:0:0:0:
64,192,400745,1,0,0:0:0:0:
192,192,400745,1,0,0:0:0:0:
448,192,400745,1,0,0:0:0:0:
320,192,400852,1,0,0:0:0:0:
64,192,400959,1,0,0:0:0:0:
192,192,400959,1,0,0:0:0:0:
448,192,400959,1,0,0:0:0:0:
192,192,401066,1,0,0:0:0:0:
64,192,401174,1,0,0:0:0:0:
320,192,401174,1,0,0:0:0:0:
448,192,401174,1,0,0:0:0:0:
320,192,401281,1,0,0:0:0:0:
64,192,401388,1,0,0:0:0:0:
192,192,401388,1,0,0:0:0:0:
448,192,401388,1,0,0:0:0:0:
320,192,401495,1,0,0:0:0:0:
64,192,401602,1,0,0:0:0:0:
192,192,401602,1,0,0:0:0:0:
448,192,401602,1,0,0:0:0:0:
192,192,401709,1,0,0:0:0:0:
448,192,401816,1,0,0:0:0:0:
320,192,401816,1,0,0:0:0:0:
64,192,401816,1,0,0:0:0:0:
64,192,401924,1,0,0:0:0:0:
448,192,402031,1,0,0:0:0:0:
320,192,402031,1,0,0:0:0:0:
192,192,402031,1,0,0:0:0:0:
448,192,402138,1,0,0:0:0:0:
64,192,402245,1,0,0:0:0:0:
192,192,402245,1,0,0:0:0:0:
320,192,402245,1,0,0:0:0:0:
192,192,402352,1,0,0:0:0:0:
64,192,402459,1,0,0:0:0:0:
320,192,402459,1,0,0:0:0:0:
448,192,402459,1,0,0:0:0:0:
192,192,402566,1,0,0:0:0:0:
320,192,402620,1,0,0:0:0:0:
64,192,402674,1,0,0:0:0:0:
192,192,402674,1,0,0:0:0:0:
448,192,402674,1,0,0:0:0:0:
320,192,402781,1,0,0:0:0:0:
192,192,402888,1,0,0:0:0:0:
64,192,402888,1,0,0:0:0:0:
448,192,402888,1,0,0:0:0:0:
320,192,402995,1,0,0:0:0:0:
64,192,403102,1,0,0:0:0:0:
192,192,403102,1,0,0:0:0:0:
448,192,403102,1,0,0:0:0:0:
320,192,403209,1,0,0:0:0:0:
64,192,403316,1,0,0:0:0:0:
192,192,403316,1,0,0:0:0:0:
448,192,403316,1,0,0:0:0:0:
192,192,403424,1,0,0:0:0:0:
64,192,403531,1,0,0:0:0:0:
320,192,403531,1,0,0:0:0:0:
448,192,403531,1,0,0:0:0:0:
320,192,403638,1,0,0:0:0:0:
448,192,403745,1,0,0:0:0:0:
64,192,403745,1,0,0:0:0:0:
192,192,403745,1,0,0:0:0:0:
448,192,403852,1,0,0:0:0:0:
64,192,403959,1,0,0:0:0:0:
192,192,403959,1,0,0:0:0:0:
320,192,403959,1,0,0:0:0:0:
192,192,404066,1,0,0:0:0:0:
448,192,404174,1,0,0:0:0:0:
320,192,404174,1,0,0:0:0:0:
64,192,404174,1,0,0:0:0:0:
192,192,404245,1,0,0:0:0:0:
320,192,404316,1,0,0:0:0:0:
64,192,404388,1,0,0:0:0:0:
192,192,404388,1,0,0:0:0:0:
448,192,404388,1,0,0:0:0:0:
64,192,404495,1,0,0:0:0:0:
192,192,404602,1,0,0:0:0:0:
320,192,404602,1,0,0:0:0:0:
448,192,404602,1,0,0:0:0:0:
320,192,404709,1,0,0:0:0:0:
64,192,404816,1,0,0:0:0:0:
192,192,404816,1,0,0:0:0:0:
448,192,404816,1,0,0:0:0:0:
192,192,404924,1,0,0:0:0:0:
320,192,404924,1,0,0:0:0:0:
64,192,405031,1,0,0:0:0:0:
320,192,405031,1,0,0:0:0:0:
448,192,405031,1,0,0:0:0:0:
448,192,405138,1,0,0:0:0:0:
64,192,405245,1,0,0:0:0:0:
192,192,405245,1,0,0:0:0:0:
320,192,405245,1,0,0:0:0:0:
64,192,405352,1,0,0:0:0:0:
448,192,405352,1,0,0:0:0:0:
192,192,405459,1,0,0:0:0:0:
320,192,405459,1,0,0:0:0:0:
448,192,405459,1,0,0:0:0:0:
320,192,405566,1,0,0:0:0:0:
192,192,405674,1,0,0:0:0:0:
448,192,405674,1,0,0:0:0:0:
64,192,405674,128,0,405995:0:0:0:0:
320,192,405995,1,0,0:0:0:0:
448,192,406049,1,0,0:0:0:0:
64,192,406102,1,0,0:0:0:0:
192,192,406102,1,0,0:0:0:0:
320,192,406209,1,0,0:0:0:0:
448,192,406263,1,0,0:0:0:0:
64,192,406316,1,0,0:0:0:0:
192,192,406316,1,0,0:0:0:0:
320,192,406424,1,0,0:0:0:0:
448,192,406477,1,0,0:0:0:0:
192,192,406531,1,0,0:0:0:0:
64,192,406531,1,0,0:0:0:0:
320,192,406638,1,0,0:0:0:0:
448,192,406691,1,0,0:0:0:0:
64,192,406745,1,0,0:0:0:0:
192,192,406745,1,0,0:0:0:0:
448,192,406816,1,0,0:0:0:0:
320,192,406888,1,0,0:0:0:0:
64,192,406959,1,0,0:0:0:0:
192,192,406959,128,0,407174:0:0:0:0:
320,192,407174,128,0,407388:0:0:0:0:
64,192,407388,1,0,0:0:0:0:
192,192,407388,1,0,0:0:0:0:
448,192,407388,1,0,0:0:0:0:
192,192,407495,1,0,0:0:0:0:
64,192,407602,1,0,0:0:0:0:
320,192,407602,1,0,0:0:0:0:
448,192,407602,1,0,0:0:0:0:
192,192,407709,1,0,0:0:0:0:
64,192,407816,1,0,0:0:0:0:
320,192,407816,1,0,0:0:0:0:
448,192,407816,1,0,0:0:0:0:
448,192,407924,1,0,0:0:0:0:
64,192,408031,1,0,0:0:0:0:
320,192,408031,1,0,0:0:0:0:
192,192,408031,1,0,0:0:0:0:
192,192,408138,1,0,0:0:0:0:
64,192,408245,1,0,0:0:0:0:
320,192,408245,1,0,0:0:0:0:
448,192,408245,1,0,0:0:0:0:
192,192,408352,1,0,0:0:0:0:
64,192,408459,1,0,0:0:0:0:
320,192,408459,1,0,0:0:0:0:
448,192,408459,1,0,0:0:0:0:
320,192,408566,1,0,0:0:0:0:
64,192,408674,1,0,0:0:0:0:
192,192,408674,1,0,0:0:0:0:
448,192,408674,1,0,0:0:0:0:
64,192,408781,1,0,0:0:0:0:
192,192,408888,1,0,0:0:0:0:
320,192,408888,1,0,0:0:0:0:
448,192,408888,1,0,0:0:0:0:
192,192,408995,1,0,0:0:0:0:
320,192,409049,1,0,0:0:0:0:
192,192,409102,1,0,0:0:0:0:
64,192,409102,1,0,0:0:0:0:
448,192,409102,1,0,0:0:0:0:
448,192,409209,1,0,0:0:0:0:
64,192,409316,1,0,0:0:0:0:
192,192,409316,1,0,0:0:0:0:
320,192,409316,1,0,0:0:0:0:
320,192,409424,1,0,0:0:0:0:
192,192,409477,1,0,0:0:0:0:
64,192,409531,1,0,0:0:0:0:
448,192,409531,1,0,0:0:0:0:
320,192,409531,1,0,0:0:0:0:
448,192,409638,1,0,0:0:0:0:
64,192,409745,1,0,0:0:0:0:
192,192,409745,1,0,0:0:0:0:
320,192,409745,1,0,0:0:0:0:
320,192,409852,1,0,0:0:0:0:
64,192,409959,1,0,0:0:0:0:
192,192,409959,1,0,0:0:0:0:
448,192,409959,1,0,0:0:0:0:
192,192,410066,1,0,0:0:0:0:
64,192,410174,1,0,0:0:0:0:
320,192,410174,1,0,0:0:0:0:
448,192,410174,1,0,0:0:0:0:
320,192,410281,1,0,0:0:0:0:
64,192,410388,1,0,0:0:0:0:
192,192,410388,1,0,0:0:0:0:
448,192,410388,1,0,0:0:0:0:
448,192,410495,1,0,0:0:0:0:
320,192,410602,1,0,0:0:0:0:
192,192,410602,1,0,0:0:0:0:
64,192,410602,1,0,0:0:0:0:
64,192,410709,1,0,0:0:0:0:
192,192,410816,1,0,0:0:0:0:
448,192,410816,1,0,0:0:0:0:
320,192,410816,1,0,0:0:0:0:
320,192,410924,1,0,0:0:0:0:
64,192,411031,1,0,0:0:0:0:
192,192,411031,1,0,0:0:0:0:
448,192,411031,1,0,0:0:0:0:
320,192,411102,1,0,0:0:0:0:
192,192,411174,1,0,0:0:0:0:
64,192,411245,1,0,0:0:0:0:
320,192,411245,1,0,0:0:0:0:
448,192,411245,1,0,0:0:0:0:
448,192,411352,1,0,0:0:0:0:
64,192,411459,1,0,0:0:0:0:
192,192,411459,1,0,0:0:0:0:
320,192,411459,1,0,0:0:0:0:
192,192,411566,1,0,0:0:0:0:
64,192,411674,1,0,0:0:0:0:
320,192,411674,1,0,0:0:0:0:
448,192,411674,1,0,0:0:0:0:
320,192,411781,1,0,0:0:0:0:
64,192,411888,1,0,0:0:0:0:
192,192,411888,1,0,0:0:0:0:
448,192,411888,1,0,0:0:0:0:
64,192,411995,1,0,0:0:0:0:
192,192,412102,1,0,0:0:0:0:
320,192,412102,1,0,0:0:0:0:
448,192,412102,1,0,0:0:0:0:
448,192,412209,1,0,0:0:0:0:
320,192,412316,1,0,0:0:0:0:
192,192,412316,1,0,0:0:0:0:
64,192,412316,1,0,0:0:0:0:
192,192,412424,1,0,0:0:0:0:
64,192,412531,1,0,0:0:0:0:
320,192,412531,1,0,0:0:0:0:
448,192,412531,1,0,0:0:0:0:
320,192,412638,1,0,0:0:0:0:
64,192,412745,1,0,0:0:0:0:
192,192,412745,1,0,0:0:0:0:
448,192,412745,1,0,0:0:0:0:
192,192,412852,1,0,0:0:0:0:
64,192,412959,1,0,0:0:0:0:
320,192,412959,1,0,0:0:0:0:
448,192,412959,1,0,0:0:0:0:
192,192,413066,1,0,0:0:0:0:
64,192,413174,1,0,0:0:0:0:
320,192,413174,1,0,0:0:0:0:
448,192,413174,1,0,0:0:0:0:
192,192,413281,1,0,0:0:0:0:
64,192,413388,1,0,0:0:0:0:
320,192,413388,1,0,0:0:0:0:
448,192,413388,1,0,0:0:0:0:
192,192,413495,1,0,0:0:0:0:
64,192,413602,1,0,0:0:0:0:
320,192,413602,1,0,0:0:0:0:
448,192,413602,1,0,0:0:0:0:
192,192,413674,1,0,0:0:0:0:
320,192,413745,1,0,0:0:0:0:
448,192,413816,1,0,0:0:0:0:
192,192,413816,1,0,0:0:0:0:
64,192,413816,1,0,0:0:0:0:
320,192,413924,1,0,0:0:0:0:
192,192,414031,1,0,0:0:0:0:
64,192,414031,1,0,0:0:0:0:
448,192,414031,1,0,0:0:0:0:
64,192,414138,1,0,0:0:0:0:
192,192,414245,1,0,0:0:0:0:
320,192,414245,1,0,0:0:0:0:
448,192,414245,1,0,0:0:0:0:
320,192,414352,1,0,0:0:0:0:
64,192,414459,1,0,0:0:0:0:
192,192,414459,1,0,0:0:0:0:
448,192,414459,1,0,0:0:0:0:
320,192,414566,1,0,0:0:0:0:
64,192,414674,1,0,0:0:0:0:
192,192,414674,1,0,0:0:0:0:
448,192,414674,1,0,0:0:0:0:
320,192,414781,1,0,0:0:0:0:
64,192,414888,1,0,0:0:0:0:
192,192,414888,1,0,0:0:0:0:
448,192,414888,1,0,0:0:0:0:
64,192,414995,1,0,0:0:0:0:
192,192,415102,1,0,0:0:0:0:
320,192,415102,1,0,0:0:0:0:
448,192,415102,1,0,0:0:0:0:
192,192,415209,1,0,0:0:0:0:
448,192,415316,1,0,0:0:0:0:
64,192,415316,1,0,0:0:0:0:
320,192,415316,1,0,0:0:0:0:
192,192,415388,1,0,0:0:0:0:
320,192,415459,1,0,0:0:0:0:
448,192,415531,1,0,0:0:0:0:
192,192,415531,1,0,0:0:0:0:
64,192,415531,1,0,0:0:0:0:
64,192,415638,1,0,0:0:0:0:
192,192,415745,1,0,0:0:0:0:
320,192,415745,1,0,0:0:0:0:
448,192,415745,1,0,0:0:0:0:
448,192,415852,1,0,0:0:0:0:
320,192,415959,1,0,0:0:0:0:
192,192,415959,1,0,0:0:0:0:
64,192,415959,1,0,0:0:0:0:
320,192,416066,1,0,0:0:0:0:
64,192,416174,1,0,0:0:0:0:
448,192,416174,1,0,0:0:0:0:
192,192,416174,1,0,0:0:0:0:
320,192,416281,1,0,0:0:0:0:
192,192,416334,1,0,0:0:0:0:
64,192,416388,1,0,0:0:0:0:
320,192,416388,1,0,0:0:0:0:
448,192,416388,1,0,0:0:0:0:
192,192,416495,1,0,0:0:0:0:
64,192,416602,1,0,0:0:0:0:
320,192,416602,1,0,0:0:0:0:
448,192,416602,1,0,0:0:0:0:
192,192,416709,1,0,0:0:0:0:
64,192,416816,1,0,0:0:0:0:
320,192,416816,1,0,0:0:0:0:
448,192,416816,1,0,0:0:0:0:
192,192,416924,1,0,0:0:0:0:
64,192,417031,1,0,0:0:0:0:
320,192,417031,1,0,0:0:0:0:
448,192,417031,1,0,0:0:0:0:
192,192,417138,1,0,0:0:0:0:
64,192,417245,1,0,0:0:0:0:
320,192,417245,1,0,0:0:0:0:
448,192,417245,1,0,0:0:0:0:
448,192,417352,1,0,0:0:0:0:
320,192,417459,1,0,0:0:0:0:
192,192,417459,1,0,0:0:0:0:
64,192,417459,1,0,0:0:0:0:
64,192,417566,1,0,0:0:0:0:
192,192,417674,1,0,0:0:0:0:
320,192,417674,1,0,0:0:0:0:
448,192,417674,1,0,0:0:0:0:
320,192,417781,1,0,0:0:0:0:
64,192,417888,1,0,0:0:0:0:
192,192,417888,1,0,0:0:0:0:
448,192,417888,1,0,0:0:0:0:
320,192,417959,1,0,0:0:0:0:
192,192,418031,1,0,0:0:0:0:
64,192,418102,1,0,0:0:0:0:
320,192,418102,1,0,0:0:0:0:
448,192,418102,1,0,0:0:0:0:
448,192,418209,1,0,0:0:0:0:
64,192,418316,1,0,0:0:0:0:
192,192,418316,1,0,0:0:0:0:
320,192,418316,1,0,0:0:0:0:
192,192,418424,1,0,0:0:0:0:
64,192,418531,1,0,0:0:0:0:
320,192,418531,1,0,0:0:0:0:
448,192,418531,1,0,0:0:0:0:
320,192,418638,1,0,0:0:0:0:
192,192,418745,1,0,0:0:0:0:
64,192,418745,1,0,0:0:0:0:
448,192,418745,1,0,0:0:0:0:
64,192,418852,1,0,0:0:0:0:
192,192,418959,1,0,0:0:0:0:
320,192,418959,1,0,0:0:0:0:
448,192,418959,1,0,0:0:0:0:
448,192,419066,1,0,0:0:0:0:
320,192,419174,1,0,0:0:0:0:
192,192,419174,1,0,0:0:0:0:
64,192,419174,1,0,0:0:0:0:
192,192,419281,1,0,0:0:0:0:
64,192,419388,1,0,0:0:0:0:
448,192,419388,1,0,0:0:0:0:
320,192,419441,1,0,0:0:0:0:
192,192,419495,1,0,0:0:0:0:
64,192,419549,1,0,0:0:0:0:
320,192,419602,1,0,0:0:0:0:
448,192,419656,1,0,0:0:0:0:
64,192,419709,1,0,0:0:0:0:
192,192,419763,1,0,0:0:0:0:
320,192,419816,1,0,0:0:0:0:
448,192,419816,1,0,0:0:0:0:
64,192,419924,1,0,0:0:0:0:
192,192,419977,1,0,0:0:0:0:
320,192,420031,1,0,0:0:0:0:
448,192,420031,1,0,0:0:0:0:
64,192,420138,1,0,0:0:0:0:
192,192,420191,1,0,0:0:0:0:
320,192,420245,1,0,0:0:0:0:
448,192,420245,1,0,0:0:0:0:
64,192,420352,1,0,0:0:0:0:
192,192,420406,1,0,0:0:0:0:
320,192,420459,1,0,0:0:0:0:
448,192,420459,1,0,0:0:0:0:
64,192,420566,1,0,0:0:0:0:
192,192,420620,1,0,0:0:0:0:
320,192,420674,1,0,0:0:0:0:
448,192,420674,1,0,0:0:0:0:
64,192,420781,1,0,0:0:0:0:
192,192,420834,1,0,0:0:0:0:
320,192,420888,1,0,0:0:0:0:
448,192,420888,1,0,0:0:0:0:
64,192,420995,1,0,0:0:0:0:
192,192,421049,1,0,0:0:0:0:
320,192,421102,1,0,0:0:0:0:
448,192,421102,1,0,0:0:0:0:
64,192,421209,1,0,0:0:0:0:
192,192,421263,1,0,0:0:0:0:
448,192,421316,1,0,0:0:0:0:
320,192,421316,1,0,0:0:0:0:
64,192,421424,1,0,0:0:0:0:
192,192,421477,1,0,0:0:0:0:
320,192,421531,1,0,0:0:0:0:
448,192,421531,1,0,0:0:0:0:
64,192,421638,1,0,0:0:0:0:
192,192,421691,1,0,0:0:0:0:
320,192,421745,1,0,0:0:0:0:
448,192,421745,1,0,0:0:0:0:
64,192,421852,1,0,0:0:0:0:
192,192,421906,1,0,0:0:0:0:
448,192,421959,1,0,0:0:0:0:
320,192,421959,1,0,0:0:0:0:
64,192,422066,1,0,0:0:0:0:
192,192,422120,1,0,0:0:0:0:
320,192,422174,1,0,0:0:0:0:
448,192,422174,1,0,0:0:0:0:
64,192,422227,1,0,0:0:0:0:
192,192,422281,1,0,0:0:0:0:
320,192,422334,1,0,0:0:0:0:
448,192,422388,1,0,0:0:0:0:
64,192,422388,128,0,422602:0:0:0:0:
192,192,422495,1,0,0:0:0:0:
320,192,422602,128,0,422816:0:0:0:0:
64,192,422816,1,0,0:0:0:0:
192,192,422816,1,0,0:0:0:0:
448,192,422816,1,0,0:0:0:0:
320,192,423031,1,0,0:0:0:0:
448,192,423031,1,0,0:0:0:0:
64,192,423031,1,0,0:0:0:0:
192,192,423459,1,0,0:0:0:0:
320,192,423459,1,0,0:0:0:0:
448,192,423459,1,0,0:0:0:0:
64,192,423674,1,0,0:0:0:0:
192,192,423674,1,0,0:0:0:0:
320,192,423674,1,0,0:0:0:0:
64,192,424102,1,0,0:0:0:0:
448,192,424102,1,0,0:0:0:0:
320,192,424102,1,0,0:0:0:0:
192,192,424316,1,0,0:0:0:0:
64,192,424531,1,0,0:0:0:0:
448,192,424531,1,0,0:0:0:0:
64,192,424959,1,0,0:0:0:0:
448,192,424959,1,0,0:0:0:0:
320,192,424959,1,0,0:0:0:0:
192,192,425066,1,0,0:0:0:0:
64,192,425174,1,0,0:0:0:0:
448,192,425174,1,0,0:0:0:0:
320,192,425174,1,0,0:0:0:0:
192,192,425281,1,0,0:0:0:0:
64,192,425388,1,0,0:0:0:0:
320,192,425388,1,0,0:0:0:0:
448,192,425388,1,0,0:0:0:0:
192,192,425495,1,0,0:0:0:0:
64,192,425602,1,0,0:0:0:0:
320,192,425602,1,0,0:0:0:0:
448,192,425602,1,0,0:0:0:0:
192,192,425709,1,0,0:0:0:0:
64,192,425816,1,0,0:0:0:0:
320,192,425816,1,0,0:0:0:0:
448,192,425816,1,0,0:0:0:0:
448,192,425924,1,0,0:0:0:0:
320,192,426031,1,0,0:0:0:0:
192,192,426031,1,0,0:0:0:0:
64,192,426031,1,0,0:0:0:0:
64,192,426138,1,0,0:0:0:0:
192,192,426245,1,0,0:0:0:0:
320,192,426245,1,0,0:0:0:0:
448,192,426245,1,0,0:0:0:0:
320,192,426352,1,0,0:0:0:0:
64,192,426459,1,0,0:0:0:0:
192,192,426459,1,0,0:0:0:0:
448,192,426459,1,0,0:0:0:0:
320,192,426531,1,0,0:0:0:0:
192,192,426602,1,0,0:0:0:0:
64,192,426674,1,0,0:0:0:0:
320,192,426674,1,0,0:0:0:0:
448,192,426674,1,0,0:0:0:0:
448,192,426781,1,0,0:0:0:0:
320,192,426888,1,0,0:0:0:0:
192,192,426888,1,0,0:0:0:0:
64,192,426888,1,0,0:0:0:0:
192,192,426995,1,0,0:0:0:0:
64,192,427102,1,0,0:0:0:0:
320,192,427102,1,0,0:0:0:0:
448,192,427102,1,0,0:0:0:0:
320,192,427209,1,0,0:0:0:0:
64,192,427316,1,0,0:0:0:0:
192,192,427316,1,0,0:0:0:0:
448,192,427316,1,0,0:0:0:0:
64,192,427424,1,0,0:0:0:0:
192,192,427531,1,0,0:0:0:0:
320,192,427531,1,0,0:0:0:0:
448,192,427531,1,0,0:0:0:0:
448,192,427638,1,0,0:0:0:0:
320,192,427745,1,0,0:0:0:0:
192,192,427745,1,0,0:0:0:0:
64,192,427745,1,0,0:0:0:0:
320,192,427852,1,0,0:0:0:0:
64,192,427959,1,0,0:0:0:0:
448,192,427959,1,0,0:0:0:0:
192,192,427959,1,0,0:0:0:0:
192,192,428066,1,0,0:0:0:0:
64,192,428174,1,0,0:0:0:0:
448,192,428174,1,0,0:0:0:0:
320,192,428174,1,0,0:0:0:0:
320,192,428281,1,0,0:0:0:0:
64,192,428388,1,0,0:0:0:0:
192,192,428388,1,0,0:0:0:0:
448,192,428388,1,0,0:0:0:0:
320,192,428495,1,0,0:0:0:0:
64,192,428602,1,0,0:0:0:0:
192,192,428602,1,0,0:0:0:0:
448,192,428602,1,0,0:0:0:0:
320,192,428709,1,0,0:0:0:0:
64,192,428816,1,0,0:0:0:0:
192,192,428816,1,0,0:0:0:0:
448,192,428816,1,0,0:0:0:0:
320,192,428924,1,0,0:0:0:0:
64,192,429031,1,0,0:0:0:0:
192,192,429031,1,0,0:0:0:0:
448,192,429031,1,0,0:0:0:0:
320,192,429138,1,0,0:0:0:0:
448,192,429245,1,0,0:0:0:0:
64,192,429245,1,0,0:0:0:0:
192,192,429245,1,0,0:0:0:0:
320,192,429352,1,0,0:0:0:0:
64,192,429459,1,0,0:0:0:0:
192,192,429459,1,0,0:0:0:0:
448,192,429459,1,0,0:0:0:0:
64,192,429566,1,0,0:0:0:0:
192,192,429674,1,0,0:0:0:0:
448,192,429674,1,0,0:0:0:0:
320,192,429674,1,0,0:0:0:0:
320,192,429781,1,0,0:0:0:0:
64,192,429888,1,0,0:0:0:0:
448,192,429888,1,0,0:0:0:0:
192,192,429888,1,0,0:0:0:0:
320,192,429995,1,0,0:0:0:0:
64,192,430102,1,0,0:0:0:0:
192,192,430102,1,0,0:0:0:0:
448,192,430102,1,0,0:0:0:0:
320,192,430209,1,0,0:0:0:0:
64,192,430316,1,0,0:0:0:0:
192,192,430316,1,0,0:0:0:0:
448,192,430316,1,0,0:0:0:0:
192,192,430424,1,0,0:0:0:0:
64,192,430531,1,0,0:0:0:0:
448,192,430531,1,0,0:0:0:0:
320,192,430531,1,0,0:0:0:0:
192,192,430638,1,0,0:0:0:0:
64,192,430745,1,0,0:0:0:0:
320,192,430745,1,0,0:0:0:0:
448,192,430745,1,0,0:0:0:0:
192,192,430852,1,0,0:0:0:0:
64,192,430959,1,0,0:0:0:0:
320,192,430959,1,0,0:0:0:0:
448,192,430959,1,0,0:0:0:0:
448,192,431066,1,0,0:0:0:0:
64,192,431174,1,0,0:0:0:0:
192,192,431174,1,0,0:0:0:0:
320,192,431174,1,0,0:0:0:0:
64,192,431281,1,0,0:0:0:0:
192,192,431388,1,0,0:0:0:0:
448,192,431388,1,0,0:0:0:0:
320,192,431388,128,0,432031:0:0:0:0:
64,192,432245,128,0,432674:0:0:0:0:
448,192,432674,128,0,432888:0:0:0:0:
64,192,432888,1,0,0:0:0:0:
192,192,432888,1,0,0:0:0:0:
192,192,432995,1,0,0:0:0:0:
320,192,432995,1,0,0:0:0:0:
448,192,433102,1,0,0:0:0:0:
320,192,433102,128,0,433316:0:0:0:0:
192,192,433316,1,0,0:0:0:0:
64,192,433388,1,0,0:0:0:0:
320,192,433459,1,0,0:0:0:0:
192,192,433531,128,0,433745:0:0:0:0:
320,192,433745,1,0,0:0:0:0:
448,192,433745,1,0,0:0:0:0:
448,192,433852,1,0,0:0:0:0:
64,192,433852,1,0,0:0:0:0:
64,192,433959,1,0,0:0:0:0:
320,192,433959,128,0,434388:0:0:0:0:
64,192,434281,1,0,0:0:0:0:
448,192,434281,1,0,0:0:0:0:
192,192,434388,128,0,434816:0:0:0:0:
320,192,434602,1,0,0:0:0:0:
448,192,434602,1,0,0:0:0:0:
320,192,434709,1,0,0:0:0:0:
448,192,434709,1,0,0:0:0:0:
64,192,434816,1,0,0:0:0:0:
448,192,434816,1,0,0:0:0:0:
64,192,434924,1,0,0:0:0:0:
192,192,434924,1,0,0:0:0:0:
320,192,434924,1,0,0:0:0:0:
64,192,435138,1,0,0:0:0:0:
192,192,435138,1,0,0:0:0:0:
64,192,435245,1,0,0:0:0:0:
320,192,435245,1,0,0:0:0:0:
448,192,435245,1,0,0:0:0:0:
320,192,435459,1,0,0:0:0:0:
448,192,435459,1,0,0:0:0:0:
64,192,435566,1,0,0:0:0:0:
192,192,435566,1,0,0:0:0:0:
448,192,435566,1,0,0:0:0:0:
64,192,435781,1,0,0:0:0:0:
192,192,435781,1,0,0:0:0:0:
64,192,435888,1,0,0:0:0:0:
320,192,435888,1,0,0:0:0:0:
448,192,435888,1,0,0:0:0:0:
320,192,436102,1,0,0:0:0:0:
448,192,436102,1,0,0:0:0:0:
448,192,436209,1,0,0:0:0:0:
320,192,436209,1,0,0:0:0:0:
192,192,436263,1,0,0:0:0:0:
64,192,436263,1,0,0:0:0:0:
320,192,436316,1,0,0:0:0:0:
448,192,436316,1,0,0:0:0:0:
448,192,436424,1,0,0:0:0:0:
192,192,436424,1,0,0:0:0:0:
64,192,436424,1,0,0:0:0:0:
192,192,436531,1,0,0:0:0:0:
320,192,436531,1,0,0:0:0:0:
448,192,436638,1,0,0:0:0:0:
64,192,436638,1,0,0:0:0:0:
192,192,436691,1,0,0:0:0:0:
320,192,436691,1,0,0:0:0:0:
64,192,436745,1,0,0:0:0:0:
448,192,436745,1,0,0:0:0:0:
64,192,436852,1,0,0:0:0:0:
192,192,436852,1,0,0:0:0:0:
320,192,436852,1,0,0:0:0:0:
320,192,436959,1,0,0:0:0:0:
448,192,436959,1,0,0:0:0:0:
192,192,437013,1,0,0:0:0:0:
64,192,437013,1,0,0:0:0:0:
320,192,437066,1,0,0:0:0:0:
448,192,437066,1,0,0:0:0:0:
64,192,437174,1,0,0:0:0:0:
192,192,437174,1,0,0:0:0:0:
448,192,437174,1,0,0:0:0:0:
192,192,437281,1,0,0:0:0:0:
320,192,437281,1,0,0:0:0:0:
64,192,437334,1,0,0:0:0:0:
448,192,437334,1,0,0:0:0:0:
192,192,437388,1,0,0:0:0:0:
320,192,437388,1,0,0:0:0:0:
64,192,437495,1,0,0:0:0:0:
320,192,437495,1,0,0:0:0:0:
448,192,437495,1,0,0:0:0:0:
64,192,437602,1,0,0:0:0:0:
192,192,437602,1,0,0:0:0:0:
320,192,437656,1,0,0:0:0:0:
448,192,437656,1,0,0:0:0:0:
192,192,437709,1,0,0:0:0:0:
64,192,437709,1,0,0:0:0:0:
192,192,437816,1,0,0:0:0:0:
320,192,437816,1,0,0:0:0:0:
448,192,437816,1,0,0:0:0:0:
192,192,437924,1,0,0:0:0:0:
320,192,437924,1,0,0:0:0:0:
448,192,437924,1,0,0:0:0:0:
192,192,438031,1,0,0:0:0:0:
320,192,438031,1,0,0:0:0:0:
448,192,438031,1,0,0:0:0:0:
192,192,438138,1,0,0:0:0:0:
320,192,438138,1,0,0:0:0:0:
448,192,438138,1,0,0:0:0:0:
192,192,439102,1,0,0:0:0:0:
64,192,439129,128,0,439959:0:0:0:0:
448,192,439959,1,0,0:0:0:0:
