osu file format v14

[General]
AudioFilename: 00000ee8.autosave1.wmv.mp3
AudioLeadIn: 0
PreviewTime: 4668
Countdown: 1
SampleSet: Normal
StackLeniency: 0.7
Mode: 2
LetterboxInBreaks: 0
WidescreenStoryboard: 0

[Editor]
Bookmarks: 4668,15868,30268,35068,36668,49468,59068,61468,62268,86668,87468,87868
DistanceSpacing: 1.2
BeatDivisor: 4
GridSize: 16
TimelineZoom: 2.4

[Metadata]
Title:00000ee8.autosave1.wmv
TitleUnicode:00000ee8.autosave1.wmv
Artist:LeArt
ArtistUnicode:LeArt
Creator:Oku
Version:Crepuscule
Source:
Tags:
BeatmapID:1033521
BeatmapSetID:484502

[Difficulty]
HPDrainRate:6
CircleSize:4.2
OverallDifficulty:8
ApproachRate:9.2
SliderMultiplier:1.92
SliderTickRate:2

[Events]
//Background and Video events
0,0,"doki-nichijou-01-1280x720-h264-aac-13004315-mkv_snapshot_05-25_2011-04-03_15-00-11.jpg",0,0
//Break Periods
//Storyboard Layer 0 (Background)
//Storyboard Layer 1 (Fail)
//Storyboard Layer 2 (Pass)
//Storyboard Layer 3 (Foreground)
//Storyboard Sound Samples

[TimingPoints]
4668,400,4,1,0,100,1,0
5568,-100,4,1,0,5,0,0
5668,-100,4,1,0,100,0,0
7168,-100,4,1,0,5,0,0
7268,-100,4,1,0,100,0,0
8368,-100,4,1,0,5,0,0
8468,-100,4,1,0,100,0,0
8868,-100,4,1,0,5,0,0
9268,-100,4,1,0,100,0,0
11968,-100,4,1,0,5,0,0
12068,-100,4,1,0,100,0,0
13568,-100,4,1,0,5,0,0
13668,-100,4,1,0,100,0,0
15768,-100,4,1,0,5,0,0
15868,-100,4,1,0,100,0,0
18368,-100,4,1,0,5,0,0
18468,-100,4,1,0,100,0,0
19968,-100,4,1,0,5,0,0
20068,-100,4,1,0,100,0,0
21168,-100,4,1,0,5,0,0
21268,-100,4,1,0,100,0,0
21668,-100,4,1,0,5,0,0
22068,-100,4,1,0,100,0,0
24768,-100,4,1,0,5,0,0
24868,-100,4,1,0,100,0,0
26368,-100,4,1,0,5,0,0
26468,-100,4,1,0,100,0,0
28168,-100,4,1,0,5,0,0
28268,-100,4,1,0,100,0,0
30268,-100,4,2,0,30,0,0
31168,-100,4,2,0,5,0,0
31268,-100,4,2,0,30,0,0
31968,-100,4,2,0,5,0,0
32068,-100,4,2,0,30,0,0
32268,-100,4,2,0,5,0,0
32368,-100,4,2,0,30,0,0
32568,-100,4,2,0,5,0,0
32668,-100,4,2,0,30,0,0
33368,-100,4,2,0,5,0,0
33468,-100,4,2,0,30,0,0
34618,-100,4,2,0,5,0,0
34668,-100,4,2,0,30,0,0
35068,-100,4,1,0,100,0,0
40368,-100,4,1,0,5,0,0
40468,-100,4,1,0,100,0,0
41368,-100,4,1,0,5,0,0
41468,-100,4,1,0,100,0,0
41968,-100,4,1,0,5,0,0
42068,-100,4,1,0,100,0,0
44168,-100,4,1,0,5,0,0
44268,-100,4,1,0,100,0,0
45768,-100,4,1,0,5,0,0
45868,-100,4,1,0,100,0,0
46168,-100,4,1,0,5,0,0
46268,-100,4,1,0,100,0,0
46768,-100,4,1,0,5,0,0
46868,-100,4,1,0,100,0,0
48968,-100,4,1,0,5,0,0
49068,-100,4,1,0,100,0,0
53168,-100,4,1,0,5,0,0
53268,-100,4,1,0,100,0,0
54168,-100,4,1,0,5,0,0
54268,-100,4,1,0,100,0,0
54768,-100,4,1,0,5,0,0
54868,-100,4,1,0,100,0,0
56968,-100,4,1,0,5,0,0
57068,-100,4,1,0,100,0,0
63968,-100,4,1,0,5,0,0
64068,-100,4,1,0,100,0,0
64768,-100,4,1,0,5,0,0
64868,-100,4,1,0,100,0,0
69568,-100,4,1,0,5,0,0
69668,-100,4,1,0,100,0,0
71168,-100,4,1,0,5,0,0
71268,-100,4,1,0,100,0,0
73368,-100,4,1,0,5,0,0
73468,-100,4,1,0,100,0,0
75968,-100,4,1,0,5,0,0
76068,-100,4,1,0,100,0,0
82368,-100,4,1,0,5,0,0
82468,-100,4,1,0,100,0,0

[HitObjects]
96,192,4668,5,0,0:0:0:0:
416,192,4868,1,0,0:0:0:0:
304,192,5068,1,0,0:0:0:0:
208,192,5168,1,0,0:0:0:0:
64,192,5268,1,0,0:0:0:0:
32,32,5368,2,0,B|80:32|80:32|32:32,1,96
48,96,5668,5,0,0:0:0:0:
128,96,5768,1,0,0:0:0:0:
80,176,5868,1,0,0:0:0:0:
160,176,5968,1,0,0:0:0:0:
240,176,6068,2,0,L|368:176,1,96
368,64,6468,6,0,L|320:64,1,48
208,64,6668,1,0,0:0:0:0:
304,64,6768,1,0,0:0:0:0:
208,64,6868,1,0,0:0:0:0:
400,64,6968,2,0,L|272:64,1,96
416,176,7268,5,0,0:0:0:0:
320,176,7368,1,0,0:0:0:0:
416,240,7468,1,0,0:0:0:0:
320,240,7568,1,0,0:0:0:0:
192,240,7668,2,0,L|112:240,3,48
144,80,8168,6,0,L|240:80,1,96
320,128,8468,2,0,B|384:128|384:128|384:80|384:80|480:80,2,192
192,160,9468,6,0,L|96:160,1,96
384,160,9868,2,0,L|480:160,1,96
192,160,10268,2,0,L|96:160,1,96
384,160,10668,2,0,L|480:160,1,96
352,224,11068,5,0,0:0:0:0:
160,224,11268,1,0,0:0:0:0:
352,224,11468,1,0,0:0:0:0:
416,224,11568,1,0,0:0:0:0:
480,224,11668,1,0,0:0:0:0:
416,160,11768,2,0,L|304:160,1,96
160,160,12068,5,0,0:0:0:0:
96,160,12168,1,0,0:0:0:0:
32,160,12268,1,0,0:0:0:0:
96,160,12368,1,0,0:0:0:0:
160,160,12468,2,0,L|288:160,1,96
416,80,12868,6,0,L|368:80,1,48
304,80,13068,1,0,0:0:0:0:
240,80,13168,1,0,0:0:0:0:
304,80,13268,1,0,0:0:0:0:
240,80,13368,2,0,L|144:80,1,96
80,320,13668,6,0,L|32:272,1,48
288,320,13868,2,0,L|336:272,1,48
128,208,14068,2,0,L|80:160,1,48
336,208,14268,2,0,L|384:160,1,48
176,112,14468,2,0,L|128:64,1,48
384,112,14668,2,0,L|432:64,1,48
224,48,14868,2,0,L|176:0,1,48
304,32,15068,6,0,B|480:32|480:32|304:32|304:32,1,336
304,160,15868,6,0,L|400:160,1,96
128,160,16268,2,0,L|32:160,1,96
304,160,16668,2,0,L|400:160,1,96
128,160,17068,2,0,L|32:160,1,96
368,192,17468,5,0,0:0:0:0:
144,192,17668,1,0,0:0:0:0:
208,192,17868,1,0,0:0:0:0:
144,192,17968,1,0,0:0:0:0:
208,192,18068,1,0,0:0:0:0:
272,192,18168,2,0,L|384:192,1,96
432,192,18468,5,0,0:0:0:0:
368,192,18568,1,0,0:0:0:0:
304,192,18668,1,0,0:0:0:0:
368,192,18768,1,0,0:0:0:0:
304,192,18868,2,0,L|192:192,1,96
32,192,19268,6,0,L|96:192,1,48
160,192,19468,1,0,0:0:0:0:
240,192,19568,1,0,0:0:0:0:
320,192,19668,1,0,0:0:0:0:
416,192,19768,2,0,L|304:192,1,96
240,192,20068,5,0,0:0:0:0:
320,192,20168,1,0,0:0:0:0:
400,192,20268,1,0,0:0:0:0:
320,192,20368,1,0,0:0:0:0:
400,192,20468,2,0,L|464:192,4,48
320,192,20968,2,0,L|224:192,1,96
256,128,21268,6,0,L|64:128,2,192
368,128,22268,6,0,L|448:128,1,48
144,128,22668,2,0,L|96:128,1,48
368,192,23068,2,0,L|448:192,1,48
144,192,23468,2,0,L|64:192,1,48
336,192,23868,5,0,0:0:0:0:
176,192,24068,1,0,0:0:0:0:
336,80,24268,1,0,0:0:0:0:
240,80,24368,1,0,0:0:0:0:
144,80,24468,1,0,0:0:0:0:
48,80,24568,2,0,L|160:80,1,96
240,80,24868,5,0,0:0:0:0:
336,80,24968,1,0,0:0:0:0:
432,80,25068,1,0,0:0:0:0:
336,80,25168,1,0,0:0:0:0:
240,80,25268,1,0,0:0:0:0:
48,80,25468,1,0,0:0:0:0:
144,192,25668,5,0,0:0:0:0:
240,192,25768,1,0,0:0:0:0:
336,192,25868,1,0,0:0:0:0:
448,192,25968,1,0,0:0:0:0:
336,192,26068,1,0,0:0:0:0:
240,192,26168,2,0,L|112:192,1,96
64,128,26468,6,0,L|16:80,1,48
176,128,26668,2,0,L|224:80,1,48
336,128,26868,2,0,L|288:80,1,48
448,128,27068,2,0,L|496:80,1,48
416,256,27268,1,0,0:0:0:0:
320,256,27368,6,0,L|224:256,1,96
64,256,27668,2,0,L|128:256,1,48
192,192,27868,2,0,L|368:192,1,144
256,128,28268,2,0,L|96:128,1,144
480,80,28668,6,0,L|384:80,1,96
32,80,29068,2,0,L|128:80,1,96
480,80,29468,2,0,L|384:80,1,96
32,80,29868,2,0,L|128:80,1,96
48,192,30268,6,0,L|192:192,1,144
288,192,30668,1,0,0:0:0:0:
384,192,30768,1,0,0:0:0:0:
480,192,30868,1,0,0:0:0:0:
384,112,30968,2,0,L|256:112,1,96
192,112,31268,1,0,0:0:0:0:
32,48,31468,5,0,0:0:0:0:
112,48,31568,1,0,0:0:0:0:
208,48,31668,1,0,0:0:0:0:
112,128,31768,1,0,0:0:0:0:
224,128,31868,2,0,L|288:128,1,48
352,128,32068,1,0,0:0:0:0:
432,128,32168,2,0,L|480:128,1,48
432,224,32368,1,0,0:0:0:0:
336,224,32468,2,0,L|288:224,1,48
192,224,32668,5,0,0:0:0:0:
96,224,32768,1,0,0:0:0:0:
160,144,32868,1,0,0:0:0:0:
256,144,32968,1,0,0:0:0:0:
208,64,33068,1,0,0:0:0:0:
128,64,33168,2,0,L|32:64,1,96
128,160,33468,2,0,L|192:160,1,48
288,160,33668,1,0,0:0:0:0:
400,160,33768,1,0,0:0:0:0:
288,160,33868,1,0,0:0:0:0:
208,160,33968,1,0,0:0:0:0:
304,80,34068,5,0,0:0:0:0:
208,80,34168,1,0,0:0:0:0:
112,80,34268,1,0,0:0:0:0:
208,80,34368,1,0,0:0:0:0:
112,80,34468,2,0,L|192:80,1,72
272,80,34668,2,0,L|416:80,1,144
240,256,35068,6,0,L|272:240,2,24,0|0|0,2:0|2:0|2:0,2:0:0:0:
272,256,35218,2,0,L|240:240,2,24,0|0|0,2:0|2:0|2:0,2:0:0:0:
240,256,35368,2,0,L|272:240,2,24,0|0|0,2:0|2:0|2:0,2:0:0:0:
272,256,35518,2,0,L|240:240,2,24,0|0|0,2:0|2:0|2:0,2:0:0:0:
240,256,35668,2,0,L|272:240,2,24,0|0|0,2:0|2:0|2:0,2:0:0:0:
272,256,35818,2,0,L|240:240,2,24,0|0|0,2:0|2:0|2:0,2:0:0:0:
240,256,35968,2,0,L|272:240,2,24,0|0|0,2:0|2:0|2:0,2:0:0:0:
272,256,36118,2,0,L|240:240,2,24,0|0|0,2:0|2:0|2:0,2:0:0:0:
240,256,36268,2,0,L|272:240,2,24,0|0|0,2:0|2:0|2:0,2:0:0:0:
272,256,36418,2,0,L|240:240,2,24,0|0|0,2:0|2:0|2:0,2:0:0:0:
128,192,36668,5,0,0:0:0:0:
384,192,36868,1,0,0:0:0:0:
128,192,37068,1,0,0:0:0:0:
384,192,37268,1,0,0:0:0:0:
128,192,37468,1,0,0:0:0:0:
384,192,37668,1,0,0:0:0:0:
128,192,37868,1,0,0:0:0:0:
384,192,38068,1,0,0:0:0:0:
128,192,38268,1,0,0:0:0:0:
32,192,38368,1,0,0:0:0:0:
128,192,38468,1,0,0:0:0:0:
256,192,38668,5,0,0:0:0:0:
256,192,38868,1,0,0:0:0:0:
448,192,39068,1,0,0:0:0:0:
112,192,39468,1,0,0:0:0:0:
256,192,39868,6,0,B|368:192|368:192|240:192,1,240
144,192,40468,1,0,0:0:0:0:
48,192,40568,1,0,0:0:0:0:
144,96,40668,2,0,B|320:96|320:96|144:96,1,336
480,176,41468,6,0,B|336:176|336:176|432:176,1,240
208,176,42068,1,0,0:0:0:0:
304,176,42168,1,0,0:0:0:0:
160,256,42268,2,0,L|352:256,1,192
384,80,42868,5,0,0:0:0:0:
256,80,42968,1,0,0:0:0:0:
128,80,43068,1,0,0:0:0:0:
384,160,43368,1,0,0:0:0:0:
96,208,43668,2,0,B|208:208|208:208|320:144,1,240
448,144,44268,1,0,0:0:0:0:
80,64,44468,1,0,0:0:0:0:
256,64,44668,2,0,B|368:64|368:64|288:64,1,192
272,256,45468,6,0,L|112:256,1,144
192,192,45868,2,0,L|352:192,1,144
288,128,46268,2,0,L|32:128,1,240
176,64,46868,1,0,0:0:0:0:
304,64,46968,1,0,0:0:0:0:
432,64,47068,1,0,0:0:0:0:
64,128,47368,1,0,0:0:0:0:
48,208,47668,5,0,0:0:0:0:
144,208,47768,1,0,0:0:0:0:
208,208,47868,1,0,0:0:0:0:
256,208,47968,1,0,0:0:0:0:
288,208,48068,1,0,0:0:0:0:
336,208,48168,1,0,0:0:0:0:
400,208,48268,1,0,0:0:0:0:
496,208,48368,1,0,0:0:0:0:
448,128,48468,2,0,L|208:128,1,240
80,128,49068,1,0,0:0:0:0:
128,256,49468,5,0,0:0:0:0:
256,256,49668,1,0,0:0:0:0:
384,256,49868,1,0,0:0:0:0:
256,160,50068,1,0,0:0:0:0:
128,160,50268,1,0,0:0:0:0:
432,160,50568,1,0,0:0:0:0:
320,80,50868,5,0,0:0:0:0:
224,80,50968,1,0,0:0:0:0:
128,80,51068,1,0,0:0:0:0:
224,192,51268,1,0,0:0:0:0:
352,192,51468,1,0,0:0:0:0:
464,192,51668,1,0,0:0:0:0:
352,272,51868,1,0,0:0:0:0:
144,304,52268,5,0,0:0:0:0:
416,304,52668,2,0,B|352:224|352:224|208:224,1,240
144,224,53268,2,0,L|80:224,1,48
176,112,53468,2,0,B|336:112|336:112|464:272,1,336
336,288,54268,2,0,B|176:288|176:288|80:224,1,240
192,176,54868,2,0,L|240:176,1,48
400,160,55068,2,0,B|304:96|304:96|208:96,1,192
96,160,55668,5,0,0:0:0:0:
48,224,55768,1,0,0:0:0:0:
96,288,55868,1,0,0:0:0:0:
352,288,56168,1,0,0:0:0:0:
176,208,56468,2,0,B|309:147|309:147|352:64,1,240
448,64,57068,1,0,0:0:0:0:
320,64,57268,1,0,0:0:0:0:
192,64,57468,1,0,0:0:0:0:
32,192,57868,5,0,0:0:0:0:
256,192,58268,1,0,0:0:0:0:
480,192,58668,1,0,0:0:0:0:
256,192,59068,12,0,60568,0:0:0:0:
144,160,60668,6,0,B|288:96|288:96|400:224,1,288
240,160,61468,6,0,L|288:160,1,48
160,160,61668,2,0,L|112:160,1,48
288,96,61868,2,0,L|336:96,1,48
208,96,62068,2,0,L|160:96,1,48
48,160,62468,5,0,0:0:0:0:
224,160,62668,1,0,0:0:0:0:
320,160,62768,1,0,0:0:0:0:
416,160,62868,1,0,0:0:0:0:
448,240,62968,2,0,L|352:240,1,96
224,240,63268,5,0,0:0:0:0:
128,240,63368,1,0,0:0:0:0:
32,240,63468,1,0,0:0:0:0:
80,160,63568,1,0,0:0:0:0:
176,160,63668,2,0,L|336:160,1,144
416,160,64068,1,0,0:0:0:0:
352,80,64268,5,0,0:0:0:0:
256,80,64368,1,0,0:0:0:0:
160,80,64468,1,0,0:0:0:0:
64,80,64568,2,0,L|192:80,1,96
128,192,64868,5,0,0:0:0:0:
224,192,64968,1,0,0:0:0:0:
128,272,65068,1,0,0:0:0:0:
224,272,65168,1,0,0:0:0:0:
128,352,65268,2,0,L|80:352,4,48
224,352,65768,2,0,L|352:352,1,96
336,272,66068,6,0,B|80:272|80:272|80:80,1,432
144,128,67068,2,0,L|240:128,1,96
176,192,67468,2,0,L|272:192,1,96
208,256,67868,2,0,L|320:256,1,96
240,320,68268,2,0,L|336:320,1,96
416,144,68668,5,0,0:0:0:0:
256,144,68868,1,0,0:0:0:0:
416,64,69068,1,0,0:0:0:0:
336,64,69168,1,0,0:0:0:0:
256,64,69268,1,0,0:0:0:0:
160,64,69368,2,0,L|64:64,1,96
160,128,69668,1,0,0:0:0:0:
256,128,69768,1,0,0:0:0:0:
160,208,69868,1,0,0:0:0:0:
256,208,69968,1,0,0:0:0:0:
352,208,70068,2,0,L|432:208,1,48
496,208,70268,1,0,0:0:0:0:
448,288,70468,6,0,L|400:288,1,48
304,288,70668,1,0,0:0:0:0:
208,288,70768,1,0,0:0:0:0:
112,288,70868,1,0,0:0:0:0:
32,224,70968,2,0,L|160:224,1,96
224,208,71268,2,0,L|224:144,1,48
320,208,71468,2,0,L|320:128,1,48
272,96,71668,2,0,L|272:16,1,48
368,96,71868,2,0,L|368:32,1,48
416,208,72068,2,0,L|416:128,1,48
480,112,72268,2,0,L|480:64,1,48
416,32,72468,1,0,0:0:0:0:
352,128,72568,2,0,B|144:128|144:128|320:128,1,384
304,64,73468,6,0,L|208:64,1,96
288,128,73868,2,0,L|192:128,1,96
272,192,74268,2,0,L|176:192,1,96
256,256,74668,2,0,L|160:256,1,96
64,256,75068,5,0,0:0:0:0:
192,256,75268,1,0,0:0:0:0:
320,256,75468,1,0,0:0:0:0:
416,256,75568,1,0,0:0:0:0:
320,176,75668,1,0,0:0:0:0:
416,176,75768,2,0,L|288:176,1,96
224,96,76068,1,0,0:0:0:0:
128,96,76168,1,0,0:0:0:0:
224,176,76268,1,0,0:0:0:0:
128,176,76368,1,0,0:0:0:0:
224,256,76468,1,0,0:0:0:0:
320,256,76668,5,0,0:0:0:0:
448,320,76868,1,0,0:0:0:0:
352,320,76968,1,0,0:0:0:0:
448,320,77068,1,0,0:0:0:0:
336,320,77168,1,0,0:0:0:0:
448,320,77268,1,0,0:0:0:0:
320,320,77368,2,0,L|208:320,1,96
128,320,77668,1,0,0:0:0:0:
32,320,77768,1,0,0:0:0:0:
80,256,77868,1,0,0:0:0:0:
176,256,77968,1,0,0:0:0:0:
272,256,78068,2,0,L|352:256,3,48
176,176,78568,2,0,L|80:176,1,96
32,256,78868,2,0,B|240:256|240:256|240:32,1,432
336,48,79868,2,0,L|368:48,3,24
160,144,80268,2,0,L|192:144,3,24
352,144,80668,2,0,L|384:144,3,24
160,224,81068,2,0,L|192:224,3,24
112,144,81468,5,0,0:0:0:0:
256,144,81668,1,0,0:0:0:0:
352,144,81868,1,0,0:0:0:0:
432,144,81968,1,0,0:0:0:0:
384,208,82068,1,0,0:0:0:0:
288,208,82168,2,0,L|192:208,1,96
96,208,82468,1,0,0:0:0:0:
192,144,82568,1,0,0:0:0:0:
96,144,82668,1,0,0:0:0:0:
192,80,82768,1,0,0:0:0:0:
288,80,82868,2,0,L|464:80,1,144
336,160,83268,1,0,0:0:0:0:
432,160,83368,1,0,0:0:0:0:
432,240,83468,1,0,0:0:0:0:
336,240,83568,1,0,0:0:0:0:
240,240,83668,1,0,0:0:0:0:
336,320,83768,6,0,L|464:320,1,96
336,80,84068,2,0,L|384:32,1,48
176,80,84268,2,0,L|128:32,1,48
336,176,84468,2,0,L|384:128,1,48
176,176,84668,2,0,L|128:128,1,48
336,272,84868,2,0,L|384:224,1,48
176,272,85068,2,0,L|128:224,1,48
32,176,85268,5,0,0:0:0:0:
128,176,85368,2,0,L|304:176,1,144
368,176,85768,1,0,0:0:0:0:
304,96,85868,2,0,L|160:96,1,144
64,256,86268,1,0,0:0:0:0:
80,256,86268,1,0,0:0:0:0:
96,256,86268,1,0,0:0:0:0:
400,256,86668,1,0,0:0:0:0:
432,256,86668,1,0,0:0:0:0:
416,256,86668,1,0,0:0:0:0:
64,256,87068,1,0,0:0:0:0:
80,256,87068,1,0,0:0:0:0:
96,256,87068,1,0,0:0:0:0:
416,256,87468,1,0,0:0:0:0:
432,256,87468,1,0,0:0:0:0:
400,256,87468,1,0,0:0:0:0:
