osu file format v14

[General]
AudioFilename: audio.mp3
AudioLeadIn: 0
PreviewTime: 41025
Countdown: 0
SampleSet: None
StackLeniency: 0.7
Mode: 0
LetterboxInBreaks: 0
WidescreenStoryboard: 0

[Editor]
DistanceSpacing: 1.5
BeatDivisor: 4
GridSize: 16
TimelineZoom: 1.2

[Metadata]
Title:Infinity ( Zatox Remix )
TitleUnicode:Infinity ( Zatox Remix )
Artist:Le Shuuk
ArtistUnicode:Le Shuuk
Creator:Suome
Version:Take Your Time
Source:
Tags:hardstyle le shuuk infinity zatox remix
BeatmapID:1433541
BeatmapSetID:677910

[Difficulty]
HPDrainRate:7.3
CircleSize:4.5
OverallDifficulty:7.5
ApproachRate:9.2
SliderMultiplier:1.40000000596046
SliderTickRate:1

[Events]
//Background and Video events
0,0,"infinity.jpg",0,0
//Break Periods
//Storyboard Layer 0 (Background)
//Storyboard Layer 1 (Fail)
//Storyboard Layer 2 (Pass)
//Storyboard Layer 3 (Foreground)
//Storyboard Sound Samples

[TimingPoints]
0,454.545454545455,4,1,0,100,1,0
30909,444.444444444444,4,1,0,100,1,0
32686,434.782608695652,4,1,0,100,1,0
34425,425.531914893617,4,1,0,100,1,0
36127,416.666666666667,4,1,0,100,1,0
37793,408.163265306122,4,1,0,100,1,0
39425,400,4,1,0,100,1,0
42625,400,4,1,0,100,1,1
42625,-80,4,1,0,100,0,1
89025,454.545454545455,4,1,0,100,1,0
119934,444.444444444444,4,1,0,100,1,0
121711,434.782608695652,4,1,0,100,1,0
123450,425.531914893617,4,1,0,100,1,0
125152,416.666666666667,4,1,0,100,1,0
126818,408.163265306122,4,1,0,100,1,0
128450,400,4,1,0,100,1,0
131650,400,4,1,0,100,1,1
131750,-80,4,1,0,100,0,1

[HitObjects]
147,78,909,5,0,0:0:0:0:
268,90,1363,1,0,0:0:0:0:
377,115,1818,2,0,P|430:262|337:308,1,280.000001192092
215,309,3181,1,0,0:0:0:0:
176,209,3863,6,0,B|366:104|366:104|168:215|167:215,1,420.000001788138
352,96,5681,2,0,P|448:224|256:288,1,420.000001788138
256,192,7500,12,0,9204,0:0:0:0:
64,64,10000,5,0,0:0:0:0:
181,101,10454,1,0,0:0:0:0:
307,131,10909,2,0,P|469:176|498:280,1,280.000001192092
485,308,11931,1,0,0:0:0:0:
466,335,12045,1,0,0:0:0:0:
375,342,12272,2,0,P|233:319|97:346,1,280.000001192092
107,264,13409,5,0,0:0:0:0:
172,170,13636,1,0,0:0:0:0:
267,240,13863,1,0,0:0:0:0:
351,135,14090,2,0,P|466:187|472:270,1,210.000000894069
110,153,15227,5,0,0:0:0:0:
210,239,15454,1,0,0:0:0:0:
232,120,15681,1,0,0:0:0:0:
340,211,15909,2,0,P|275:103|179:91,1,210.000000894069
257,68,16818,1,0,0:0:0:0:
68,275,17045,5,0,0:0:0:0:
180,138,17272,1,0,0:0:0:0:
328,259,17500,1,0,0:0:0:0:
398,118,17727,2,0,P|328:69|390:142,1,280.000001192092
190,158,19090,5,0,0:0:0:0:
310,238,19318,1,0,0:0:0:0:
105,98,19545,1,0,0:0:0:0:
393,302,19772,1,0,0:0:0:0:
299,127,20000,2,0,L|331:146,4,35.0000001490115
321,142,20681,1,0,0:0:0:0:
176,58,20909,5,0,0:0:0:0:
65,232,21250,1,0,0:0:0:0:
294,310,21590,2,0,B|360:254|360:254|306:299,1,140.000000596046
314,226,22500,1,0,0:0:0:0:
248,78,22727,5,0,0:0:0:0:
443,240,23068,1,0,0:0:0:0:
90,182,23409,2,0,L|127:191,3,35.0000001490115
28,157,24318,1,0,0:0:0:0:
175,63,24545,5,0,0:0:0:0:
195,310,24886,1,0,0:0:0:0:
430,72,25227,2,0,L|406:97,4,35.0000001490115
381,222,25909,5,0,0:0:0:0:
261,75,26136,1,0,0:0:0:0:
466,321,26363,2,0,P|409:316|410:312,1,70.000000298023
368,271,26818,1,0,0:0:0:0:
462,248,27045,1,0,0:0:0:0:
368,176,27272,2,0,P|384:128|384:176,1,140.000000596046
62,109,27954,5,0,0:0:0:0:
96,317,28181,1,0,0:0:0:0:
221,223,28522,2,0,P|252:199|226:226,1,105.000000447034
94,99,29090,5,0,0:0:0:0:
354,64,29545,1,0,0:0:0:0:
163,313,30000,1,0,0:0:0:0:
32,100,30454,1,0,0:0:0:0:
225,87,30909,5,0,0:0:0:0:
440,307,31353,1,0,0:0:0:0:
141,256,31797,1,0,0:0:0:0:
316,55,32242,1,0,0:0:0:0:
490,289,32686,5,0,0:0:0:0:
145,361,33120,1,0,0:0:0:0:
26,141,33555,1,0,0:0:0:0:
322,189,33990,1,0,0:0:0:0:
214,280,34425,5,0,0:0:0:0:
97,96,34850,1,0,0:0:0:0:
382,317,35276,1,0,0:0:0:0:
66,273,35701,1,0,0:0:0:0:
112,80,36127,5,0,0:0:0:0:
272,240,36335,1,0,0:0:0:0:
64,192,36543,1,0,0:0:0:0:
304,32,36752,1,0,0:0:0:0:
480,256,36960,1,0,0:0:0:0:
240,176,37168,1,0,0:0:0:0:
448,64,37377,1,0,0:0:0:0:
352,304,37585,1,0,0:0:0:0:
145,224,37793,5,0,0:0:0:0:
251,62,37997,1,0,0:0:0:0:
305,313,38201,1,0,0:0:0:0:
41,189,38405,1,0,0:0:0:0:
345,77,38609,1,0,0:0:0:0:
436,295,38813,1,0,0:0:0:0:
141,244,39017,1,0,0:0:0:0:
283,58,39221,1,0,0:0:0:0:
388,186,39425,5,0,0:0:0:0:
379,217,39525,1,0,0:0:0:0:
349,241,39625,1,0,0:0:0:0:
319,257,39725,1,0,0:0:0:0:
281,268,39825,1,0,0:0:0:0:
248,272,39925,1,0,0:0:0:0:
209,263,40025,1,0,0:0:0:0:
178,267,40125,1,0,0:0:0:0:
141,281,40225,1,0,0:0:0:0:
110,259,40325,1,0,0:0:0:0:
106,219,40425,1,0,0:0:0:0:
91,188,40525,1,0,0:0:0:0:
111,148,40625,1,0,0:0:0:0:
140,132,40725,1,0,0:0:0:0:
176,131,40825,1,0,0:0:0:0:
210,144,40925,1,0,0:0:0:0:
246,125,41025,1,0,0:0:0:0:
256,192,41125,12,0,42425,0:0:0:0:
116,77,42625,6,0,P|86:111|122:88,1,87.5000003725287
84,333,42925,5,0,0:0:0:0:
100,305,43025,1,0,0:0:0:0:
120,278,43125,2,0,P|149:238|149:238,1,43.7500001862644
422,331,43325,1,0,0:0:0:0:
403,305,43425,1,0,0:0:0:0:
382,275,43525,2,0,P|355:238|355:238,1,43.7500001862644
256,207,43725,1,0,0:0:0:0:
256,244,43825,1,0,0:0:0:0:
256,279,43925,1,0,0:0:0:0:
254,309,44025,1,0,0:0:0:0:
254,353,44125,5,0,0:0:0:0:
121,141,44325,1,0,0:0:0:0:
101,98,44425,1,0,0:0:0:0:
121,57,44525,1,0,0:0:0:0:
412,143,44825,1,0,0:0:0:0:
432,102,44925,1,0,0:0:0:0:
412,59,45025,1,0,0:0:0:0:
