osu file format v14

[General]
AudioFilename: audio.mp3
AudioLeadIn: 0
PreviewTime: 65297
Countdown: 0
SampleSet: Normal
StackLeniency: 0.3
Mode: 0
LetterboxInBreaks: 0
WidescreenStoryboard: 1

[Editor]
Bookmarks: 44262,66331,109090,110469,127021,132538,153228,176676,187711,198745,220814,242883,264952,265038,265124,265211,265297,265383,265469,265556
DistanceSpacing: 2.2
BeatDivisor: 4
GridSize: 4
TimelineZoom: 2.999999

[Metadata]
Title:Disintegration (Memtrix Remix)
TitleUnicode:Disintegration (Memtrix Remix)
Artist:Le Castle Vania
ArtistUnicode:Le Castle Vania
Creator:Dragye
Version:Disintegrate
Source:
Tags:le castle vania disintegration memtrix remix drum and bass
BeatmapID:2381384
BeatmapSetID:820999

[Difficulty]
HPDrainRate:5.5
CircleSize:4
OverallDifficulty:8.5
ApproachRate:9.4
SliderMultiplier:1.4
SliderTickRate:1

[Events]
//Background and Video events
0,0,"architecture-buildings-business-cars-373974.jpg",0,0
//Break Periods
2,127221,129217
2,176876,187148
//Storyboard Layer 0 (Background)
//Storyboard Layer 1 (Fail)
//Storyboard Layer 2 (Pass)
//Storyboard Layer 3 (Foreground)
//Storyboard Layer 4 (Overlay)
//Storyboard Sound Samples

[TimingPoints]
125,344.827586206896,4,1,1,50,1,0
44262,-133.333333333333,4,1,2,60,0,0
44780,-133.333333333333,4,1,2,40,0,0
55297,-111.111111111111,4,1,2,40,0,0
60814,-111.111111111111,4,1,2,30,0,0
62883,-111.111111111111,4,1,2,40,0,0
63573,-100,4,1,2,40,0,0
64262,-100,4,1,2,50,0,0
64607,-100,4,1,2,60,0,0
66331,-50,4,1,1,100,0,0
66590,-50,4,1,1,70,0,0
66676,-50,4,1,1,100,0,0
67969,-50,4,1,1,70,0,0
68056,-50,4,1,1,100,0,0
68142,-50,4,1,1,40,0,0
68228,-50,4,1,1,100,0,0
68314,-50,4,1,1,40,0,0
68400,-50,4,1,1,100,0,0
68487,-50,4,1,1,40,0,0
68573,-50,4,1,1,100,0,0
68659,-50,4,1,1,40,0,0
68745,-50,4,1,1,100,0,0
68831,-50,4,1,1,40,0,0
68918,-50,4,1,1,100,0,0
69004,-50,4,1,1,40,0,0
69090,-66.6666666666667,4,1,5,100,0,0
69607,-50,4,1,5,100,0,0
69780,-50,4,1,1,80,0,0
69952,-50,4,1,1,100,0,0
70383,-50,4,1,1,70,0,0
70469,-200,4,1,10,100,0,0
70728,-133.333333333333,4,1,1,70,0,0
70814,-40,4,1,1,100,0,0
71159,-66.6666666666667,4,1,1,80,0,0
71331,-66.6666666666667,4,1,1,80,0,0
71849,-50,4,1,1,100,0,0
72107,-50,4,1,1,60,0,0
72194,-50,4,1,1,100,0,0
73487,-50,4,1,1,70,0,0
73573,-50,4,1,1,100,0,0
73659,-50,4,1,1,40,0,0
73745,-50,4,1,1,100,0,0
73831,-50,4,1,1,40,0,0
73918,-50,4,1,1,100,0,0
74004,-50,4,1,1,40,0,0
74090,-50,4,1,1,100,0,0
74176,-50,4,1,1,40,0,0
74262,-50,4,1,1,100,0,0
74349,-50,4,1,1,40,0,0
74435,-50,4,1,1,100,0,0
74607,-50,4,1,1,80,0,0
75124,-57.1428571428571,4,1,1,80,0,0
75814,-57.1428571428571,4,1,1,60,0,0
75987,-47.6190476190476,4,1,5,90,0,0
76245,-47.6190476190476,4,1,5,60,0,0
76331,-47.6190476190476,4,1,5,90,0,0
76418,-47.6190476190476,4,1,5,40,0,0
76504,-47.6190476190476,4,1,5,90,0,0
76762,-47.6190476190476,4,1,5,40,0,0
76849,-66.6666666666667,4,1,5,90,0,0
77366,-50,4,1,1,100,0,0
77624,-50,4,1,1,70,0,0
77711,-50,4,1,1,100,0,0
79004,-50,4,1,1,70,0,0
79090,-50,4,1,1,100,0,0
79176,-50,4,1,1,40,0,0
79262,-50,4,1,1,100,0,0
79349,-50,4,1,1,40,0,0
79435,-50,4,1,1,100,0,0
79521,-50,4,1,1,40,0,0
79607,-50,4,1,1,100,0,0
79693,-50,4,1,1,40,0,0
79780,-50,4,1,1,100,0,0
79866,-50,4,1,1,40,0,0
79952,-50,4,1,1,100,0,0
80124,-57.1428571428571,4,1,5,100,0,0
80642,-66.6666666666667,4,1,5,100,0,0
81159,-40,4,1,1,100,0,0
81504,-133.333333333333,4,1,10,50,0,0
81849,-40,4,1,1,70,0,0
82193,-50,4,1,1,85,0,0
82366,-50,4,1,1,80,0,0
82538,-66.6666666666667,4,1,1,70,0,0
82883,-50,4,1,1,100,0,0
83142,-50,4,1,1,70,0,0
83228,-50,4,1,1,100,0,0
84521,-50,4,1,1,70,0,0
84607,-50,4,1,1,100,0,0
84693,-50,4,1,1,40,0,0
84780,-50,4,1,1,100,0,0
84866,-50,4,1,1,40,0,0
84952,-50,4,1,1,100,0,0
85038,-50,4,1,1,40,0,0
85124,-50,4,1,1,100,0,0
85211,-50,4,1,1,40,0,0
85297,-50,4,1,1,100,0,0
85383,-50,4,1,1,40,0,0
85469,-50,4,1,1,100,0,0
85642,-66.6666666666667,4,1,1,80,0,0
86159,-50,4,1,1,80,0,0
86676,-50,4,1,1,80,0,0
88228,-50,4,1,99,20,0,0
88400,-50,4,1,1,100,0,0
88659,-50,4,1,1,70,0,0
88745,-50,4,1,1,100,0,0
90038,-50,4,1,1,70,0,0
90125,-50,4,1,1,100,0,0
90211,-50,4,1,1,40,0,0
90297,-50,4,1,1,100,0,0
90383,-50,4,1,1,40,0,0
90469,-50,4,1,1,100,0,0
90556,-50,4,1,1,40,0,0
90642,-50,4,1,1,100,0,0
90728,-50,4,1,1,40,0,0
90814,-50,4,1,1,100,0,0
90900,-50,4,1,1,40,0,0
90987,-50,4,1,1,100,0,0
91159,-66.6666666666667,4,1,5,100,0,0
91331,-66.6666666666667,4,1,1,80,0,0
91676,-50,4,1,5,100,0,0
92193,-50,4,1,1,100,0,0
92452,-50,4,1,1,70,0,0
92538,-133.333333333333,4,1,10,100,0,0
92797,-133.333333333333,4,1,1,70,0,0
92883,-40,4,1,1,100,0,0
93141,-40,4,1,1,80,0,0
93228,-50,4,1,1,80,0,0
93573,-66.6666666666667,4,1,1,90,0,0
93745,-66.6666666666667,4,1,1,80,0,0
93918,-50,4,1,1,100,0,0
94176,-50,4,1,1,70,0,0
94262,-50,4,1,1,100,0,0
95556,-50,4,1,1,70,0,0
95642,-50,4,1,1,100,0,0
95728,-50,4,1,1,40,0,0
95814,-50,4,1,1,100,0,0
95900,-50,4,1,1,40,0,0
95987,-50,4,1,1,100,0,0
96073,-50,4,1,1,40,0,0
96159,-50,4,1,1,100,0,0
96245,-50,4,1,1,40,0,0
96331,-50,4,1,1,100,0,0
96418,-50,4,1,1,40,0,0
96504,-50,4,1,1,100,0,0
96676,-50,4,1,1,80,0,0
97021,-50,4,1,1,80,0,0
97193,-50,4,1,1,100,0,0
97711,-57.1428571428571,4,1,1,80,0,0
97883,-57.1428571428571,4,1,1,70,0,0
98056,-100,4,1,1,50,0,0
98658,-100,4,1,1,30,0,0
98744,-100,4,1,1,70,0,0
99435,-47.6190476190476,4,1,1,100,0,0
99694,-50,4,1,1,70,0,0
99780,-50,4,1,1,100,0,0
101073,-50,4,1,1,70,0,0
101159,-50,4,1,1,100,0,0
101244,-50,4,1,1,40,0,0
101330,-50,4,1,1,100,0,0
101418,-50,4,1,1,40,0,0
101503,-50,4,1,1,100,0,0
101589,-50,4,1,1,40,0,0
101675,-50,4,1,1,100,0,0
101761,-50,4,1,1,40,0,0
101848,-50,4,1,1,100,0,0
101934,-50,4,1,1,40,0,0
102020,-50,4,1,1,100,0,0
102106,-50,4,1,1,40,0,0
102193,-50,4,1,5,100,0,0
102710,-57.1428571428571,4,1,5,100,0,0
103227,-50,4,1,1,80,0,0
103400,-133.333333333333,4,1,1,60,0,0
103572,-133.333333333333,4,1,10,80,0,0
103830,-40,4,1,1,60,0,0
103917,-40,4,1,1,80,0,0
104261,-50,4,1,1,80,0,0
104951,-50,4,1,1,100,0,0
105210,-50,4,1,1,70,0,0
105296,-50,4,1,1,100,0,0
106590,-50,4,1,1,70,0,0
106676,-50,4,1,1,100,0,0
106762,-50,4,1,1,40,0,0
106849,-50,4,1,1,100,0,0
106935,-50,4,1,1,40,0,0
107021,-50,4,1,1,100,0,0
107107,-50,4,1,1,40,0,0
107194,-50,4,1,1,100,0,0
107280,-50,4,1,1,40,0,0
107366,-50,4,1,1,100,0,0
107452,-50,4,1,1,40,0,0
107538,-50,4,1,1,100,0,0
107625,-50,4,1,1,40,0,0
107711,-50,4,1,1,80,0,0
108227,-57.1428571428571,4,1,1,80,0,0
108744,-57.1428571428571,4,1,1,80,0,0
109090,-50,4,2,1,60,0,0
109434,-50,4,2,1,80,0,0
109606,-50,4,2,1,60,0,0
109693,-50,4,2,1,80,0,0
109865,-50,4,2,1,60,0,0
109951,-50,4,2,1,80,0,0
110124,-50,4,2,1,60,0,0
110210,-50,4,2,1,80,0,0
110468,-66.6666666666667,4,1,99,80,0,0
110813,-90.9090909090909,4,1,1,80,0,0
113227,-80,4,1,1,65,0,0
113572,-80,4,1,1,70,0,0
114261,-83.3333333333333,4,1,1,80,0,0
114607,-80,4,1,1,80,0,0
114951,-80,4,1,3,80,0,0
115641,-80,4,1,1,55,0,0
115986,-80,4,1,1,60,0,0
117365,-80,4,1,1,70,0,0
118744,-80,4,1,1,80,0,0
120124,-133.333333333333,4,1,1,80,0,0
120468,-133.333333333333,4,1,1,70,0,0
120813,-100,4,1,1,80,0,0
121504,-80,4,1,99,80,0,0
121848,-80,4,1,1,60,0,0
122882,-80,4,1,1,70,0,0
124261,-80,4,1,1,75,0,0
125124,-80,4,1,1,80,0,0
125642,-80,4,1,1,70,0,0
126330,-80,4,1,1,60,0,0
126675,-80,4,1,1,70,0,0
127020,-80,4,1,1,70,0,0
129779,-80,4,1,99,15,0,0
132537,-50,4,1,1,100,0,0
132796,-50,4,1,1,70,0,0
132882,-50,4,1,1,100,0,0
134175,-50,4,1,1,70,0,0
134261,-50,4,1,1,100,0,0
134348,-50,4,1,1,40,0,0
134434,-50,4,1,1,100,0,0
134520,-50,4,1,1,40,0,0
134606,-50,4,1,1,100,0,0
134693,-50,4,1,1,40,0,0
134779,-50,4,1,1,100,0,0
134865,-50,4,1,1,40,0,0
134951,-50,4,1,1,100,0,0
135037,-50,4,1,1,40,0,0
135124,-50,4,1,1,100,0,0
135210,-50,4,1,1,40,0,0
135296,-50,4,1,5,100,0,0
135641,-50,4,1,1,80,0,0
135813,-57.1428571428571,4,1,5,85,0,0
136330,-57.1428571428571,4,1,1,70,0,0
136589,-57.1428571428571,4,1,1,100,0,0
136675,-200,4,1,10,80,0,0
137020,-40,4,1,1,100,0,0
137365,-50,4,1,1,80,0,0
138055,-50,4,1,1,100,0,0
138313,-50,4,1,1,70,0,0
138399,-50,4,1,1,100,0,0
139693,-50,4,1,1,70,0,0
139779,-50,4,1,1,100,0,0
139865,-50,4,1,1,40,0,0
139951,-50,4,1,1,100,0,0
140037,-50,4,1,1,40,0,0
140124,-50,4,1,1,100,0,0
140210,-50,4,1,1,40,0,0
140296,-50,4,1,1,100,0,0
140382,-50,4,1,1,40,0,0
140468,-50,4,1,1,100,0,0
140555,-50,4,1,1,40,0,0
140641,-50,4,1,1,100,0,0
140727,-50,4,1,1,40,0,0
140813,-66.6666666666667,4,1,1,80,0,0
141330,-50,4,1,1,80,0,0
141761,-50,4,1,1,40,0,0
141848,-40,4,1,1,80,0,0
142193,-40,4,1,10,80,0,0
143572,-50,4,1,1,100,0,0
143830,-50,4,1,1,70,0,0
143917,-50,4,1,1,100,0,0
145210,-50,4,1,1,70,0,0
145296,-50,4,1,1,100,0,0
145382,-50,4,1,1,40,0,0
145468,-50,4,1,1,100,0,0
145555,-50,4,1,1,40,0,0
145641,-50,4,1,1,100,0,0
145727,-50,4,1,1,40,0,0
145813,-50,4,1,1,100,0,0
145899,-50,4,1,1,40,0,0
145986,-50,4,1,1,100,0,0
146072,-50,4,1,1,40,0,0
146158,-50,4,1,1,100,0,0
146244,-50,4,1,1,40,0,0
146331,-50,4,1,5,90,0,0
147106,-50,4,1,1,70,0,0
147365,-57.1428571428571,4,1,1,100,0,0
147624,-133.333333333333,4,1,1,70,0,0
147710,-133.333333333333,4,1,10,80,0,0
147968,-50,4,1,1,70,0,0
148055,-40,4,1,1,100,0,0
148399,-50,4,1,1,80,0,0
149089,-50,4,1,1,100,0,0
149348,-50,4,1,1,70,0,0
149434,-50,4,1,1,100,0,0
150727,-50,4,1,1,70,0,0
150813,-50,4,1,1,100,0,0
150899,-50,4,1,1,40,0,0
150986,-50,4,1,1,100,0,0
151072,-50,4,1,1,40,0,0
151158,-50,4,1,1,100,0,0
151244,-50,4,1,1,40,0,0
151330,-50,4,1,1,100,0,0
151417,-50,4,1,1,40,0,0
151503,-50,4,1,1,100,0,0
151589,-50,4,1,1,40,0,0
151675,-50,4,1,1,100,0,0
151761,-50,4,1,1,40,0,0
151848,-50,4,1,1,90,0,0
153227,-50,4,1,99,30,0,0
155124,-100,4,1,99,70,0,0
155297,-100,4,1,3,70,0,0
157365,-90.9090909090909,4,1,3,70,0,0
158744,-100,4,1,3,70,0,0
160641,-100,4,1,3,70,0,0
162882,-100,4,3,1,100,0,0
164261,-100,4,3,1,60,0,0
164606,-66.6666666666667,4,1,3,60,0,0
164865,-66.6666666666667,4,1,3,20,0,0
164951,-50,4,1,3,60,0,0
166158,-100,4,1,3,70,0,0
171675,-111.111111111111,4,1,3,70,0,0
172193,-111.111111111111,4,1,2,40,0,0
175037,-111.111111111111,4,1,2,20,0,0
175297,-111.111111111111,4,1,99,20,0,0
187710,-100,4,1,2,60,0,0
193227,-111.111111111111,4,1,3,90,0,0
195124,-111.111111111111,4,1,3,75,0,0
195642,-111.111111111111,4,1,3,65,0,0
195987,-111.111111111111,4,1,1,65,0,0
197366,-133.333333333333,4,1,2,40,0,0
198056,-133.333333333333,4,1,2,5,0,0
198745,-45.4545454545455,4,1,1,100,0,0
199004,-45.4545454545455,4,1,1,70,0,0
199090,-45.4545454545455,4,1,1,100,0,0
200382,-45.4545454545455,4,1,1,70,0,0
200468,-45.4545454545455,4,1,1,100,0,0
200555,-45.4545454545455,4,1,1,30,0,0
200641,-45.4545454545455,4,1,1,100,0,0
200727,-45.4545454545455,4,1,1,30,0,0
200813,-45.4545454545455,4,1,1,100,0,0
200899,-45.4545454545455,4,1,1,30,0,0
200986,-45.4545454545455,4,1,1,100,0,0
201072,-45.4545454545455,4,1,1,30,0,0
201158,-45.4545454545455,4,1,1,100,0,0
201244,-45.4545454545455,4,1,1,30,0,0
201503,-52.6315789473684,4,1,1,100,0,0
202020,-47.6190476190476,4,1,5,100,0,0
202279,-44.4444444444445,4,1,1,70,0,0
202365,-44.4444444444445,4,1,1,90,0,0
202537,-50,4,1,1,100,0,0
202882,-200,4,1,10,80,0,0
203227,-40,4,1,1,100,0,0
203572,-50,4,1,1,85,0,0
204261,-45.4545454545455,4,1,1,100,0,0
204520,-45.4545454545455,4,1,1,70,0,0
204606,-45.4545454545455,4,1,1,100,0,0
205899,-45.4545454545455,4,1,1,70,0,0
205986,-45.4545454545455,4,1,1,100,0,0
206072,-45.4545454545455,4,1,1,30,0,0
206158,-45.4545454545455,4,1,1,100,0,0
206244,-45.4545454545455,4,1,1,30,0,0
206330,-45.4545454545455,4,1,1,100,0,0
206417,-45.4545454545455,4,1,1,30,0,0
206503,-45.4545454545455,4,1,1,100,0,0
206589,-45.4545454545455,4,1,1,30,0,0
206675,-45.4545454545455,4,1,1,100,0,0
206761,-45.4545454545455,4,1,1,30,0,0
206848,-45.4545454545455,4,1,1,100,0,0
206934,-45.4545454545455,4,1,1,30,0,0
207020,-45.4545454545455,4,1,1,100,0,0
207968,-45.4545454545455,4,1,1,60,0,0
208055,-50,4,1,1,100,0,0
208400,-500,4,1,1,40,0,0
208744,-50,4,2,1,60,0,0
209434,-25,4,2,1,80,0,0
209693,-36.3636363636364,4,2,1,60,0,0
210124,-45.4545454545455,4,1,1,100,0,0
211417,-45.4545454545455,4,1,1,70,0,0
211503,-45.4545454545455,4,1,1,100,0,0
211589,-45.4545454545455,4,1,1,40,0,0
211675,-45.4545454545455,4,1,1,100,0,0
211761,-45.4545454545455,4,1,1,40,0,0
211848,-45.4545454545455,4,1,1,100,0,0
211934,-45.4545454545455,4,1,1,40,0,0
212020,-45.4545454545455,4,1,1,100,0,0
212106,-45.4545454545455,4,1,1,40,0,0
212193,-45.4545454545455,4,1,1,100,0,0
212279,-45.4545454545455,4,1,1,40,0,0
212365,-45.4545454545455,4,1,1,100,0,0
212451,-45.4545454545455,4,1,1,40,0,0
212537,-55.5555555555556,4,1,5,100,0,0
213313,-55.5555555555556,4,1,1,70,0,0
213399,-55.5555555555556,4,1,1,80,0,0
213572,-45.4545454545455,4,1,1,100,0,0
213917,-200,4,1,10,80,0,0
214176,-200,4,1,5,60,0,0
214261,-44.4444444444445,4,1,1,100,0,0
214606,-50,4,1,1,80,0,0
215296,-45.4545454545455,4,1,1,100,0,0
215555,-45.4545454545455,4,1,1,70,0,0
215641,-45.4545454545455,4,1,1,100,0,0
216934,-45.4545454545455,4,1,1,70,0,0
217020,-45.4545454545455,4,1,1,100,0,0
217106,-45.4545454545455,4,1,1,40,0,0
217193,-45.4545454545455,4,1,1,100,0,0
217279,-45.4545454545455,4,1,1,40,0,0
217365,-45.4545454545455,4,1,1,100,0,0
217451,-45.4545454545455,4,1,1,40,0,0
217537,-45.4545454545455,4,1,1,100,0,0
217624,-45.4545454545455,4,1,1,40,0,0
217710,-45.4545454545455,4,1,1,100,0,0
217796,-45.4545454545455,4,1,1,40,0,0
217882,-45.4545454545455,4,1,1,100,0,0
217968,-45.4545454545455,4,1,1,40,0,0
218055,-50,4,1,1,100,0,0
218399,-50,4,1,1,100,0,0
220641,-50,4,1,1,40,0,0
220814,-44.4444444444445,4,1,60,100,0,1
221073,-44.4444444444445,4,1,60,70,0,1
221159,-44.4444444444445,4,1,60,100,0,1
222451,-44.4444444444445,4,1,60,60,0,1
222537,-44.4444444444445,4,1,60,100,0,1
223830,-44.4444444444445,4,1,60,70,0,1
223917,-40,4,1,60,100,0,1
224003,-40,4,1,60,60,0,1
224089,-40,4,1,60,100,0,1
224175,-40,4,1,60,60,0,1
224261,-40,4,1,60,100,0,1
224348,-40,4,1,60,60,0,1
224434,-40,4,1,60,100,0,1
224520,-40,4,1,60,60,0,1
224606,-40,4,1,60,100,0,1
224693,-40,4,1,60,60,0,1
224779,-40,4,1,60,100,0,1
224951,-200,4,1,10,100,0,1
225210,-50,4,1,60,60,0,1
225296,-40,4,1,60,100,0,1
225813,-50,4,1,60,60,0,1
226330,-50,4,1,60,90,0,1
226675,-50,4,1,60,90,0,1
227710,-50,4,1,60,100,0,1
229434,-44.4444444444445,4,1,60,100,0,1
229520,-44.4444444444445,4,1,60,60,0,1
229606,-44.4444444444445,4,1,60,100,0,1
229693,-44.4444444444445,4,1,60,60,0,1
229779,-44.4444444444445,4,1,60,100,0,1
229865,-44.4444444444445,4,1,60,60,0,1
229951,-44.4444444444445,4,1,60,100,0,1
230037,-44.4444444444445,4,1,60,60,0,1
230124,-44.4444444444445,4,1,60,100,0,1
230210,-44.4444444444445,4,1,60,60,0,1
230296,-44.4444444444445,4,1,60,100,0,1
230382,-44.4444444444445,4,1,60,60,0,1
230468,-133.333333333333,4,1,10,60,0,1
231159,-33.3333333333333,4,1,60,60,0,1
231848,-50,4,1,60,100,0,1
232106,-44.4444444444445,4,1,60,60,0,1
232193,-44.4444444444445,4,1,60,100,0,1
233227,-44.4444444444445,4,1,60,100,0,1
233486,-44.4444444444445,4,1,60,70,0,1
233572,-44.4444444444445,4,1,60,100,0,1
234606,-43.4782608695652,4,1,60,100,0,1
234865,-44.4444444444445,4,1,60,60,0,1
234951,-44.4444444444445,4,1,60,100,0,1
235986,-200,4,1,10,100,0,1
236244,-50,4,1,60,60,0,1
236330,-33.3333333333333,4,1,60,100,0,1
237365,-47.6190476190476,4,1,60,100,0,1
237624,-44.4444444444445,4,1,60,70,0,1
237710,-44.4444444444445,4,1,60,100,0,1
238744,-45.4545454545455,4,1,60,100,0,1
239003,-44.4444444444445,4,1,60,70,0,1
239089,-44.4444444444445,4,1,60,100,0,1
240382,-44.4444444444445,4,1,60,70,0,1
240468,-44.4444444444445,4,1,60,100,0,1
240555,-44.4444444444445,4,1,60,60,0,1
240641,-44.4444444444445,4,1,60,100,0,1
240727,-44.4444444444445,4,1,60,60,0,1
240813,-44.4444444444445,4,1,60,100,0,1
240899,-44.4444444444445,4,1,60,60,0,1
240986,-44.4444444444445,4,1,60,100,0,1
241072,-44.4444444444445,4,1,60,60,0,1
241158,-44.4444444444445,4,1,60,100,0,1
241244,-44.4444444444445,4,1,60,60,0,1
241330,-44.4444444444445,4,1,60,100,0,1
241417,-44.4444444444445,4,1,60,60,0,1
241504,-50,4,2,1,80,0,0
241848,-66.6666666666667,4,2,1,80,0,0
242365,-66.6666666666667,4,2,1,100,0,0
242537,-66.6666666666667,4,1,99,90,0,0

[Colours]
Combo1 : 238,238,238
Combo2 : 176,176,255
Combo3 : 0,155,155

[HitObjects]
99,271,44262,6,0,B|157:266|157:266|204:281|204:281|270:276,1,157.500006008148,4|0,0:0|0:0,0:0:0:0:
270,280,44952,1,2,0:0:0:0:
349,174,45297,1,0,0:0:0:0:
310,55,45642,2,0,P|256:47|194:61,1,105.000004005432
163,89,46159,5,0,0:0:0:0:
152,104,46331,1,2,0:0:0:0:
146,117,46504,1,0,0:0:0:0:
143,130,46676,1,0,0:0:0:0:
241,369,47021,6,0,B|259:239|259:239|214:246,1,157.500006008148
219,248,47711,1,2,0:0:0:0:
326,323,48056,1,0,0:0:0:0:
450,298,48400,2,0,P|467:249|464:184,1,105.000004005432
444,149,48918,5,0,0:0:0:0:
427,130,49090,1,2,0:0:0:0:
412,121,49262,1,0,0:0:0:0:
398,116,49435,1,0,0:0:0:0:
282,272,49780,6,0,B|289:326|289:326|284:389,2,105.000004005432,0|0|2,0:0|0:0|0:0,0:0:0:0:
237,128,50814,1,0,0:0:0:0:
64,188,51159,2,0,B|57:134|57:134|62:71,2,105.000004005432,0|0|2,0:0|0:0|0:0,0:0:0:0:
97,350,52193,1,0,0:0:0:0:
231,263,52538,6,0,L|108:263,1,105.000004005432
87,105,53056,1,0,0:0:0:0:
253,83,53228,2,0,P|306:88|342:126,2,105.000004005432,2|0|0,0:0|0:0|0:0,0:0:0:0:
232,224,54262,5,0,0:0:0:0:
253,221,54435,1,0,0:0:0:0:
314,163,54607,1,0,0:0:0:0:
393,196,54780,1,0,0:0:0:0:
451,134,54952,1,0,0:0:0:0:
337,260,55297,6,0,P|407:276|465:240,1,125.999996154785,2|0,0:0|0:0,0:0:0:0:
235,197,55987,2,0,P|211:265|245:334,1,125.999996154785
253,133,56676,6,0,L|273:194,1,62.9999980773926
178,82,57021,2,0,L|169:151,1,62.9999980773926
84,33,57366,2,0,B|91:89|91:89|80:168,1,125.999996154785
278,338,58056,6,0,B|268:274|268:274|282:203,1,125.999996154785,2|0,0:0|0:0,0:0:0:0:
301,144,58573,1,0,0:0:0:0:
471,270,58745,2,0,P|417:291|348:265,1,125.999996154785
129,259,59435,6,0,L|192:257,1,62.9999980773926
230,162,59780,2,0,L|162:179,1,62.9999980773926
314,101,60124,1,0,0:0:0:0:
191,43,60297,1,0,0:0:0:0:
168,177,60469,1,0,0:0:0:0:
429,180,60814,6,0,L|373:186,3,31.4999990386963
423,259,61159,2,0,L|457:261,3,31.4999990386963
309,288,61504,2,0,L|353:289,3,31.4999990386963
237,338,61849,2,0,L|194:342,3,31.4999990386963
120,355,62193,2,0,L|72:344,3,31.4999990386963
101,270,62538,2,0,L|68:260,3,31.4999990386963
110,192,62883,1,0,0:0:0:0:
116,178,62969,1,0,0:0:0:0:
121,166,63056,1,0,0:0:0:0:
127,154,63142,1,0,0:0:0:0:
131,143,63228,2,0,L|138:105,3,31.4999990386963
209,34,63573,6,0,L|218:90,1,35
234,164,63745,2,0,L|277:156,1,35
359,140,63918,2,0,L|351:97,1,35
339,19,64090,2,0,L|279:25,1,35
176,221,64262,1,0,0:0:0:0:
173,256,64349,1,0,0:0:0:0:
176,290,64435,1,0,0:0:0:0:
189,322,64521,1,0,0:0:0:0:
212,348,64607,2,0,L|263:364,4,35
168,355,66331,6,0,B|137:221|137:221|142:202|142:202|129:127,1,210,4|0,0:0|0:0,0:0:0:0:
125,137,66676,1,8,0:0:0:0:
311,95,66849,1,0,0:0:0:0:
120,124,67021,1,0,0:0:0:0:
320,106,67193,1,0,0:0:0:0:
172,252,67366,1,8,0:0:0:0:
246,39,67538,5,0,0:0:0:0:
348,300,67711,2,0,B|416:274|416:274|460:137,1,210,4|0,0:0|0:0,0:0:0:0:
400,114,68056,2,0,P|367:104|321:112,1,70,8|0,0:0|0:0,0:0:0:0:
244,141,68228,2,0,P|205:144|178:130,1,70
358,198,68400,2,0,P|363:238|349:282,1,70
226,290,68573,2,0,P|226:247|245:207,1,70
169,118,68745,2,0,P|157:148|155:192,1,70,8|0,0:0|0:0,0:0:0:0:
50,234,68918,2,0,P|36:194|32:145,1,70
297,50,69090,6,0,P|370:76|342:200,1,210.000008010865,4|8,0:0|0:0,0:0:0:0:
164,307,69607,2,0,P|129:250|174:182,1,140,4|0,0:0|0:0,0:0:0:0:
260,211,69952,1,0,0:0:0:0:
31,311,70124,2,0,P|28:238|151:192,1,210,8|0,0:0|0:0,0:0:0:0:
152,347,70469,2,0,P|133:325|127:293,1,52.5,4|0,0:0|0:0,0:0:0:0:
223,199,70814,2,0,B|302:199|302:199|312:203|312:203|409:203|409:203,1,175,8|0,0:0|0:0,0:0:0:0:
419,353,71159,6,0,L|355:353,1,52.5000020027161,2|0,0:0|0:0,0:0:0:0:
427,356,71331,1,0,0:0:0:0:
410,93,71504,2,0,L|400:212,1,105.000004005432,8|0,0:0|0:0,0:0:0:0:
65,135,71849,6,0,B|70:204|70:204|80:230|80:230|83:267|83:267|79:301|79:301|83:345,1,210,4|0,0:0|0:0,0:0:0:0:
102,365,72193,1,8,0:0:0:0:
175,163,72366,1,0,0:0:0:0:
258,333,72538,1,0,0:0:0:0:
290,137,72711,1,0,0:0:0:0:
377,303,72883,1,8,0:0:0:0:
366,62,73056,5,0,0:0:0:0:
258,333,73228,2,0,B|214:271|214:271|199:267|199:267|164:222|164:222|161:206|161:206|124:148,1,210,4|0,0:0|0:0,0:0:0:0:
103,104,73573,2,0,P|133:79|178:71,1,70,8|0,0:0|0:0,0:0:0:0:
223,187,73745,2,0,P|186:185|144:160,1,70
304,81,73918,2,0,P|318:118|321:157,1,70
248,257,74090,2,0,P|227:225|221:183,1,70
397,126,74262,2,0,P|393:162|376:199,1,70,8|0,0:0|0:0,0:0:0:0:
321,289,74435,5,0,0:0:0:0:
180,87,74607,2,0,P|56:52|54:174,1,280,4|8,0:0|0:0,0:0:0:0:
379,333,75124,2,0,P|448:196|290:220,1,367.500003504753,4|8,0:0|0:0,0:0:0:0:
298,204,75814,1,0,0:0:0:0:
449,80,75987,6,0,B|389:43|322:69|322:69|252:94|205:56,1,220.499993270874,4|0,0:0|0:0,0:0:0:0:
149,68,76331,2,0,P|164:29|199:-2,1,73.4999977569581,8|0,0:0|0:0,0:0:0:0:
213,171,76504,2,0,P|74:248|35:210,1,220.499993270874
2,169,76849,1,0,0:0:0:0:
186,328,77021,2,0,P|133:343|79:338,1,105.000004005432,8|0,0:0|0:0,0:0:0:0:
317,36,77366,2,0,B|345:90|345:90|297:233,1,210,4|0,0:0|0:0,0:0:0:0:
267,301,77711,5,8,0:0:0:0:
162,109,77883,1,0,0:0:0:0:
156,255,78056,1,0,0:0:0:0:
233,63,78228,1,0,0:0:0:0:
267,301,78400,1,8,0:0:0:0:
85,174,78573,5,0,0:0:0:0:
373,279,78745,2,0,B|391:205|391:205|398:195|398:195|377:139|377:139|383:129|383:129|400:69,1,210,4|0,0:0|0:0,0:0:0:0:
398,66,79090,6,0,L|314:67,1,70,8|0,0:0|0:0,0:0:0:0:
475,174,79262,2,0,L|391:175,1,70
247,101,79435,2,0,L|161:86,1,70
302,226,79607,2,0,L|226:211,1,70
325,58,79780,2,0,L|414:57,1,70,8|0,0:0|0:0,0:0:0:0:
377,245,79952,5,0,0:0:0:0:
86,180,80124,2,0,P|19:223|114:326,1,245.000002336502,4|8,0:0|0:0,0:0:0:0:
233,212,80642,2,0,P|255:158|240:96,1,105.000004005432,4|0,0:0|0:0,0:0:0:0:
184,48,80987,1,0,0:0:0:0:
336,334,81159,2,0,P|387:297|414:172,1,175,8|0,0:0|0:0,0:0:0:0:
417,98,81504,6,0,L|436:90,6,13.125000500679,4|0|0|0|0|0|0,0:0|0:0|0:0|0:0|0:0|0:0|0:0,0:0:0:0:
246,288,81849,2,0,B|246:220|246:220|253:201|253:201|229:134|229:134|236:119|236:119|236:27,1,262.5,8|0,0:0|0:0,0:0:0:0:
132,106,82193,6,0,P|93:101|62:75,1,70,2|0,0:0|0:0,0:0:0:0:
141,114,82366,1,0,0:0:0:0:
187,363,82538,2,0,L|66:350,1,105.000004005432,8|0,0:0|0:0,0:0:0:0:
417,98,82883,2,0,P|449:136|398:274,1,210,4|0,0:0|0:0,0:0:0:0:
320,261,83228,5,8,0:0:0:0:
108,190,83400,1,0,0:0:0:0:
283,347,83573,1,0,0:0:0:0:
248,146,83745,1,0,0:0:0:0:
82,351,83918,1,8,0:0:0:0:
327,177,84090,5,0,0:0:0:0:
90,350,84262,2,0,B|37:301|37:301|42:289|42:289|35:153,1,210,4|0,0:0|0:0,0:0:0:0:
77,99,84607,2,0,P|111:94|163:109,1,70,8|0,0:0|0:0,0:0:0:0:
252,157,84780,2,0,P|289:163|334:150,1,70
134,231,84952,2,0,P|168:232|208:248,1,70
158,89,85124,2,0,P|193:88|229:79,1,70
292,254,85297,2,0,L|366:245,1,70,8|0,0:0|0:0,0:0:0:0:
237,80,85469,5,0,0:0:0:0:
361,326,85642,2,0,P|262:341|201:245,1,210.000008010865,4|8,0:0|0:0,0:0:0:0:
405,242,86159,2,0,P|397:283|246:156,1,420,4|8,0:0|0:0,0:0:0:0:
256,192,87021,12,4,88228,0:0:0:0:
178,372,88400,6,8,B|161:300|161:300|167:231|167:231|150:167,1,210,4|0,0:0|0:0,0:0:0:0:
141,140,88745,1,8,0:0:0:0:
361,161,88918,1,0,0:0:0:0:
170,240,89090,1,0,0:0:0:0:
393,259,89262,1,0,0:0:0:0:
303,56,89435,1,8,0:0:0:0:
278,284,89607,5,0,0:0:0:0:
68,80,89780,2,0,B|40:142|40:142|19:207|56:286,1,210,4|0,0:0|0:0,0:0:0:0:
98,336,90124,6,0,P|128:347|166:348,1,70,8|0,0:0|0:0,0:0:0:0:
278,284,90297,2,0,P|296:319|298:361,1,70
259,206,90469,2,0,P|223:223|197:263,1,70
98,324,90642,2,0,P|85:293|84:255,1,70
189,155,90814,2,0,P|198:194|194:228,1,70,8|0,0:0|0:0,0:0:0:0:
169,358,90987,5,0,0:0:0:0:
403,268,91159,2,0,L|284:268,1,105.000004005432,4|0,0:0|0:0,0:0:0:0:
188,233,91504,1,8,0:0:0:0:
472,155,91676,2,0,B|416:155|416:155|401:152|401:152|386:155|386:155|332:155|332:155,1,140,4|0,0:0|0:0,0:0:0:0:
135,108,92021,1,0,0:0:0:0:
422,12,92193,6,0,P|441:59|324:151,1,210,8|0,0:0|0:0,0:0:0:0:
277,39,92538,2,0,P|327:45|355:74,1,78.7500030040742,4|0,0:0|0:0,0:0:0:0:
230,163,92883,2,0,B|147:163|147:163|133:145|133:145|83:113|83:113|66:113|66:113|66:204,1,262.5,8|0,0:0|0:0,0:0:0:0:
67,219,93228,2,0,B|67:291,1,70,2|0,0:0|0:0,0:0:0:0:
289,250,93400,1,0,0:0:0:0:
181,57,93573,2,0,P|144:89|137:147,1,105.000004005432,8|0,0:0|0:0,0:0:0:0:
379,332,93918,6,0,B|403:265|403:265|403:202|403:202|396:186|396:186|394:111,1,210,4|0,0:0|0:0,0:0:0:0:
397,76,94262,1,8,0:0:0:0:
181,57,94435,1,0,0:0:0:0:
374,204,94607,1,0,0:0:0:0:
154,175,94780,1,0,0:0:0:0:
296,12,94952,1,8,0:0:0:0:
256,277,95124,5,0,0:0:0:0:
61,68,95297,2,0,B|22:200|22:200|26:280,1,210,4|0,0:0|0:0,0:0:0:0:
70,330,95642,2,0,L|153:329,1,70,8|0,0:0|0:0,0:0:0:0:
288,240,95814,2,0,L|214:254,1,70
73,236,95987,2,0,L|151:252,1,70
293,329,96159,2,0,L|205:327,1,70
95,146,96331,2,0,L|165:174,1,70,8|0,0:0|0:0,0:0:0:0:
374,270,96504,5,0,0:0:0:0:
138,72,96676,2,0,P|200:115|170:2,1,280,4|8,0:0|0:0,0:0:0:0:
290,264,97193,2,0,P|306:39|191:55,1,420,4|8,0:0|0:0,0:0:0:0:
187,60,97883,1,0,0:0:0:0:
63,333,98056,6,0,L|51:220,1,105
68,349,98400,2,0,L|68:236,1,105,8|0,0:0|0:0,0:0:0:0:
77,359,98745,1,0,0:0:0:0:
208,314,98918,1,8,0:0:0:0:
465,323,99262,5,8,0:0:0:0:
178,140,99435,2,0,P|245:57|348:84,1,220.499993270874,4|0,0:0|0:0,0:0:0:0:
401,127,99780,5,8,0:0:0:0:
351,348,99952,1,0,0:0:0:0:
311,150,100124,1,0,0:0:0:0:
465,323,100297,1,0,0:0:0:0:
503,110,100469,1,8,0:0:0:0:
257,273,100642,5,0,0:0:0:0:
399,16,100814,2,0,B|331:6|331:6|262:26|262:26|172:15,1,210,4|0,0:0|0:0,0:0:0:0:
151,66,101159,2,0,L|140:152,1,70,8|0,0:0|0:0,0:0:0:0:
264,233,101331,2,0,L|258:160,1,70
107,210,101504,2,0,L|129:281,1,70
296,297,101676,2,0,L|252:238,1,70
140,352,101849,2,0,L|211:388,1,70,8|0,0:0|0:0,0:0:0:0:
378,315,102021,2,0,L|306:304,1,70
26,192,102193,2,0,B|93:163|93:163|161:156|161:156|216:118|216:118|305:99,1,280,4|8,0:0|0:0,0:0:0:0:
492,236,102711,2,0,P|454:323|357:311,1,183.750001752377,4|0,0:0|0:0,0:0:0:0:
302,286,103056,1,0,0:0:0:0:
436,160,103228,6,0,P|446:89|398:29,1,140,8|0,0:0|0:0,0:0:0:0:
194,256,103573,2,0,L|193:172,1,78.7500030040742,4|0,0:0|0:0,0:0:0:0:
153,113,103918,2,0,B|153:199|153:199|144:213|144:213|144:285|144:285|132:343|132:343|170:381,1,262.5,8|0,0:0|0:0,0:0:0:0:
177,366,104262,6,0,L|257:367,1,70,2|0,0:0|0:0,0:0:0:0:
329,251,104435,1,0,0:0:0:0:
67,174,104607,1,8,0:0:0:0:
249,60,104780,1,0,0:0:0:0:
250,362,104952,6,0,B|169:360|169:360|47:288,1,210,4|0,0:0|0:0,0:0:0:0:
36,270,105297,1,8,0:0:0:0:
277,213,105469,1,0,0:0:0:0:
67,174,105642,1,0,0:0:0:0:
267,317,105814,1,0,0:0:0:0:
197,103,105987,1,8,0:0:0:0:
142,348,106159,5,0,0:0:0:0:
403,207,106331,2,0,B|397:138|397:138|371:68|371:68|320:16,1,210,4|0,0:0|0:0,0:0:0:0:
302,16,106676,2,0,P|286:48|284:93,1,70,8|0,0:0|0:0,0:0:0:0:
117,88,106849,2,0,P|118:122|140:164,1,70
315,225,107021,2,0,P|288:197|246:186,1,70
181,63,107193,2,0,P|137:67|110:84,1,70
214,262,107366,2,0,P|233:224|240:181,1,70,8|0,0:0|0:0,0:0:0:0:
385,78,107538,2,0,P|381:126|390:166,1,70
431,355,107711,2,0,B|489:306|483:228|483:228|477:152|514:111|514:111|496:93,1,280,4|8,0:0|0:0,0:0:0:0:
178,186,108228,2,0,P|150:313|293:236,1,367.500003504753,4|8,0:0|0:0,0:0:0:0:
289,199,109090,6,0,L|369:213,3,70,2|0|2|0,0:0|0:0|0:0|0:0,0:0:0:0:
209,275,109435,2,0,L|362:306,1,140,8|0,0:0|0:0,0:0:0:0:
403,244,109693,2,0,L|362:96,1,140,8|0,0:0|0:0,0:0:0:0:
278,92,109952,2,0,L|173:211,1,140,8|0,0:0|0:0,0:0:0:0:
130,256,110211,2,0,P|57:279|32:182,1,140,8|4,0:0|0:0,0:0:0:0:
6,167,110469,6,8,B|15:107|77:90|77:90|135:114|198:90,1,210.000008010865,4|8,0:0|0:0,0:0:0:0:
291,182,110987,1,0,0:0:0:0:
291,182,111159,2,0,P|293:143|279:86,1,77.0000023498536
378,49,111504,2,0,P|376:88|390:145,1,77.0000023498536,8|0,0:0|0:0,0:0:0:0:
207,257,111849,5,0,0:0:0:0:
126,286,112021,1,0,0:0:0:0:
52,253,112193,2,0,P|92:255|133:276,1,77.0000023498536,8|0,0:0|0:0,0:0:0:0:
336,241,112538,5,0,0:0:0:0:
413,286,112711,1,0,0:0:0:0:
507,273,112883,2,0,B|508:230|508:230|499:189,1,77.0000023498536,8|0,0:0|0:0,0:0:0:0:
226,77,113228,5,0,0:0:0:0:
227,62,113400,1,0,0:0:0:0:
313,173,113573,5,8,0:0:0:0:
312,74,113745,1,0,0:0:0:0:
413,176,113918,1,0,0:0:0:0:
411,74,114090,1,0,0:0:0:0:
249,247,114262,5,8,0:0:0:0:
249,247,114435,1,0,0:0:0:0:
147,105,114607,1,0,0:0:0:0:
361,284,114952,5,8,0:0:0:0:
266,59,115297,1,2,0:0:0:0:
266,59,115469,5,2,0:0:0:0:
221,303,115642,1,8,0:0:0:0:
423,210,115987,5,0,0:0:0:0:
394,88,116159,1,0,0:0:0:0:
326,264,116331,5,8,0:0:0:0:
321,136,116504,1,0,0:0:0:0:
190,191,116676,5,0,0:0:0:0:
322,151,116849,1,0,0:0:0:0:
187,210,117021,5,8,0:0:0:0:
317,246,117193,1,0,0:0:0:0:
46,180,117366,5,0,0:0:0:0:
170,111,117538,1,0,0:0:0:0:
111,228,117711,1,8,0:0:0:0:
67,89,117883,1,0,0:0:0:0:
222,47,118056,5,0,0:0:0:0:
110,170,118228,1,0,0:0:0:0:
251,129,118400,1,8,0:0:0:0:
139,30,118573,1,0,0:0:0:0:
126,257,118745,5,0,0:0:0:0:
323,166,118918,1,0,0:0:0:0:
188,313,119090,5,8,0:0:0:0:
367,169,119262,1,0,0:0:0:0:
265,352,119435,5,0,0:0:0:0:
411,164,119607,1,0,0:0:0:0:
126,257,119780,1,8,0:0:0:0:
190,54,120124,6,0,P|185:99|205:158,1,105.000004005432,0|8,0:0|0:0,0:0:0:0:
334,295,120814,6,0,L|404:307,2,70,0|0|8,0:0|0:0|0:0,0:0:0:0:
324,298,121331,1,0,0:0:0:0:
199,164,121504,2,0,P|160:198|139:322,1,175,4|8,0:0|0:0,0:0:0:0:
137,329,122021,1,0,0:0:0:0:
97,154,122193,6,0,P|139:155|193:179,1,87.5
289,132,122538,2,0,P|265:98|204:74,1,87.5,8|0,0:0|0:0,0:0:0:0:
368,237,122883,2,0,P|422:226|472:193,1,87.5
235,247,123228,2,0,P|246:301|279:351,1,87.5,8|0,0:0|0:0,0:0:0:0:
385,146,123573,2,0,P|374:92|341:42,1,87.5
183,164,123918,2,0,L|70:150,1,87.5,8|0,0:0|0:0,0:0:0:0:
257,334,124262,5,0,0:0:0:0:
343,310,124435,1,0,0:0:0:0:
396,245,124607,1,8,0:0:0:0:
404,164,124780,1,0,0:0:0:0:
371,88,124952,1,0,0:0:0:0:
294,56,125124,1,0,0:0:0:0:
262,200,125297,1,8,0:0:0:0:
62,88,125642,5,0,0:0:0:0:
75,300,125987,1,8,0:0:0:0:
262,200,126331,2,0,L|255:103,1,87.5
195,279,126676,5,8,0:0:0:0:
319,323,126849,1,0,0:0:0:0:
166,188,127021,1,0,0:0:0:0:
256,192,129780,12,0,131159,0:0:0:0:
401,353,132538,6,0,B|420:286|420:286|420:222|420:222|414:203|414:203|414:124,1,210,4|0,0:0|0:0,0:0:0:0:
407,101,132883,1,8,0:0:0:0:
199,77,133056,1,0,0:0:0:0:
352,212,133228,1,0,0:0:0:0:
121,179,133400,1,0,0:0:0:0:
314,33,133573,1,8,0:0:0:0:
232,269,133745,5,0,0:0:0:0:
37,36,133918,2,0,B|18:92|18:92|22:110|22:110|22:168|22:168|16:180|16:180|16:261,1,210,4|0,0:0|0:0,0:0:0:0:
47,308,134262,2,0,P|85:308|125:297,1,70,8|0,0:0|0:0,0:0:0:0:
227,348,134435,2,0,P|269:343|301:316,1,70
351,201,134607,2,0,P|313:203|267:194,1,70
176,126,134780,2,0,P|137:126|100:118,1,70
232,269,134952,2,0,P|240:229|236:195,1,70,8|0,0:0|0:0,0:0:0:0:
315,53,135124,2,0,P|313:85|316:129,1,70
161,276,135297,2,0,P|238:342|275:213,1,280,4|8,0:0|0:0,0:0:0:0:
493,374,135814,2,0,B|473:333|485:279|485:279|498:224|476:187,1,183.750001752377,4|0,0:0|0:0,0:0:0:0:
435,131,136159,5,0,0:0:0:0:
232,269,136331,2,0,B|291:277|291:277|432:238,1,183.750001752377,8|0,0:0|0:0,0:0:0:0:
189,188,136676,2,0,L|130:197,1,52.5,4|0,0:0|0:0,0:0:0:0:
280,186,137021,2,0,P|300:88|223:44,1,175,8|0,0:0|0:0,0:0:0:0:
232,269,137366,6,0,L|306:275,1,70,2|0,0:0|0:0,0:0:0:0:
441,143,137538,1,0,0:0:0:0:
444,317,137711,1,8,0:0:0:0:
345,112,137883,1,0,0:0:0:0:
206,363,138056,6,0,B|151:319|151:319|105:182,1,210,4|0,0:0|0:0,0:0:0:0:
103,147,138400,1,8,0:0:0:0:
343,201,138573,1,0,0:0:0:0:
144,235,138745,1,0,0:0:0:0:
345,112,138918,1,0,0:0:0:0:
103,147,139090,1,8,0:0:0:0:
263,295,139262,5,0,0:0:0:0:
163,27,139435,2,0,B|146:88|146:88|146:112|146:112|163:148|163:148|163:174|163:174|155:248,1,210,4|0,0:0|0:0,0:0:0:0:
172,265,139780,2,0,L|166:350,1,70,8|0,0:0|0:0,0:0:0:0:
355,238,139952,2,0,L|368:307,1,70
181,178,140124,2,0,L|173:256,1,70
349,158,140297,2,0,L|361:226,1,70
180,96,140469,2,0,L|171:168,1,70,8|0,0:0|0:0,0:0:0:0:
362,75,140642,2,0,L|372:144,1,70
110,227,140814,2,0,P|125:325|227:307,1,210.000008010865,4|8,0:0|0:0,0:0:0:0:
362,75,141331,2,0,B|341:128|344:188|344:188|352:293|273:303|193:290|176:262,1,350,4|0,0:0|0:0,0:0:0:0:
158,303,141849,2,0,P|280:325|389:235,1,262.5,8|0,0:0|0:0,0:0:0:0:
327,158,142193,6,0,B|304:243|223:232|223:232|162:187|106:202|61:241|60:298,1,350,4|8,0:0|0:0,0:0:0:0:
379,348,142711,2,0,B|380:251|380:251|417:164|417:164|382:83|410:31|410:31|378:44,1,350,0|0,0:0|0:0,0:0:0:0:
238,146,143228,1,8,0:0:0:0:
494,199,143400,1,0,0:0:0:0:
157,81,143573,6,0,B|147:151|147:151|185:299,1,210,4|0,0:0|0:0,0:0:0:0:
196,311,143918,1,8,0:0:0:0:
286,136,144090,1,0,0:0:0:0:
339,326,144262,1,0,0:0:0:0:
155,181,144435,1,0,0:0:0:0:
408,207,144607,1,8,0:0:0:0:
261,371,144780,5,0,0:0:0:0:
342,79,144952,2,0,B|389:59|423:84|423:84|429:121|422:153|422:153|399:236,1,210,4|0,0:0|0:0,0:0:0:0:
366,252,145297,2,0,P|330:258|281:252,1,70,8|0,0:0|0:0,0:0:0:0:
176,151,145469,2,0,P|134:145|96:127,1,70
353,270,145642,2,0,P|317:269|270:255,1,70
184,137,145814,2,0,P|144:124|109:100,1,70
338,286,145987,2,0,P|302:279|258:256,1,70,8|0,0:0|0:0,0:0:0:0:
194,126,146159,2,0,P|157:106|127:76,1,70
291,357,146331,2,0,P|212:329|282:178,1,280,4|8,0:0|0:0,0:0:0:0:
5,231,146849,2,0,P|101:171|114:68,1,210,4|0,0:0|0:0,0:0:0:0:
118,63,147193,5,0,0:0:0:0:
271,265,147366,2,0,P|231:264|186:143,1,183.750001752377,8|0,0:0|0:0,0:0:0:0:
361,295,147711,2,0,P|401:302|445:296,1,78.7500030040742,4|0,0:0|0:0,0:0:0:0:
323,109,148056,2,0,B|238:109|238:109|225:105|225:105|144:105,1,175,8|0,0:0|0:0,0:0:0:0:
402,228,148400,6,0,L|473:242,1,70,2|0,0:0|0:0,0:0:0:0:
204,373,148573,1,0,0:0:0:0:
296,197,148745,1,8,0:0:0:0:
398,370,148918,1,0,0:0:0:0:
431,134,149090,2,0,B|401:186|401:186|403:344,1,210,4|0,0:0|0:0,0:0:0:0:
398,370,149435,5,8,0:0:0:0:
158,302,149607,1,0,0:0:0:0:
361,280,149780,5,0,0:0:0:0:
107,365,149952,1,0,0:0:0:0:
366,185,150124,1,8,0:0:0:0:
77,344,150297,5,0,0:0:0:0:
302,115,150469,2,0,B|245:125|245:125|197:113|197:113|193:102|193:102|129:86|129:86|63:97,1,210,4|0,0:0|0:0,0:0:0:0:
100,118,150814,2,0,P|84:146|70:185,1,70,8|0,0:0|0:0,0:0:0:0:
251,347,150987,2,0,P|264:311|272:274,1,70
33,92,151159,2,0,P|29:127|44:172,1,70
182,384,151331,2,0,P|174:348|186:306,1,70
286,119,151504,2,0,P|292:155|282:194,1,70,8|0,0:0|0:0,0:0:0:0:
98,340,151676,2,0,P|103:298|118:265,1,70
296,109,151849,2,0,P|414:147|323:230,1,280,4|8,0:0|0:0,0:0:0:0:
108,141,152366,2,0,P|337:80|334:189,1,420,4|8,0:0|0:0,0:0:0:0:
256,192,153228,12,0,154607,0:0:0:0:
183,243,155124,5,4,0:0:0:0:
288,330,155297,2,0,P|329:338|386:325,1,70
340,177,155642,2,0,P|325:211|327:249,1,70,8|0,0:0|0:0,0:0:0:0:
151,175,155987,5,2,0:0:0:0:
136,85,156159,1,0,0:0:0:0:
244,164,156331,1,0,0:0:0:0:
229,71,156504,1,0,0:0:0:0:
393,99,156676,2,0,P|352:113|310:104,1,70
463,252,157021,2,0,P|428:254|394:240,1,70,8|0,0:0|0:0,0:0:0:0:
114,260,157366,5,2,0:0:0:0:
260,261,157538,1,0,0:0:0:0:
184,364,157711,1,0,0:0:0:0:
187,222,157883,1,0,0:0:0:0:
115,178,158056,2,0,P|104:135|108:88,1,77.0000023498536
260,261,158400,2,0,P|271:304|267:351,1,77.0000023498536,8|0,0:0|0:0,0:0:0:0:
395,222,158745,6,0,P|418:189|430:155,2,70,2|0|0,0:0|0:0|0:0,0:0:0:0:
194,134,159262,2,0,P|190:89|192:50,2,70,2|0|0,0:0|0:0|0:0,0:0:0:0:
38,350,159780,2,0,B|37:245|37:245|85:268,1,140,8|2,0:0|0:0,0:0:0:0:
206,327,160642,5,0,0:0:0:0:
324,236,160814,2,0,L|313:157,1,70
172,126,161159,2,0,L|183:205,1,70,8|0,0:0|0:0,0:0:0:0:
384,280,161504,2,0,P|401:225|350:162,1,140,2|0,0:0|0:0,0:0:0:0:
285,143,162021,1,0,0:0:0:0:
183,102,162193,5,0,0:0:0:0:
180,82,162366,1,0,0:0:0:0:
87,101,162538,1,8,0:0:0:0:
85,82,162711,1,0,0:0:0:0:
328,316,162883,5,2,0:0:0:0:
351,205,163056,1,0,0:0:0:0:
374,97,163228,1,0,0:0:0:0:
328,316,163400,5,10,0:0:0:0:
351,205,163573,1,0,0:0:0:0:
374,97,163745,1,0,0:0:0:0:
328,316,163918,5,10,0:0:0:0:
186,279,164090,1,0,0:0:0:0:
54,337,164262,1,6,0:0:0:0:
328,316,164607,6,0,P|359:260|378:334,1,157.500006008148,4|0,0:0|0:0,0:0:0:0:
363,301,164952,2,0,B|363:228|363:228|356:212|356:212|379:169|379:169|379:96|379:96|324:113|324:113|313:107,2,280,0|8|2,0:0|0:0|0:0,0:0:0:0:
112,273,166159,5,4,0:0:0:0:
39,126,166331,2,0,P|32:84|41:40,1,70
111,197,166676,2,0,P|118:239|109:283,1,70,8|0,0:0|0:0,0:0:0:0:
291,332,167021,5,2,0:0:0:0:
273,245,167193,1,0,0:0:0:0:
291,163,167366,1,0,0:0:0:0:
263,37,167538,1,0,0:0:0:0:
359,222,167711,2,0,L|440:231,1,70
208,133,168056,2,0,L|127:125,1,70,8|0,0:0|0:0,0:0:0:0:
291,332,168400,5,2,0:0:0:0:
194,319,168573,1,0,0:0:0:0:
258,236,168745,1,0,0:0:0:0:
97,340,168918,5,0,0:0:0:0:
116,208,169090,1,0,0:0:0:0:
2,263,169262,1,0,0:0:0:0:
359,222,169435,6,0,P|391:210|418:169,1,70,8|0,0:0|0:0,0:0:0:0:
291,332,169780,2,0,P|318:362|356:381,2,70,2|0|0,0:0|0:0|0:0,0:0:0:0:
116,208,170297,2,0,P|120:170|116:129,2,70,2|0|0,0:0|0:0|0:0,0:0:0:0:
456,283,170814,2,0,B|364:330|364:330|340:289,1,140,8|2,0:0|0:0,0:0:0:0:
108,307,171676,5,0,0:0:0:0:
108,307,171849,2,0,P|119:273|119:236,1,62.9999980773926
45,140,172193,2,0,P|62:209|122:211,1,125.999996154785,2|2,0:0|0:0,0:0:0:0:
256,319,173056,5,2,0:0:0:0:
370,178,173573,5,2,0:0:0:0:
253,76,173918,1,2,0:0:0:0:
123,220,174435,5,2,0:0:0:0:
370,178,174952,2,0,L|370:223,1,31.4999990386963,2|0,0:0|0:0,0:0:0:0:
256,192,175297,12,0,176676,0:0:0:0:
256,192,187711,6,0,P|294:203|341:239,2,70
223,188,188228,1,0,0:0:0:0:
170,315,188400,1,0,0:0:0:0:
60,123,188745,1,0,0:0:0:0:
284,120,189090,5,0,0:0:0:0:
308,126,189262,1,0,0:0:0:0:
332,134,189435,1,0,0:0:0:0:
432,121,189607,1,0,0:0:0:0:
448,216,189780,1,0,0:0:0:0:
347,234,189952,1,0,0:0:0:0:
413,352,190124,1,0,0:0:0:0:
204,311,190469,6,0,L|208:166,1,140
278,138,190987,1,0,0:0:0:0:
135,243,191159,2,0,P|157:165|217:175,1,140
75,348,191849,5,0,0:0:0:0:
67,323,192021,1,0,0:0:0:0:
60,301,192193,1,0,0:0:0:0:
42,203,192366,1,0,0:0:0:0:
90,115,192538,1,0,0:0:0:0:
82,18,192711,1,0,0:0:0:0:
189,130,192883,1,0,0:0:0:0:
336,138,193228,6,0,P|321:202|355:272,1,125.999996154785,8|0,0:0|0:0,0:0:0:0:
167,333,193745,2,0,L|97:342,1,62.9999980773926,8|0,0:0|0:0,0:0:0:0:
99,348,194090,1,0,0:0:0:0:
189,130,194262,2,0,B|199:81|199:81|157:18,1,125.999996154785,8|0,0:0|0:0,0:0:0:0:
380,192,194780,2,0,P|358:213|329:232,1,62.9999980773926,8|0,0:0|0:0,0:0:0:0:
321,237,195124,1,0,0:0:0:0:
403,80,195297,5,8,0:0:0:0:
470,216,195469,1,0,0:0:0:0:
317,107,195642,1,8,0:0:0:0:
104,73,195987,5,0,0:0:0:0:
191,219,196159,1,0,0:0:0:0:
191,227,196245,1,0,0:0:0:0:
192,237,196331,1,0,0:0:0:0:
27,300,196504,1,0,0:0:0:0:
208,114,196676,5,0,0:0:0:0:
339,221,196849,1,0,0:0:0:0:
341,228,196935,1,0,0:0:0:0:
344,239,197021,1,0,0:0:0:0:
207,339,197193,1,0,0:0:0:0:
342,78,197366,2,0,B|363:95|393:92|393:92|407:141|407:141|444:159|483:133|472:79,1,210.000008010865
169,347,198745,6,0,B|194:303|136:221|149:190|149:190|161:162|214:136,1,231.000007049561,4|0,0:0|0:0,0:0:0:0:
264,108,199090,1,8,0:0:0:0:
392,307,199262,1,0,0:0:0:0:
405,305,199435,1,0,0:0:0:0:
104,278,199607,5,8,0:0:0:0:
190,62,199780,1,0,0:0:0:0:
185,50,199952,1,0,0:0:0:0:
282,343,200124,2,0,B|326:339|347:283|328:232|281:210|282:182|282:182|288:131,1,231.000007049561,4|0,0:0|0:0,0:0:0:0:
273,77,200469,6,0,P|226:63|182:78,1,77.0000023498536,8|0,0:0|0:0,0:0:0:0:
119,118,200642,2,0,P|74:128|29:102,1,77.0000023498536
196,155,200814,2,0,P|202:195|186:238,1,77.0000023498536
131,290,200987,2,0,P|120:335|134:373,1,77.0000023498536
360,129,201159,2,0,P|377:92|373:41,1,77.0000023498536,8|0,0:0|0:0,0:0:0:0:
378,206,201504,6,0,P|280:134|360:53,1,265.999992897034,4|8,0:0|0:0,0:0:0:0:
428,275,202021,2,0,B|373:302|373:302|274:259|228:286|228:286|242:315,1,220.499993270874,4|0,0:0|0:0,0:0:0:0:
225,307,202366,1,0,0:0:0:0:
440,66,202538,2,0,P|424:36|328:123,1,210,8|0,0:0|0:0,0:0:0:0:
399,185,202883,2,0,P|399:152|391:124,1,52.5,4|0,0:0|0:0,0:0:0:0:
125,183,203228,2,0,P|52:239|177:326,1,262.5,8|0,0:0|0:0,0:0:0:0:
386,189,203573,6,0,L|384:278,1,70,2|0,0:0|0:0,0:0:0:0:
231,251,203745,1,0,0:0:0:0:
427,125,203918,1,8,0:0:0:0:
312,335,204090,1,0,0:0:0:0:
502,93,204262,6,0,B|444:41|444:41|282:26,1,231.000007049561,4|0,0:0|0:0,0:0:0:0:
253,52,204607,1,8,0:0:0:0:
186,285,204780,1,0,0:0:0:0:
127,94,204952,1,0,0:0:0:0:
340,267,205124,1,0,0:0:0:0:
71,193,205297,1,8,0:0:0:0:
358,149,205469,1,0,0:0:0:0:
101,320,205642,2,0,B|83:365|83:365|170:330|170:330|276:341,1,231.000007049561,4|0,0:0|0:0,0:0:0:0:
327,363,205987,6,0,P|372:368|413:364,1,77.0000023498536,8|0,0:0|0:0,0:0:0:0:
209,217,206159,2,0,P|234:243|286:266,1,77.0000023498536
460,247,206331,2,0,P|437:214|388:183,1,77.0000023498536
158,157,206504,2,0,P|188:175|245:184,1,77.0000023498536
398,114,206676,2,0,P|367:88|311:70,1,77.0000023498536,8|0,0:0|0:0,0:0:0:0:
90,100,206849,2,0,P|126:123|172:131,1,77.0000023498536
293,15,207021,2,0,B|263:-4|263:-4|215:37|142:71|58:38|58:38|77:65|115:74,1,308.000009399414,4|8,0:0|0:0,0:0:0:0:
348,271,207538,2,0,P|284:354|295:200,1,385.000011749268,4|0,0:0|0:0,0:0:0:0:
308,352,208056,2,0,P|259:366|184:291,1,140,8|0,0:0|0:0,0:0:0:0:
441,52,208400,6,0,L|442:76,1,21,2|0,0:0|0:0,0:0:0:0:
438,147,208745,2,0,P|418:145|394:139,1,35,8|0,0:0|0:0,0:0:0:0:
437,155,208831,2,0,P|417:153|393:147,1,35
436,164,208918,2,0,P|416:162|392:156,1,35
436,176,209004,2,0,P|416:174|392:168,1,35
459,211,209090,6,0,L|495:209,1,35
460,221,209176,2,0,L|496:219,1,35
399,288,209262,2,0,L|354:289,1,35,8|0,0:0|0:0,0:0:0:0:
400,299,209349,2,0,L|355:300,1,35
401,317,209435,6,0,B|320:332|320:332|260:301|260:301|192:283|192:283|192:348|192:348,1,280,2|0,0:0|0:0,0:0:0:0:
116,355,209693,1,0,0:0:0:0:
110,351,209780,2,2,B|82:256,3,96.2500009179115
230,237,210124,5,8,0:0:0:0:
114,60,210297,1,0,0:0:0:0:
7,241,210469,1,0,0:0:0:0:
388,83,210642,5,8,0:0:0:0:
230,237,210814,1,0,0:0:0:0:
39,129,210987,1,0,0:0:0:0:
354,196,211159,6,0,B|367:273|367:273|333:349|333:349|307:317|255:302,1,231.000007049561,4|0,0:0|0:0,0:0:0:0:
229,292,211504,2,0,P|191:287|137:301,1,77.0000023498536,8|0,0:0|0:0,0:0:0:0:
297,144,211676,2,0,P|340:123|382:125,1,77.0000023498536
136,87,211849,2,0,P|91:85|43:97,1,77.0000023498536
145,257,212021,2,0,P|152:295|153:335,1,77.0000023498536
224,99,212193,2,0,P|217:61|216:21,1,77.0000023498536,8|0,0:0|0:0,0:0:0:0:
348,248,212366,2,0,P|349:283|362:330,1,77.0000023498536
126,172,212538,2,0,P|111:81|236:10,1,251.999992309571,4|8,0:0|0:0,0:0:0:0:
427,217,213056,2,0,P|383:164|268:188,1,188.999994232178,4|0,0:0|0:0,0:0:0:0:
246,267,213400,5,0,0:0:0:0:
483,121,213573,2,0,B|468:87|437:59|437:59|369:93|282:57,1,231.000007049561,8|0,0:0|0:0,0:0:0:0:
133,152,213918,2,0,P|155:145|187:142,1,52.5,4|0,0:0|0:0,0:0:0:0:
386,300,214262,2,0,P|289:354|176:313,1,236.250009012223,8|0,0:0|0:0,0:0:0:0:
101,267,214607,6,0,P|58:265|22:280,1,70,2|0,0:0|0:0,0:0:0:0:
265,224,214780,1,0,0:0:0:0:
378,74,214952,1,8,0:0:0:0:
288,345,215124,1,0,0:0:0:0:
65,133,215297,6,0,B|49:82|92:52|92:52|172:36|242:95,1,231.000007049561,4|0,0:0|0:0,0:0:0:0:
253,104,215642,1,8,0:0:0:0:
288,345,215814,1,0,0:0:0:0:
437,152,215987,1,0,0:0:0:0:
171,173,216159,1,0,0:0:0:0:
377,342,216331,1,8,0:0:0:0:
364,70,216504,5,0,0:0:0:0:
182,297,216676,2,0,B|141:329|141:329|35:343|5:231,1,231.000007049561,4|0,0:0|0:0,0:0:0:0:
30,225,217021,2,0,P|57:190|60:130,1,77.0000023498536,8|0,0:0|0:0,0:0:0:0:
263,255,217193,2,0,P|242:216|239:170,1,77.0000023498536
20,231,217366,2,0,P|37:190|24:131,1,77.0000023498536
272,255,217538,2,0,P|254:214|267:155,1,77.0000023498536
13,233,217711,2,0,P|18:189|-9:135,1,77.0000023498536,8|0,0:0|0:0,0:0:0:0:
322,208,217883,2,0,P|344:251|331:296,1,77.0000023498536
130,142,218056,2,0,B|69:91|64:22|64:22|143:53|210:37,1,280,4|8,0:0|0:0,0:0:0:0:
412,268,218573,2,0,B|451:205|428:135|428:135|327:133|276:192|276:192|240:237|155:227,1,420,4|8,0:0|0:0,0:0:0:0:
256,192,219435,12,0,220642,0:0:0:0:
104,355,220814,6,0,B|58:358|32:328|32:328|46:275|46:275|75:258|75:258|88:172,1,236.250009012223,4|0,0:0|0:0,0:0:0:0:
94,156,221159,5,8,0:0:0:0:
405,159,221331,1,2,0:0:0:0:
406,172,221504,1,2,0:0:0:0:
216,352,221676,5,8,0:0:0:0:
214,65,221849,1,2,0:0:0:0:
199,65,222021,1,2,0:0:0:0:
441,257,222193,2,0,B|481:258|514:226|520:166|494:127|494:127|465:82|480:52,1,236.250009012223,4|0,0:0|0:0,0:0:0:0:
441,52,222538,5,10,0:0:0:0:
150,65,222711,1,2,0:0:0:0:
335,356,222883,1,2,0:0:0:0:
300,47,223056,1,2,0:0:0:0:
181,367,223228,1,2,0:0:0:0:
512,224,223573,6,0,B|460:239|414:182|414:182|374:127|288:147,1,236.250009012223,4|0,0:0|0:0,0:0:0:0:
234,183,223918,2,0,P|198:198|137:178,1,87.5,10|0,0:0|0:0,0:0:0:0:
87,140,224090,2,0,P|39:123|-17:136,1,87.5,2|0,0:0|0:0,0:0:0:0:
265,307,224262,2,0,P|219:303|177:318,1,87.5,2|0,0:0|0:0,0:0:0:0:
112,362,224435,2,0,P|69:372|9:351,1,87.5,2|0,0:0|0:0,0:0:0:0:
303,235,224607,2,0,L|401:253,1,87.5,10|0,0:0|0:0,0:0:0:0:
182,69,224780,1,2,0:0:0:0:
182,69,224952,2,0,L|125:59,1,52.5,4|0,0:0|0:0,0:0:0:0:
266,43,225297,6,0,B|265:110|265:110|270:126|270:126|241:184|241:184|193:195|193:195|176:256|176:256|165:267|165:267|166:302|164:357,1,350,8|0,0:0|0:0,0:0:0:0:
425,245,225814,1,0,0:0:0:0:
147,87,225987,1,8,0:0:0:0:
425,63,226331,5,4,0:0:0:0:
425,63,226504,1,0,0:0:0:0:
422,298,226676,1,8,0:0:0:0:
239,130,226849,1,0,0:0:0:0:
234,360,227021,1,2,0:0:0:0:
420,188,227193,1,2,0:0:0:0:
141,190,227366,1,10,0:0:0:0:
343,358,227538,1,2,0:0:0:0:
425,63,227711,5,4,0:0:0:0:
425,63,227883,1,0,0:0:0:0:
133,89,228056,1,8,0:0:0:0:
345,256,228228,1,0,0:0:0:0:
203,26,228400,1,0,0:0:0:0:
252,279,228573,1,2,0:0:0:0:
408,78,228745,1,10,0:0:0:0:
108,239,228918,1,2,0:0:0:0:
425,63,229090,5,4,0:0:0:0:
425,63,229262,1,0,0:0:0:0:
203,287,229435,2,0,P|157:290|116:275,1,78.7500030040742,10|0,0:0|0:0,0:0:0:0:
270,65,229607,2,0,P|317:59|370:72,1,78.7500030040742,2|0,0:0|0:0,0:0:0:0:
86,214,229780,2,0,P|78:171|88:131,1,78.7500030040742,2|0,0:0|0:0,0:0:0:0:
392,133,229952,2,0,P|400:176|393:212,1,78.7500030040742,2|0,0:0|0:0,0:0:0:0:
206,364,230124,2,0,P|198:327|206:278,1,78.7500030040742,10|0,0:0|0:0,0:0:0:0:
270,65,230297,2,0,P|278:108|272:143,1,78.7500030040742,2|0,0:0|0:0,0:0:0:0:
60,317,230469,6,0,B|37:268|37:268|35:207,2,105.000004005432,4|8|0,0:0|0:0|0:0,0:0:0:0:
401,234,231331,1,8,0:0:0:0:
85,141,231676,5,8,0:0:0:0:
399,332,231849,2,0,B|440:253|440:253|430:200|430:200|463:116,1,210,4|0,0:0|0:0,0:0:0:0:
455,65,232193,5,8,0:0:0:0:
153,232,232366,1,2,0:0:0:0:
147,244,232538,1,2,0:0:0:0:
366,46,232711,5,8,0:0:0:0:
43,265,232883,1,2,0:0:0:0:
40,279,233056,1,2,0:0:0:0:
414,342,233228,2,0,B|486:350|501:287|468:230|468:230|426:161,1,236.250009012223
370,132,233573,5,8,0:0:0:0:
72,91,233745,1,0,0:0:0:0:
298,307,233918,1,2,0:0:0:0:
258,0,234090,1,2,0:0:0:0:
103,268,234262,1,8,0:0:0:0:
380,36,234435,5,2,0:0:0:0:
179,364,234607,2,0,B|121:293|121:293|129:260|129:260|96:215|96:215|69:179|83:142,1,241.500004606247
157,88,234952,5,10,0:0:0:0:
387,351,235124,1,2,0:0:0:0:
226,22,235297,1,2,0:0:0:0:
294,372,235469,1,2,0:0:0:0:
320,24,235642,1,10,0:0:0:0:
203,358,235814,1,2,0:0:0:0:
407,45,235987,2,0,P|434:53|456:67,1,52.5,4|0,0:0|0:0,0:0:0:0:
478,166,236331,2,0,B|438:183|438:183|375:176|375:176|355:189|355:189|275:179|275:179|260:196|260:196|261:278|261:278|279:298|279:298|278:356|278:356|317:337,1,420.000016021729,8|0,0:0|0:0,0:0:0:0:
472,259,236849,1,0,0:0:0:0:
112,189,237021,1,8,0:0:0:0:
451,137,237366,6,0,B|399:104|333:136|333:136|268:164|215:138,1,220.499993270874,4|0,0:0|0:0,0:0:0:0:
157,122,237711,1,8,0:0:0:0:
283,320,237883,1,0,0:0:0:0:
260,69,238056,1,0,0:0:0:0:
183,357,238228,1,0,0:0:0:0:
44,147,238400,1,10,0:0:0:0:
390,328,238573,1,2,0:0:0:0:
49,114,238745,2,0,B|50:91|71:57|113:41|174:46|174:46|259:56,1,231.000007049561,4|0,0:0|0:0,0:0:0:0:
340,40,239090,5,8,0:0:0:0:
390,328,239262,1,0,0:0:0:0:
157,122,239435,1,0,0:0:0:0:
437,239,239607,1,0,0:0:0:0:
187,40,239780,1,10,0:0:0:0:
224,371,239952,1,2,0:0:0:0:
456,119,240124,6,0,B|448:63|395:38|348:52|348:52|258:84,1,236.250009012223,4|0,0:0|0:0,0:0:0:0:
178,118,240469,2,0,P|129:124|93:113,1,78.7500030040742,10|0,0:0|0:0,0:0:0:0:
242,198,240642,2,0,P|278:196|321:212,1,78.7500030040742,2|0,0:0|0:0,0:0:0:0:
406,285,240814,2,0,P|449:295|502:290,1,78.7500030040742,2|0,0:0|0:0,0:0:0:0:
263,280,240987,2,0,P|249:318|256:380,1,78.7500030040742,2|0,0:0|0:0,0:0:0:0:
410,203,241159,2,0,P|418:155|410:121,1,78.7500030040742,10|0,0:0|0:0,0:0:0:0:
86,250,241331,2,0,P|78:298|86:332,1,78.7500030040742,10|0,0:0|0:0,0:0:0:0:
154,63,241504,1,0,0:0:0:0:
154,63,241590,1,0,0:0:0:0:
154,63,241676,1,0,0:0:0:0:
154,63,241762,1,0,0:0:0:0:
205,122,241849,6,0,B|203:176|203:176|220:237,1,105.000004005432,8|0,0:0|0:0,0:0:0:0:
231,234,242107,2,0,B|213:176|213:176|214:118,1,105.000004005432,8|0,0:0|0:0,0:0:0:0:
133,174,242366,1,8,0:0:0:0:
338,136,242538,1,8,0:0:0:0:
271,337,242883,5,4,0:0:0:0:
