osu file format v14

[General]
AudioFilename: audio.mp3
AudioLeadIn: 0
PreviewTime: 57250
Countdown: 0
SampleSet: Soft
StackLeniency: 0.7
Mode: 0
LetterboxInBreaks: 0
WidescreenStoryboard: 1

[Editor]
Bookmarks: 21480,42579,58403,81975,92689,113788,129612,153349,174447,200821,221755
DistanceSpacing: 1
BeatDivisor: 4
GridSize: 4
TimelineZoom: 0.8

[Metadata]
Title:Diamond City Lights
TitleUnicode:Diamond City Lights
Artist:LazuLight
ArtistUnicode:LazuLight
Creator:Hinsvar
Version:Hard
Source:
Tags:ぽむ れいんぱふ Pomu Rainpuff エリーラ ペンドラ えりーら ぺんどら Elira Pendora フィナーナ 竜宮 ふぃなーな りゅうぐう Finana Ryugu にじさんじ NIJISANJI EN English Pop VTuber Virtual YouTuber original song まふまふ Mafumafu 2434
BeatmapID:3127863
BeatmapSetID:1469822

[Difficulty]
HPDrainRate:4
CircleSize:4
OverallDifficulty:6
ApproachRate:8
SliderMultiplier:1.36
SliderTickRate:1

[Events]
//Background and Video events
0,0,"diamond city lights.jpg",0,0
Video,-1100,"diamond city lights.mp4"
//Break Periods
2,83658,86170
2,156186,162818
2,223439,225785
//Storyboard Layer 0 (Background)
//Storyboard Layer 1 (Fail)
//Storyboard Layer 2 (Pass)
//Storyboard Layer 3 (Foreground)
//Storyboard Layer 4 (Overlay)
//Storyboard Sound Samples

[TimingPoints]
382,329.67032967033,4,2,1,50,1,0
38623,-100,4,2,1,55,0,0
39942,-100,4,2,1,60,0,0
41261,-100,4,2,1,65,0,0
42579,-111.111111111111,4,2,1,55,0,0
47689,-100,4,2,1,60,0,0
51975,-125,4,2,1,60,0,0
52964,-100,4,2,1,65,0,0
55601,-90.9090909090909,4,2,1,75,0,0
57250,-100,4,2,1,75,0,0
57744,-100,4,2,1,70,0,0
58403,-90.9090909090909,4,2,1,80,0,1
68129,-100,4,2,1,70,0,0
68953,-90.9090909090909,4,2,1,80,0,1
79502,-100,4,2,1,60,0,0
80821,-100,4,2,1,70,0,0
92030,-100,4,2,1,60,0,0
111151,-100,4,2,1,65,0,0
113788,-111.111111111111,4,2,1,55,0,0
118898,-100,4,2,1,60,0,0
122360,-125,4,2,1,60,0,0
124173,-100,4,2,1,65,0,0
126810,-90.9090909090909,4,2,1,75,0,0
128129,-100,4,2,1,75,0,0
128953,-100,4,2,1,70,0,0
129612,-90.9090909090909,4,2,1,80,0,1
139338,-100,4,2,1,70,0,0
140162,-90.9090909090909,4,2,1,80,0,1
150711,-100,4,2,1,60,0,0
152030,-100,4,2,1,70,0,0
190272,-90.9090909090909,4,2,1,60,0,0
192414,-100,4,2,1,60,0,0
192909,-90.9090909090909,4,2,1,50,0,0
194228,-90.9090909090909,4,2,1,40,0,0
195546,-90.9090909090909,4,2,1,30,0,0
196206,-90.9090909090909,4,2,1,20,0,0
196535,-90.9090909090909,4,2,1,10,0,0
196865,-90.9090909090909,4,2,1,5,0,0
198184,-100,4,2,1,75,0,0
199502,-100,4,2,1,70,0,0
200821,-90.9090909090909,4,2,1,80,0,1
207909,-100,4,2,1,70,0,0
208733,-90.9090909090909,4,2,1,80,0,1
219283,-100,4,2,1,60,0,0
220601,-100,4,2,1,70,0,0
226535,-100,4,2,1,60,0,0
227030,-90.9090909090909,4,2,1,70,0,1
227112,-90.9090909090909,4,2,1,70,0,0
232305,-90.9090909090909,4,2,1,60,0,0
237744,-90.9090909090909,4,2,1,30,0,0

[Colours]
Combo1 : 79,240,180
Combo2 : 241,201,7
Combo3 : 137,215,252

[HitObjects]
434,46,21480,6,0,L|424:127,1,68,4|0,3:2|0:0,0:0:0:0:
348,157,21810,2,0,L|308:27,2,136,2|0|0,3:2|3:0|3:0,0:0:0:0:
299,231,22634,1,0,0:0:0:0:
244,300,22799,2,0,L|88:317,1,136,2|0,3:2|3:0,0:0:0:0:
9,168,23458,2,0,L|165:151,1,136,2|0,3:2|3:0,0:0:0:0:
298,18,24118,6,0,P|337:90|348:213,1,204,2|0,3:2|0:0,0:0:0:0:
270,248,24777,1,0,3:0:0:0:
270,248,24942,2,0,P|253:222|234:176,2,68,2|0|0,0:0|3:0|0:0,0:0:0:0:
238,330,25436,2,0,P|296:349|385:358,1,136,2|0,3:2|3:0,0:0:0:0:
401,274,25931,2,0,P|431:260|465:238,1,68,2|0,0:0|3:0,0:0:0:0:
438,155,26261,2,0,P|449:123|457:84,2,68,2|0|0,0:0|3:0|0:0,0:0:0:0:
357,192,26755,5,2,3:2:0:0:
156,153,27085,2,0,P|139:121|139:79,1,68,0|2,3:0|0:0,0:0:0:0:
225,38,27414,2,0,P|248:82|244:179,1,136,0|0,3:0|3:0,0:0:0:0:
192,236,27909,1,0,0:0:0:0:
244,331,28074,2,0,P|178:314|110:307,1,136,2|0,3:2|3:0,0:0:0:0:
45,367,28568,1,2,0:0:0:0:
10,193,28898,2,0,P|19:162|29:127,1,68,0|0,0:0|3:0,0:0:0:0:
101,55,29228,6,0,P|116:121|154:192,1,136,2|2,0:0|0:0,0:0:0:0:
219,240,29722,1,0,3:0:0:0:
219,240,29887,2,0,L|294:229,2,68,0|0|2,0:0|3:0|0:0,0:0:0:0:
173,316,30382,2,0,L|98:305,1,68,0|0,3:0|0:0,0:0:0:0:
25,265,30711,1,0,3:0:0:0:
25,265,30876,2,0,L|14:340,1,68,2|0,0:0|3:0,0:0:0:0:
267,372,31371,2,0,L|246:233,1,136,2|0,3:2|3:0,0:0:0:0:
110,29,32030,6,0,P|217:86|379:106,1,272,2|0,3:2|3:0,0:0:0:0:
445,70,32854,1,2,0:0:0:0:
371,21,33019,1,0,3:0:0:0:
246,199,33349,2,0,P|230:267|228:344,1,136,2|0,3:2|3:0,0:0:0:0:
307,369,33843,1,2,0:0:0:0:
395,360,34008,2,0,P|411:292|413:215,1,136,2|0,3:2|3:0,0:0:0:0:
289,47,34667,6,0,P|215:58|72:100,1,204,2|0,3:2|0:0,0:0:0:0:
17,143,35327,1,0,3:0:0:0:
95,181,35491,2,0,P|112:207|131:257,2,68,2|0|0,0:0|3:0|0:0,0:0:0:0:
90,92,35986,1,2,3:2:0:0:
160,38,36151,2,0,P|190:43|240:63,1,68,0|0,0:0|3:0,0:0:0:0:
274,129,36480,2,0,L|272:171,2,34,2|0|0,0:0|0:0|3:0,0:0:0:0:
359,102,36810,2,0,P|383:84|419:44,1,68,2|0,0:0|3:0,0:0:0:0:
467,282,37305,6,0,P|389:217|281:175,1,204,2|2,3:2|0:0,0:0:0:0:
237,245,37964,1,0,3:0:0:0:
153,216,38129,1,2,0:0:0:0:
145,127,38294,1,0,3:0:0:0:
317,12,38623,5,2,3:2:0:0:
387,65,38788,2,0,P|381:104|361:136,1,68,10|8,0:0|0:0,0:0:0:0:
295,178,39118,1,8,0:0:0:0:
232,91,39283,1,8,0:0:0:0:
154,56,39447,1,0,3:0:0:0:
154,56,39530,1,0,3:0:0:0:
154,56,39612,1,8,0:0:0:0:
32,252,39942,6,0,P|101:270|114:220,1,136,6|0,3:2|3:0,0:0:0:0:
178,160,40436,1,2,0:0:0:0:
239,223,40601,2,0,L|263:296,1,68,0|8,3:0|0:0,0:0:0:0:
343,255,40931,2,0,L|364:190,2,68,2|8|0,3:2|0:0|3:0,0:0:0:0:
356,342,41425,1,10,0:0:0:0:
273,373,41590,2,0,L|200:368,1,68,8|8,0:0|0:0,0:0:0:0:
138,309,41920,1,2,3:2:0:0:
96,231,42085,1,8,0:0:0:0:
96,231,42167,1,8,0:0:0:0:
96,231,42250,2,0,L|40:192,1,68,8|8,0:0|0:0,0:0:0:0:
89,120,42579,6,0,P|65:76|97:3,1,122.399996264649,6|0,3:2|3:0,0:0:0:0:
296,12,43239,2,0,P|320:56|288:129,1,122.399996264649,14|2,0:0|0:0,0:0:0:0:
228,171,43733,2,0,L|219:245,1,61.1999981323243,8|0,0:0|3:0,0:0:0:0:
283,290,44063,1,8,0:0:0:0:
461,232,44392,1,0,3:0:0:0:
461,232,44475,1,0,3:0:0:0:
461,232,44557,2,0,L|447:357,1,122.399996264649,14|0,0:0|3:0,0:0:0:0:
350,371,45052,1,8,0:0:0:0:
260,330,45217,6,0,L|274:205,1,122.399996264649,6|0,3:2|3:0,0:0:0:0:
104,46,45876,2,0,L|117:167,1,122.399996264649,14|2,0:0|0:0,0:0:0:0:
54,235,46371,2,0,L|124:259,1,61.1999981323243,10|0,0:0|3:0,0:0:0:0:
75,350,46700,2,0,L|199:324,1,122.399996264649,10|0,0:0|3:0,0:0:0:0:
279,374,47195,1,8,0:0:0:0:
356,313,47360,2,0,L|346:272,3,30.5999990661621,10|8|8|8,0:0|0:0|0:0|0:0,0:0:0:0:
368,255,47689,6,0,P|367:145|358:47,1,204,6|0,3:2|3:0,0:0:0:0:
185,15,48513,1,0,3:0:0:0:
32,104,48843,1,0,3:0:0:0:
32,281,49173,1,0,3:0:0:0:
185,368,49502,1,0,3:0:0:0:
338,280,49832,1,0,3:0:0:0:
338,104,50162,1,8,0:0:0:0:
369,186,50327,6,0,P|460:211|491:108,1,204,6|0,3:2|3:0,0:0:0:0:
473,51,50986,1,0,3:0:0:0:
473,51,51068,1,0,3:0:0:0:
473,51,51151,2,0,P|418:8|357:25,1,136,2|0,3:2|3:0,0:0:0:0:
188,144,51810,5,2,3:2:0:0:
188,144,51975,2,0,L|180:84,2,54.4,8|8|8,0:0|0:0|0:0,0:0:0:0:
117,195,52469,1,8,0:0:0:0:
161,269,52634,1,8,0:0:0:0:
268,288,52799,1,8,0:0:0:0:
375,307,52964,6,0,P|400:202|392:102,1,204,14|8,3:2|0:0,0:0:0:0:
304,106,53623,2,0,P|286:118|258:122,2,34,0|0|2,3:0|3:0|3:2,0:0:0:0:
342,25,53953,1,0,3:0:0:0:
452,10,54118,1,8,0:0:0:0:
495,109,54283,6,0,P|500:169|445:216,1,136,6|0,3:2|3:0,0:0:0:0:
370,169,54777,1,10,0:0:0:0:
311,235,54942,2,0,L|304:285,2,34,0|0|2,3:0|3:0|3:2,0:0:0:0:
233,190,55272,1,0,3:0:0:0:
199,87,55436,1,10,0:0:0:0:
126,170,55601,6,0,P|62:157|7:84,1,149.60000456543,6|2,3:2|3:2,0:0:0:0:
103,4,56096,2,0,P|111:44|106:84,1,74.8000022827149,8|0,0:0|3:0,0:0:0:0:
219,110,56425,1,2,3:2:0:0:
219,110,56590,2,0,P|215:72|223:36,1,74.8000022827149,2|8,3:2|0:0,0:0:0:0:
326,19,56920,2,0,P|342:79|333:172,1,149.60000456543,6|0,3:2|3:0,0:0:0:0:
253,237,57414,5,10,0:0:0:0:
253,237,57497,1,10,0:0:0:0:
253,237,57579,1,10,0:0:0:0:
321,291,57744,2,0,L|370:301,2,34,0|0|0,3:0|3:0|3:0,0:0:0:0:
253,349,58074,2,0,L|174:364,1,68,8|0,0:0|0:0,0:0:0:0:
53,339,58403,6,0,P|38:265|91:224,1,149.60000456543,6|8,3:2|0:0,0:0:0:0:
178,275,58898,1,0,0:0:0:0:
178,275,59063,2,0,L|187:196,1,74.8000022827149,2|0,3:2|0:0,0:0:0:0:
200,104,59392,1,8,0:0:0:0:
291,14,59557,6,0,L|306:171,1,149.60000456543,6|0,3:2|3:0,0:0:0:0:
388,85,60052,1,8,0:0:0:0:
437,168,60217,2,0,L|364:307,1,149.60000456543,2|0,0:0|3:0,0:0:0:0:
491,344,60711,2,0,L|424:378,1,74.8000022827149,8|0,0:0|0:0,0:0:0:0:
278,319,61041,6,0,L|251:249,1,74.8000022827149,6|0,3:2|0:0,0:0:0:0:
173,177,61371,2,0,L|146:247,1,74.8000022827149,8|0,0:0|0:0,0:0:0:0:
116,341,61700,1,0,3:0:0:0:
116,341,61865,2,0,P|81:330|41:323,1,74.8000022827149,2|8,3:2|0:0,0:0:0:0:
4,232,62195,6,0,P|64:194|71:109,1,149.60000456543,6|0,3:2|3:0,0:0:0:0:
46,27,62689,1,8,0:0:0:0:
163,78,62854,2,0,P|233:80|287:13,1,149.60000456543,6|0,3:2|3:0,0:0:0:0:
364,81,63349,2,0,L|382:161,1,74.8000022827149,8|0,0:0|0:0,0:0:0:0:
467,238,63678,6,0,P|479:143|492:75,1,149.60000456543,6|10,3:2|0:0,0:0:0:0:
272,28,64338,1,2,3:2:0:0:
163,56,64503,1,0,3:0:0:0:
191,164,64668,1,8,0:0:0:0:
300,137,64832,6,0,P|320:218|336:378,1,224.400006848145,6|10,3:2|0:0,0:0:0:0:
182,238,65656,1,2,3:2:0:0:
89,225,65821,1,0,3:0:0:0:
12,284,65986,2,0,P|4:318|19:367,1,74.8000022827149,8|0,0:0|0:0,0:0:0:0:
89,225,66316,6,0,P|84:145|73:66,1,149.60000456543,6|8,3:2|0:0,0:0:0:0:
179,50,66810,2,0,P|170:30|158:17,2,37.4000011413575,2|2|0,0:0|0:0|3:0,0:0:0:0:
301,20,67140,2,0,P|290:56|271:88,1,74.8000022827149,6|8,3:2|0:0,0:0:0:0:
418,123,67469,2,0,P|355:163|284:183,1,149.60000456543,6|2,3:2|3:2,0:0:0:0:
241,272,67964,1,8,0:0:0:0:
133,327,68129,6,0,P|187:369|263:354,1,136,6|0,3:2|3:0,0:0:0:0:
342,311,68623,1,8,0:0:0:0:
342,311,68706,1,8,0:0:0:0:
342,311,68788,1,8,0:0:0:0:
447,358,68953,6,0,P|428:271|425:204,1,149.60000456543,6|8,3:2|0:0,0:0:0:0:
451,120,69447,1,0,0:0:0:0:
397,38,69612,2,0,P|363:43|323:55,1,74.8000022827149,0|2,3:0|3:2,0:0:0:0:
272,137,69942,1,8,0:0:0:0:
187,39,70107,6,0,P|119:18|33:17,1,149.60000456543,6|0,3:2|3:0,0:0:0:0:
105,107,70601,1,8,0:0:0:0:
18,179,70766,2,0,P|85:199|172:201,1,149.60000456543,2|0,0:0|3:0,0:0:0:0:
233,270,71261,2,0,P|240:309|245:350,1,74.8000022827149,8|0,0:0|0:0,0:0:0:0:
359,229,71590,6,0,P|342:290|336:380,1,149.60000456543,6|8,3:2|0:0,0:0:0:0:
435,351,72085,1,0,3:0:0:0:
435,351,72167,1,0,3:0:0:0:
435,351,72250,2,0,P|467:334|511:329,2,74.8000022827149,2|0|10,3:2|3:0|0:0,0:0:0:0:
463,244,72744,6,0,P|470:163|410:151,1,149.60000456543,6|0,3:2|3:0,0:0:0:0:
325,181,73239,1,8,0:0:0:0:
397,68,73403,2,0,P|344:5|293:39,1,149.60000456543,6|0,3:2|3:0,0:0:0:0:
254,119,73898,2,0,P|221:108|175:100,1,74.8000022827149,8|0,0:0|0:0,0:0:0:0:
88,184,74228,6,0,P|86:115|59:27,2,149.60000456543,6|10|0,3:2|0:0|3:0,0:0:0:0:
173,229,75052,2,0,P|167:265|147:307,1,74.8000022827149,0|8,3:0|0:0,0:0:0:0:
39,370,75382,1,4,3:2:0:0:
63,277,75546,1,2,0:0:0:0:
305,368,75876,2,0,L|384:354,1,74.8000022827149,10|0,0:0|0:0,0:0:0:0:
424,254,76206,1,0,3:0:0:0:
424,254,76371,2,0,L|345:268,2,74.8000022827149,0|8|0,3:0|0:0|0:0,0:0:0:0:
330,178,76865,6,0,P|299:116|278:20,1,149.60000456543,6|8,3:2|0:0,0:0:0:0:
72,7,77524,1,2,3:2:0:0:
2,94,77689,1,6,3:2:0:0:
49,195,77854,1,8,0:0:0:0:
119,108,78019,6,0,P|177:131|190:222,1,149.60000456543,6|0,3:2|3:0,0:0:0:0:
292,208,78513,1,8,0:0:0:0:
402,125,78678,2,0,P|426:182|371:255,1,149.60000456543,6|0,3:2|3:0,0:0:0:0:
422,349,79173,1,8,0:0:0:0:
422,349,79255,1,8,0:0:0:0:
422,349,79338,1,8,0:0:0:0:
328,373,79502,5,6,3:2:0:0:
328,373,80821,1,10,0:0:0:0:
184,373,80986,1,10,0:0:0:0:
252,28,81975,5,6,3:2:0:0:
256,192,82140,12,2,83458,3:2:0:0:
447,65,86920,6,0,L|396:75,3,34,8|8|8|8,0:0|0:0|0:0|0:0,0:0:0:0:
392,98,87250,6,0,P|343:48|263:32,1,136,4|0,3:2|3:0,0:0:0:0:
215,90,87744,2,0,L|208:160,1,68,10|0,0:0|3:0,0:0:0:0:
144,220,88074,1,10,0:0:0:0:
82,156,88239,2,0,L|73:118,2,34,0|0|8,3:0|3:0|0:0,0:0:0:0:
36,262,88568,6,0,P|95:295|153:368,1,136,4|0,3:2|3:0,0:0:0:0:
217,300,89063,2,0,L|220:260,2,34,8|8|8,0:0|0:0|0:0,0:0:0:0:
277,364,89392,1,2,3:2:0:0:
335,297,89557,1,0,3:0:0:0:
414,336,89722,1,8,0:0:0:0:
300,122,90052,5,6,3:2:0:0:
352,50,90217,2,0,L|392:40,3,34,8|8|8|8,0:0|0:0|0:0|0:0,0:0:0:0:
417,34,90546,1,6,3:2:0:0:
472,109,90711,1,8,0:0:0:0:
472,109,91041,6,0,P|467:170|456:257,1,136,6|0,3:2|0:0,0:0:0:0:
407,316,91535,1,6,3:2:0:0:
326,278,91700,2,0,P|318:259|312:237,3,34,8|8|8|8,0:0|0:0|0:0|0:0,0:0:0:0:
307,212,92030,1,6,3:2:0:0:
307,212,92689,6,0,P|246:225|169:190,2,136,6|8|2,3:2|0:0|3:2,0:0:0:0:
384,169,93513,1,0,3:0:0:0:
442,237,93678,2,0,P|461:209|490:188,1,68,8|0,0:0|0:0,0:0:0:0:
488,100,94008,2,0,P|424:79|372:14,1,136,2|8,3:2|0:0,0:0:0:0:
180,87,94667,1,2,3:2:0:0:
124,155,94832,1,0,3:0:0:0:
136,242,94997,2,0,P|158:266|193:282,1,68,8|0,0:0|0:0,0:0:0:0:
289,355,95327,6,0,P|276:286|283:203,1,136,2|8,3:2|0:0,0:0:0:0:
313,138,95821,1,2,0:0:0:0:
241,85,95986,1,0,3:0:0:0:
184,142,96151,1,0,3:0:0:0:
106,100,96316,2,0,B|92:66|103:26,1,68,8|0,0:0|0:0,0:0:0:0:
187,10,96645,2,0,P|256:37|320:45,1,136,2|8,3:2|0:0,0:0:0:0:
403,22,97140,2,0,P|420:18|448:12,2,34,2|2|0,0:0|0:0|3:0,0:0:0:0:
392,113,97469,1,0,3:0:0:0:
392,113,97634,2,0,P|414:132|437:178,1,68,8|0,0:0|0:0,0:0:0:0:
452,252,97964,5,2,3:2:0:0:
280,362,98294,2,0,P|289:288|300:222,1,136,8|0,0:0|3:0,0:0:0:0:
228,173,98788,1,2,0:0:0:0:
204,87,98953,2,0,P|217:57|249:24,1,68,8|0,0:0|0:0,0:0:0:0:
126,38,99283,2,0,P|67:66|-16:92,1,136,2|8,3:2|0:0,0:0:0:0:
85,155,99777,2,0,P|149:176|211:205,1,136,2|0,0:0|3:0,0:0:0:0:
241,288,100272,1,8,0:0:0:0:
172,370,100436,6,0,P|151:312|98:242,1,136,2|0,0:0|0:0,0:0:0:0:
26,215,100931,2,0,P|80:125|127:178,1,204,8|0,0:0|3:0,0:0:0:0:
204,225,101590,2,0,L|217:146,1,68,8|0,0:0|0:0,0:0:0:0:
299,130,101920,1,2,3:2:0:0:
299,130,102085,2,0,L|286:51,1,68,0|8,3:0|0:0,0:0:0:0:
462,201,102579,1,2,3:2:0:0:
462,201,102744,1,0,3:0:0:0:
482,114,102909,1,8,0:0:0:0:
294,249,103239,6,0,P|257:304|221:373,2,136,6|8|0,3:2|0:0|3:0,0:0:0:0:
374,212,104063,1,0,3:0:0:0:
370,300,104228,1,8,0:0:0:0:
287,131,104557,2,0,P|231:94|162:67,1,136,2|8,3:2|0:0,0:0:0:0:
87,106,105052,1,2,0:0:0:0:
60,190,105217,2,0,P|94:192|134:169,1,68,0|0,3:0|3:0,0:0:0:0:
167,68,105546,1,8,0:0:0:0:
167,68,105876,6,0,P|221:26|294:39,1,136,2|8,3:2|0:0,0:0:0:0:
312,118,106371,1,2,0:0:0:0:
395,91,106535,2,0,P|408:62|417:13,1,68,0|2,3:0|3:2,0:0:0:0:
505,61,106865,2,0,P|491:92|484:125,1,68,8|0,0:0|0:0,0:0:0:0:
507,211,107195,1,0,3:0:0:0:
507,211,107360,2,0,L|433:226,2,68,2|8|0,3:2|0:0|0:0,0:0:0:0:
496,302,107854,1,2,3:2:0:0:
496,302,108019,2,0,L|456:359,1,68,0|8,3:0|0:0,0:0:0:0:
265,286,108513,6,0,P|248:209|221:151,2,136,2|8|0,3:2|0:0|3:0,0:0:0:0:
238,370,109338,1,2,3:2:0:0:
179,304,109502,1,8,0:0:0:0:
40,153,109832,1,2,3:2:0:0:
40,153,109997,2,0,P|64:125|79:92,1,68,0|8,3:0|0:0,0:0:0:0:
148,43,110327,2,0,P|208:81|237:150,1,136,2|0,0:0|3:0,0:0:0:0:
248,225,110821,1,8,0:0:0:0:
463,140,111151,6,0,P|439:196|432:286,1,136,6|8,3:2|0:0,0:0:0:0:
378,341,111645,2,0,L|333:356,2,34,2|2|0,0:0|0:0|3:0,0:0:0:0:
324,261,111975,1,0,3:0:0:0:
324,261,112140,2,0,L|258:234,1,68,10|0,0:0|0:0,0:0:0:0:
231,102,112469,5,6,3:2:0:0:
188,182,112634,1,10,0:0:0:0:
188,182,112717,1,8,0:0:0:0:
188,182,112799,1,8,0:0:0:0:
101,140,112964,1,8,0:0:0:0:
23,183,113129,2,0,P|10:214|8:255,1,68,10|0,0:0|3:0,0:0:0:0:
79,329,113458,2,0,P|91:297|93:256,1,68,2|0,3:2|0:0,0:0:0:0:
174,231,113788,6,0,P|159:174|154:105,1,122.399996264649,6|0,3:2|3:0,0:0:0:0:
346,190,114447,2,0,P|375:139|420:86,1,122.399996264649,14|2,0:0|0:0,0:0:0:0:
376,14,114942,2,0,P|345:24|306:28,1,61.1999981323243,8|0,0:0|3:0,0:0:0:0:
288,109,115272,1,8,0:0:0:0:
126,44,115601,1,0,3:0:0:0:
126,44,115684,1,0,3:0:0:0:
126,44,115766,2,0,P|85:75|58:147,1,122.399996264649,14|0,0:0|0:0,0:0:0:0:
58,244,116260,1,8,0:0:0:0:
58,244,116343,1,8,0:0:0:0:
58,244,116425,6,0,P|79:301|126:340,1,122.399996264649,6|0,3:2|3:0,0:0:0:0:
256,176,117085,2,0,L|259:45,1,122.399996264649,14|2,0:0|0:0,0:0:0:0:
343,88,117579,2,0,L|343:152,1,61.1999981323243,10|0,0:0|3:0,0:0:0:0:
423,180,117909,2,0,L|381:304,1,122.399996264649,10|0,0:0|3:0,0:0:0:0:
304,353,118403,1,8,0:0:0:0:
241,277,118568,2,0,L|208:269,3,30.5999990661621,8|8|8|8,0:0|0:0|0:0|0:0,0:0:0:0:
195,239,118898,6,0,P|125:305|21:351,1,204,6|0,3:2|3:0,0:0:0:0:
6,173,119722,1,0,3:0:0:0:
65,6,120052,1,0,3:0:0:0:
224,83,120382,1,0,3:0:0:0:
283,250,120712,1,0,3:0:0:0:
441,327,121041,1,0,3:0:0:0:
500,160,121371,1,0,3:0:0:0:
475,75,121535,6,0,P|425:34|310:93,1,204,6|0,3:2|3:0,0:0:0:0:
232,40,122195,5,0,3:0:0:0:
232,40,122277,1,0,3:0:0:0:
232,40,122360,2,0,L|218:114,1,54.4,2|0,3:2|0:0,0:0:0:0:
145,145,122689,2,0,L|134:91,1,54.4,0|8,3:0|0:0,0:0:0:0:
82,27,123019,5,2,3:2:0:0:
82,27,123184,2,0,L|21:20,2,54.4,8|8|8,0:0|0:0|0:0,0:0:0:0:
48,107,123678,1,8,0:0:0:0:
85,185,123843,1,8,0:0:0:0:
26,276,124008,1,8,0:0:0:0:
71,374,124173,6,0,P|162:373|183:274,1,204,6|8,3:2|0:0,0:0:0:0:
254,223,124832,2,0,L|259:181,2,34,0|0|2,3:0|3:0|3:2,0:0:0:0:
319,282,125162,1,0,3:0:0:0:
410,234,125327,1,8,0:0:0:0:
512,307,125491,6,0,P|501:242|511:163,1,136,6|0,3:2|3:0,0:0:0:0:
462,96,125986,1,10,0:0:0:0:
388,145,126151,2,0,P|371:137|347:116,2,34,0|0|10,3:0|3:0|0:0,0:0:0:0:
387,233,126480,1,0,3:0:0:0:
280,192,126645,1,8,0:0:0:0:
167,224,126810,6,0,P|138:281|119:374,1,149.60000456543,6|2,3:2|3:2,0:0:0:0:
30,302,127305,1,10,0:0:0:0:
30,302,127387,1,8,0:0:0:0:
30,302,127469,2,0,P|44:269|53:224,1,74.8000022827149,8|2,0:0|3:2,0:0:0:0:
32,120,127799,1,2,3:2:0:0:
142,100,127964,1,8,0:0:0:0:
161,211,128129,5,6,3:2:0:0:
161,211,128953,1,8,0:0:0:0:
233,277,129118,1,8,0:0:0:0:
233,277,129200,1,8,0:0:0:0:
233,277,129283,2,0,L|240:318,2,34,10|8|8,0:0|0:0|0:0,0:0:0:0:
321,370,129612,6,0,P|336:289|354:221,1,149.60000456543,6|8,3:2|0:0,0:0:0:0:
304,138,130107,1,0,0:0:0:0:
341,48,130272,2,0,P|368:35|421:34,1,74.8000022827149,2|0,3:2|0:0,0:0:0:0:
503,66,130601,1,8,0:0:0:0:
436,137,130766,6,0,P|449:210|468:282,1,149.60000456543,6|0,3:2|3:0,0:0:0:0:
391,344,131261,1,8,0:0:0:0:
289,349,131425,2,0,P|296:274|310:201,1,149.60000456543,2|0,0:0|3:0,0:0:0:0:
251,122,131920,2,0,P|221:144|201:175,1,74.8000022827149,8|0,0:0|0:0,0:0:0:0:
134,282,132250,6,0,L|117:207,1,74.8000022827149,6|0,3:2|0:0,0:0:0:0:
16,203,132579,2,0,L|50:136,1,74.8000022827149,8|0,0:0|0:0,0:0:0:0:
54,12,132909,1,0,3:0:0:0:
54,12,133074,2,0,P|20:27|4:60,1,74.8000022827149,2|8,3:2|0:0,0:0:0:0:
150,26,133403,6,0,P|205:17|255:96,1,149.60000456543,6|0,3:2|3:0,0:0:0:0:
218,175,133898,1,8,0:0:0:0:
335,133,134063,2,0,P|373:174|335:259,1,149.60000456543,6|0,3:2|3:0,0:0:0:0:
248,271,134557,2,0,P|238:311|235:350,1,74.8000022827149,8|0,0:0|0:0,0:0:0:0:
158,227,134887,6,0,P|128:146|93:80,1,149.60000456543,6|10,3:2|0:0,0:0:0:0:
390,66,135546,1,0,3:0:0:0:
281,33,135711,1,0,3:0:0:0:
250,140,135876,1,8,0:0:0:0:
357,173,136040,6,0,P|341:262|257:364,1,224.400006848145,6|10,3:2|0:0,0:0:0:0:
55,305,136865,1,2,3:2:0:0:
29,203,137030,1,0,3:0:0:0:
55,101,137195,2,0,P|75:73|114:47,1,74.8000022827149,8|0,0:0|0:0,0:0:0:0:
254,33,137524,6,0,P|216:98|156:148,1,149.60000456543,6|8,3:2|0:0,0:0:0:0:
232,252,138019,2,0,P|236:226|240:205,2,37.4000011413575,2|2|0,0:0|0:0|3:0,0:0:0:0:
302,363,138349,2,0,L|323:290,1,74.8000022827149,6|8,3:2|0:0,0:0:0:0:
432,337,138678,2,0,L|398:187,1,149.60000456543,6|2,3:2|3:2,0:0:0:0:
373,96,139173,1,8,0:0:0:0:
265,8,139338,6,0,P|239:61|287:118,1,136,6|0,3:2|3:0,0:0:0:0:
207,195,139832,1,8,0:0:0:0:
207,195,139914,1,8,0:0:0:0:
207,195,139997,1,8,0:0:0:0:
100,150,140162,6,0,P|132:82|87:11,1,149.60000456543,6|8,3:2|0:0,0:0:0:0:
197,11,140656,1,0,0:0:0:0:
252,90,140821,2,0,L|332:108,1,74.8000022827149,0|2,3:0|3:2,0:0:0:0:
363,196,141151,1,8,0:0:0:0:
474,133,141316,6,0,P|458:190|458:284,1,149.60000456543,6|0,3:2|3:0,0:0:0:0:
494,370,141810,1,8,0:0:0:0:
398,353,141975,2,0,P|338:351|247:374,1,149.60000456543,2|0,0:0|3:0,0:0:0:0:
171,315,142469,2,0,P|183:275|168:242,1,74.8000022827149,8|0,0:0|0:0,0:0:0:0:
76,344,142799,6,0,P|60:281|80:199,1,149.60000456543,6|8,3:2|0:0,0:0:0:0:
163,149,143294,1,0,3:0:0:0:
163,149,143376,1,0,3:0:0:0:
163,149,143458,2,0,P|179:126|203:77,2,74.8000022827149,2|0|10,3:2|3:0|0:0,0:0:0:0:
19,97,143953,6,0,P|79:97|112:17,1,149.60000456543,6|0,3:2|3:0,0:0:0:0:
200,84,144447,1,8,0:0:0:0:
285,23,144612,2,0,P|309:89|379:96,1,149.60000456543,6|0,3:2|3:0,0:0:0:0:
468,55,145107,2,0,P|476:91|465:132,1,74.8000022827149,8|0,0:0|0:0,0:0:0:0:
495,240,145436,6,0,P|448:216|349:198,2,149.60000456543,6|10|0,3:2|0:0|3:0,0:0:0:0:
404,358,146261,2,0,P|442:354|482:329,1,74.8000022827149,0|8,3:0|0:0,0:0:0:0:
334,289,146590,1,4,3:2:0:0:
308,382,146755,1,2,0:0:0:0:
179,179,147085,2,0,L|168:101,1,74.8000022827149,10|0,0:0|0:0,0:0:0:0:
78,60,147414,1,0,3:0:0:0:
78,60,147579,2,0,L|67:138,2,74.8000022827149,0|8|0,3:0|0:0|0:0,0:0:0:0:
98,221,148074,6,0,P|66:281|17:348,1,149.60000456543,6|8,3:2|0:0,0:0:0:0:
270,377,148733,1,0,3:0:0:0:
206,284,148898,1,6,3:2:0:0:
251,181,149063,1,8,0:0:0:0:
315,274,149228,6,0,P|386:301|460:318,1,149.60000456543,6|0,3:2|3:0,0:0:0:0:
401,204,149722,1,8,0:0:0:0:
356,89,149887,2,0,P|429:106|499:133,1,149.60000456543,6|0,3:2|3:0,0:0:0:0:
409,212,150382,1,8,0:0:0:0:
409,212,150464,1,8,0:0:0:0:
409,212,150546,1,8,0:0:0:0:
457,317,150711,5,6,3:2:0:0:
457,317,152030,1,10,0:0:0:0:
310,245,152195,1,10,0:0:0:0:
310,245,153019,2,0,L|357:229,3,34,8|8|8|8,0:0|0:0|0:0|0:0,0:0:0:0:
374,224,153349,5,6,3:2:0:0:
256,192,153513,12,2,155986,3:2:0:0:
197,215,163568,6,0,L|160:203,3,34,8|8|8|8,0:0|0:0|0:0|0:0,0:0:0:0:
139,181,163898,6,0,L|129:38,2,136,6|8|0,3:2|0:0|3:0,0:0:0:0:
36,184,164722,2,0,L|63:246,1,68,2|8,0:0|0:0,0:0:0:0:
20,331,165052,2,0,P|113:346|234:310,1,204,2|10,0:0|0:0,0:0:0:0:
278,254,165711,1,0,0:0:0:0:
359,288,165876,2,0,L|349:366,1,68,2|0,3:2|0:0,0:0:0:0:
438,367,166206,2,0,L|448:289,1,68,8|0,0:0|0:0,0:0:0:0:
503,232,166535,5,0,3:0:0:0:
503,232,166700,2,0,P|486:206|473:159,1,68,2|8,0:0|0:0,0:0:0:0:
407,102,167030,2,0,P|366:157|285:202,2,136,2|2|2,0:0|0:0|0:0,0:0:0:0:
387,15,167854,1,0,3:0:0:0:
202,62,168184,2,0,P|195:93|206:149,1,68,8|2,0:0|0:0,0:0:0:0:
141,195,168513,2,0,P|188:236|279:263,1,136,2|8,3:2|0:0,0:0:0:0:
342,236,169008,1,0,0:0:0:0:
416,322,169173,6,0,P|353:320|266:358,1,136,6|8,3:2|0:0,0:0:0:0:
69,375,169832,2,0,L|83:296,1,68,2|0,3:2|0:0,0:0:0:0:
34,232,170162,2,0,L|81:167,1,68,8|0,0:0|0:0,0:0:0:0:
85,63,170491,2,0,P|131:109|218:130,1,136,6|8,3:2|0:0,0:0:0:0:
281,102,170986,1,0,0:0:0:0:
364,130,171151,2,0,P|428:110|476:62,1,136,2|8,3:2|0:0,0:0:0:0:
399,18,171645,1,2,0:0:0:0:
281,102,171810,6,0,P|275:205|290:317,1,204,6|2,3:2|0:0,0:0:0:0:
216,358,172469,2,0,P|188:345|138:335,1,68,2|0,3:2|0:0,0:0:0:0:
63,271,172799,6,0,L|192:216,3,136,10|0|10|0,0:0|3:2|0:0|3:0,0:0:0:0:
92,48,174118,1,8,0:0:0:0:
92,48,174200,1,8,0:0:0:0:
92,48,174283,1,8,0:0:0:0:
198,4,174447,6,0,P|176:55|165:146,1,136,6|10,3:2|0:0,0:0:0:0:
200,383,175107,2,0,P|186:354|155:325,1,68,0|0,3:0|3:0,0:0:0:0:
63,271,175436,6,0,L|192:216,3,136,10|0|10|2,0:0|3:0|0:0|3:2,0:0:0:0:
268,180,176590,1,0,3:0:0:0:
265,268,176755,1,10,0:0:0:0:
136,145,177085,6,0,P|91:127|-9:117,1,136,2|8,3:2|0:0,0:0:0:0:
118,365,177744,2,0,P|146:344|163:313,1,68,0|0,3:0|3:0,0:0:0:0:
63,271,178074,6,0,L|192:216,3,136,10|0|10|2,0:0|3:0|0:0|3:2,0:0:0:0:
268,180,179228,1,0,3:0:0:0:
197,127,179392,1,8,0:0:0:0:
368,264,179722,6,0,P|380:203|384:102,1,136,6|8,3:2|0:0,0:0:0:0:
209,24,180382,1,2,3:2:0:0:
151,90,180546,1,0,3:0:0:0:
155,178,180711,2,0,P|162:206|188:246,1,68,8|0,0:0|0:0,0:0:0:0:
137,316,181041,2,0,P|200:348|281:365,2,136,2|8|0,3:2|0:0|3:0,0:0:0:0:
80,247,181865,1,0,3:0:0:0:
52,331,182030,1,10,0:0:0:0:
15,130,182360,6,0,P|49:77|123:94,1,136,0|10,3:0|0:0,0:0:0:0:
164,158,182854,1,0,0:0:0:0:
253,191,183019,2,0,L|247:113,1,68,0|0,3:0|3:0,0:0:0:0:
241,34,183349,1,10,0:0:0:0:
431,106,183678,6,0,L|437:184,1,68,2|0,3:2|0:0,0:0:0:0:
489,245,184008,2,0,L|379:324,1,136,8|2,0:0|3:2,0:0:0:0:
308,378,184502,1,8,0:0:0:0:
308,378,184585,1,8,0:0:0:0:
308,378,184667,2,0,L|280:344,3,34,8|8|8|8,0:0|0:0|0:0|0:0,0:0:0:0:
297,319,184997,6,0,P|235:323|207:252,1,136,6|8,3:2|0:0,0:0:0:0:
253,190,185491,1,0,0:0:0:0:
197,121,185656,2,0,P|202:89|215:47,1,68,2|0,3:2|3:0,0:0:0:0:
97,31,185986,2,0,P|107:138|97:318,1,272,10|8,0:0|0:0,0:0:0:0:
48,368,186810,1,2,0:0:0:0:
5,290,186975,2,0,P|7:258|15:222,2,68,2|0|8,3:2|3:0|0:0,0:0:0:0:
256,360,187634,5,6,3:2:0:0:
386,240,187964,2,0,P|378:173|358:102,1,136,8|2,0:0|3:2,0:0:0:0:
288,51,188458,1,0,3:0:0:0:
288,51,188623,2,0,P|274:86|270:133,1,68,8|0,0:0|0:0,0:0:0:0:
231,196,188953,6,0,L|181:210,2,45.3333333333333,2|8|8,3:2|0:0|0:0,0:0:0:0:
269,241,189283,2,0,L|319:255,2,45.3333333333333,10|8|0,0:0|0:0|3:0,0:0:0:0:
242,293,189612,2,0,L|131:378,1,136,10|0,0:0|3:0,0:0:0:0:
22,214,190272,6,0,P|91:173|88:32,1,224.400006848145,6|6,3:2|3:2,0:0:0:0:
417,40,191261,2,0,P|405:147|490:214,1,224.400006848145,6|6,3:2|3:2,0:0:0:0:
489,213,192414,2,0,P|480:236|479:254,2,34,0|0|0,3:0|3:0|3:0,0:0:0:0:
256,108,192909,5,6,3:2:0:0:
256,192,193074,12,2,196865,0:0:0:0:
437,182,198184,5,6,3:2:0:0:
437,182,199502,2,0,L|365:164,1,68,0|0,3:0|3:0,0:0:0:0:
335,84,199832,1,8,0:0:0:0:
396,21,199997,1,0,3:0:0:0:
396,21,200079,1,0,3:0:0:0:
396,21,200162,2,0,L|439:9,2,34,8|0|0,0:0|3:0|3:0,0:0:0:0:
335,84,200491,2,0,P|309:66|260:69,1,68,2|0,3:2|3:0,0:0:0:0:
213,195,200821,6,0,L|200:113,1,74.8000022827149,6|0,3:2|0:0,0:0:0:0:
125,37,201151,2,0,L|112:119,1,74.8000022827149,8|0,0:0|0:0,0:0:0:0:
9,158,201480,1,0,3:0:0:0:
9,158,201645,2,0,P|43:174|74:205,1,74.8000022827149,2|8,3:2|0:0,0:0:0:0:
13,318,201975,6,0,P|78:289|171:279,1,149.60000456543,4|0,3:2|0:0,0:0:0:0:
217,352,202469,1,8,0:0:0:0:
243,225,202634,2,0,P|275:161|341:95,1,149.60000456543,6|0,3:2|3:0,0:0:0:0:
424,122,203129,2,0,P|436:160|439:205,1,74.8000022827149,8|0,0:0|0:0,0:0:0:0:
487,318,203458,6,0,P|424:292|339:271,1,149.60000456543,6|10,3:2|0:0,0:0:0:0:
71,365,204118,1,0,3:0:0:0:
53,254,204283,1,0,3:0:0:0:
164,236,204447,1,10,0:0:0:0:
183,347,204612,6,0,P|282:377|401:348,1,224.400006848145,6|10,3:2|0:0,0:0:0:0:
489,129,205436,1,2,3:2:0:0:
434,48,205601,1,0,3:0:0:0:
347,93,205766,2,0,P|330:129|325:169,1,74.8000022827149,8|0,0:0|0:0,0:0:0:0:
274,27,206096,6,0,P|214:71|135:103,1,149.60000456543,6|8,3:2|0:0,0:0:0:0:
37,54,206590,2,0,P|40:72|49:89,2,37.4000011413575,2|2|0,0:0|0:0|3:0,0:0:0:0:
40,188,206920,2,0,P|67:208|122:219,1,74.8000022827149,6|8,3:2|0:0,0:0:0:0:
71,345,207250,2,0,P|139:309|223:283,1,149.60000456543,6|2,3:2|3:2,0:0:0:0:
288,340,207744,1,8,0:0:0:0:
265,207,207909,6,0,P|333:204|398:255,1,136,6|0,3:2|3:0,0:0:0:0:
430,335,208403,1,8,0:0:0:0:
430,335,208486,1,8,0:0:0:0:
430,335,208568,1,8,0:0:0:0:
483,220,208733,6,0,P|486:130|479:62,1,149.60000456543,6|8,3:2|0:0,0:0:0:0:
405,8,209228,1,0,0:0:0:0:
335,75,209392,2,0,P|298:66|267:47,1,74.8000022827149,0|2,3:0|3:2,0:0:0:0:
205,123,209722,1,8,0:0:0:0:
116,37,209887,6,0,P|111:112|100:186,1,149.60000456543,6|0,3:2|3:0,0:0:0:0:
22,245,210382,1,8,0:0:0:0:
63,332,210546,2,0,P|132:305|200:273,1,149.60000456543,2|0,0:0|3:0,0:0:0:0:
266,378,211041,2,0,P|285:339|296:306,1,74.8000022827149,8|0,0:0|0:0,0:0:0:0:
434,377,211371,6,0,P|425:307|366:239,1,149.60000456543,4|8,3:2|0:0,0:0:0:0:
388,145,211865,1,0,3:0:0:0:
388,145,211947,1,0,3:0:0:0:
388,145,212030,2,0,P|352:156|310:162,2,74.8000022827149,2|0|10,3:2|3:0|0:0,0:0:0:0:
482,74,212524,6,0,P|406:53|339:20,1,149.60000456543,6|0,3:2|3:0,0:0:0:0:
263,80,213019,1,8,0:0:0:0:
155,174,213184,2,0,P|159:95|178:22,1,149.60000456543,6|0,3:2|3:0,0:0:0:0:
44,56,213678,2,0,P|58:90|62:146,1,74.8000022827149,8|0,0:0|0:0,0:0:0:0:
13,237,214008,6,0,P|91:249|165:274,2,149.60000456543,6|10|0,3:2|0:0|3:0,0:0:0:0:
108,354,214832,2,0,P|72:364|35:364,1,74.8000022827149,0|8,3:0|0:0,0:0:0:0:
157,271,215162,1,4,3:2:0:0:
201,358,215327,1,2,0:0:0:0:
425,283,215656,2,0,P|430:251|433:196,1,74.8000022827149,10|0,0:0|0:0,0:0:0:0:
330,172,215986,1,0,3:0:0:0:
330,172,216151,2,0,P|332:209|337:246,2,74.8000022827149,0|8|0,3:0|0:0|0:0,0:0:0:0:
207,107,216645,6,0,P|273:86|352:36,1,149.60000456543,6|8,3:2|0:0,0:0:0:0:
451,258,217305,1,0,3:0:0:0:
440,368,217470,1,4,3:2:0:0:
333,355,217635,1,8,0:0:0:0:
337,245,217799,6,0,P|287:221|247:292,1,149.60000456543,6|0,3:2|3:0,0:0:0:0:
188,368,218294,1,8,0:0:0:0:
148,232,218458,2,0,P|84:256|102:322,1,149.60000456543,6|0,3:2|3:0,0:0:0:0:
196,376,218953,1,8,0:0:0:0:
196,376,219035,1,8,0:0:0:0:
196,376,219118,1,8,0:0:0:0:
245,288,219283,5,6,3:2:0:0:
245,288,220601,1,10,0:0:0:0:
202,137,220766,1,10,0:0:0:0:
202,137,221755,5,6,3:2:0:0:
256,192,221920,12,2,223239,3:2:0:0:
178,349,226535,5,2,3:2:0:0:
163,261,226700,2,0,L|187:221,3,34,8|8|8|8,0:0|0:0|0:0|0:0,0:0:0:0:
216,219,227030,6,0,P|163:169|141:97,1,149.60000456543,6|0,3:2|3:0,0:0:0:0:
227,23,227524,2,0,P|238:58|241:107,1,74.8000022827149,10|0,0:0|3:0,0:0:0:0:
339,97,227854,2,0,P|342:59|353:24,1,74.8000022827149,10|0,0:0|3:0,0:0:0:0:
450,8,228184,1,8,0:0:0:0:
440,142,228349,6,0,P|390:176|299:198,1,149.60000456543,6|0,3:2|3:0,0:0:0:0:
224,277,228843,2,0,L|316:284,1,74.8000022827149,10|0,0:0|3:0,0:0:0:0:
378,362,229173,2,0,L|286:369,1,74.8000022827149,8|0,0:0|3:0,0:0:0:0:
175,371,229502,1,12,0:0:0:0:
175,371,229667,6,0,P|101:325|21:323,1,149.60000456543,6|0,3:2|3:0,0:0:0:0:
24,206,230162,2,0,P|61:222|121:211,1,74.8000022827149,10|0,0:0|3:0,0:0:0:0:
122,127,230491,2,0,P|84:110|24:121,1,74.8000022827149,10|0,0:0|3:0,0:0:0:0:
108,23,230821,1,10,0:0:0:0:
219,90,230986,6,0,P|316:80|381:62,1,149.60000456543,6|0,3:2|3:0,0:0:0:0:
452,17,231480,1,8,0:0:0:0:
452,17,231563,1,8,0:0:0:0:
452,17,231645,1,8,0:0:0:0:
497,102,231810,2,0,P|495:136|487:177,1,74.8000022827149,2|0,3:2|3:0,0:0:0:0:
394,238,232140,1,8,0:0:0:0:
492,292,232305,5,6,3:2:0:0:
492,292,233458,1,8,0:0:0:0:
394,238,233623,2,0,P|323:256|258:303,1,149.60000456543,6|0,3:2|3:0,0:0:0:0:
164,358,234118,2,0,L|172:307,2,37.4000011413575,8|8|8,0:0|0:0|0:0,0:0:0:0:
92,271,234447,2,0,P|65:237|26:217,1,74.8000022827149,2|0,3:2|3:0,0:0:0:0:
3,113,234777,1,8,0:0:0:0:
108,73,234942,5,6,3:2:0:0:
256,192,235107,12,2,237744,0:0:0:0:
