osu file format v14

[General]
AudioFilename: audio.mp3
AudioLeadIn: 0
PreviewTime: 57250
Countdown: 0
SampleSet: Soft
StackLeniency: 0.7
Mode: 0
LetterboxInBreaks: 0
WidescreenStoryboard: 1

[Editor]
Bookmarks: 21480,42579,58403,81975,92689,113788,129612,153349,174447,200821,221755
DistanceSpacing: 1
BeatDivisor: 2
GridSize: 16
TimelineZoom: 0.6999999

[Metadata]
Title:Diamond City Lights
TitleUnicode:Diamond City Lights
Artist:LazuLight
ArtistUnicode:LazuLight
Creator:Hinsvar
Version:Easy
Source:
Tags:ぽむ れいんぱふ Pomu Rainpuff エリーラ ペンドラ えりーら ぺんどら Elira Pendora フィナーナ 竜宮 ふぃなーな りゅうぐう Finana Ryugu にじさんじ NIJISANJI EN English Pop VTuber Virtual YouTuber original song まふまふ Mafumafu 2434
BeatmapID:3132915
BeatmapSetID:1469822

[Difficulty]
HPDrainRate:2
CircleSize:2
OverallDifficulty:3
ApproachRate:4
SliderMultiplier:0.96
SliderTickRate:1

[Events]
//Background and Video events
0,0,"diamond city lights.jpg",0,0
Video,-1100,"diamond city lights.mp4"
//Break Periods
2,83658,85600
2,156186,162248
2,223439,225710
//Storyboard Layer 0 (Background)
//Storyboard Layer 1 (Fail)
//Storyboard Layer 2 (Pass)
//Storyboard Layer 3 (Foreground)
//Storyboard Layer 4 (Overlay)
//Storyboard Sound Samples

[TimingPoints]
382,329.67032967033,4,2,1,50,1,0
38623,-100,4,2,1,55,0,0
39942,-100,4,2,1,60,0,0
41261,-100,4,2,1,65,0,0
42579,-100,4,2,1,55,0,0
47689,-100,4,2,1,60,0,0
52964,-100,4,2,1,65,0,0
55601,-100,4,2,1,75,0,0
57744,-100,4,2,1,70,0,0
58403,-100,4,2,1,80,0,1
68129,-100,4,2,1,70,0,0
68953,-100,4,2,1,80,0,1
79502,-100,4,2,1,60,0,0
80821,-100,4,2,1,70,0,0
92030,-100,4,2,1,60,0,0
111151,-100,4,2,1,65,0,0
113788,-100,4,2,1,55,0,0
118898,-100,4,2,1,60,0,0
124173,-100,4,2,1,65,0,0
126810,-100,4,2,1,75,0,0
128953,-100,4,2,1,70,0,0
129612,-100,4,2,1,80,0,1
139338,-100,4,2,1,70,0,0
140162,-100,4,2,1,80,0,1
150711,-100,4,2,1,60,0,0
152030,-100,4,2,1,70,0,0
190272,-100,4,2,1,60,0,0
192909,-100,4,2,1,50,0,0
194228,-100,4,2,1,40,0,0
195546,-100,4,2,1,30,0,0
196206,-100,4,2,1,20,0,0
196535,-100,4,2,1,10,0,0
196865,-100,4,2,1,5,0,0
198184,-100,4,2,1,75,0,0
199502,-100,4,2,1,70,0,0
200821,-100,4,2,1,80,0,1
207909,-100,4,2,1,70,0,0
208733,-100,4,2,1,80,0,1
219283,-100,4,2,1,60,0,0
220601,-100,4,2,1,70,0,0
226535,-100,4,2,1,60,0,0
227030,-100,4,2,1,70,0,1
227112,-100,4,2,1,70,0,0
232305,-100,4,2,1,60,0,0
237744,-100,4,2,1,30,0,0

[Colours]
Combo1 : 79,240,180
Combo2 : 241,201,7
Combo3 : 137,215,252

[HitObjects]
39,40,21480,5,4,3:2:0:0:
119,93,21810,2,0,P|160:91|220:74,2,96,2|0|0,3:2|3:0|3:0,0:0:0:0:
64,171,22799,2,0,P|53:218|56:271,1,96,2|0,3:2|3:0,0:0:0:0:
111,343,23458,1,2,3:2:0:0:
202,370,23788,1,0,3:0:0:0:
290,332,24118,6,0,P|309:240|306:132,1,192,2|0,3:2|3:0,0:0:0:0:
150,252,25436,2,0,P|130:158|132:62,1,192,2|0,3:2|3:0,0:0:0:0:
213,10,26425,1,0,3:0:0:0:
264,91,26755,5,2,3:2:0:0:
343,37,27085,2,0,P|389:24|453:25,2,96,0|0|0,3:0|3:0|3:0,0:0:0:0:
353,132,28074,2,0,P|400:191|436:265,2,144,2|2|0,3:2|0:0|3:0,0:0:0:0:
275,188,29392,5,2,3:2:0:0:
204,122,29722,2,0,P|203:75|211:23,2,96,0|0|0,3:0|3:0|3:0,0:0:0:0:
146,199,30711,2,0,P|103:184|48:180,1,96,0|0,3:0|3:0,0:0:0:0:
34,274,31371,1,2,3:2:0:0:
127,295,31700,1,0,3:0:0:0:
202,354,32030,6,0,P|302:341|351:257,1,192,2|0,3:2|3:0,0:0:0:0:
288,195,33019,1,0,3:0:0:0:
245,109,33349,2,0,P|243:55|251:11,1,96,2|0,3:2|3:0,0:0:0:0:
345,22,34008,2,0,P|347:76|339:120,1,96,2|0,3:2|3:0,0:0:0:0:
288,195,34667,6,0,P|200:222|89:225,1,192,2|0,3:2|3:0,0:0:0:0:
23,50,35986,1,2,3:2:0:0:
113,16,36316,2,0,P|158:29|204:60,1,96,0|0,3:0|3:0,0:0:0:0:
265,124,36975,1,0,3:0:0:0:
331,54,37305,5,2,3:2:0:0:
422,222,37964,2,0,P|453:187|499:150,2,96,0|0|2,3:0|3:0|3:2,0:0:0:0:
356,292,38953,1,8,0:0:0:0:
264,264,39283,1,8,0:0:0:0:
188,322,39612,1,8,0:0:0:0:
102,278,39942,6,0,P|84:222|77:126,1,144,6|2,3:2|0:0,0:0:0:0:
179,17,40931,2,0,P|197:73|204:169,1,144,2|10,3:2|0:0,0:0:0:0:
286,294,41920,1,2,3:2:0:0:
373,334,42250,1,8,0:0:0:0:
444,270,42579,6,0,P|461:170|451:73,2,192,6|14|2,3:2|0:0|3:2,0:0:0:0:
308,134,44557,1,14,0:0:0:0:
172,270,45217,2,0,P|155:170|165:73,2,192,6|14|2,3:2|0:0|3:2,0:0:0:0:
308,134,47195,1,8,0:0:0:0:
308,292,47689,6,0,P|362:351|448:355,1,144,6|0,3:2|3:0,0:0:0:0:
496,300,48513,1,0,3:0:0:0:
487,204,48843,1,0,3:0:0:0:
419,136,49173,2,0,P|422:87|439:37,2,96,0|0|0,3:0|3:0|3:0,0:0:0:0:
270,192,50327,6,0,P|249:107|203:42,1,144,6|0,3:2|3:0,0:0:0:0:
133,16,51151,2,0,P|102:50|79:111,1,96,2|0,3:2|3:0,0:0:0:0:
22,170,51810,1,2,3:2:0:0:
42,263,52140,1,8,0:0:0:0:
125,310,52469,1,8,0:0:0:0:
279,275,52964,6,0,P|308:214|324:132,1,144,14|8,3:2|0:0,0:0:0:0:
313,44,53788,1,2,3:2:0:0:
165,100,54283,2,0,P|135:160|120:243,1,144,6|10,3:2|0:0,0:0:0:0:
131,331,55107,1,2,3:2:0:0:
284,291,55601,6,0,P|346:282|438:284,1,144,6|8,3:2|0:0,0:0:0:0:
483,204,56425,2,0,P|477:178|477:151,1,48,2|2,3:2|3:2,0:0:0:0:
407,90,56920,2,0,P|345:99|253:97,1,144,6|10,3:2|0:0,0:0:0:0:
88,19,58074,1,8,0:0:0:0:
35,99,58403,6,0,P|22:150|22:198,2,96,6|8|2,3:2|0:0|3:2,0:0:0:0:
181,158,59557,2,0,P|205:221|211:306,1,144,6|8,3:2|0:0,0:0:0:0:
277,367,60382,1,2,3:2:0:0:
332,288,60711,1,8,0:0:0:0:
417,331,61041,6,0,P|469:327|513:320,2,96,6|8|0,3:2|0:0|3:0,0:0:0:0:
346,188,62195,2,0,P|349:112|399:-7,1,192,6|6,3:2|3:2,0:0:0:0:
479,44,63184,2,0,P|478:66|471:103,1,48,0|8,3:0|0:0,0:0:0:0:
502,183,63678,5,6,3:2:0:0:
427,243,64008,1,10,0:0:0:0:
352,304,64338,1,2,3:2:0:0:
214,225,64832,2,0,P|189:159|187:79,1,144,6|10,3:2|0:0,0:0:0:0:
90,73,65656,2,0,P|63:109|6:137,1,96,2|8,3:2|0:0,0:0:0:0:
12,230,66316,6,0,P|80:251|138:293,1,144,6|2,3:2|0:0,0:0:0:0:
219,344,67140,1,6,3:2:0:0:
297,289,67469,2,0,P|307:248|311:189,1,96,6|2,3:2|3:2,0:0:0:0:
280,103,68129,1,6,3:2:0:0:
422,34,68623,1,8,0:0:0:0:
472,114,68953,6,0,P|472:164|452:222,2,96,6|8|2,3:2|0:0|3:2,0:0:0:0:
326,53,70107,2,0,P|287:121|292:221,1,144,6|8,3:2|0:0,0:0:0:0:
328,270,70931,1,2,3:2:0:0:
287,357,71261,1,8,0:0:0:0:
195,328,71590,6,0,P|180:283|198:239,2,96,6|8|2,3:2|0:0|3:2,0:0:0:0:
41,368,72744,2,0,P|56:276|29:169,1,192,6|6,3:2|3:2,0:0:0:0:
62,88,73733,2,0,L|112:79,1,48,0|8,3:0|0:0,0:0:0:0:
183,18,74228,5,6,3:2:0:0:
258,76,74557,2,0,L|365:93,1,96,10|0,0:0|3:0,0:0:0:0:
439,49,75216,1,8,0:0:0:0:
502,122,75546,2,0,L|454:318,1,192,2|0,0:0|3:0,0:0:0:0:
373,358,76535,1,8,0:0:0:0:
302,292,76865,6,0,P|251:274|206:270,2,96,6|8|2,3:2|0:0|3:2,0:0:0:0:
392,161,78019,2,0,P|350:56|266:22,1,192,6|6,3:2|3:2,0:0:0:0:
130,66,79173,1,8,0:0:0:0:
102,157,79502,5,6,3:2:0:0:
102,157,80821,2,0,L|96:215,1,48,10|10,0:0|0:0,0:0:0:0:
348,345,81975,5,6,3:2:0:0:
256,192,82140,12,2,83458,3:2:0:0:
363,349,86920,5,8,0:0:0:0:
426,277,87250,2,0,P|441:211|449:121,1,144,4|10,3:2|0:0,0:0:0:0:
406,49,88074,1,10,0:0:0:0:
261,114,88568,2,0,P|248:188|285:263,1,144,4|8,3:2|0:0,0:0:0:0:
227,334,89392,1,2,3:2:0:0:
138,297,89722,1,8,0:0:0:0:
44,317,90052,6,0,P|45:237|73:165,1,144,6|6,3:2|3:2,0:0:0:0:
209,107,91041,2,0,P|230:183|277:246,1,144,6|6,3:2|3:2,0:0:0:0:
411,301,92030,1,6,3:2:0:0:
482,122,92689,5,6,3:2:0:0:
430,40,93019,2,0,P|386:24|332:25,2,96,8|2|8,0:0|3:2|0:0,0:0:0:0:
389,126,94008,2,0,P|370:172|361:219,1,96,2|8,3:2|0:0,0:0:0:0:
304,295,94667,1,2,3:2:0:0:
249,215,94997,1,8,0:0:0:0:
169,160,95327,6,0,P|80:177|-13:263,1,192,2|0,3:2|3:0,0:0:0:0:
154,356,96645,2,0,P|243:339|336:253,1,192,2|0,3:2|3:0,0:0:0:0:
344,183,97634,1,8,0:0:0:0:
439,193,97964,5,2,3:2:0:0:
436,289,98294,2,0,P|448:338|470:378,2,96,8|0|8,0:0|3:0|0:0,0:0:0:0:
439,193,99283,2,0,P|469:139|452:55,2,144,2|2|8,3:2|0:0|0:0,0:0:0:0:
359,245,100601,5,2,3:2:0:0:
330,153,100931,2,0,P|223:147|136:211,1,192,8|8,0:0|0:0,0:0:0:0:
184,280,101920,2,0,P|159:325|112:352,1,96,2|8,3:2|0:0,0:0:0:0:
27,335,102579,1,2,3:2:0:0:
7,240,102909,1,8,0:0:0:0:
37,148,103239,6,0,P|121:107|226:110,1,192,6|0,3:2|3:0,0:0:0:0:
279,33,104228,1,8,0:0:0:0:
372,55,104557,2,0,P|395:89|399:151,1,96,2|8,3:2|0:0,0:0:0:0:
455,222,105217,2,0,P|443:261|398:304,1,96,2|8,3:2|0:0,0:0:0:0:
343,372,105876,6,0,P|244:367|154:331,1,192,2|2,3:2|3:2,0:0:0:0:
289,193,107195,1,2,3:2:0:0:
302,98,107524,2,0,P|276:57|230:10,1,96,8|2,0:0|3:2,0:0:0:0:
148,23,108184,1,8,0:0:0:0:
55,46,108513,6,0,P|26:141|43:253,1,192,2|0,3:2|3:0,0:0:0:0:
115,285,109502,1,8,0:0:0:0:
184,218,109832,1,2,3:2:0:0:
271,257,110162,2,0,P|282:304|282:361,2,96,8|0|8,0:0|3:0|0:0,0:0:0:0:
356,212,111151,6,0,P|378:155|388:64,1,144,6|2,3:2|0:0,0:0:0:0:
232,42,112140,2,0,P|210:99|200:190,1,144,10|10,0:0|0:0,0:0:0:0:
256,329,113129,1,10,0:0:0:0:
165,359,113458,1,2,3:2:0:0:
76,323,113788,6,0,P|53:239|68:127,2,192,6|14|2,3:2|0:0|3:2,0:0:0:0:
238,220,115766,1,14,0:0:0:0:
64,135,116425,2,0,P|125:73|229:30,2,192,6|14|2,3:2|0:0|3:2,0:0:0:0:
238,220,118403,1,8,0:0:0:0:
388,171,118898,6,0,P|408:234|419:328,1,144,6|0,3:2|3:0,0:0:0:0:
342,369,119722,1,0,3:0:0:0:
258,321,120052,1,0,3:0:0:0:
165,346,120382,2,0,P|121:349|69:332,2,96,0|0|0,3:0|3:0|3:0,0:0:0:0:
263,222,121535,6,0,P|265:146|247:52,1,144,6|0,3:2|3:0,0:0:0:0:
329,19,122360,2,0,P|368:45|430:54,1,96,2|0,3:2|3:0,0:0:0:0:
478,127,123019,1,2,3:2:0:0:
417,201,123349,1,8,0:0:0:0:
444,292,123678,1,8,0:0:0:0:
305,368,124173,6,0,P|258:316|178:287,1,144,6|8,3:2|0:0,0:0:0:0:
94,285,124997,1,2,3:2:0:0:
11,149,125491,2,0,P|81:152|158:116,1,144,6|10,3:2|0:0,0:0:0:0:
219,58,126315,1,10,0:0:0:0:
336,162,126810,6,0,P|347:227|354:331,1,144,6|10,3:2|0:0,0:0:0:0:
431,360,127634,2,0,P|455:351|485:350,1,48,2|2,3:2|3:2,0:0:0:0:
502,256,128129,1,6,3:2:0:0:
397,39,128953,1,8,0:0:0:0:
319,96,129283,1,10,0:0:0:0:
239,41,129612,6,0,P|194:28|131:32,2,96,6|8|2,3:2|0:0|3:2,0:0:0:0:
295,189,130766,2,0,P|250:217|160:241,1,144,6|8,3:2|0:0,0:0:0:0:
103,165,131590,1,2,3:2:0:0:
14,201,131920,1,8,0:0:0:0:
71,278,132250,6,0,P|63:320|41:373,2,96,6|8|0,3:2|0:0|3:0,0:0:0:0:
192,176,133403,2,0,P|243:211|289:337,1,192,6|6,3:2|3:2,0:0:0:0:
383,346,134392,2,0,P|391:323|410:294,1,48,0|8,3:0|0:0,0:0:0:0:
466,229,134887,5,6,3:2:0:0:
382,180,135217,1,10,0:0:0:0:
345,91,135546,1,0,3:0:0:0:
197,34,136041,2,0,P|152:89|84:134,1,144,6|10,3:2|0:0,0:0:0:0:
126,219,136865,2,0,P|162:230|216:261,1,96,2|8,3:2|0:0,0:0:0:0:
194,352,137524,6,0,P|122:361|33:356,1,144,6|2,3:2|0:0,0:0:0:0:
8,272,138349,1,6,3:2:0:0:
81,210,138678,2,0,P|95:161|99:104,1,96,6|2,3:2|3:2,0:0:0:0:
101,19,139338,1,6,3:2:0:0:
256,46,139832,1,8,0:0:0:0:
223,136,140162,6,0,P|217:183|221:231,2,96,6|8|2,3:2|0:0|3:2,0:0:0:0:
364,64,141316,2,0,P|432:88|487:151,1,144,6|8,3:2|0:0,0:0:0:0:
502,232,142140,1,2,3:2:0:0:
462,319,142469,1,8,0:0:0:0:
371,351,142799,6,0,P|336:356|277:346,2,96,6|8|2,3:2|0:0|3:2,0:0:0:0:
382,192,143953,2,0,P|311:155|246:234,1,192,6|6,3:2|3:2,0:0:0:0:
168,284,144942,2,0,L|111:277,1,48,0|8,3:0|0:0,0:0:0:0:
48,214,145436,5,6,3:2:0:0:
8,127,145766,2,0,P|26:86|56:40,1,96,10|0,0:0|3:0,0:0:0:0:
147,23,146425,1,8,0:0:0:0:
213,91,146755,2,0,P|221:189|242:293,1,192,2|0,0:0|3:0,0:0:0:0:
321,329,147744,1,8,0:0:0:0:
410,288,148074,6,0,P|425:241|429:194,2,96,6|8|0,3:2|0:0|3:0,0:0:0:0:
251,277,149228,2,0,P|252:207|304:99,1,192,6|6,3:2|3:2,0:0:0:0:
429,194,150382,1,8,0:0:0:0:
410,288,150711,5,6,3:2:0:0:
410,288,152030,2,0,L|423:348,1,48,10|10,0:0|0:0,0:0:0:0:
180,357,153019,1,8,0:0:0:0:
199,262,153349,5,6,3:2:0:0:
256,192,153513,12,2,155986,3:2:0:0:
386,49,163568,5,8,0:0:0:0:
322,120,163898,2,0,P|315:163|310:233,2,96,6|8|0,3:2|0:0|3:0,0:0:0:0:
187,36,165052,2,0,P|126:55|46:104,1,144,2|10,0:0|0:0,0:0:0:0:
36,189,165876,2,0,P|82:210|133:210,1,96,2|8,3:2|0:0,0:0:0:0:
204,154,166535,5,0,3:0:0:0:
294,187,166865,2,0,P|320:252|330:339,1,144,8|2,0:0|0:0,0:0:0:0:
417,365,167689,1,2,0:0:0:0:
441,174,168349,2,0,P|456:103|489:39,1,144,2|8,0:0|0:0,0:0:0:0:
399,3,169173,6,0,P|342:76|248:72,1,192,6|2,3:2|3:2,0:0:0:0:
164,28,170162,1,8,0:0:0:0:
82,78,170491,2,0,P|73:125|73:181,1,96,6|8,3:2|0:0,0:0:0:0:
148,231,171151,1,2,3:2:0:0:
238,200,171480,1,8,0:0:0:0:
244,104,171810,6,0,P|333:66|438:75,1,192,6|2,3:2|3:2,0:0:0:0:
467,157,172799,2,0,P|457:200|451:263,1,96,10|0,0:0|3:2,0:0:0:0:
379,314,173458,2,0,P|350:275|318:239,1,96,10|0,0:0|3:0,0:0:0:0:
251,170,174118,1,8,0:0:0:0:
259,74,174447,6,0,B|353:98|353:98|447:61,1,192,6|0,3:2|3:0,0:0:0:0:
467,157,175436,2,0,P|457:200|451:263,1,96,10|0,0:0|3:0,0:0:0:0:
379,314,176095,2,0,P|350:275|318:239,1,96,10|2,0:0|3:2,0:0:0:0:
251,170,176755,1,10,0:0:0:0:
259,74,177085,6,0,B|323:74|346:42|346:42|370:74|451:70,1,192,2|0,3:2|3:0,0:0:0:0:
467,157,178074,2,0,P|457:200|451:263,1,96,10|0,0:0|3:0,0:0:0:0:
379,314,178733,2,0,P|350:275|318:239,1,96,10|2,0:0|3:2,0:0:0:0:
251,170,179393,1,8,0:0:0:0:
155,178,179722,6,0,P|108:250|85:363,1,192,6|2,3:2|3:2,0:0:0:0:
275,374,181041,2,0,P|273:331|263:272,1,96,2|8,3:2|0:0,0:0:0:0:
343,224,181700,2,0,P|322:186|287:137,1,96,0|10,3:0|0:0,0:0:0:0:
207,96,182360,5,0,3:0:0:0:
273,27,182689,1,10,0:0:0:0:
358,70,183019,2,0,P|410:79|458:79,2,96,0|10|2,3:0|0:0|3:2,0:0:0:0:
273,27,184008,2,0,P|221:18|173:18,1,96,8|2,0:0|3:2,0:0:0:0:
86,46,184667,1,8,0:0:0:0:
40,130,184997,6,0,P|36:210|54:290,1,144,6|0,3:2|0:0,0:0:0:0:
188,345,185986,2,0,P|204:250|218:140,1,192,10|8,0:0|0:0,0:0:0:0:
166,72,186975,2,0,P|201:40|261:29,1,96,2|8,3:2|0:0,0:0:0:0:
326,82,187634,1,6,3:2:0:0:
406,28,187964,2,0,P|452:39|487:71,2,96,8|2|8,0:0|3:2|0:0,0:0:0:0:
326,82,188953,5,2,3:2:0:0:
272,161,189283,1,10,0:0:0:0:
296,253,189612,2,0,P|330:285|377:296,1,96,10|0,0:0|3:0,0:0:0:0:
463,252,190272,6,0,P|468:176|461:98,1,144,6|6,3:2|3:2,0:0:0:0:
312,58,191261,2,0,P|264:117|225:185,1,144,6|6,3:2|3:2,0:0:0:0:
229,175,192909,5,6,3:2:0:0:
256,192,193074,12,2,196865,0:0:0:0:
256,192,198184,5,6,3:2:0:0:
256,192,199502,1,0,3:0:0:0:
125,332,200162,1,8,0:0:0:0:
75,146,200821,6,0,P|81:101|112:48,2,96,6|8|0,3:2|0:0|3:0,0:0:0:0:
195,248,201975,2,0,P|266:198|390:166,1,192,4|6,3:2|3:2,0:0:0:0:
438,230,202964,2,0,L|428:298,1,48,0|8,3:0|0:0,0:0:0:0:
371,352,203458,5,6,3:2:0:0:
293,295,203788,1,10,0:0:0:0:
214,238,204118,1,0,3:0:0:0:
352,161,204612,2,0,P|377:96|320:49,1,144,6|10,3:2|0:0,0:0:0:0:
237,20,205436,2,0,P|202:51|206:105,1,96,2|8,3:2|0:0,0:0:0:0:
129,160,206096,6,0,P|173:209|258:240,1,144,6|2,3:2|0:0,0:0:0:0:
308,309,206920,1,6,3:2:0:0:
224,356,207250,2,0,P|176:359|121:385,1,96,6|2,3:2|3:2,0:0:0:0:
73,301,207909,1,6,3:2:0:0:
200,207,208403,1,8,0:0:0:0:
239,119,208733,6,0,P|233:77|219:22,2,96,6|8|2,3:2|0:0|3:2,0:0:0:0:
87,68,209887,2,0,P|58:135|52:220,1,144,6|8,3:2|0:0,0:0:0:0:
79,296,210711,1,2,3:2:0:0:
167,255,211041,1,8,0:0:0:0:
259,282,211371,6,0,P|304:267|349:232,2,96,4|8|2,3:2|0:0|3:2,0:0:0:0:
167,153,212524,2,0,P|220:95|330:83,1,192,6|6,3:2|3:2,0:0:0:0:
360,173,213513,2,0,P|386:184|422:187,1,48,0|8,3:0|0:0,0:0:0:0:
493,149,214008,5,6,3:2:0:0:
501,53,214338,2,0,P|457:33|409:27,1,96,10|0,0:0|3:0,0:0:0:0:
324,69,214996,1,8,0:0:0:0:
242,18,215327,2,0,P|170:92|130:179,1,192,2|0,0:0|3:0,0:0:0:0:
122,266,216316,1,8,0:0:0:0:
168,349,216645,6,0,P|217:349|275:333,2,96,6|8|0,3:2|0:0|3:0,0:0:0:0:
106,202,217799,2,0,P|197:157|278:186,1,192,6|6,3:2|3:2,0:0:0:0:
354,323,218953,1,8,0:0:0:0:
418,251,219283,5,6,3:2:0:0:
418,251,220601,2,0,L|428:196,1,48,10|10,0:0|0:0,0:0:0:0:
183,49,221755,5,6,3:2:0:0:
256,192,221920,12,2,223239,3:2:0:0:
464,299,227030,6,0,P|395:324|314:338,1,144,6|10,3:2|0:0,0:0:0:0:
278,253,227854,1,10,0:0:0:0:
194,118,228349,2,0,P|125:93|44:79,1,144,6|10,3:2|0:0,0:0:0:0:
8,164,229173,1,8,0:0:0:0:
61,312,229667,6,0,P|115:304|170:226,1,144,6|10,3:2|0:0,0:0:0:0:
190,143,230491,1,10,0:0:0:0:
319,51,230986,2,0,P|373:58|428:136,1,144,6|8,3:2|0:0,0:0:0:0:
448,220,231810,1,2,3:2:0:0:
344,340,232305,5,6,3:2:0:0:
344,340,233458,2,0,P|335:317|334:285,1,48,8|6,0:0|3:2,0:0:0:0:
204,200,234118,2,0,P|191:281|170:352,1,144,8|2,0:0|3:2,0:0:0:0:
82,368,234942,5,6,3:2:0:0:
256,192,235107,12,2,237744,0:0:0:0:
