osu file format v14

[General]
AudioFilename: audio.mp3
AudioLeadIn: 0
PreviewTime: 128649
Countdown: 0
SampleSet: Soft
StackLeniency: 0.5
Mode: 0
LetterboxInBreaks: 0
WidescreenStoryboard: 1

[Editor]
Bookmarks: 21498,174431,209077,221769,234956,237758,240231
DistanceSpacing: 1.8
BeatDivisor: 4
GridSize: 32
TimelineZoom: 2

[Metadata]
Title:Diamond City Lights
TitleUnicode:Diamond City Lights
Artist:LazuLight
ArtistUnicode:LazuLight
Creator:[ TNTlealu ]
Version:hakashii's Hard
Source:
Tags:にじさんじ まふまふ -_AzRaeL_- hakashii arronchu1207 Pop Rock Nijisanji EN English Vtuber virtual youtuber Mafumafu Finana Ryugu フィナーナ竜宮 Elira Pendora エリーラペンドラ Pomu Rainpuff ぽむれいんぱふ
BeatmapID:3019229
BeatmapSetID:1464031

[Difficulty]
HPDrainRate:4.9
CircleSize:3.8
OverallDifficulty:6.1
ApproachRate:8
SliderMultiplier:1.53
SliderTickRate:1

[Events]
//Background and Video events
0,0,"a.jpg",0,0
Video,-992,"finanamymommy.mp4"
//Break Periods
//Storyboard Layer 0 (Background)
//Storyboard Layer 1 (Fail)
//Storyboard Layer 2 (Pass)
//Storyboard Layer 3 (Foreground)
//Storyboard Layer 4 (Overlay)
//Storyboard Sound Samples
Sample,20326,0,"wooosh.wav",100
Sample,41754,0,"wooosh.wav",100
Sample,57578,0,"wooosh.wav",100
Sample,68128,0,"wooosh.wav",100
Sample,78677,0,"wooosh.wav",100
Sample,81315,0,"wooosh.wav",100
Sample,89227,0,"wooosh.wav",100
Sample,112963,0,"wooosh.wav",100
Sample,128787,0,"wooosh.wav",100
Sample,139337,0,"wooosh.wav",100
Sample,149886,0,"wooosh.wav",100
Sample,152523,0,"wooosh.wav",100
Sample,173622,0,"wooosh.wav",100
Sample,189446,0,"wooosh.wav",100
Sample,199996,0,"wooosh.wav",100
Sample,207908,0,"wooosh.wav",100
Sample,218457,0,"wooosh.wav",100
Sample,221095,0,"wooosh.wav",100
Sample,234282,0,"wooosh.wav",100

[TimingPoints]
381,329.67032967033,4,2,2,50,1,0
381,-200,4,2,2,50,0,0
9941,-200,4,2,2,30,0,0
10271,-200,4,2,2,50,0,0
10600,-200,4,2,2,30,0,0
10930,-200,4,2,2,50,0,0
21479,-142.857142857143,4,2,1,70,0,0
40271,-200,4,2,1,70,0,0
40600,-181.818181818182,4,2,1,70,0,0
40930,-166.666666666667,4,2,1,70,0,0
41260,-153.846153846154,4,2,1,70,0,0
41589,-142.857142857143,4,2,1,70,0,0
42578,-166.666666666667,4,2,1,70,0,0
43238,-166.666666666667,4,2,4,70,0,0
43567,-166.666666666667,4,2,1,70,0,0
44556,-166.666666666667,4,2,5,70,0,0
44886,-166.666666666667,4,2,1,70,0,0
45875,-166.666666666667,4,2,6,70,0,0
46205,-166.666666666667,4,2,1,70,0,0
47688,-142.857142857143,4,2,1,70,0,0
52963,-125,4,2,1,70,0,0
57743,-125,4,2,10,70,0,0
57908,-125,4,2,11,70,0,0
58073,-125,4,2,1,70,0,0
58402,-100,4,2,1,90,0,0
68622,-100,4,2,1,90,0,0
68787,-100,4,2,10,90,0,0
68870,-100,4,2,11,90,0,0
68952,-100,4,2,1,90,0,0
79172,-100,4,2,1,90,0,0
79337,-100,4,2,10,90,0,0
79419,-100,4,2,11,90,0,0
79501,-166.666666666667,4,2,1,70,0,0
81974,-125,4,2,1,70,0,0
89391,-125,4,2,10,70,0,0
89556,-125,4,2,11,70,0,0
89721,-125,4,2,1,70,0,0
92688,-142.857142857143,4,2,1,70,0,0
113787,-111.111111111111,4,2,1,70,0,0
114446,-111.111111111111,4,2,4,70,0,0
114776,-111.111111111111,4,2,1,70,0,0
115765,-111.111111111111,4,2,5,70,0,0
116095,-111.111111111111,4,2,1,70,0,0
117084,-111.111111111111,4,2,6,70,0,0
117413,-111.111111111111,4,2,1,70,0,0
128952,-111.111111111111,4,2,10,70,0,0
129117,-111.111111111111,4,2,11,70,0,0
129282,-111.111111111111,4,2,1,70,0,0
129611,-90.9090909090909,4,2,1,90,0,0
139831,-90.9090909090909,4,2,1,90,0,0
139996,-90.9090909090909,4,2,10,90,0,0
140078,-90.9090909090909,4,2,11,90,0,0
140161,-90.9090909090909,4,2,1,90,0,0
150381,-90.9090909090909,4,2,1,90,0,0
150545,-90.9090909090909,4,2,10,90,0,0
150628,-90.9090909090909,4,2,11,90,0,0
150710,-142.857142857143,4,2,1,70,0,0
152029,-90.9090909090909,4,2,1,70,0,0
153348,-83.3333333333333,4,2,1,70,0,0
174446,-90.9090909090909,4,2,1,70,0,0
190271,-111.111111111111,4,2,1,70,0,0
192908,-142.857142857143,4,2,1,70,0,0
198183,-166.666666666667,4,2,1,70,0,0
199501,-166.666666666667,4,2,0,70,0,0
200161,-125,4,2,0,70,0,0
200490,-100,4,2,0,70,0,0
200820,-83.3333333333334,4,2,1,90,0,0
208402,-83.3333333333334,4,2,1,90,0,0
208567,-83.3333333333334,4,2,10,90,0,0
208650,-83.3333333333334,4,2,11,90,0,0
208732,-83.3333333333334,4,2,1,90,0,0
218952,-83.3333333333334,4,2,1,90,0,0
219117,-83.3333333333334,4,2,10,90,0,0
219199,-83.3333333333334,4,2,11,90,0,0
219282,-100,4,2,1,70,0,0
221754,-90.9090909090909,4,2,1,70,0,0
232304,-111.111111111111,4,2,1,70,0,0
237743,-111.111111111111,4,2,1,60,0,0
238402,-111.111111111111,4,2,1,50,0,0
239062,-111.111111111111,4,2,1,40,0,0
239721,-111.111111111111,4,2,1,30,0,0
240216,-111.111111111111,4,2,1,20,0,0

[Colours]
Combo1 : 66,255,255
Combo2 : 23,210,173
Combo3 : 241,194,116

[HitObjects]
61,336,381,6,0,L|79:289,1,38.25,2|0,0:0|0:0,0:0:0:0:
124,234,710,2,0,B|153:244|153:244|168:256|168:256|206:267,2,76.5,0|2|0,0:0|0:0|0:0,0:0:0:0:
65,172,1534,1,0,0:0:0:0:
65,172,1699,6,0,L|151:149,1,76.5,2|0,0:0|0:0,0:0:0:0:
294,74,2359,2,0,L|373:101,1,76.5,2|0,0:0|0:0,0:0:0:0:
499,195,3018,6,0,P|495:255|493:284,1,76.5,2|0,0:0|0:0,0:0:0:0:
425,321,3512,1,0,0:0:0:0:
425,321,3677,2,0,B|348:348|408:361|323:388,1,114.75,2|0,0:0|0:0,0:0:0:0:
260,350,4337,6,0,P|223:307|165:325,1,114.75,2|0,0:0|0:0,0:0:0:0:
95,300,4996,2,0,P|86:263|66:186,1,114.75,2|0,0:0|0:0,0:0:0:0:
119,120,5655,5,2,0:0:0:0:
243,153,5985,2,0,B|270:166|270:166|280:177|280:177|318:190,2,76.5,0|2|0,0:0|0:0|0:0,0:0:0:0:
217,71,6809,1,0,0:0:0:0:
291,8,6974,6,0,P|313:39|309:81,1,76.5,2|0,0:0|0:0,0:0:0:0:
334,162,7468,2,0,P|385:159|410:127,1,76.5
471,95,7963,2,0,P|486:126|481:143,1,38.25
497,226,8293,6,0,B|401:267|485:283|369:320,2,153,2|2|2,0:0|0:0|0:0,0:0:0:0:
424,87,9941,2,0,L|376:102,1,38.25,2|0,0:0|0:0,0:0:0:0:
318,144,10271,2,0,L|240:119,1,76.5,2|2,0:0|0:0,0:0:0:0:
115,244,10930,6,0,P|95:276|172:343,1,153,2|2,0:0|0:0,0:0:0:0:
320,283,11919,2,0,L|364:296,1,38.25
412,356,12249,6,0,B|467:342|435:332|488:321,1,76.5,2|0,0:0|0:0,0:0:0:0:
512,221,12908,2,0,B|431:204|481:181|407:165,1,114.75,2|0,0:0|0:0,0:0:0:0:
349,127,13567,2,0,B|306:148|306:148|294:171|294:171|245:193,1,114.75,2|0,0:0|0:0,0:0:0:0:
206,252,14227,2,0,P|144:219|134:223,1,76.5,2|0,0:0|0:0,0:0:0:0:
20,173,14886,6,0,P|44:119|101:125,1,114.75,2|0,0:0|0:0,0:0:0:0:
173,123,15545,2,0,L|262:92,1,76.5,2|0,0:0|0:0,0:0:0:0:
344,6,16205,1,2,0:0:0:0:
422,104,16534,6,0,B|469:122|433:127|494:148,2,76.5,0|2|0,0:0|0:0|0:0,0:0:0:0:
313,160,17523,2,0,P|286:199|303:268,1,114.75,2|0,0:0|0:0,0:0:0:0:
358,331,18183,2,0,P|382:322|399:318,1,38.25,2|0,0:0|0:0,0:0:0:0:
458,269,18512,2,0,P|479:281|492:294,1,38.25
512,366,18842,5,2,0:0:0:0:
256,192,19996,12,0,21150,0:0:0:0:
50,343,21479,6,0,L|67:284,1,53.5499983657837,4|0,3:2|0:0,0:0:0:0:
124,230,21809,2,0,B|167:246|167:246|177:267|177:267|236:284,1,107.099996731567,2|2,3:2|3:2,0:0:0:0:
339,194,22468,1,0,3:0:0:0:
339,194,22633,1,2,0:0:0:0:
403,243,22798,6,0,P|440:215|456:145,2,107.099996731567,2|2|2,3:2|3:2|3:2,0:0:0:0:
295,126,23787,2,0,L|277:70,1,53.5499983657837,2|0,3:2|0:0,0:0:0:0:
195,43,24117,6,0,B|119:62|180:72|85:94,1,107.099996731567,2|0,3:2|3:0,0:0:0:0:
66,176,24611,1,2,0:0:0:0:
66,176,24776,2,0,L|93:230,1,53.5499983657837,2|0,3:2|0:0,0:0:0:0:
169,269,25106,2,0,L|154:322,1,53.5499983657837,0|0,3:0|0:0,0:0:0:0:
96,377,25435,5,2,3:2:0:0:
231,384,25765,2,0,L|299:364,1,53.5499983657837,0|2,3:0|0:0,0:0:0:0:
316,285,26095,2,0,L|381:306,1,53.5499983657837,2|0,3:2|0:0,0:0:0:0:
435,347,26424,2,0,L|490:324,1,53.5499983657837,0|0,3:0|0:0,0:0:0:0:
509,243,26754,5,0,3:0:0:0:
509,243,27084,2,0,L|482:171,1,53.5499983657837,2|0,3:2|0:0,0:0:0:0:
448,124,27413,2,0,B|381:155|427:165|354:191,1,107.099996731567,2|0,3:2|3:0,0:0:0:0:
257,262,28073,6,0,L|184:252,1,53.5499983657837,2|0,3:2|0:0,0:0:0:0:
135,295,28402,1,2,3:2:0:0:
55,252,28567,2,0,L|1:266,2,53.5499983657837,2|0|2,0:0|3:0|0:0,0:0:0:0:
115,189,29062,1,2,3:2:0:0:
51,121,29227,6,0,P|63:77|68:56,1,53.5499983657837,2|0,0:0|3:0,0:0:0:0:
132,24,29556,1,2,0:0:0:0:
203,70,29721,2,0,P|245:84|297:51,1,107.099996731567,2|0,3:2|3:0,0:0:0:0:
368,9,30216,2,0,P|406:25|425:36,2,53.5499983657837,0|0|0,0:0|3:0|0:0,0:0:0:0:
364,97,30710,6,0,L|353:191,1,80.3249975486756,0|0,3:0|0:0,0:0:0:0:
372,193,31040,2,0,B|414:180|414:180|427:162|427:162|478:147,2,107.099996731567,2|2|2,3:2|3:2|3:2,0:0:0:0:
487,316,32029,6,0,P|430:342|380:313,1,107.099996731567,2|0,3:2|3:0,0:0:0:0:
314,282,32523,1,0,0:0:0:0:
251,344,32688,2,0,L|191:332,1,53.5499983657837,0|0,3:0|0:0,0:0:0:0:
115,357,33018,1,2,3:2:0:0:
0,252,33348,6,0,P|10:198|75:187,1,107.099996731567,2|2,3:2|3:2,0:0:0:0:
211,248,34007,2,0,B|271:218|233:209|284:198,1,80.3249975486756,2|0,3:2|0:0,0:0:0:0:
295,192,34337,2,0,P|295:157|297:96,1,80.3249975486756,2|0,3:2|0:0,0:0:0:0:
280,78,34666,6,0,P|241:19|192:23,1,107.099996731567,2|0,3:2|3:0,0:0:0:0:
138,40,35161,1,2,0:0:0:0:
138,40,35326,2,0,P|130:81|143:109,1,53.5499983657837,2|0,3:2|0:0,0:0:0:0:
167,162,35655,2,0,P|200:153|226:147,1,53.5499983657837,0|0,3:0|0:0,0:0:0:0:
284,98,35985,5,0,3:0:0:0:
397,191,36315,2,0,L|450:184,1,53.5499983657837,0|0,3:0|0:0,0:0:0:0:
505,245,36644,2,0,L|488:307,2,53.5499983657837,0|0|2,3:0|0:0|3:2,0:0:0:0:
375,301,37304,6,0,P|324:286|283:332,1,107.099996731567,2|0,3:2|3:0,0:0:0:0:
215,362,37798,1,0,0:0:0:0:
215,362,37963,1,0,3:0:0:0:
229,224,38293,2,0,L|206:153,1,53.5499983657837,2|0,3:2|0:0,0:0:0:0:
145,100,38622,6,0,P|177:47|221:42,1,107.099996731567,2|10,3:2|3:2,0:0:0:0:
295,6,39117,1,10,0:0:0:0:
341,85,39282,2,0,P|391:66|406:60,1,53.5499983657837,8|2,0:0|3:2,0:0:0:0:
484,104,39611,2,0,P|470:142|461:173,1,53.5499983657837,10|0,0:0|0:0,0:0:0:0:
512,246,39941,5,0,3:0:0:0:
512,246,40271,2,0,B|495:268|495:268|468:272,1,38.25,0|8,3:0|0:0,0:0:0:0:
418,326,40600,2,0,B|389:324|389:324|372:297,1,42.0750012840271,8|8,3:2|0:0,0:0:0:0:
294,292,40930,2,0,B|287:266|287:266|304:233,1,45.8999985992432,8|8,3:2|0:0,0:0:0:0:
269,166,41260,2,0,B|289:148|289:148|319:153,1,49.7249977237703,8|8,0:0|0:0,0:0:0:0:
374,84,41589,2,0,B|403:92|403:92|414:126,1,53.5499983657837,8|8,0:0|0:0,0:0:0:0:
406,221,41919,1,0,3:0:0:0:
487,190,42084,2,0,L|500:152,2,26.7749991828919,8|8|8,0:0|0:0|0:0,0:0:0:0:
406,221,42413,1,8,0:0:0:0:
311,151,42578,6,0,B|297:155|297:155|288:167|288:167|275:169|275:169|266:178|266:178|256:180|256:180|248:191|248:191|232:198,1,91.7999971984864,2|2,3:2|3:2,0:0:0:0:
164,249,43073,1,0,3:0:0:0:
164,249,43238,1,14,0:0:0:0:
243,364,43567,1,2,0:0:0:0:
243,364,43732,1,8,0:0:0:0:
306,296,43897,6,0,B|323:301|323:301|329:306|329:306|344:308|344:308|353:316|353:316|368:316|368:316|376:323|377:322|377:322|385:324|385:324|392:328,1,91.7999971984864,2|0,3:2|3:0,0:0:0:0:
480,365,44391,2,0,L|491:384,2,22.9499992996216,0|0|14,3:0|0:0|0:0,0:0:0:0:
491,232,44886,2,0,L|472:171,1,45.8999985992432,2|8,0:0|0:0,0:0:0:0:
400,129,45216,6,0,B|383:136|383:136|377:146|377:146|365:150|365:150|357:161|357:161|343:163|343:163|337:171|337:171|324:176,1,91.7999971984864,2|2,3:2|3:2,0:0:0:0:
258,221,45710,1,0,3:0:0:0:
258,221,45875,1,14,0:0:0:0:
103,312,46205,1,2,0:0:0:0:
103,312,46370,1,8,0:0:0:0:
42,252,46534,6,0,P|56:216|60:204,1,45.8999985992432,2|8,3:2|0:0,0:0:0:0:
131,163,46864,2,0,P|120:123|118:113,1,45.8999985992432,0|2,3:0|3:2,0:0:0:0:
84,42,47194,2,0,L|57:50,3,22.9499992996216,10|2|10|10,0:0|0:0|0:0|0:0,0:0:0:0:
111,20,47523,1,8,0:0:0:0:
197,86,47688,6,0,P|256:80|288:36,1,107.099996731567,4|2,3:2|0:0,0:0:0:0:
352,0,48183,2,0,P|375:21|382:58,1,53.5499983657837,2|0,3:2|0:0,0:0:0:0:
402,123,48512,2,0,L|499:113,1,80.3249975486756,2|0,3:2|0:0,0:0:0:0:
499,117,48842,2,0,L|491:175,1,53.5499983657837,2|0,3:2|0:0,0:0:0:0:
485,273,49172,6,0,P|430:258|399:309,2,107.099996731567,2|2|2,3:2|3:2|3:2,0:0:0:0:
353,373,50161,5,10,0:0:0:0:
353,373,50326,2,0,B|316:358|316:358|297:333|297:333|245:319,1,107.099996731567,6|0,3:2|0:0,0:0:0:0:
190,283,50820,2,0,L|126:293,1,53.5499983657837,0|0,3:0|0:0,0:0:0:0:
90,222,51150,2,0,P|104:203|120:156,1,53.5499983657837,0|0,3:0|0:0,0:0:0:0:
152,102,51479,2,0,P|150:78|144:40,1,53.5499983657837,2|0,3:2|0:0,0:0:0:0:
219,0,51809,5,2,3:2:0:0:
219,0,51974,1,8,0:0:0:0:
282,66,52139,2,0,L|340:49,1,53.5499983657837,10|8,3:2|0:0,0:0:0:0:
416,92,52468,1,10,3:2:0:0:
416,92,52633,1,8,0:0:0:0:
378,174,52798,1,10,0:0:0:0:
478,219,52963,6,0,P|521:260|503:328,1,122.4,14|0,0:0|3:0,0:0:0:0:
435,367,53457,2,0,P|394:358|333:347,1,91.8,10|0,0:0|0:0,0:0:0:0:
325,334,53787,2,0,P|294:342|254:353,1,61.2,2|0,3:2|3:0,0:0:0:0:
197,384,54117,1,10,0:0:0:0:
140,288,54282,6,0,P|110:310|38:272,1,122.4,6|0,3:2|3:0,0:0:0:0:
0,191,54776,1,8,0:0:0:0:
81,144,54941,1,0,0:0:0:0:
81,144,55023,1,0,3:0:0:0:
81,144,55106,2,0,L|90:76,1,61.2,0|0,3:0|3:0,0:0:0:0:
43,17,55435,1,10,0:0:0:0:
146,0,55600,6,0,B|187:20|187:20|208:46|208:46|269:69,1,122.4,6|2,3:2|3:2,0:0:0:0:
330,108,56095,1,10,0:0:0:0:
391,37,56260,2,0,L|402:-7,2,30.6,2|0|2,3:2|3:0|3:2,0:0:0:0:
455,93,56589,2,0,L|444:172,1,61.2,2|8,3:2|0:0,0:0:0:0:
469,245,56919,6,0,B|400:259|452:281|354:297,1,122.4,2|0,3:2|3:0,0:0:0:0:
287,334,57413,2,0,L|295:378,2,30.6,10|10|2,0:0|0:0|3:2,0:0:0:0:
202,267,57743,2,0,L|218:211,3,30.6,0|0|2|0,3:0|3:0|3:2|3:0,0:0:0:0:
180,291,58073,2,0,L|196:347,3,30.6,14|0|2|0,0:0|0:0|0:0|0:0,0:0:0:0:
150,281,58402,6,0,B|113:287|63:298,1,76.5,14|0,3:1|0:0,0:0:0:0:
26,225,58732,2,0,P|29:191|40:142,1,76.5,8|2,0:0|0:0,0:0:0:0:
121,117,59062,1,2,3:2:0:0:
198,178,59227,6,0,B|270:168|213:142|329:124,1,114.75,2|0,3:2|0:0,0:0:0:0:
311,119,59556,2,0,B|367:147|367:147|378:174|378:174|434:199,1,153,6|2,3:2|3:2,0:0:0:0:
508,150,60051,1,10,0:0:0:0:
512,57,60216,2,0,B|450:24|443:104|360:50,1,153,2|2,0:0|3:2,0:0:0:0:
294,25,60710,2,0,P|254:19|212:18,1,76.5,10|2,0:0|0:0,0:0:0:0:
193,95,61040,5,6,3:2:0:0:
193,95,61205,1,2,0:0:0:0:
266,153,61370,1,10,0:0:0:0:
266,153,61534,1,2,0:0:0:0:
209,232,61699,5,2,3:2:0:0:
209,232,61864,1,2,3:2:0:0:
193,95,62194,6,0,B|128:64|128:64|76:84|77:122,1,153,6|0,3:2|3:0,0:0:0:0:
25,197,62688,1,10,0:0:0:0:
67,295,62853,2,0,B|114:294|131:263|131:263|146:301|208:319,1,153,6|2,3:2|3:2,0:0:0:0:
281,288,63348,2,0,P|291:239|296:189,1,76.5,10|2,0:0|0:0,0:0:0:0:
359,138,63677,6,0,B|446:163|372:181|469:207,1,114.75,6|0,3:2|0:0,0:0:0:0:
463,221,64007,1,10,0:0:0:0:
463,221,64337,6,0,P|450:279|402:304,1,114.75,2|0,3:2|0:0,0:0:0:0:
386,320,64666,1,10,0:0:0:0:
281,288,64831,6,0,B|206:298|206:298|171:340|171:340|80:353,1,191.25,6|0,3:2|0:0,0:0:0:0:
92,366,65326,1,10,0:0:0:0:
92,366,65655,6,0,P|117:309|105:235,1,114.75,2|0,3:2|0:0,0:0:0:0:
101,247,65985,2,0,P|91:210|82:169,1,76.5,10|0,0:0|0:0,0:0:0:0:
79,81,66315,6,0,B|186:101|100:121|243:143,1,153,6|10,3:2|0:0,0:0:0:0:
302,172,66809,2,0,P|330:134|379:145,1,76.5,2|0,0:0|3:0,0:0:0:0:
396,53,67139,2,0,P|449:61|462:98,1,76.5,6|8,3:2|0:0,0:0:0:0:
512,146,67468,6,0,P|490:201|471:311,1,153,2|0,3:2|3:0,0:0:0:0:
437,367,67963,1,8,0:0:0:0:
337,326,68128,2,0,P|288:261|258:162,1,153,6|2,3:2|3:2,0:0:0:0:
190,74,68622,2,0,L|209:18,3,38.25,10|8|2|0,0:0|0:0|3:2|3:0,0:0:0:0:
181,94,68952,6,0,B|138:104|138:104|121:128|121:128|37:151,1,153,14|8,3:1|0:0,0:0:0:0:
0,238,69446,1,2,0:0:0:0:
35,330,69611,2,0,P|78:355|131:346,1,76.5,2|2,3:2|3:2,0:0:0:0:
177,290,69941,1,8,0:0:0:0:
280,367,70106,6,0,B|336:344|336:344|347:301|347:301|391:279,1,153,6|2,3:2|3:2,0:0:0:0:
473,249,70600,2,0,P|477:196|485:163,1,76.5,10|2,0:0|0:0,0:0:0:0:
375,114,70930,2,0,P|389:161|381:204,1,76.5,0|2,3:0|3:2,0:0:0:0:
305,236,71260,2,0,P|274:240|231:208,1,76.5,10|2,0:0|0:0,0:0:0:0:
116,184,71589,6,0,P|152:132|152:73,1,114.75,6|0,3:2|0:0,0:0:0:0:
170,75,71919,2,0,P|153:22|152:-12,1,76.5,10|0,0:0|0:0,0:0:0:0:
252,102,72249,2,0,P|303:83|339:21,1,114.75,2|0,3:2|0:0,0:0:0:0:
346,12,72578,1,10,0:0:0:0:
472,88,72743,6,0,P|460:162|446:258,1,153,6|2,3:2|3:2,0:0:0:0:
385,298,73238,1,10,0:0:0:0:
295,211,73402,2,0,P|196:206|179:266,1,153,6|2,3:2|3:2,0:0:0:0:
145,339,73897,2,0,P|91:339|71:301,1,76.5,8|2,0:0|0:0,0:0:0:0:
33,243,74227,6,0,P|58:194|79:117,1,114.75,4|0,3:2|0:0,0:0:0:0:
83,122,74556,2,0,P|76:62|70:23,1,76.5,8|0,0:0|0:0,0:0:0:0:
161,155,74886,2,0,P|202:136|243:129,1,76.5,0|0,3:0|3:0,0:0:0:0:
337,93,75216,2,0,B|419:121|364:131|444:160,1,114.75,10|0,0:0|0:0,0:0:0:0:
457,151,75545,6,0,B|491:127|491:127|477:71,1,76.5,2|0,0:0|3:0,0:0:0:0:
466,0,75875,2,0,P|396:21|373:27,1,76.5,8|0,0:0|0:0,0:0:0:0:
337,93,76205,1,0,3:0:0:0:
253,53,76370,1,2,3:2:0:0:
189,126,76534,2,0,P|138:132|111:99,1,76.5,10|2,0:0|0:0,0:0:0:0:
27,62,76864,6,0,B|-4:94|-4:94|29:170,1,114.75,6|0,3:2|0:0,0:0:0:0:
46,176,77194,2,0,P|36:221|27:255,1,76.5,10|0,0:0|0:0,0:0:0:0:
98,326,77523,2,0,P|134:295|210:268,1,114.75,2|0,3:2|0:0,0:0:0:0:
215,256,77853,1,10,0:0:0:0:
323,318,78018,6,0,P|383:273|373:181,1,153,2|0,3:2|3:0,0:0:0:0:
341,126,78512,1,10,0:0:0:0:
237,173,78677,2,0,B|117:144|223:117|86:88,1,153,6|2,3:2|3:2,0:0:0:0:
26,57,79172,2,0,L|14:19,3,38.25,10|8|0|0,0:0|0:0|3:0|3:0,0:0:0:0:
6,88,79501,6,0,B|-24:117|0:154|-6:157|-6:157|7:170|17:187|17:187|11:192|30:223|-3:268,1,183.599994396973,6|2,3:2|0:0,0:0:0:0:
168,345,80820,1,4,3:2:0:0:
168,345,80985,1,4,3:2:0:0:
262,189,81479,6,0,L|258:152,4,22.9499992996216,8|8|8|8|8,0:0|0:0|0:0|0:0|0:0,0:0:0:0:
329,248,81974,2,0,B|370:240|370:240|392:210|392:210|438:197,1,122.4,4|2,3:2|3:0,0:0:0:0:
512,149,82468,2,0,P|491:93|494:72,1,61.2,8|0,0:0|1:0,0:0:0:0:
445,18,82798,2,0,P|401:51|399:68,1,61.2,0|0,3:0|1:0,0:0:0:0:
329,103,83128,2,0,P|276:87|250:81,1,61.2,8|0,0:0|1:0,0:0:0:0:
221,11,83457,6,0,P|185:0|140:47,1,91.8,0|0,3:0|0:0,0:0:0:0:
127,56,83787,2,0,P|69:40|-11:22,2,122.4,8|0|8,0:0|3:0|0:0,0:0:0:0:
206,185,84776,6,0,P|193:233|182:265,1,61.2,0|0,3:0|1:0,0:0:0:0:
113,293,85106,2,0,P|136:339|141:359,1,61.2,8|0,0:0|1:0,0:0:0:0:
211,384,85435,2,0,P|261:359|281:356,1,61.2,0|0,3:0|1:0,0:0:0:0:
319,283,85765,2,0,P|359:311|378:319,1,61.2,8|0,0:0|1:0,0:0:0:0:
455,346,86095,6,0,P|483:295|495:240,1,91.8,0|0,3:0|0:0,0:0:0:0:
502,246,86424,2,0,P|493:199|491:183,1,61.2,8|0,0:0|1:0,0:0:0:0:
446,111,86754,1,0,3:0:0:0:
363,164,86919,2,0,L|356:206,3,30.6,8|8|8|8,0:0|0:0|0:0|0:0,0:0:0:0:
336,135,87249,6,0,B|263:146|303:173|200:189,1,122.4,4|0,3:2|3:0,0:0:0:0:
165,245,87743,1,8,0:0:0:0:
165,245,87908,1,0,3:0:0:0:
85,195,88073,2,0,B|75:161|75:161|102:114,1,61.2,8|0,0:0|3:0,0:0:0:0:
120,121,88320,1,0,3:0:0:0:
120,121,88402,1,8,0:0:0:0:
98,38,88567,6,0,B|157:15|157:15|222:54,1,122.4,4|0,3:2|3:0,0:0:0:0:
282,88,89062,2,0,L|277:138,3,30.6,8|8|0|0,0:0|0:0|3:0|3:0,0:0:0:0:
309,56,89391,2,0,L|316:9,3,30.6,0|0|0|0,3:0|3:0|3:0|3:0,0:0:0:0:
330,80,89721,1,12,0:0:0:0:
457,145,90051,6,0,L|470:215,1,61.2,6|8,3:2|0:0,0:0:0:0:
459,250,90298,1,8,0:0:0:0:
459,250,90381,1,8,0:0:0:0:
377,226,90545,2,0,L|385:189,4,30.6,6|0|8|8|0,3:2|0:0|0:0|0:0|3:0,0:0:0:0:
317,284,91040,6,0,B|246:284|274:313|193:312,1,122.4,6|0,3:2|3:0,0:0:0:0:
121,349,91534,2,0,L|104:392,4,30.6,6|0|8|8|8,3:2|0:0|0:0|0:0|0:0,0:0:0:0:
34,281,92029,5,2,3:2:0:0:
34,281,92688,6,0,L|52:220,1,53.5499983657837,4|0,3:2|0:0,0:0:0:0:
116,182,93018,2,0,P|101:134|97:120,1,53.5499983657837,10|0,0:0|0:0,0:0:0:0:
36,61,93348,1,2,3:2:0:0:
36,61,93512,1,0,3:0:0:0:
124,5,93677,1,8,0:0:0:0:
124,5,94007,6,0,P|175:45|204:34,1,80.3249975486756,2|0,3:2|0:0,0:0:0:0:
200,33,94337,2,0,P|237:21|267:30,1,53.5499983657837,10|0,0:0|0:0,0:0:0:0:
324,64,94666,2,0,P|363:70|388:50,1,53.5499983657837,2|0,3:2|3:0,0:0:0:0:
443,18,94996,2,0,P|478:37|488:71,1,53.5499983657837,10|0,0:0|0:0,0:0:0:0:
508,133,95326,6,0,B|424:140|483:162|393:172,1,107.099996731567,2|8,3:2|0:0,0:0:0:0:
314,202,95820,1,2,0:0:0:0:
314,202,95985,2,0,B|384:250|320:240|379:281,1,107.099996731567,2|8,3:2|0:0,0:0:0:0:
379,281,96644,6,0,P|381:304|308:353,1,107.099996731567,2|8,3:2|0:0,0:0:0:0:
253,306,97139,1,2,0:0:0:0:
181,371,97304,2,0,P|155:335|90:329,1,107.099996731567,2|8,3:2|0:0,0:0:0:0:
24,282,97798,6,0,L|-10:297,2,26.7749991828919,0|0|0,0:0|3:0|3:0,0:0:0:0:
24,282,98293,2,0,L|37:215,1,53.5499983657837,10|0,0:0|0:0,0:0:0:0:
98,186,98622,2,0,P|139:200|219:222,1,107.099996731567,2|8,3:2|0:0,0:0:0:0:
290,178,99117,1,0,0:0:0:0:
290,178,99199,1,0,0:0:0:0:
290,178,99282,6,0,P|276:125|261:66,1,107.099996731567,2|10,3:2|0:0,0:0:0:0:
372,0,99776,2,0,P|362:31|355:57,1,53.5499983657837,2|0,0:0|3:0,0:0:0:0:
434,108,100106,2,0,P|457:94|479:80,2,53.5499983657837,2|10|2,3:2|0:0|0:0,0:0:0:0:
400,190,100600,6,0,B|328:206|382:226|297:243,1,107.099996731567,0|10,3:0|0:0,0:0:0:0:
309,240,101260,2,0,P|296:218|278:187,1,53.5499983657837,0|0,3:0|3:0,0:0:0:0:
215,132,101589,1,8,0:0:0:0:
147,196,101754,1,0,0:0:0:0:
147,196,101837,1,0,0:0:0:0:
147,196,101919,6,0,L|90:186,1,53.5499983657837,0|0,3:0|3:0,0:0:0:0:
19,248,102249,2,0,P|56:273|94:277,1,80.3249975486756,10|0,0:0|0:0,0:0:0:0:
109,289,102578,2,0,P|152:280|169:285,1,53.5499983657837,2|0,3:2|3:0,0:0:0:0:
218,337,102908,1,10,0:0:0:0:
329,236,103238,6,0,P|329:189|389:178,1,107.099996731567,6|8,3:2|0:0,0:0:0:0:
450,215,103732,1,0,0:0:0:0:
503,155,103897,2,0,P|514:123|499:88,1,53.5499983657837,0|0,3:0|3:0,0:0:0:0:
447,37,104227,2,0,P|407:42|383:47,1,53.5499983657837,10|0,0:0|0:0,0:0:0:0:
320,64,104556,6,0,P|288:52|224:30,1,80.3249975486756,2|0,3:2|0:0,0:0:0:0:
230,29,104886,2,0,P|209:45|180:47,1,53.5499983657837,10|0,0:0|0:0,0:0:0:0:
109,111,105216,2,0,P|144:147|161:146,1,53.5499983657837,2|0,3:2|3:0,0:0:0:0:
223,178,105545,2,0,P|203:212|174:227,1,53.5499983657837,10|0,0:0|0:0,0:0:0:0:
116,292,105875,6,0,P|63:233|35:247,1,107.099996731567,2|8,3:2|0:0,0:0:0:0:
0,332,106370,1,2,0:0:0:0:
0,332,106534,2,0,P|40:344|63:357,1,53.5499983657837,2|0,3:2|3:0,0:0:0:0:
138,376,106864,2,0,P|174:355|189:337,1,53.5499983657837,8|0,0:0|0:0,0:0:0:0:
259,288,107194,6,0,B|326:309|278:335|349:366,1,107.099996731567,2|8,3:2|0:0,0:0:0:0:
414,333,107688,1,0,0:0:0:0:
414,333,107853,2,0,P|435:294|443:279,1,53.5499983657837,0|0,3:0|3:0,0:0:0:0:
483,218,108183,2,0,P|457:174|434:130,1,80.3249975486756,10|0,0:0|0:0,0:0:0:0:
430,127,108512,6,0,B|393:141|393:141|377:175|377:175|347:187,1,107.099996731567,2|8,3:2|0:0,0:0:0:0:
272,164,109007,1,0,0:0:0:0:
272,164,109172,1,0,3:0:0:0:
168,269,109501,2,0,P|136:257|113:251,1,53.5499983657837,10|0,0:0|0:0,0:0:0:0:
36,236,109831,6,0,P|33:174|33:163,1,53.5499983657837,2|0,3:2|3:0,0:0:0:0:
7,109,110161,1,10,0:0:0:0:
89,45,110326,2,0,B|159:55|112:72|203:93,1,107.099996731567,2|2,0:0|3:2,0:0:0:0:
265,127,110820,2,0,P|292:85|331:87,1,80.3249975486756,10|0,0:0|0:0,0:0:0:0:
332,72,111150,6,0,P|374:83|390:86,2,53.5499983657837,0|0|8,3:0|0:0|0:0,0:0:0:0:
264,5,111644,2,0,P|222:16|202:21,1,53.5499983657837,0|0,0:0|3:0,0:0:0:0:
162,90,111974,1,0,3:0:0:0:
89,45,112139,2,0,P|49:45|13:48,1,53.5499983657837,8|0,0:0|0:0,0:0:0:0:
0,129,112468,5,4,3:2:0:0:
71,175,112633,2,0,P|91:220|51:283,1,107.099996731567,8|8,0:0|0:0,0:0:0:0:
18,346,113128,2,0,P|56:361|92:359,1,53.5499983657837,10|8,0:0|0:0,0:0:0:0:
162,311,113457,2,0,L|171:277,3,26.7749991828919,2|0|0|0,3:2|3:0|3:0|0:0,0:0:0:0:
194,331,113787,6,0,L|272:316,1,68.8499978988648,2|0,3:2|3:0,0:0:0:0:
355,278,114117,1,2,3:2:0:0:
447,339,114282,1,0,3:0:0:0:
447,339,114364,1,0,0:0:0:0:
447,339,114446,2,0,B|469:320|469:320|446:207,1,137.69999579773,14|2,0:0|0:0,0:0:0:0:
466,127,114941,1,8,0:0:0:0:
379,104,115106,6,0,L|301:134,1,68.8499978988648,2|0,3:2|3:0,0:0:0:0:
258,215,115435,1,0,3:0:0:0:
184,164,115600,1,0,3:0:0:0:
184,164,115683,1,0,0:0:0:0:
184,164,115765,2,0,P|153:194|77:152,1,137.69999579773,14|2,0:0|0:0,0:0:0:0:
25,71,116260,1,8,0:0:0:0:
25,71,116342,1,0,0:0:0:0:
25,71,116424,6,0,B|-6:96|-6:96|2:136,2,68.8499978988648,2|0|2,3:2|3:0|3:2,0:0:0:0:
99,7,116919,1,0,3:0:0:0:
183,67,117084,2,0,P|243:82|315:103,1,137.69999579773,14|2,0:0|0:0,0:0:0:0:
389,50,117578,1,8,0:0:0:0:
437,134,117743,6,0,P|432:166|402:179,1,68.8499978988648,2|8,3:2|0:0,0:0:0:0:
321,227,118073,2,0,P|330:259|359:277,1,68.8499978988648,0|2,3:0|3:2,0:0:0:0:
387,290,118320,1,0,0:0:0:0:
387,290,118402,1,10,0:0:0:0:
373,373,118567,2,0,P|401:373|416:369,2,34.4249989494324,10|10|8,0:0|0:0|0:0,0:0:0:0:
296,331,118897,6,0,P|268:357|253:387,1,68.8499978988648,4|0,3:2|0:0,0:0:0:0:
182,325,119227,1,2,0:0:0:0:
182,325,119391,2,0,P|140:339|114:351,1,68.8499978988648,2|0,3:2|0:0,0:0:0:0:
106,255,119721,2,0,P|79:208|53:189,1,68.8499978988648,2|0,3:2|0:0,0:0:0:0:
147,146,120051,2,0,P|171:96|173:80,1,68.8499978988648,2|0,3:2|0:0,0:0:0:0:
254,129,120381,2,0,P|311:142|379:106,2,137.69999579773,2|2|2,3:2|3:2|3:2,0:0:0:0:
106,255,121370,5,10,0:0:0:0:
182,325,121534,2,0,B|227:333|227:333|258:365|258:365|307:372,1,137.69999579773,6|0,3:2|0:0,0:0:0:0:
381,317,122029,2,0,P|359:284|344:251,1,68.8499978988648,0|0,3:0|0:0,0:0:0:0:
355,163,122359,2,0,P|291:172|273:164,1,68.8499978988648,0|8,3:0|0:0,0:0:0:0:
208,129,122688,2,0,P|200:172|183:200,1,68.8499978988648,2|8,3:2|0:0,0:0:0:0:
106,255,123018,6,0,P|87:226|65:200,2,68.8499978988648,2|8|10,3:2|0:0|3:2,0:0:0:0:
183,290,123512,1,8,0:0:0:0:
250,216,123677,1,10,3:2:0:0:
208,129,123842,1,8,0:0:0:0:
277,53,124007,1,10,0:0:0:0:
183,0,124172,6,0,B|89:-13|142:54|35:32,1,137.69999579773,14|0,0:0|3:0,0:0:0:0:
18,110,124666,2,0,B|-32:190|50:169|-12:258,2,137.69999579773,10|2|10,0:0|3:2|0:0,0:0:0:0:
101,123,125490,6,0,B|160:157|160:157|224:120|224:120|290:161,1,206.549993696594,6|8,3:2|0:0,0:0:0:0:
369,216,126150,1,0,0:0:0:0:
369,216,126232,1,0,3:0:0:0:
369,216,126315,2,0,P|403:164|403:145,1,68.8499978988648,0|0,3:0|3:0,0:0:0:0:
356,71,126644,1,10,0:0:0:0:
430,4,126809,6,0,P|480:18|510:25,1,68.8499978988648,6|0,3:2|0:0,0:0:0:0:
512,113,127139,1,2,3:2:0:0:
426,148,127304,1,10,0:0:0:0:
426,148,127386,1,8,0:0:0:0:
426,148,127468,1,2,3:2:0:0:
356,71,127633,2,0,P|322:75|278:81,1,68.8499978988648,2|2,3:2|3:2,0:0:0:0:
220,140,127963,1,8,0:0:0:0:
288,222,128128,1,2,3:2:0:0:
288,222,128787,6,0,B|189:210|243:259|161:256,1,137.69999579773,2|2,3:2|3:2,0:0:0:0:
133,248,129199,1,0,3:0:0:0:
133,248,129282,2,0,L|73:235,2,34.4249989494324,14|8|10,0:0|0:0|0:0,0:0:0:0:
145,164,129611,6,0,P|131:109|117:60,1,84.1500025680543,14|0,3:1|0:0,0:0:0:0:
169,7,129941,2,0,P|211:10|249:40,1,84.1500025680543,8|2,0:0|0:0,0:0:0:0:
285,113,130271,1,2,3:2:0:0:
363,68,130435,2,0,P|421:62|504:49,1,126.225003852081,2|0,3:2|0:0,0:0:0:0:
500,65,130765,6,0,B|517:107|517:107|485:159,1,84.1500025680543,6|0,3:2|0:0,0:0:0:0:
436,204,131095,1,2,3:2:0:0:
494,274,131260,1,10,0:0:0:0:
404,351,131424,2,0,B|291:320|407:301|234:264,1,168.300005136109,2|2,0:0|3:2,0:0:0:0:
188,230,131919,2,0,B|155:260|155:260|161:309,1,84.1500025680543,10|2,0:0|0:0,0:0:0:0:
91,351,132249,5,6,3:2:0:0:
91,351,132413,1,2,0:0:0:0:
16,290,132578,1,10,0:0:0:0:
16,290,132743,1,2,0:0:0:0:
93,197,132908,5,2,3:2:0:0:
93,197,133073,1,2,3:2:0:0:
3,73,133402,6,0,B|74:18|74:18|155:71,1,168.300005136109,6|0,3:2|3:0,0:0:0:0:
201,121,133897,1,10,0:0:0:0:
286,48,134062,2,0,B|305:68|338:90|338:90|291:207,1,168.300005136109,6|2,3:2|3:2,0:0:0:0:
257,267,134556,2,0,P|268:331|272:365,1,84.1500025680543,10|2,0:0|0:0,0:0:0:0:
384,382,134886,6,0,B|437:368|437:368|455:353|455:353|526:331,1,126.225003852081,6|0,3:2|0:0,0:0:0:0:
511,314,135216,1,10,0:0:0:0:
424,126,135545,2,0,P|406:188|388:247,1,126.225003852081,2|0,3:2|0:0,0:0:0:0:
363,257,135875,1,10,0:0:0:0:
279,180,136040,6,0,P|213:138|127:208,1,168.300005136109,6|0,3:2|3:0,0:0:0:0:
76,226,136534,2,0,P|34:218|2:179,1,84.1500025680543,10|0,0:0|0:0,0:0:0:0:
0,106,136864,2,0,P|39:38|51:10,1,84.1500025680543,2|0,3:2|3:0,0:0:0:0:
115,0,137194,1,10,0:0:0:0:
115,0,137359,1,0,0:0:0:0:
192,75,137523,6,0,P|260:71|282:37,1,84.1500025680543,6|0,3:2|0:0,0:0:0:0:
332,7,137853,1,10,0:0:0:0:
420,66,138018,2,0,P|439:106|386:138,1,84.1500025680543,2|0,0:0|3:0,0:0:0:0:
364,203,138348,2,0,P|316:194|313:148,1,84.1500025680543,6|8,3:2|0:0,0:0:0:0:
209,143,138677,6,0,B|119:189|196:194|77:251,1,168.300005136109,2|0,3:2|3:0,0:0:0:0:
26,319,139172,1,8,0:0:0:0:
106,384,139337,2,0,P|166:376|283:357,1,168.300005136109,6|2,3:2|3:2,0:0:0:0:
355,311,139831,2,0,L|406:318,3,42.0750012840271,10|8|2|0,0:0|0:0|3:2|3:0,0:0:0:0:
332,282,140161,6,0,B|312:245|312:245|337:193,1,84.1500025680543,14|0,3:1|0:0,0:0:0:0:
275,143,140490,2,0,P|225:130|190:165,1,84.1500025680543,8|2,0:0|0:0,0:0:0:0:
132,212,140820,1,2,3:2:0:0:
48,159,140985,2,0,P|22:101|69:24,1,126.225003852081,2|0,3:2|0:0,0:0:0:0:
54,19,141315,6,0,B|161:7|107:68|223:50,1,168.300005136109,6|2,3:2|3:2,0:0:0:0:
313,65,141809,1,10,0:0:0:0:
275,143,141974,2,0,P|330:193|429:179,1,168.300005136109,2|2,0:0|3:2,0:0:0:0:
491,232,142468,2,0,P|506:171|515:139,1,84.1500025680543,10|2,0:0|0:0,0:0:0:0:
471,74,142798,6,0,B|425:20|425:20|355:55,1,126.225003852081,6|0,3:2|0:0,0:0:0:0:
350,57,143128,2,0,L|259:39,1,84.1500025680543,10|0,0:0|0:0,0:0:0:0:
175,7,143457,2,0,P|117:59|180:120,1,168.300005136109,2|10,3:2|0:0,0:0:0:0:
232,193,143952,6,0,B|112:241|235:254|86:312,1,168.300005136109,6|2,3:2|3:2,0:0:0:0:
23,342,144446,1,10,0:0:0:0:
3,244,144611,2,0,P|22:177|53:65,2,168.300005136109,6|2|2,3:2|3:2|0:0,0:0:0:0:
23,255,145353,1,0,0:0:0:0:
23,255,145435,6,0,B|67:267|67:267|114:219,1,84.1500025680543,4|0,3:2|0:0,0:0:0:0:
163,152,145765,2,0,B|209:140|209:140|253:191,1,84.1500025680543,8|0,0:0|0:0,0:0:0:0:
292,247,146095,1,0,3:0:0:0:
381,184,146260,1,0,3:0:0:0:
478,244,146424,6,0,P|448:332|435:370,1,126.225003852081,10|0,0:0|0:0,0:0:0:0:
423,380,146754,2,0,P|365:367|332:360,1,84.1500025680543,2|0,0:0|3:0,0:0:0:0:
245,324,147084,1,8,0:0:0:0:
156,384,147249,1,0,0:0:0:0:
72,335,147413,2,0,P|81:279|112:268,1,84.1500025680543,0|2,3:0|3:2,0:0:0:0:
177,221,147743,2,0,P|177:166|141:136,1,84.1500025680543,10|2,0:0|0:0,0:0:0:0:
72,64,148073,6,0,B|108:28|108:28|201:54,1,126.225003852081,6|0,3:2|0:0,0:0:0:0:
195,61,148402,2,0,P|263:52|293:46,1,84.1500025680543,10|0,0:0|0:0,0:0:0:0:
393,56,148732,2,0,P|345:115|383:192,1,168.300005136109,2|10,3:2|0:0,0:0:0:0:
458,223,149227,6,0,P|388:224|356:330,1,168.300005136109,2|0,3:2|3:0,0:0:0:0:
314,384,149721,1,10,0:0:0:0:
227,348,149886,2,0,B|113:339|180:407|35:379,1,168.300005136109,6|2,3:2|3:2,0:0:0:0:
0,331,150381,1,10,0:0:0:0:
0,330,150463,1,8,0:0:0:0:
0,330,150545,1,0,3:0:0:0:
67,270,150710,6,0,B|67:185|149:238|158:75|86:61|50:23|-25:156|45:131,1,321.299990194702,6|0,3:2|0:0,0:0:0:0:
175,27,152029,2,0,B|215:39|215:39|223:48|223:48|266:58,1,84.1500025680543,4|4,3:2|3:2,0:0:0:0:
427,130,153018,2,0,L|372:114,3,42.0750012840271,8|8|8|8,0:0|0:0|0:0|0:0,0:0:0:0:
453,155,153348,6,0,P|472:202|451:258,1,91.7999971984864,4|0,3:2|1:0,0:0:0:0:
393,305,153677,2,0,P|334:283|296:274,1,91.7999971984864,8|0,0:0|1:0,0:0:0:0:
214,246,154007,1,0,3:0:0:0:
152,330,154172,1,0,1:0:0:0:
55,294,154337,2,0,B|27:255|27:255|55:182,1,91.7999971984864,8|0,0:0|1:0,0:0:0:0:
62,127,154666,6,0,P|109:128|162:124,1,91.7999971984864,0|0,3:0|1:0,0:0:0:0:
245,68,154996,1,8,0:0:0:0:
321,135,155161,2,0,P|326:180|288:245,1,91.7999971984864,0|0,1:0|3:0,0:0:0:0:
257,304,155490,1,0,1:0:0:0:
342,359,155655,2,0,P|388:363|442:330,1,91.7999971984864,8|0,0:0|1:0,0:0:0:0:
512,281,155985,6,0,P|505:259|483:163,1,91.7999971984864,0|0,3:0|1:0,0:0:0:0:
507,107,156315,2,0,B|466:88|466:88|393:120,1,91.7999971984864,8|0,0:0|1:0,0:0:0:0:
321,135,156644,2,0,P|329:71|335:39,1,91.7999971984864,0|0,3:0|1:0,0:0:0:0:
246,8,156974,2,0,B|202:-2|202:-2|166:62,1,91.7999971984864,8|0,0:0|1:0,0:0:0:0:
145,133,157304,6,0,B|93:121|93:121|75:95|75:95|13:80,1,137.69999579773,0|0,3:0|0:0,0:0:0:0:
0,102,157633,2,0,P|8:176|11:203,1,91.7999971984864,8|0,0:0|1:0,0:0:0:0:
55,282,157963,2,0,P|117:266|159:255,1,91.7999971984864,0|0,3:0|1:0,0:0:0:0:
224,202,158293,2,0,P|267:250|258:296,1,91.7999971984864,8|0,0:0|1:0,0:0:0:0:
317,358,158622,6,0,P|406:337|485:318,1,137.69999579773,4|0,3:2|0:0,0:0:0:0:
473,304,158952,1,8,0:0:0:0:
503,215,159117,2,0,P|481:157|467:120,1,91.7999971984864,0|0,1:0|3:0,0:0:0:0:
367,137,159446,2,0,P|378:66|382:41,1,91.7999971984864,0|8,1:0|0:0,0:0:0:0:
298,3,159776,1,0,1:0:0:0:
210,55,159941,6,0,P|169:55|144:1,2,91.7999971984864,4|0|8,3:2|1:0|0:0,0:0:0:0:
272,130,160435,2,0,P|242:188|194:170,1,91.7999971984864,0|0,1:0|3:0,0:0:0:0:
147,229,160765,1,0,1:0:0:0:
52,219,160930,2,0,B|41:265|41:265|64:310,1,91.7999971984864,8|0,0:0|1:0,0:0:0:0:
138,358,161260,6,0,P|207:367|235:367,2,91.7999971984864,4|0|8,3:2|1:0|0:0,0:0:0:0:
61,304,161754,2,0,P|130:243|156:252,1,91.7999971984864,0|0,1:0|3:0,0:0:0:0:
177,149,162084,2,0,P|226:178|245:233,1,91.7999971984864,0|8,1:0|0:0,0:0:0:0:
313,283,162413,6,0,B|443:265|328:227|485:205,1,183.599994396973,0|0,1:0|1:0,0:0:0:0:
509,126,162908,2,0,P|490:88|462:42,1,91.7999971984864,8|0,0:0|1:0,0:0:0:0:
366,7,163238,2,0,P|350:68|321:92,1,91.7999971984864,0|2,3:0|3:0,0:0:0:0:
298,99,163485,1,8,0:0:0:0:
298,99,163567,2,0,L|292:161,2,45.8999985992432,8|8|8,0:0|0:0|0:0,0:0:0:0:
195,45,163897,6,0,B|128:13|128:13|62:94,1,137.69999579773,4|0,3:2|0:0,0:0:0:0:
63,84,164227,2,0,P|88:137|103:179,1,91.7999971984864,8|0,0:0|1:0,0:0:0:0:
150,238,164556,2,0,P|203:211|249:216,1,91.7999971984864,0|0,3:0|1:0,0:0:0:0:
293,144,164886,2,0,P|361:156|380:205,1,91.7999971984864,8|0,0:0|1:0,0:0:0:0:
451,226,165216,6,0,P|437:285|424:371,1,137.69999579773,0|0,3:0|0:0,0:0:0:0:
401,380,165545,2,0,P|342:365|307:358,1,91.7999971984864,8|0,0:0|1:0,0:0:0:0:
221,326,165875,2,0,P|167:345|113:365,1,91.7999971984864,0|0,3:0|1:0,0:0:0:0:
48,312,166205,2,0,P|68:250|91:170,1,137.69999579773,8|0,0:0|0:0,0:0:0:0:
100,158,166534,6,0,P|87:107|78:61,2,91.7999971984864,0|0|8,3:0|1:0|0:0,0:0:0:0:
168,218,167029,2,0,P|235:193|262:180,1,91.7999971984864,0|0,1:0|3:0,0:0:0:0:
331,145,167359,2,0,P|399:162|428:136,1,91.7999971984864,0|8,1:0|0:0,0:0:0:0:
475,82,167688,1,0,1:0:0:0:
412,21,167853,6,0,B|338:32|338:32|311:55|311:55|229:73,1,183.599994396973,0|8,3:0|0:0,0:0:0:0:
176,14,168348,2,0,P|115:19|96:125,1,183.599994396973,0|0,1:0|1:0,0:0:0:0:
78,200,168842,2,0,P|142:215|181:188,1,91.7999971984864,8|0,0:0|1:0,0:0:0:0:
245,155,169172,6,0,P|296:174|335:187,1,91.7999971984864,4|0,3:2|1:0,0:0:0:0:
387,253,169501,2,0,B|431:241|431:241|434:231|434:231|489:215,1,91.7999971984864,8|0,0:0|1:0,0:0:0:0:
512,293,169831,2,0,P|510:319|500:394,2,91.7999971984864,0|0|8,3:0|1:0|0:0,0:0:0:0:
468,221,170326,1,0,1:0:0:0:
510,135,170490,6,0,P|477:68|411:40,1,137.69999579773,4|0,3:2|0:0,0:0:0:0:
397,25,170820,2,0,B|267:45|352:88|241:107,1,183.599994396973,8|0,0:0|3:0,0:0:0:0:
152,117,171314,1,0,1:0:0:0:
65,76,171479,2,0,B|49:115|49:115|78:163,1,91.7999971984864,8|0,0:0|1:0,0:0:0:0:
134,220,171809,6,0,P|209:191|264:243,1,137.69999579773,4|0,3:2|0:0,0:0:0:0:
265,246,172139,1,8,0:0:0:0:
352,182,172304,2,0,P|433:152|485:228,1,183.599994396973,0|0,1:0|1:0,0:0:0:0:
512,312,172798,2,0,P|465:317|408:327,1,91.7999971984864,10|0,0:0|1:0,0:0:0:0:
336,303,173128,6,0,B|287:327|287:327|274:359|274:359|203:390,1,137.69999579773,2|0,3:2|0:0,0:0:0:0:
206,367,173457,2,0,P|145:354|111:348,1,91.7999971984864,10|0,0:0|1:0,0:0:0:0:
20,301,173787,2,0,P|43:243|56:195,1,91.7999971984864,2|2,3:2|3:0,0:0:0:0:
91,119,174117,2,0,P|84:98|74:65,3,45.8999985992432,2|8|2|0,3:2|0:0|3:0|0:0,0:0:0:0:
116,130,174446,6,0,B|162:143|162:143|203:94,1,84.1500025680543,12|0,3:1|1:0,0:0:0:0:
248,36,174776,2,0,B|294:23|294:23|335:72,1,84.1500025680543,8|0,0:0|1:0,0:0:0:0:
367,122,175106,1,0,3:0:0:0:
367,122,175271,1,0,1:0:0:0:
300,179,175435,2,0,P|293:248|289:279,1,84.1500025680543,10|0,0:0|1:0,0:0:0:0:
336,346,175765,6,0,P|379:335|441:321,1,84.1500025680543,2|0,3:2|1:0,0:0:0:0:
484,243,176095,2,0,P|425:223|426:176,1,84.1500025680543,10|0,0:0|1:0,0:0:0:0:
367,122,176424,2,0,P|362:68|359:38,1,84.1500025680543,2|0,3:2|1:0,0:0:0:0:
269,0,176754,2,0,P|250:55|242:88,1,84.1500025680543,10|0,0:0|1:0,0:0:0:0:
184,162,177084,5,0,3:0:0:0:
184,162,177249,1,0,1:0:0:0:
102,107,177413,2,0,B|59:95|59:95|21:140,1,84.1500025680543,8|0,0:0|1:0,0:0:0:0:
0,208,177743,2,0,P|7:252|13:295,1,84.1500025680543,0|0,3:0|1:0,0:0:0:0:
85,343,178073,2,0,P|133:324|188:346,1,84.1500025680543,10|0,0:0|1:0,0:0:0:0:
241,274,178402,6,0,P|296:306|305:351,1,84.1500025680543,2|0,3:2|1:0,0:0:0:0:
374,371,178732,2,0,P|425:355|433:314,1,84.1500025680543,10|0,0:0|1:0,0:0:0:0:
497,279,179062,2,0,P|487:222|463:203,1,84.1500025680543,2|0,3:2|1:0,0:0:0:0:
444,122,179391,2,0,P|390:114|361:139,1,84.1500025680543,10|0,0:0|1:0,0:0:0:0:
297,196,179721,6,0,B|235:181|235:181|205:144|205:144|140:126,1,168.300005136109,6|8,3:2|0:0,0:0:0:0:
76,79,180216,1,0,1:0:0:0:
148,14,180381,2,0,P|222:3|260:96,1,168.300005136109,2|8,3:2|0:0,0:0:0:0:
367,129,180875,1,0,1:0:0:0:
430,30,181040,6,0,P|475:49|486:95,1,84.1500025680543,2|0,3:2|1:0,0:0:0:0:
512,167,181370,2,0,P|494:225|495:269,1,84.1500025680543,10|0,0:0|1:0,0:0:0:0:
431,333,181699,2,0,P|412:268|390:238,1,84.1500025680543,2|0,3:2|1:0,0:0:0:0:
316,213,182029,2,0,P|284:260|257:262,1,84.1500025680543,10|0,0:0|1:0,0:0:0:0:
156,238,182359,6,0,P|175:157|194:63,1,168.300005136109,2|8,3:2|0:0,0:0:0:0:
105,13,182853,1,2,1:2:0:0:
51,104,183018,2,0,B|36:152|36:152|72:188,1,84.1500025680543,2|0,3:2|1:0,0:0:0:0:
156,238,183348,2,0,P|198:220|242:212,1,84.1500025680543,8|0,0:0|1:0,0:0:0:0:
311,159,183677,6,0,B|396:173|341:212|459:225,1,126.225003852081,0|0,3:0|0:0,0:0:0:0:
442,208,184007,2,0,B|474:242|474:242|462:297,1,84.1500025680543,10|0,0:0|1:0,0:0:0:0:
416,348,184337,2,0,P|367:333|321:328,1,84.1500025680543,2|2,3:2|3:0,0:0:0:0:
310,343,184584,1,8,0:0:0:0:
310,343,184666,2,0,L|291:384,3,42.0750012840271,10|8|8|8,0:0|0:0|0:0|0:0,0:0:0:0:
290,311,184996,6,0,B|245:294|245:294|197:342,1,84.1500025680543,6|0,3:2|1:0,0:0:0:0:
137,374,185326,1,8,0:0:0:0:
60,314,185490,2,0,P|28:259|39:216,1,84.1500025680543,0|0,1:0|3:0,0:0:0:0:
93,173,185820,1,0,1:0:0:0:
179,204,185985,2,0,P|213:162|210:112,1,84.1500025680543,8|0,0:0|1:0,0:0:0:0:
154,44,186315,6,0,P|94:56|48:65,2,84.1500025680543,0|0|8,3:0|1:0|0:0,0:0:0:0:
236,7,186809,1,0,1:0:0:0:
307,70,186974,2,0,B|348:89|348:89|406:50,1,84.1500025680543,0|0,3:0|1:0,0:0:0:0:
453,11,187304,2,0,P|509:35|502:80,1,84.1500025680543,8|0,0:0|1:0,0:0:0:0:
465,142,187633,6,0,B|383:177|462:180|359:222,1,126.225003852081,6|0,3:2|0:0,0:0:0:0:
354,233,187963,2,0,P|315:195|262:194,1,84.1500025680543,8|0,0:0|1:0,0:0:0:0:
206,155,188293,2,0,P|185:178|190:236,1,84.1500025680543,0|0,3:0|1:0,0:0:0:0:
179,323,188622,2,0,P|138:334|96:326,1,84.1500025680543,8|0,0:0|1:0,0:0:0:0:
44,242,188952,6,0,P|-8:288|-13:299,2,56.1000017120362,2|8|8,3:2|0:0|0:0,0:0:0:0:
52,196,189282,2,0,P|0:149|-15:154,2,56.1000017120362,10|8|0,0:0|0:0|3:0,0:0:0:0:
86,187,189611,2,0,P|95:120|88:107,2,56.1000017120362,10|0|0,0:0|0:0|3:0,0:0:0:0:
109,199,189941,2,0,P|175:176|178:161,2,56.1000017120362,2|0|0,3:2|3:0|3:0,0:0:0:0:
110,282,190271,6,0,P|166:351|223:330,1,137.69999579773,6|0,3:2|0:0,0:0:0:0:
288,363,190765,2,0,P|340:294|408:304,1,137.69999579773,6|0,3:2|0:0,0:0:0:0:
450,221,191260,6,0,P|429:145|410:65,1,137.69999579773,6|0,3:2|0:0,0:0:0:0:
365,18,191754,2,0,B|267:46|359:71|246:106,1,137.69999579773,6|0,3:2|3:0,0:0:0:0:
183,126,192249,2,0,P|142:113|110:110,1,68.8499978988648,2|0,0:0|3:0,0:0:0:0:
96,95,192496,1,0,3:0:0:0:
95,96,192578,1,2,3:2:0:0:
0,153,192908,5,6,3:2:0:0:
256,192,193073,12,0,196864,0:0:0:0:
37,56,198183,6,0,B|81:29|127:47|127:47|198:102|198:102|250:122|297:85,1,275.399991595459,4|0,3:2|0:0,0:0:0:0:
338,32,199337,2,0,P|374:39|382:51,1,45.8999985992432,0|0,0:0|3:0,0:0:0:0:
442,99,199666,1,0,3:0:0:0:
442,99,199831,2,0,P|427:132|415:156,1,45.8999985992432,0|0,3:0|3:0,0:0:0:0:
410,224,200161,2,0,L|462:248,3,30.6,0|0|0|0,3:0|0:0|3:0|3:0,0:0:0:0:
380,246,200490,2,0,L|327:262,3,38.25,0|0|0|0,3:0|3:0|3:0|3:0,0:0:0:0:
396,274,200820,6,0,B|408:320|408:320|379:355,1,91.7999971984864,14|2,3:1|0:0,0:0:0:0:
293,362,201150,2,0,P|240:343|201:352,1,91.7999971984864,10|2,0:0|0:0,0:0:0:0:
123,384,201479,1,2,3:2:0:0:
123,384,201644,1,2,3:2:0:0:
38,328,201809,1,8,0:0:0:0:
81,242,201974,6,0,B|205:202|137:280|280:238,1,183.599994396973,6|0,3:2|3:0,0:0:0:0:
323,198,202468,1,10,0:0:0:0:
409,198,202633,2,0,P|435:162|374:51,1,183.599994396973,6|2,3:2|3:2,0:0:0:0:
288,81,203128,2,0,P|261:90|195:54,1,91.7999971984864,10|2,0:0|0:0,0:0:0:0:
115,4,203457,6,0,B|58:49|58:49|83:121,1,137.69999579773,6|0,3:2|0:0,0:0:0:0:
98,126,203787,2,0,P|88:195|80:235,1,91.7999971984864,10|0,0:0|0:0,0:0:0:0:
35,284,204117,2,0,B|84:294|84:294|110:323|110:323|169:336,1,137.69999579773,2|0,3:2|0:0,0:0:0:0:
187,316,204446,1,10,0:0:0:0:
253,377,204611,6,0,P|293:318|390:353,1,183.599994396973,6|0,3:2|3:0,0:0:0:0:
470,370,205106,2,0,P|507:335|496:290,1,91.7999971984864,10|0,0:0|0:0,0:0:0:0:
503,191,205435,2,0,P|458:210|406:224,1,91.7999971984864,2|0,3:2|3:0,0:0:0:0:
323,233,205765,2,0,P|276:206|223:191,1,91.7999971984864,10|0,0:0|0:0,0:0:0:0:
155,146,206095,6,0,B|145:99|145:99|194:57,1,91.7999971984864,6|0,3:2|0:0,0:0:0:0:
254,12,206424,1,10,0:0:0:0:
325,71,206589,2,0,B|434:96|368:25|505:33,2,183.599994396973,2|6|2,0:0|3:2|3:2,0:0:0:0:
155,146,207578,1,0,3:0:0:0:
72,102,207743,1,8,0:0:0:0:
16,190,207908,6,0,B|4:239|4:239|50:290|50:290|38:355,1,183.599994396973,6|2,3:2|3:2,0:0:0:0:
139,314,208402,2,0,L|130:265,3,45.8999985992432,10|8|2|0,0:0|0:0|3:2|3:0,0:0:0:0:
160,328,208732,6,0,P|204:357|256:322,1,91.7999971984864,14|0,3:1|0:0,0:0:0:0:
303,289,209062,2,0,P|283:219|275:176,1,91.7999971984864,8|2,0:0|0:0,0:0:0:0:
317,128,209391,1,2,3:2:0:0:
299,48,209556,2,0,P|343:28|394:62,1,91.7999971984864,2|8,3:2|0:0,0:0:0:0:
451,93,209886,6,0,P|432:169|414:298,1,183.599994396973,6|2,3:2|3:2,0:0:0:0:
370,344,210381,2,0,P|320:318|266:321,1,91.7999971984864,10|2,0:0|0:0,0:0:0:0:
195,285,210710,2,0,P|159:310|146:365,2,91.7999971984864,0|2|10,3:0|3:2|0:0,0:0:0:0:
258,228,211205,1,2,0:0:0:0:
200,163,211370,6,0,P|190:112|179:67,1,91.7999971984864,6|0,3:2|0:0,0:0:0:0:
264,85,211699,2,0,P|288:25|300:-10,1,91.7999971984864,10|0,0:0|0:0,0:0:0:0:
382,49,212029,2,0,P|392:90|427:247,1,183.599994396973,2|10,3:2|0:0,0:0:0:0:
359,292,212523,6,0,B|226:307|315:355|176:368,1,183.599994396973,6|2,3:2|3:2,0:0:0:0:
95,346,213018,1,10,0:0:0:0:
122,256,213183,2,0,P|96:189|-5:218,2,183.599994396973,6|2|2,3:2|3:2|0:0,0:0:0:0:
141,273,213924,1,0,0:0:0:0:
141,273,214007,6,0,P|211:253|240:247,1,91.7999971984864,4|0,3:2|0:0,0:0:0:0:
298,204,214337,2,0,P|336:241|390:263,1,91.7999971984864,8|0,0:0|0:0,0:0:0:0:
452,299,214666,1,0,3:0:0:0:
512,238,214831,1,0,3:0:0:0:
447,171,214996,2,0,P|458:115|470:57,1,91.7999971984864,10|4,0:0|3:2,0:0:0:0:
420,6,215326,6,0,B|363:32|363:32|351:61|351:61|300:85,1,137.69999579773,2|0,0:0|0:0,0:0:0:0:
294,61,215655,2,0,P|244:52|211:74,1,91.7999971984864,8|0,0:0|0:0,0:0:0:0:
169,153,215985,2,0,P|210:194|221:236,1,91.7999971984864,0|2,3:0|3:2,0:0:0:0:
294,275,216315,2,0,P|252:314|248:363,1,91.7999971984864,10|2,0:0|0:0,0:0:0:0:
169,375,216644,6,0,P|99:353|27:335,1,137.69999579773,6|0,3:2|0:0,0:0:0:0:
19,323,216974,2,0,P|16:257|14:215,1,91.7999971984864,10|0,0:0|0:0,0:0:0:0:
93,177,217304,2,0,B|179:182|132:208|228:226,1,137.69999579773,2|0,3:2|0:0,0:0:0:0:
243,202,217633,1,10,0:0:0:0:
294,275,217798,6,0,P|378:268|384:172,1,183.599994396973,2|0,3:2|3:0,0:0:0:0:
316,136,218293,1,10,0:0:0:0:
243,202,218457,2,0,P|172:171|208:88,1,183.599994396973,6|2,3:2|3:2,0:0:0:0:
272,21,218952,2,0,L|325:39,3,45.8999985992432,10|8|0|0,0:0|0:0|3:0|3:0,0:0:0:0:
240,0,219282,6,0,B|154:-16|173:42|86:17,1,153,6|0,3:2|0:0,0:0:0:0:
13,144,219941,2,0,P|11:190|39:207,1,76.5,2|0,0:0|0:0,0:0:0:0:
83,266,220271,2,0,P|128:256|150:224,1,76.5
212,146,220600,5,4,3:2:0:0:
287,216,220765,1,4,3:2:0:0:
397,84,221260,2,0,L|413:31,5,38.25,8|8|8|8|8|8,0:0|0:0|0:0|0:0|0:0|0:0,0:0:0:0:
421,108,221754,6,0,P|464:136|475:244,1,168.300005136109,4|2,3:2|3:0,0:0:0:0:
419,317,222249,2,0,P|371:298|337:292,1,84.1500025680543,8|0,0:0|1:0,0:0:0:0:
247,253,222578,2,0,P|230:307|199:322,1,84.1500025680543,0|0,3:0|1:0,0:0:0:0:
139,372,222908,2,0,P|86:353|44:353,1,84.1500025680543,8|0,0:0|1:0,0:0:0:0:
0,272,223238,6,0,P|18:192|37:96,2,168.300005136109,0|8|0,3:0|0:0|3:0,0:0:0:0:
166,250,224227,2,0,P|160:217|149:153,1,84.1500025680543,8|0,0:0|1:0,0:0:0:0:
173,81,224556,6,0,P|163:61|98:38,2,84.1500025680543,0|0|8,3:0|1:0|0:0,0:0:0:0:
230,143,225051,1,0,1:0:0:0:
313,116,225216,2,0,P|349:66|343:35,1,84.1500025680543,0|0,3:0|1:0,0:0:0:0:
430,7,225545,2,0,P|470:48|472:89,1,84.1500025680543,8|0,0:0|1:0,0:0:0:0:
448,152,225875,6,0,P|455:210|469:295,1,126.225003852081,0|0,3:0|0:0,0:0:0:0:
475,295,226205,2,0,P|438:296|379:339,1,84.1500025680543,8|0,0:0|1:0,0:0:0:0:
315,363,226534,2,0,P|274:328|276:287,1,84.1500025680543,2|8,3:2|0:0,0:0:0:0:
283,266,226782,1,8,0:0:0:0:
283,266,226864,1,10,0:0:0:0:
206,205,227029,6,0,B|147:228|147:228|129:259|129:259|54:290,1,168.300005136109,6|0,3:2|3:0,0:0:0:0:
0,222,227523,2,0,P|20:175|29:127,1,84.1500025680543,8|0,0:0|3:0,0:0:0:0:
118,139,227853,2,0,P|96:85|85:47,1,84.1500025680543,10|0,0:0|3:0,0:0:0:0:
166,0,228183,1,10,0:0:0:0:
249,42,228348,6,0,P|231:97|202:222,1,168.300005136109,6|0,3:2|3:0,0:0:0:0:
241,300,228842,2,0,P|298:285|337:281,1,84.1500025680543,8|0,0:0|3:0,0:0:0:0:
348,263,229089,1,0,3:0:0:0:
348,263,229172,2,0,P|405:284|432:285,1,84.1500025680543,10|0,0:0|3:0,0:0:0:0:
508,244,229501,1,14,0:0:0:0:
454,172,229666,6,0,P|434:100|422:54,1,84.1500025680543,2|0,3:2|0:0,0:0:0:0:
397,1,229996,1,2,3:2:0:0:
331,59,230161,2,0,P|275:45|242:41,1,84.1500025680543,10|0,0:0|3:0,0:0:0:0:
225,32,230408,1,0,3:0:0:0:
224,31,230490,2,0,P|185:39|128:44,1,84.1500025680543,10|0,0:0|3:0,0:0:0:0:
64,100,230820,1,10,0:0:0:0:
121,172,230985,6,0,B|239:188|139:224|299:250,1,168.300005136109,6|0,3:2|0:0,0:0:0:0:
349,308,231479,2,0,L|408:299,2,42.0750012840271,8|8|0,0:0|0:0|3:0,0:0:0:0:
282,368,231809,1,2,3:2:0:0:
282,368,231974,1,0,3:0:0:0:
199,320,232139,1,14,0:0:0:0:
121,360,232304,6,0,B|-23:343|1:137|50:165|50:165|71:218|126:203,1,344.249989494324,2|2,3:2|0:0,0:0:0:0:
133,73,233457,1,10,0:0:0:0:
219,110,233622,6,0,P|276:80|359:93,1,137.69999579773,6|0,3:2|3:0,0:0:0:0:
426,50,234117,2,0,L|440:-2,3,34.4249989494324,10|8|0|0,0:0|0:0|3:0|3:0,0:0:0:0:
443,74,234446,2,0,B|470:107|470:107|454:146,1,68.8499978988648,2|2,3:2|3:2,0:0:0:0:
390,186,234776,1,8,0:0:0:0:
449,256,234941,5,6,3:2:0:0:
256,192,235106,12,0,240216,0:0:0:0:
