osu file format v14

[General]
AudioFilename: audio.mp3
AudioLeadIn: 0
PreviewTime: 128649
Countdown: 0
SampleSet: Soft
StackLeniency: 0.2
Mode: 0
LetterboxInBreaks: 0
WidescreenStoryboard: 1

[Editor]
Bookmarks: 21498,174431,209077,221769,234956,237758,240231
DistanceSpacing: 1.2
BeatDivisor: 4
GridSize: 4
TimelineZoom: 2.5

[Metadata]
Title:Diamond City Lights
TitleUnicode:Diamond City Lights
Artist:LazuLight
ArtistUnicode:LazuLight
Creator:[ TNTlealu ]
Version:Chu's Insane
Source:
Tags:にじさんじ まふまふ -_AzRaeL_- hakashii arronchu1207 Pop Rock Nijisanji EN English Vtuber virtual youtuber Mafumafu Finana Ryugu フィナーナ竜宮 Elira Pendora エリーラペンドラ Pomu Rainpuff ぽむれいんぱふ
BeatmapID:3074714
BeatmapSetID:1464031

[Difficulty]
HPDrainRate:5.3
CircleSize:4.2
OverallDifficulty:8
ApproachRate:9
SliderMultiplier:1.6
SliderTickRate:1

[Events]
//Background and Video events
0,0,"a.jpg",0,0
Video,-992,"finanamymommy.mp4"
//Break Periods
//Storyboard Layer 0 (Background)
//Storyboard Layer 1 (Fail)
//Storyboard Layer 2 (Pass)
//Storyboard Layer 3 (Foreground)
//Storyboard Layer 4 (Overlay)
//Storyboard Sound Samples
Sample,20326,0,"wooosh.wav",100
Sample,41754,0,"wooosh.wav",100
Sample,57578,0,"wooosh.wav",100
Sample,68128,0,"wooosh.wav",100
Sample,78677,0,"wooosh.wav",100
Sample,81315,0,"wooosh.wav",100
Sample,89227,0,"wooosh.wav",100
Sample,112963,0,"wooosh.wav",100
Sample,128787,0,"wooosh.wav",100
Sample,139337,0,"wooosh.wav",100
Sample,149886,0,"wooosh.wav",100
Sample,152523,0,"wooosh.wav",100
Sample,173622,0,"wooosh.wav",100
Sample,189446,0,"wooosh.wav",100
Sample,199996,0,"wooosh.wav",100
Sample,207908,0,"wooosh.wav",100
Sample,218457,0,"wooosh.wav",100
Sample,221095,0,"wooosh.wav",100
Sample,234282,0,"wooosh.wav",100

[TimingPoints]
381,329.67032967033,4,2,2,50,1,0
381,-200,4,2,2,50,0,0
9941,-200,4,2,2,30,0,0
10271,-200,4,2,2,50,0,0
10600,-200,4,2,2,30,0,0
10930,-200,4,2,2,50,0,0
18512,-133.333333333333,4,2,2,50,0,0
18842,-200,4,2,2,50,0,0
21479,-117.647058823529,4,2,1,70,0,0
39611,-105.263157894737,4,2,1,70,0,0
39941,-105.263157894737,4,2,1,70,0,0
42578,-117.647058823529,4,2,1,70,0,0
43238,-117.647058823529,4,2,4,70,0,0
43567,-117.647058823529,4,2,1,70,0,0
43897,-117.647058823529,4,2,1,70,0,0
44556,-117.647058823529,4,2,5,70,0,0
44886,-117.647058823529,4,2,1,70,0,0
45216,-117.647058823529,4,2,1,70,0,0
45875,-117.647058823529,4,2,6,70,0,0
46205,-117.647058823529,4,2,1,70,0,0
47688,-117.647058823529,4,2,1,70,0,0
52963,-105.263157894737,4,2,1,70,0,0
57743,-105.263157894737,4,2,10,70,0,0
57908,-105.263157894737,4,2,11,70,0,0
58073,-105.263157894737,4,2,1,70,0,0
58402,-95.2380952380952,4,2,1,90,0,1
68622,-95.2380952380952,4,2,1,90,0,1
68787,-95.2380952380952,4,2,10,90,0,1
68870,-95.2380952380952,4,2,11,90,0,1
68952,-95.2380952380952,4,2,1,90,0,1
79172,-95.2380952380952,4,2,1,90,0,1
79337,-95.2380952380952,4,2,10,90,0,1
79419,-95.2380952380952,4,2,11,90,0,1
79501,-200,4,2,1,70,0,1
81479,-95.2380952380952,4,2,1,70,0,1
81974,-105.263157894737,4,2,1,70,0,0
86919,-76.9230769230769,4,2,1,70,0,0
87249,-95.2380952380952,4,2,1,70,0,0
89391,-95.2380952380952,4,2,10,70,0,0
89556,-95.2380952380952,4,2,11,70,0,0
89721,-76.9230769230769,4,2,1,70,0,0
89968,-76.9230769230769,4,2,1,70,0,0
90051,-95.2380952380952,4,2,1,70,0,0
92029,-133.333333333333,4,2,1,70,0,0
92523,-133.333333333333,4,2,1,70,0,0
92688,-105.263157894737,4,2,1,70,0,0
95243,-105.263157894737,4,2,1,5,0,0
95326,-105.263157894737,4,2,1,70,0,0
96562,-105.263157894737,4,2,1,5,0,0
96644,-105.263157894737,4,2,1,70,0,0
102908,-105.263157894737,4,2,1,70,0,0
103155,-105.263157894737,4,2,1,5,0,0
103238,-105.263157894737,4,2,1,70,0,0
109749,-105.263157894737,4,2,1,5,0,0
109831,-105.263157894737,4,2,1,70,0,0
113787,-117.647058823529,4,2,1,70,0,0
114446,-117.647058823529,4,2,4,70,0,0
114776,-117.647058823529,4,2,1,70,0,0
115106,-117.647058823529,4,2,1,70,0,0
115765,-117.647058823529,4,2,5,70,0,0
116095,-117.647058823529,4,2,1,70,0,0
116424,-117.647058823529,4,2,1,70,0,0
117084,-117.647058823529,4,2,6,70,0,0
117413,-117.647058823529,4,2,1,70,0,0
124172,-105.263157894737,4,2,1,70,0,0
128952,-105.263157894737,4,2,10,70,0,0
129117,-105.263157894737,4,2,11,70,0,0
129282,-105.263157894737,4,2,1,70,0,0
129611,-95.2380952380952,4,2,1,90,0,1
139831,-95.2380952380952,4,2,1,90,0,1
139996,-95.2380952380952,4,2,10,90,0,1
140078,-95.2380952380952,4,2,11,90,0,1
140161,-95.2380952380952,4,2,1,90,0,1
150381,-95.2380952380952,4,2,1,90,0,1
150545,-95.2380952380952,4,2,10,90,0,1
150628,-95.2380952380952,4,2,11,90,0,1
150710,-200,4,2,1,70,0,0
153018,-76.9230769230769,4,2,1,70,0,0
153348,-105.263157894737,4,2,1,70,0,0
174446,-117.647058823529,4,2,1,70,0,0
182276,-117.647058823529,4,2,1,70,0,0
182359,-117.647058823529,4,2,1,70,0,0
188952,-117.647058823529,4,2,1,70,0,0
189282,-117.647058823529,4,2,1,70,0,0
189611,-117.647058823529,4,2,1,70,0,0
192908,-105.263157894737,4,2,1,70,0,0
198183,-95.2380952380952,4,2,1,70,0,1
198348,-105.263157894737,4,2,1,70,0,0
199501,-105.263157894737,4,2,0,70,0,0
200820,-95.2380952380952,4,2,1,90,0,1
208402,-95.2380952380952,4,2,1,90,0,1
208567,-95.2380952380952,4,2,10,90,0,1
208650,-95.2380952380952,4,2,11,90,0,1
208732,-95.2380952380952,4,2,1,90,0,1
218952,-95.2380952380952,4,2,1,90,0,1
219117,-95.2380952380952,4,2,10,90,0,1
219199,-95.2380952380952,4,2,11,90,0,1
219282,-200,4,2,1,70,0,0
221260,-95.2380952380952,4,2,1,70,0,0
221754,-105.263157894737,4,2,1,70,0,0
226699,-95.2380952380952,4,2,1,70,0,0
232304,-117.647058823529,4,2,1,70,0,0
233622,-95.2380952380952,4,2,1,70,0,0
234941,-105.263157894737,4,2,1,70,0,0
237743,-105.263157894737,4,2,1,60,0,0
238402,-105.263157894737,4,2,1,50,0,0
239062,-105.263157894737,4,2,1,40,0,0
239721,-105.263157894737,4,2,1,30,0,0
240216,-105.263157894737,4,2,1,20,0,0

[Colours]
Combo1 : 66,255,255
Combo2 : 23,210,173
Combo3 : 241,194,116

[HitObjects]
38,300,381,6,0,P|81:290|118:312,1,80,2|0,0:0|0:0,0:0:0:0:
119,313,1040,6,0,L|106:181,1,120,2|0,0:0|0:0,0:0:0:0:
159,123,1699,5,2,0:0:0:0:
295,184,2029,1,0,0:0:0:0:
338,280,2359,1,2,0:0:0:0:
323,360,2688,1,0,0:0:0:0:
313,372,3018,6,0,P|355:349|430:370,1,120,2|0,0:0|0:0,0:0:0:0:
497,311,3677,1,2,0:0:0:0:
346,151,4337,5,2,0:0:0:0:
427,91,4996,1,2,0:0:0:0:
297,248,5655,6,0,L|209:235,1,80,2|0,0:0|0:0,0:0:0:0:
209,241,6315,6,0,P|229:196|191:94,1,160,2|2,0:0|0:0,0:0:0:0:
50,14,7304,1,0,0:0:0:0:
53,9,7468,2,0,L|70:129,1,120
22,206,8293,6,0,P|40:174|154:167,1,160,2|2,0:0|0:0,0:0:0:0:
345,318,9611,5,2,0:0:0:0:
256,371,9941,1,2,0:0:0:0:
352,322,10271,5,2,0:0:0:0:
247,365,10600,1,2,0:0:0:0:
330,217,10930,6,0,B|348:184|388:170|430:182|430:182|474:217,1,160,2|2,0:0|0:0,0:0:0:0:
460,220,11919,1,0,0:0:0:0:
330,98,12249,6,0,P|294:84|244:92,1,80,2|0,0:0|0:0,0:0:0:0:
10,243,12908,2,0,P|48:238|93:227,1,80,2|0,0:0|0:0,0:0:0:0:
180,175,13567,6,0,L|164:301,1,120,2|0,0:0|0:0,0:0:0:0:
217,362,14227,1,2,0:0:0:0:
422,253,14886,5,2,0:0:0:0:
326,188,15545,1,2,0:0:0:0:
395,356,16205,6,0,P|435:351|478:345,1,80,2|0,0:0|0:0,0:0:0:0:
272,304,16864,2,0,P|242:301|197:325,1,80,2|0,0:0|0:0,0:0:0:0:
376,238,17523,6,0,P|399:190|385:88,1,160,2|2,0:0|0:0,0:0:0:0:
381,82,18512,2,0,L|443:91,1,60.0000022888184
299,15,18842,5,2,0:0:0:0:
256,192,18924,12,0,21150,0:0:0:0:
341,184,21479,6,0,P|334:224|330:257,1,68.0000012969971,4|0,3:2|0:0,0:0:0:0:
236,140,21809,2,0,P|243:180|247:213,1,68.0000012969971,2|0,3:2|0:0,0:0:0:0:
288,56,22139,2,0,P|251:91|163:87,1,136.000002593994,2|0,3:2|3:0,0:0:0:0:
62,24,22633,1,2,0:0:0:0:
68,20,22798,6,0,P|61:63|55:100,1,68.0000012969971,2|0,3:2|0:0,0:0:0:0:
158,199,23128,2,0,P|134:177|92:168,1,68.0000012969971,2|0,3:2|0:0,0:0:0:0:
22,274,23457,2,0,L|90:262,1,68.0000012969971,2|0,3:2|0:0,0:0:0:0:
148,370,23787,2,0,L|76:359,1,68.0000012969971,2|0,3:2|0:0,0:0:0:0:
226,312,24117,6,0,P|253:285|349:298,1,136.000002593994,2|0,3:2|3:0,0:0:0:0:
343,293,24611,1,2,0:0:0:0:
441,375,24776,2,0,L|425:238,1,136.000002593994,2|0,3:2|3:0,0:0:0:0:
282,84,25435,6,0,B|197:97|242:59|147:72,1,136.000002593994,2|0,3:2|3:0,0:0:0:0:
70,135,25930,1,2,0:0:0:0:
142,66,26095,2,0,P|168:115|150:195,1,136.000002593994,2|0,3:2|3:0,0:0:0:0:
10,316,26754,6,0,P|4:270|-3:239,1,68.0000012969971,0|0,3:0|0:0,0:0:0:0:
107,297,27084,2,0,P|100:330|96:364,1,68.0000012969971,2|0,3:2|0:0,0:0:0:0:
182,266,27413,2,0,P|136:274|77:209,1,136.000002593994,2|0,3:2|3:0,0:0:0:0:
271,161,28073,6,0,P|276:219|284:299,1,136.000002593994,2|2,3:2|3:2,0:0:0:0:
266,384,28567,2,0,P|285:340|374:349,1,136.000002593994,2|2,0:0|0:0,0:0:0:0:
452,382,29062,1,2,3:2:0:0:
448,376,29227,6,0,P|451:333|463:237,1,136.000002593994,2|2,0:0|0:0,0:0:0:0:
358,125,29721,2,0,P|376:159|376:200,1,68.0000012969971,2|0,3:2|0:0,0:0:0:0:
496,70,30051,2,0,P|446:63|420:58,1,68.0000012969971,0|0,3:0|0:0,0:0:0:0:
298,10,30381,2,0,P|331:4|365:0,1,68.0000012969971,0|0,3:0|0:0,0:0:0:0:
265,101,30710,6,0,P|237:75|143:85,1,136.000002593994,0|2,3:0|3:2,0:0:0:0:
57,191,31205,1,0,0:0:0:0:
59,186,31370,2,0,P|55:141|50:109,1,68.0000012969971,2|0,3:2|0:0,0:0:0:0:
157,253,31699,2,0,P|161:208|166:176,1,68.0000012969971,2|0,3:2|0:0,0:0:0:0:
1,350,32029,6,0,B|19:321|53:310|83:317|83:317|119:342,2,136.000002593994,2|0|0,3:2|3:0|3:0,0:0:0:0:
157,253,33018,2,0,P|191:251|237:244,1,68.0000012969971,2|0,3:2|0:0,0:0:0:0:
294,185,33348,6,0,P|276:228|288:319,1,136.000002593994,2|2,3:2|3:2,0:0:0:0:
399,380,33842,1,0,0:0:0:0:
401,375,34007,6,0,P|396:335|390:305,1,68.0000012969971,2|0,3:2|0:0,0:0:0:0:
492,118,34337,2,0,P|485:151|481:185,1,68.0000012969971,2|0,3:2|0:0,0:0:0:0:
391,136,34666,6,0,P|360:106|270:117,1,136.000002593994,2|0,3:2|3:0,0:0:0:0:
168,42,35161,1,2,0:0:0:0:
171,37,35326,2,0,L|190:184,1,136.000002593994,2|0,3:2|3:0,0:0:0:0:
83,253,35820,1,0,0:0:0:0:
79,248,35985,6,0,P|70:210|79:177,1,68.0000012969971,0|0,3:0|0:0,0:0:0:0:
126,337,36315,2,0,L|51:346,1,68.0000012969971,0|0,3:0|0:0,0:0:0:0:
194,272,36644,2,0,P|230:274|260:293,1,68.0000012969971,0|0,3:0|0:0,0:0:0:0:
337,382,36974,2,0,L|348:308,1,68.0000012969971,2|0,3:2|0:0,0:0:0:0:
395,187,37304,6,0,B|418:155|460:153|485:161|485:161|517:189,1,136.000002593994,2|0,3:2|3:0,0:0:0:0:
508,194,37798,1,0,0:0:0:0:
386,78,37963,2,0,P|305:70|239:63,1,136.000002593994,0|2,3:0|3:2,0:0:0:0:
244,59,38622,6,0,P|258:97|254:129,1,68.0000012969971,2|8,3:2|0:0,0:0:0:0:
165,253,38952,2,0,L|175:181,1,68.0000012969971,10|10,3:2|0:0,0:0:0:0:
254,337,39282,1,8,0:0:0:0:
237,342,39364,1,0,0:0:0:0:
221,347,39446,1,2,3:2:0:0:
205,353,39529,1,0,3:0:0:0:
189,358,39611,2,0,P|148:353|105:344,1,75.9999979705811,10|0,0:0|0:0,0:0:0:0:
300,243,39941,6,0,P|342:226|432:291,1,151.999995941162,0|0,3:0|3:0,0:0:0:0:
419,285,40435,1,8,0:0:0:0:
508,197,40600,5,8,3:2:0:0:
508,197,40765,1,8,0:0:0:0:
381,75,40930,1,8,3:2:0:0:
381,75,41095,1,8,0:0:0:0:
501,0,41260,6,0,L|485:81,1,75.9999979705811,8|8,0:0|0:0,0:0:0:0:
319,213,41589,2,0,L|303:138,1,75.9999979705811,8|8,0:0|0:0,0:0:0:0:
127,68,41919,5,0,3:0:0:0:
252,1,42084,1,8,0:0:0:0:
250,11,42166,1,8,0:0:0:0:
248,21,42249,1,8,0:0:0:0:
188,175,42413,1,8,0:0:0:0:
61,52,42578,6,0,P|91:60|131:69,1,68.0000012969971,2|0,3:2|3:0,0:0:0:0:
254,158,42908,2,0,P|220:165|187:174,1,68.0000012969971,2|0,3:2|3:0,0:0:0:0:
10,176,43238,2,0,P|43:165|98:238,1,136.000002593994,14|2,0:0|0:0,0:0:0:0:
10,280,43732,1,8,0:0:0:0:
177,364,43897,6,0,L|187:291,1,68.0000012969971,2|0,3:2|3:0,0:0:0:0:
102,241,44227,2,0,L|92:308,1,68.0000012969971,0|0,3:0|3:0,0:0:0:0:
191,292,44474,1,0,0:0:0:0:
196,288,44556,6,0,P|212:253|165:165,1,136.000002593994,14|2,0:0|0:0,0:0:0:0:
80,141,45051,1,8,0:0:0:0:
144,6,45216,6,0,P|147:45|152:80,1,68.0000012969971,2|0,3:2|3:0,0:0:0:0:
254,101,45545,2,0,P|251:62|246:27,1,68.0000012969971,2|0,3:2|3:0,0:0:0:0:
174,169,45875,2,0,P|239:148|296:186,1,136.000002593994,14|2,0:0|0:0,0:0:0:0:
323,278,46370,1,8,0:0:0:0:
460,194,46534,6,0,P|422:199|392:205,1,68.0000012969971,2|8,3:2|0:0,0:0:0:0:
512,300,46864,2,0,P|474:295|444:289,1,68.0000012969971,0|2,3:0|3:2,0:0:0:0:
301,378,47194,1,10,0:0:0:0:
319,272,47359,1,10,0:0:0:0:
285,265,47441,1,10,0:0:0:0:
253,274,47523,1,8,0:0:0:0:
229,298,47606,1,8,0:0:0:0:
227,307,47688,6,0,B|143:322|175:278|86:289,1,136.000002593994,4|2,3:2|0:0,0:0:0:0:
26,226,48183,2,0,L|36:158,1,68.0000012969971,2|0,3:2|0:0,0:0:0:0:
111,35,48512,2,0,P|102:73|109:102,1,68.0000012969971,2|0,3:2|0:0,0:0:0:0:
265,83,48842,2,0,L|195:73,1,68.0000012969971,2|0,3:2|0:0,0:0:0:0:
218,169,49172,6,0,P|248:139|340:153,1,136.000002593994,2|2,3:2|3:2,0:0:0:0:
466,215,49666,1,0,0:0:0:0:
469,209,49831,2,0,L|394:216,1,68.0000012969971,2|0,3:2|0:0,0:0:0:0:
259,358,50161,1,10,0:0:0:0:
211,281,50326,6,0,P|247:269|343:316,1,136.000002593994,6|0,3:2|0:0,0:0:0:0:
133,384,50820,2,0,P|130:345|125:309,1,68.0000012969971,0|0,3:0|0:0,0:0:0:0:
56,196,51150,2,0,P|51:229|49:263,1,68.0000012969971,0|0,3:0|0:0,0:0:0:0:
203,126,51479,2,0,P|173:141|134:136,1,68.0000012969971,2|0,3:2|0:0,0:0:0:0:
59,14,51809,5,2,3:2:0:0:
61,9,51974,1,8,0:0:0:0:
203,126,52139,2,0,P|197:84|193:46,1,68.0000012969971,10|8,3:2|0:0,0:0:0:0:
299,171,52468,5,10,3:2:0:0:
223,355,52633,1,8,0:0:0:0:
304,167,52798,1,10,0:0:0:0:
379,244,52963,6,0,P|344:266|237:253,1,151.999995941162,14|0,0:0|3:0,0:0:0:0:
151,186,53457,1,10,0:0:0:0:
0,372,53705,1,0,0:0:0:0:
13,381,53787,6,0,P|50:374|88:369,1,75.9999979705811,2|0,3:2|3:0,0:0:0:0:
238,254,54117,1,10,0:0:0:0:
287,343,54282,6,0,P|236:354|141:288,1,151.999995941162,6|0,3:2|3:0,0:0:0:0:
93,222,54776,1,8,0:0:0:0:
288,79,55023,1,0,3:0:0:0:
278,88,55106,6,0,L|268:12,1,75.9999979705811,0|0,3:0|3:0,0:0:0:0:
370,41,55435,1,10,0:0:0:0:
208,148,55600,6,0,B|118:161|153:119|46:134,1,151.999995941162,6|2,3:2|3:2,0:0:0:0:
18,308,56095,1,10,0:0:0:0:
167,262,56260,1,2,3:2:0:0:
169,256,56342,1,0,3:0:0:0:
171,250,56424,1,2,3:2:0:0:
52,138,56589,2,0,L|5:145,2,37.9999989852906,2|0|8,3:2|0:0|0:0,0:0:0:0:
108,340,56919,6,0,P|164:299|246:329,1,151.999995941162,2|0,3:2|3:0,0:0:0:0:
344,381,57413,1,10,0:0:0:0:
349,373,57496,1,10,0:0:0:0:
355,365,57578,2,0,P|350:331|347:313,1,37.9999989852906,2|2,3:2|0:0,0:0:0:0:
489,270,57743,5,0,3:0:0:0:
472,260,57825,1,0,3:0:0:0:
453,256,57907,1,2,3:2:0:0:
435,256,57990,1,0,3:0:0:0:
416,261,58073,2,0,P|420:220|426:184,1,75.9999979705811,14|2,0:0|0:0,0:0:0:0:
339,66,58402,6,0,B|314:35|274:22|229:37|229:37|192:71,1,167.999994873047,14|8,3:1|0:0,0:0:0:0:
99,246,58897,1,2,0:0:0:0:
256,143,59062,1,2,3:2:0:0:
79,146,59227,2,0,L|170:165,1,83.9999974365235,2|8,3:2|0:0,0:0:0:0:
316,283,59556,6,0,P|261:263|173:327,1,167.999994873047,6|2,3:2|3:2,0:0:0:0:
266,381,60051,1,10,0:0:0:0:
372,203,60216,2,0,P|427:183|515:247,1,167.999994873047,2|2,0:0|3:2,0:0:0:0:
434,384,60710,2,0,L|423:296,1,83.9999974365235,10|2,0:0|0:0,0:0:0:0:
275,155,61040,5,6,3:2:0:0:
275,155,61205,1,2,0:0:0:0:
452,95,61370,1,10,0:0:0:0:
452,95,61534,1,2,0:0:0:0:
270,31,61699,5,2,3:2:0:0:
357,212,61864,2,0,L|372:120,1,83.9999974365235,2|8,3:2|0:0,0:0:0:0:
178,299,62194,6,0,B|202:259|246:249|277:261|277:261|318:298,1,167.999994873047,6|0,3:2|3:0,0:0:0:0:
175,181,62688,1,10,0:0:0:0:
323,304,62853,6,0,B|366:321|408:310|439:276|439:276|418:283|391:271,1,167.999994873047,6|2,3:2|3:2,0:0:0:0:
304,104,63348,1,10,0:0:0:0:
422,183,63512,1,2,0:0:0:0:
331,9,63677,6,0,L|246:23,1,83.9999974365235,6|0,3:2|0:0,0:0:0:0:
119,169,64007,2,0,P|131:125|135:83,1,83.9999974365235,10|0,0:0|0:0,0:0:0:0:
228,215,64337,1,2,3:2:0:0:
78,298,64501,1,0,3:0:0:0:
230,209,64666,1,10,0:0:0:0:
298,384,64831,6,0,B|191:395|251:342|121:358,1,167.999994873047,6|0,3:2|3:0,0:0:0:0:
327,293,65326,2,0,P|349:260|433:264,1,125.999996154785,10|0,0:0|0:0,0:0:0:0:
501,316,65655,6,0,L|512:228,1,83.9999974365235,2|0,3:2|3:0,0:0:0:0:
408,80,65985,1,10,0:0:0:0:
512,6,66150,1,0,0:0:0:0:
432,174,66315,6,0,B|328:183|375:126|258:144,1,167.999994873047,6|10,3:2|0:0,0:0:0:0:
110,47,66809,1,2,0:0:0:0:
207,16,66974,5,0,3:0:0:0:
93,215,67139,2,0,P|84:170|75:130,1,83.9999974365235,6|8,3:2|0:0,0:0:0:0:
193,267,67468,6,0,P|144:251|40:315,1,167.999994873047,2|0,3:2|3:0,0:0:0:0:
139,366,67963,1,8,0:0:0:0:
266,164,68128,2,0,P|315:148|419:212,1,167.999994873047,6|2,3:2|3:2,0:0:0:0:
339,382,68622,1,10,0:0:0:0:
335,340,68704,1,8,0:0:0:0:
330,298,68786,1,2,3:2:0:0:
324,256,68869,1,0,3:0:0:0:
321,250,68952,6,0,B|226:233|259:289|153:269,1,167.999994873047,14|8,3:1|0:0,0:0:0:0:
65,306,69446,1,2,0:0:0:0:
167,171,69611,1,2,3:2:0:0:
56,106,69776,2,0,P|65:151|71:198,1,83.9999974365235,2|8,3:2|0:0,0:0:0:0:
0,27,70106,6,0,P|28:59|149:56,1,167.999994873047,6|2,3:2|3:2,0:0:0:0:
291,0,70600,1,10,0:0:0:0:
152,51,70765,2,0,P|146:98|134:228,1,167.999994873047,2|2,0:0|3:2,0:0:0:0:
281,384,71260,2,0,P|292:334|276:293,1,83.9999974365235,10|2,0:0|0:0,0:0:0:0:
66,370,71589,6,0,B|79:333|117:309|164:316|164:316|203:343,1,167.999994873047,6|10,3:2|0:0,0:0:0:0:
390,209,72166,1,0,0:0:0:0:
373,218,72249,6,0,P|324:210|284:205,1,83.9999974365235,2|0,3:2|3:0,0:0:0:0:
348,118,72578,1,10,0:0:0:0:
446,307,72743,6,0,P|477:261|460:146,1,167.999994873047,6|2,3:2|3:2,0:0:0:0:
343,110,73238,1,10,0:0:0:0:
211,278,73402,6,0,B|187:314|146:324|107:310|107:310|66:269,1,167.999994873047,6|2,3:2|3:2,0:0:0:0:
30,176,73897,2,0,L|42:92,1,83.9999974365235,8|2,0:0|0:0,0:0:0:0:
207,38,74227,6,0,B|252:10|306:22|306:22|322:52|372:61,2,167.999994873047,4|8|0,3:2|0:0|3:0,0:0:0:0:
143,127,75051,1,0,3:0:0:0:
302,252,75216,5,10,0:0:0:0:
227,180,75381,2,0,P|173:159|85:214,1,167.999994873047,4|0,3:2|3:0,0:0:0:0:
302,252,75875,2,0,P|345:247|403:244,1,83.9999974365235,8|0,0:0|0:0,0:0:0:0:
497,82,76205,5,0,3:0:0:0:
336,157,76370,1,2,3:2:0:0:
405,0,76534,2,0,P|408:40|414:92,1,83.9999974365235,10|2,0:0|0:0,0:0:0:0:
246,173,76864,6,0,B|144:191|186:140|73:160,1,167.999994873047,6|10,3:2|0:0,0:0:0:0:
218,270,77359,1,0,0:0:0:0:
117,384,77523,2,0,P|109:349|135:292,1,83.9999974365235,2|4,3:2|3:2,0:0:0:0:
312,241,77853,1,10,0:0:0:0:
200,102,78018,6,0,L|218:271,1,167.999994873047,2|0,3:2|3:0,0:0:0:0:
291,337,78512,1,10,0:0:0:0:
454,251,78677,6,0,B|430:213|393:203|355:210|355:210|310:242,1,167.999994873047,6|2,3:2|3:2,0:0:0:0:
439,113,79172,1,10,0:0:0:0:
448,72,79254,1,8,0:0:0:0:
433,33,79336,1,0,3:0:0:0:
400,9,79419,1,0,3:0:0:0:
390,9,79501,6,0,B|352:16|336:33|324:79|343:104|343:104|344:77|360:60,1,160,6|2,3:2|0:0,0:0:0:0:
351,71,80820,5,4,3:2:0:0:
176,195,80985,1,4,3:2:0:0:
176,195,81479,5,8,0:0:0:0:
174,184,81561,1,8,0:0:0:0:
173,174,81643,1,8,0:0:0:0:
172,163,81726,1,8,0:0:0:0:
170,153,81809,2,0,L|164:106,1,41.9999987182618,8|8,0:0|0:0,0:0:0:0:
257,27,81974,6,0,B|300:7|347:17|347:17|357:49|401:62,1,151.999995941162,4|2,3:2|3:0,0:0:0:0:
508,186,82468,2,0,B|481:159|444:151|408:165|408:165|376:207,1,151.999995941162,8|0,0:0|3:0,0:0:0:0:
319,337,82963,1,0,1:0:0:0:
487,306,83128,2,0,L|408:292,1,75.9999979705811,8|0,0:0|1:0,0:0:0:0:
222,234,83457,6,0,P|230:289|243:390,2,151.999995941162,0|8|0,3:0|0:0|3:0,0:0:0:0:
151,180,84282,1,0,1:0:0:0:
258,21,84446,2,0,P|258:58|237:95,1,75.9999979705811,8|0,0:0|1:0,0:0:0:0:
173,36,84776,6,0,P|114:28|43:90,2,151.999995941162,0|8|0,3:0|0:0|3:0,0:0:0:0:
305,148,85600,1,0,1:0:0:0:
371,83,85765,1,8,0:0:0:0:
215,125,85930,1,0,1:0:0:0:
208,131,86012,1,0,0:0:0:0:
202,137,86095,6,0,P|212:183|218:223,1,75.9999979705811,0|0,3:0|1:0,0:0:0:0:
336,384,86424,2,0,L|343:304,1,75.9999979705811,8|0,0:0|1:0,0:0:0:0:
252,335,86754,1,0,3:0:0:0:
412,248,86919,6,0,L|407:187,1,51.999997619629,8|8,0:0|0:0,0:0:0:0:
479,120,87084,2,0,P|490:81|487:64,1,51.999997619629,8|8,0:0|0:0,0:0:0:0:
370,8,87249,6,0,B|321:-11|264:4|264:4|249:27|212:48,1,167.999994873047,4|0,3:2|3:0,0:0:0:0:
99,210,87743,1,8,0:0:0:0:
56,107,87908,5,0,3:0:0:0:
230,236,88073,1,8,0:0:0:0:
62,343,88238,1,0,3:0:0:0:
59,334,88320,1,0,3:0:0:0:
56,326,88402,1,8,0:0:0:0:
181,160,88567,6,0,B|208:126|249:118|292:133|292:133|323:166,1,167.999994873047,4|0,3:2|3:0,0:0:0:0:
403,46,89062,1,8,0:0:0:0:
406,55,89144,1,8,0:0:0:0:
409,64,89227,1,0,3:0:0:0:
484,241,89391,5,0,3:0:0:0:
486,282,89473,1,0,3:0:0:0:
470,320,89555,1,0,3:0:0:0:
438,347,89638,1,0,3:0:0:0:
427,350,89721,6,0,B|414:308|373:287|334:291|334:291|348:296|371:314,1,155.999992858887,12|0,0:0|0:0,0:0:0:0:
308,378,90051,6,0,P|251:378|218:351,1,83.9999974365235,6|8,3:2|0:0,0:0:0:0:
180,295,90298,1,8,0:0:0:0:
182,289,90381,2,0,L|178:244,2,41.9999987182618,8|8|6,0:0|0:0|3:2,0:0:0:0:
266,94,90710,1,8,0:0:0:0:
258,100,90793,1,8,0:0:0:0:
250,106,90875,2,0,L|201:98,1,41.9999987182618,0|0,3:0|3:0,0:0:0:0:
340,38,91040,6,0,B|375:10|421:9|451:29|451:29|488:74,1,167.999994873047,6|0,3:2|3:0,0:0:0:0:
369,147,91534,1,6,3:2:0:0:
492,300,91699,1,8,0:0:0:0:
501,259,91781,1,8,0:0:0:0:
493,218,91863,1,8,0:0:0:0:
469,184,91946,1,8,0:0:0:0:
462,180,92029,6,0,B|361:158|403:218|277:196,1,180.000006866455,2|0,3:2|0:0,0:0:0:0:
202,158,92688,6,0,P|243:187|243:297,2,151.999995941162,4|10|2,3:2|0:0|3:2,0:0:0:0:
58,101,93512,1,0,3:0:0:0:
105,33,93677,2,0,P|130:57|136:107,1,75.9999979705811,8|0,0:0|0:0,0:0:0:0:
30,251,94007,6,0,L|17:174,1,75.9999979705811,2|0,3:2|0:0,0:0:0:0:
9,344,94337,2,0,L|83:331,1,75.9999979705811,10|0,0:0|0:0,0:0:0:0:
145,275,94584,1,0,0:0:0:0:
151,273,94666,6,0,L|231:287,1,75.9999979705811,2|0,3:2|3:0,0:0:0:0:
344,212,94996,2,0,L|361:332,1,113.999996955872,10|0,0:0|0:0,0:0:0:0:
357,332,95326,6,0,P|392:302|486:332,1,151.999995941162,2|8,3:2|0:0,0:0:0:0:
484,330,95820,1,2,0:0:0:0:
441,195,95985,2,0,L|455:115,1,75.9999979705811,2|0,3:2|3:0,0:0:0:0:
394,53,96315,2,0,B|326:42|354:83|277:72,1,113.999996955872,8|0,0:0|0:0,0:0:0:0:
277,68,96644,6,0,P|310:110|294:206,1,151.999995941162,2|8,3:2|0:0,0:0:0:0:
220,145,97139,1,2,0:0:0:0:
115,257,97304,2,0,L|126:339,1,75.9999979705811,2|0,3:2|3:0,0:0:0:0:
40,202,97633,1,8,0:0:0:0:
212,370,97881,1,0,3:0:0:0:
227,357,97963,6,0,L|301:370,1,75.9999979705811,0|0,3:0|0:0,0:0:0:0:
368,299,98293,2,0,L|355:225,1,75.9999979705811,10|0,0:0|0:0,0:0:0:0:
474,153,98622,2,0,B|393:167|412:113|323:132,1,151.999995941162,2|8,3:2|0:0,0:0:0:0:
161,87,99117,1,0,0:0:0:0:
182,4,99282,6,0,P|222:26|224:143,1,151.999995941162,2|10,3:2|0:0,0:0:0:0:
64,209,99776,2,0,B|86:178|123:167|158:178|158:178|199:215,1,151.999995941162,2|2,0:0|3:2,0:0:0:0:
301,355,100271,1,10,0:0:0:0:
314,265,100435,6,0,B|236:256|252:312|160:296,1,151.999995941162,2|2,0:0|0:0,0:0:0:0:
43,373,100930,1,10,0:0:0:0:
43,373,101260,2,0,L|30:289,1,75.9999979705811,0|0,3:0|3:0,0:0:0:0:
132,151,101589,2,0,P|119:190|117:233,1,75.9999979705811,8|0,0:0|0:0,0:0:0:0:
27,166,101919,6,0,P|43:115|8:23,1,151.999995941162,0|10,3:0|0:0,0:0:0:0:
10,25,102413,1,0,0:0:0:0:
147,65,102578,2,0,P|187:58|222:51,1,75.9999979705811,2|0,3:2|3:0,0:0:0:0:
306,227,102908,2,0,P|271:198|193:200,1,113.999996955872,10|0,0:0|0:0,0:0:0:0:
199,201,103238,6,0,P|207:151|222:45,2,151.999995941162,6|8|0,3:2|0:0|3:0,0:0:0:0:
273,373,104062,1,0,3:0:0:0:
344,328,104227,2,0,P|321:299|277:292,1,75.9999979705811,10|0,0:0|0:0,0:0:0:0:
197,382,104556,6,0,L|273:373,1,75.9999979705811,2|0,3:2|0:0,0:0:0:0:
76,295,104886,2,0,L|151:304,1,75.9999979705811,10|0,0:0|0:0,0:0:0:0:
288,189,105216,1,2,3:2:0:0:
158,312,105381,1,0,3:0:0:0:
198,159,105545,2,0,L|209:241,1,75.9999979705811,10|0,0:0|0:0,0:0:0:0:
319,343,105875,6,0,B|346:308|383:300|418:314|418:314|454:350,1,151.999995941162,2|8,3:2|0:0,0:0:0:0:
446,342,106370,1,2,0:0:0:0:
512,209,106534,2,0,L|436:220,1,75.9999979705811,2|0,3:2|3:0,0:0:0:0:
386,109,106864,2,0,P|419:105|457:125,1,75.9999979705811,8|0,0:0|0:0,0:0:0:0:
318,181,107194,5,2,3:2:0:0:
320,186,107359,1,0,3:0:0:0:
246,106,107523,2,0,P|254:60|262:27,1,75.9999979705811,8|0,0:0|0:0,0:0:0:0:
93,232,107853,5,0,3:0:0:0:
91,237,108018,1,0,3:0:0:0:
165,157,108183,2,0,P|157:111|149:78,1,75.9999979705811,10|0,0:0|0:0,0:0:0:0:
14,273,108512,6,0,P|79:260|147:322,2,151.999995941162,2|8|0,3:2|0:0|3:0,0:0:0:0:
59,359,109337,1,0,3:0:0:0:
214,232,109501,2,0,B|293:223|253:250|337:242,1,113.999996955872,10|0,0:0|0:0,0:0:0:0:
333,237,109831,6,0,L|321:326,1,75.9999979705811,2|0,3:2|3:0,0:0:0:0:
491,203,110161,1,10,0:0:0:0:
423,282,110326,1,2,0:0:0:0:
361,132,110490,6,0,L|351:50,1,75.9999979705811,0|2,3:0|3:2,0:0:0:0:
466,0,110820,2,0,L|456:75,1,75.9999979705811,10|0,0:0|0:0,0:0:0:0:
276,191,111150,6,0,B|181:204|228:153|120:171,1,151.999995941162,0|8,3:0|0:0,0:0:0:0:
21,245,111644,1,0,0:0:0:0:
134,366,111809,2,0,P|127:309|117:270,1,75.9999979705811,0|0,3:0|3:0,0:0:0:0:
276,191,112139,2,0,L|265:270,1,75.9999979705811,8|0,0:0|0:0,0:0:0:0:
217,95,112468,5,4,3:2:0:0:
368,244,112633,1,8,0:0:0:0:
375,243,112716,1,8,0:0:0:0:
382,242,112798,1,8,0:0:0:0:
448,165,112963,5,8,0:0:0:0:
276,341,113128,2,0,L|264:261,1,75.9999979705811,10|8,0:0|0:0,0:0:0:0:
441,370,113457,2,0,P|399:370|368:385,1,75.9999979705811,2|0,3:2|3:0,0:0:0:0:
259,262,113787,5,2,3:2:0:0:
179,279,113952,1,0,3:0:0:0:
100,255,114117,1,2,3:2:0:0:
62,182,114282,1,0,3:0:0:0:
181,60,114446,6,0,L|191:136,1,68.0000012969971,14|0,0:0|0:0,0:0:0:0:
281,12,114776,2,0,L|271:88,1,68.0000012969971,2|8,0:0|0:0,0:0:0:0:
373,226,115106,5,2,3:2:0:0:
449,196,115271,1,0,3:0:0:0:
420,119,115435,1,0,3:0:0:0:
344,149,115600,1,0,3:0:0:0:
290,310,115765,6,0,P|340:302|410:360,1,136.000002593994,14|2,0:0|0:0,0:0:0:0:
206,348,116260,1,8,0:0:0:0:
199,342,116342,1,0,0:0:0:0:
192,335,116424,6,0,P|196:292|205:259,1,68.0000012969971,2|0,3:2|3:0,0:0:0:0:
56,109,116754,2,0,L|67:184,1,68.0000012969971,2|0,3:2|3:0,0:0:0:0:
0,236,117084,6,0,P|52:213|123:259,1,136.000002593994,14|2,0:0|0:0,0:0:0:0:
256,146,117578,1,8,0:0:0:0:
320,209,117743,6,0,P|311:256|308:286,1,68.0000012969971,2|8,3:2|0:0,0:0:0:0:
188,91,118073,1,0,3:0:0:0:
328,0,118238,1,2,3:2:0:0:
331,6,118320,1,0,0:0:0:0:
329,12,118402,1,10,0:0:0:0:
178,97,118567,5,10,0:0:0:0:
143,85,118649,1,10,0:0:0:0:
102,78,118731,1,8,0:0:0:0:
64,83,118814,1,8,0:0:0:0:
55,87,118897,6,0,P|61:130|72:237,1,136.000002593994,4|2,3:2|0:0,0:0:0:0:
158,366,119391,2,0,P|161:328|188:302,1,68.0000012969971,2|0,3:2|0:0,0:0:0:0:
215,229,119721,2,0,P|250:212|286:222,1,68.0000012969971,2|0,3:2|0:0,0:0:0:0:
362,209,120051,2,0,P|394:231|403:267,1,68.0000012969971,2|0,3:2|0:0,0:0:0:0:
347,321,120381,6,0,B|390:300|435:311|435:311|450:333|478:341,2,136.000002593994,2|2|2,3:2|3:2|3:2,0:0:0:0:
281,384,121205,1,0,0:0:0:0:
135,220,121370,1,10,0:0:0:0:
213,164,121534,6,0,P|228:219|192:301,1,136.000002593994,6|0,3:2|0:0,0:0:0:0:
201,291,122029,2,0,L|270:280,1,68.0000012969971,0|0,3:0|0:0,0:0:0:0:
443,208,122359,5,0,3:0:0:0:
357,169,122523,1,8,0:0:0:0:
358,333,122688,2,0,P|361:297|370:257,1,68.0000012969971,2|8,3:2|0:0,0:0:0:0:
428,111,123018,5,2,3:2:0:0:
428,111,123183,1,8,0:0:0:0:
260,198,123348,1,10,3:2:0:0:
260,198,123512,1,8,0:0:0:0:
354,38,123677,5,10,3:2:0:0:
511,96,123842,1,8,0:0:0:0:
350,32,124007,1,10,0:0:0:0:
451,0,124172,6,0,L|435:157,1,151.999995941162,14|0,0:0|3:0,0:0:0:0:
488,240,124666,1,10,0:0:0:0:
306,351,124913,1,0,0:0:0:0:
318,333,124996,6,0,P|314:286|301:245,1,75.9999979705811,2|0,3:2|3:0,0:0:0:0:
408,368,125326,1,10,0:0:0:0:
298,253,125490,6,0,B|211:235|250:280|145:266,1,151.999995941162,6|0,3:2|3:0,0:0:0:0:
23,338,125985,1,8,0:0:0:0:
66,97,126232,1,0,3:0:0:0:
74,114,126315,6,0,P|68:156|63:192,1,75.9999979705811,0|0,3:0|3:0,0:0:0:0:
12,26,126644,1,10,0:0:0:0:
160,167,126809,6,0,P|219:180|300:121,1,151.999995941162,6|2,3:2|3:2,0:0:0:0:
412,37,127304,1,10,0:0:0:0:
402,40,127386,1,8,0:0:0:0:
391,43,127468,1,2,3:2:0:0:
295,3,127633,1,2,3:2:0:0:
426,126,127798,2,0,P|419:173|416:207,1,75.9999979705811,2|8,3:2|0:0,0:0:0:0:
490,284,128128,5,2,3:2:0:0:
135,360,128622,6,0,L|140:328,6,18.9999994926453,2|0|2|0|2|0|2,0:0|0:0|0:0|0:0|3:2|0:0|0:0,0:0:0:0:
128,322,128952,1,0,3:0:0:0:
234,180,129117,1,2,3:2:0:0:
240,200,129199,1,0,3:0:0:0:
231,216,129282,2,0,L|188:210,1,37.9999989852906,14|8,0:0|0:0,0:0:0:0:
89,124,129446,2,0,L|132:118,1,37.9999989852906,10|8,0:0|0:0,0:0:0:0:
250,32,129611,6,0,B|351:18|312:76|421:63,1,167.999994873047,14|8,3:1|0:0,0:0:0:0:
492,115,130106,1,2,0:0:0:0:
313,191,130271,5,2,3:2:0:0:
407,159,130435,2,0,P|401:204|396:248,1,83.9999974365235,2|8,3:2|0:0,0:0:0:0:
281,338,130765,6,0,B|243:364|202:362|166:340|166:340|135:293,1,167.999994873047,6|2,3:2|3:2,0:0:0:0:
98,211,131260,1,10,0:0:0:0:
220,76,131424,6,0,B|239:118|232:163|198:198|198:198|185:157,1,167.999994873047,2|2,0:0|3:2,0:0:0:0:
295,15,131919,2,0,P|335:15|381:44,1,83.9999974365235,10|2,0:0|0:0,0:0:0:0:
482,204,132249,5,6,3:2:0:0:
482,204,132413,1,2,0:0:0:0:
312,110,132578,1,10,0:0:0:0:
312,110,132743,1,2,0:0:0:0:
476,42,132908,5,2,3:2:0:0:
385,235,133073,2,0,L|395:144,1,83.9999974365235,2|8,3:2|0:0,0:0:0:0:
512,341,133402,6,0,B|472:315|411:322|411:322|400:355|363:368,1,167.999994873047,6|0,3:2|3:0,0:0:0:0:
270,219,133897,1,10,0:0:0:0:
357,366,134062,6,0,B|331:330|292:318|249:333|249:333|209:371,1,167.999994873047,6|2,3:2|3:2,0:0:0:0:
61,205,134556,1,10,0:0:0:0:
164,277,134721,1,2,0:0:0:0:
78,384,134886,6,0,P|75:337|60:285,1,83.9999974365235,6|0,3:2|0:0,0:0:0:0:
263,137,135216,2,0,L|250:229,1,83.9999974365235,10|0,0:0|0:0,0:0:0:0:
175,89,135545,5,2,3:2:0:0:
347,26,135710,1,0,3:0:0:0:
170,86,135875,1,10,0:0:0:0:
360,197,136040,6,0,B|410:211|463:187|473:155|473:155|460:166|430:173,1,167.999994873047,6|0,3:2|3:0,0:0:0:0:
253,170,136534,2,0,L|274:299,1,125.999996154785,10|0,0:0|0:0,0:0:0:0:
176,378,136864,6,0,P|168:336|194:288,1,83.9999974365235,2|0,3:2|3:0,0:0:0:0:
30,193,137194,1,10,0:0:0:0:
79,285,137359,1,0,0:0:0:0:
257,146,137523,6,0,B|223:115|168:116|168:116|148:147|108:153,1,167.999994873047,6|10,3:2|0:0,0:0:0:0:
6,7,138018,1,2,0:0:0:0:
91,63,138183,5,0,3:0:0:0:
14,214,138348,2,0,L|-1:124,1,83.9999974365235,6|8,3:2|0:0,0:0:0:0:
188,22,138677,6,0,B|288:6|252:69|361:46,1,167.999994873047,2|0,3:2|3:0,0:0:0:0:
490,187,139172,1,8,0:0:0:0:
404,240,139337,2,0,P|388:185|457:89,1,167.999994873047,6|2,3:2|3:2,0:0:0:0:
292,218,139831,1,10,0:0:0:0:
298,259,139913,1,8,0:0:0:0:
304,301,139995,1,2,3:2:0:0:
308,342,140078,1,0,3:0:0:0:
309,354,140161,6,0,B|272:362|239:336|239:336|189:333|148:362,1,167.999994873047,14|8,3:1|0:0,0:0:0:0:
35,197,140655,1,2,0:0:0:0:
125,249,140820,1,2,3:2:0:0:
47,379,140985,2,0,L|33:289,1,83.9999974365235,2|8,3:2|0:0,0:0:0:0:
131,142,141315,6,0,P|169:178|298:170,1,167.999994873047,6|2,3:2|3:2,0:0:0:0:
432,91,141809,1,10,0:0:0:0:
287,177,141974,2,0,B|260:217|263:266|263:266|280:294|283:351,1,167.999994873047,2|2,0:0|3:2,0:0:0:0:
455,259,142468,2,0,L|370:246,1,83.9999974365235,10|2,0:0|0:0,0:0:0:0:
183,329,142798,6,0,B|159:291|124:273|77:284|77:284|27:313,1,167.999994873047,6|10,3:2|0:0,0:0:0:0:
31,92,143375,1,0,0:0:0:0:
40,110,143457,6,0,P|33:156|27:202,1,83.9999974365235,2|0,3:2|3:0,0:0:0:0:
9,5,143787,1,10,0:0:0:0:
137,111,143952,6,0,B|174:140|221:138|254:117|254:117|283:77,1,167.999994873047,6|2,3:2|3:2,0:0:0:0:
441,12,144446,1,10,0:0:0:0:
283,72,144611,2,0,P|292:150|302:246,1,167.999994873047,6|2,3:2|3:2,0:0:0:0:
393,284,145106,2,0,P|405:243|392:200,1,83.9999974365235,8|2,0:0|0:0,0:0:0:0:
284,337,145435,6,0,B|244:308|184:319|184:319|174:351|139:370,2,167.999994873047,4|8|0,3:2|0:0|3:0,0:0:0:0:
393,284,146260,1,0,3:0:0:0:
222,176,146424,1,10,0:0:0:0:
301,238,146589,6,0,P|374:251|437:191,1,167.999994873047,4|0,3:2|3:0,0:0:0:0:
394,21,147084,2,0,L|381:114,1,83.9999974365235,8|0,0:0|0:0,0:0:0:0:
303,48,147413,1,0,3:0:0:0:
474,74,147578,1,2,3:2:0:0:
298,43,147743,6,0,L|210:57,1,83.9999974365235,10|2,0:0|0:0,0:0:0:0:
0,182,148073,6,0,B|36:142|102:153|102:153|124:183|186:189,1,167.999994873047,6|10,3:2|0:0,0:0:0:0:
279,138,148567,1,0,0:0:0:0:
241,306,148732,2,0,L|231:223,1,83.9999974365235,2|4,3:2|3:2,0:0:0:0:
317,373,149062,1,10,0:0:0:0:
102,352,149227,6,0,P|138:306|251:313,1,167.999994873047,2|0,3:2|3:0,0:0:0:0:
317,373,149721,1,10,0:0:0:0:
478,226,149886,6,0,P|442:272|329:265,1,167.999994873047,6|2,3:2|3:2,0:0:0:0:
290,157,150381,1,10,0:0:0:0:
278,139,150463,1,8,0:0:0:0:
291,123,150545,1,0,3:0:0:0:
311,130,150628,1,0,3:0:0:0:
310,151,150710,6,0,B|268:162|233:176|135:171|129:98|242:102|221:208,1,240,6|0,3:2|0:0,0:0:0:0:
222,196,152029,5,4,3:2:0:0:
77,358,152194,1,4,3:2:0:0:
77,358,153018,6,0,P|73:323|64:306,1,51.999997619629,8|8,0:0|0:0,0:0:0:0:
222,196,153183,2,0,L|213:251,1,51.999997619629,8|8,0:0|0:0,0:0:0:0:
161,318,153348,6,0,B|203:295|250:299|250:299|268:328|312:334,1,151.999995941162,4|8,3:2|0:0,0:0:0:0:
459,252,153842,1,0,1:0:0:0:
379,380,154007,2,0,L|387:305,1,75.9999979705811,0|0,3:0|1:0,0:0:0:0:
452,179,154337,2,0,P|465:225|455:259,1,75.9999979705811,8|0,0:0|1:0,0:0:0:0:
354,148,154666,6,0,P|398:154|473:81,2,151.999995941162,0|8|0,3:0|0:0|3:0,0:0:0:0:
203,25,155490,1,0,1:0:0:0:
299,2,155655,2,0,P|289:46|283:81,1,75.9999979705811,8|0,0:0|1:0,0:0:0:0:
167,208,155985,6,0,B|140:178|100:171|64:186|64:186|26:220,1,151.999995941162,0|8,3:0|0:0,0:0:0:0:
34,212,156479,1,0,1:0:0:0:
146,303,156644,2,0,P|184:296|224:290,1,75.9999979705811,0|0,3:0|1:0,0:0:0:0:
74,365,156974,2,0,P|37:359|0:353,1,75.9999979705811,8|0,0:0|1:0,0:0:0:0:
220,290,157304,6,0,P|267:280|329:357,1,151.999995941162,0|8,3:0|0:0,0:0:0:0:
241,384,157798,1,0,1:0:0:0:
425,308,157963,2,0,P|417:355|412:399,1,75.9999979705811,0|0,3:0|1:0,0:0:0:0:
364,222,158293,2,0,P|359:184|352:146,1,75.9999979705811,8|0,0:0|1:0,0:0:0:0:
507,7,158622,6,0,P|485:45|381:48,1,151.999995941162,4|8,3:2|0:0,0:0:0:0:
277,136,159117,2,0,P|317:142|361:148,1,75.9999979705811,0|0,1:0|3:0,0:0:0:0:
158,55,159446,2,0,P|198:49|242:43,1,75.9999979705811,0|8,1:0|0:0,0:0:0:0:
105,133,159776,6,0,P|74:100|82:-1,1,151.999995941162,0|0,1:0|1:0,0:0:0:0:
82,0,160271,1,8,0:0:0:0:
201,164,160435,2,0,P|190:224|176:318,1,151.999995941162,0|0,1:0|1:0,0:0:0:0:
330,360,160930,2,0,P|284:352|254:371,1,75.9999979705811,8|0,0:0|1:0,0:0:0:0:
444,225,161260,5,4,3:2:0:0:
424,382,161424,2,0,P|415:333|409:298,1,75.9999979705811,0|8,1:0|0:0,0:0:0:0:
504,164,161754,2,0,P|470:182|375:133,1,151.999995941162,0|0,1:0|1:0,0:0:0:0:
221,53,162249,1,8,0:0:0:0:
307,13,162413,6,0,L|284:165,1,151.999995941162,0|0,1:0|1:0,0:0:0:0:
193,371,162908,2,0,L|182:289,1,75.9999979705811,8|0,0:0|1:0,0:0:0:0:
288,320,163238,1,0,3:0:0:0:
131,178,163485,1,8,0:0:0:0:
113,168,163567,6,0,L|64:173,1,37.9999989852906,8|8,0:0|0:0,0:0:0:0:
205,103,163732,2,0,L|254:108,1,37.9999989852906,8|8,0:0|0:0,0:0:0:0:
132,28,163897,6,0,P|86:12|14:82,2,151.999995941162,4|8|0,3:2|0:0|3:0,0:0:0:0:
317,92,164721,2,0,L|242:106,1,75.9999979705811,0|8,1:0|0:0,0:0:0:0:
376,18,165051,6,0,B|412:-4|449:-1|479:14|479:14|485:35|506:53,1,151.999995941162,0|0,1:0|1:0,0:0:0:0:
401,182,165545,2,0,L|415:98,1,75.9999979705811,8|0,0:0|1:0,0:0:0:0:
512,293,165875,2,0,L|498:209,1,75.9999979705811,0|0,3:0|1:0,0:0:0:0:
370,365,166205,2,0,P|403:344|447:357,1,75.9999979705811,8|0,0:0|1:0,0:0:0:0:
242,229,166534,5,0,3:0:0:0:
274,384,166699,2,0,P|281:335|288:297,1,75.9999979705811,0|8,1:0|0:0,0:0:0:0:
286,147,167029,2,0,P|263:181|150:176,1,151.999995941162,0|0,1:0|1:0,0:0:0:0:
6,53,167523,1,8,0:0:0:0:
95,13,167688,6,0,L|77:171,1,151.999995941162,0|0,1:0|1:0,0:0:0:0:
13,314,168183,2,0,P|0:273|11:235,1,75.9999979705811,8|0,0:0|1:0,0:0:0:0:
101,378,168512,6,0,P|126:345|234:335,1,151.999995941162,0|8,3:0|0:0,0:0:0:0:
394,224,169007,1,0,1:0:0:0:
321,383,169172,6,0,P|310:310|298:222,2,151.999995941162,4|8|0,3:2|0:0|3:0,0:0:0:0:
321,383,169996,1,0,1:0:0:0:
479,342,170161,2,0,P|439:324|396:329,1,75.9999979705811,8|0,0:0|1:0,0:0:0:0:
227,203,170490,6,0,P|279:222|372:155,1,151.999995941162,4|8,3:2|0:0,0:0:0:0:
282,109,170985,1,0,1:0:0:0:
485,24,171150,2,0,P|479:75|476:106,1,75.9999979705811,0|0,3:0|1:0,0:0:0:0:
383,88,171479,2,0,P|389:37|392:6,1,75.9999979705811,8|0,0:0|1:0,0:0:0:0:
477,188,171809,6,0,P|494:228|446:321,1,151.999995941162,4|8,3:2|0:0,0:0:0:0:
398,238,172304,1,0,1:0:0:0:
302,384,172468,2,0,P|339:379|377:377,1,75.9999979705811,0|0,3:0|1:0,0:0:0:0:
320,286,172798,2,0,P|283:291|245:293,1,75.9999979705811,10|0,0:0|1:0,0:0:0:0:
61,208,173128,6,0,B|88:172|146:173|146:173|162:197|203:207,1,151.999995941162,2|10,3:2|0:0,0:0:0:0:
228,111,173622,1,0,1:0:0:0:
137,15,173787,5,2,3:2:0:0:
143,23,173870,1,0,3:0:0:0:
145,33,173952,1,2,3:0:0:0:
310,155,174117,5,2,3:2:0:0:
310,144,174199,1,8,0:0:0:0:
312,135,174282,2,0,L|319:88,1,37.9999989852906,2|0,3:0|0:0,0:0:0:0:
191,203,174446,6,0,P|199:249|202:282,1,68.0000012969971,12|0,3:1|1:0,0:0:0:0:
145,366,174776,2,0,P|110:376|49:322,1,102.000001945496,8|0,0:0|0:0,0:0:0:0:
67,332,175106,2,0,L|-3:340,1,68.0000012969971,0|0,3:0|1:0,0:0:0:0:
201,270,175435,2,0,L|309:285,1,102.000001945496,10|0,0:0|0:0,0:0:0:0:
314,272,175765,6,0,L|304:202,1,68.0000012969971,2|0,3:2|1:0,0:0:0:0:
410,32,176095,2,0,P|394:81|393:115,1,68.0000012969971,10|0,0:0|1:0,0:0:0:0:
458,171,176424,1,2,3:2:0:0:
463,167,176589,1,0,1:0:0:0:
309,73,176754,2,0,L|241:84,1,68.0000012969971,10|0,0:0|1:0,0:0:0:0:
87,6,177084,6,0,L|155:17,1,68.0000012969971,0|0,3:0|1:0,0:0:0:0:
51,211,177413,2,0,L|33:101,1,102.000001945496,8|0,0:0|0:0,0:0:0:0:
23,97,177743,2,0,L|91:108,1,68.0000012969971,0|0,3:0|1:0,0:0:0:0:
208,206,178073,2,0,P|192:242|200:309,1,102.000001945496,10|0,0:0|0:0,0:0:0:0:
208,315,178402,6,0,P|245:305|286:302,1,68.0000012969971,2|0,3:2|1:0,0:0:0:0:
414,380,178732,2,0,P|377:370|336:367,1,68.0000012969971,10|0,0:0|1:0,0:0:0:0:
491,297,179062,1,2,3:2:0:0:
496,293,179227,1,0,1:0:0:0:
391,180,179391,2,0,L|402:253,1,68.0000012969971,10|0,0:0|1:0,0:0:0:0:
465,130,179721,6,0,P|425:144|343:85,1,136.000002593994,6|8,3:2|0:0,0:0:0:0:
427,41,180216,1,0,1:0:0:0:
342,91,180381,2,0,P|301:86|270:78,1,68.0000012969971,2|0,3:2|1:0,0:0:0:0:
200,15,180710,2,0,P|159:20|128:28,1,68.0000012969971,8|0,0:0|1:0,0:0:0:0:
72,168,181040,6,0,P|66:131|53:90,1,68.0000012969971,2|0,3:2|1:0,0:0:0:0:
153,229,181370,2,0,L|223:218,1,68.0000012969971,10|0,0:0|1:0,0:0:0:0:
80,296,181699,2,0,L|10:285,1,68.0000012969971,2|0,3:2|1:0,0:0:0:0:
140,382,182029,2,0,P|173:356|241:362,1,102.000001945496,10|0,0:0|0:0,0:0:0:0:
239,364,182359,6,0,B|323:380|299:328|386:352,1,136.000002593994,2|8,3:2|0:0,0:0:0:0:
470,362,182853,1,2,1:2:0:0:
465,367,183018,2,0,L|454:287,1,68.0000012969971,2|0,3:2|1:0,0:0:0:0:
512,150,183348,2,0,L|502:217,1,68.0000012969971,8|0,0:0|1:0,0:0:0:0:
414,168,183677,6,0,P|369:154|305:210,2,136.000002593994,0|10|2,3:0|0:0|3:2,0:0:0:0:
494,26,184501,1,2,3:0:0:0:
480,32,184584,1,8,0:0:0:0:
466,37,184666,2,0,L|418:26,1,34.0000006484985,10|8,0:0|0:0,0:0:0:0:
350,61,184831,2,0,L|302:72,1,34.0000006484985,8|8,0:0|0:0,0:0:0:0:
235,28,184996,6,0,P|192:11|126:70,1,136.000002593994,6|8,3:2|0:0,0:0:0:0:
200,193,185490,1,0,1:0:0:0:
198,185,185655,2,0,P|202:147|206:118,1,68.0000012969971,0|0,3:0|1:0,0:0:0:0:
110,231,185985,2,0,P|106:193|102:164,1,68.0000012969971,8|0,0:0|1:0,0:0:0:0:
33,283,186315,6,0,P|74:267|138:334,1,136.000002593994,0|8,3:0|0:0,0:0:0:0:
217,257,186809,1,0,1:0:0:0:
316,379,186974,2,0,P|308:336|301:308,1,68.0000012969971,0|0,3:0|1:0,0:0:0:0:
421,259,187304,2,0,P|413:292|407:325,1,68.0000012969971,8|0,0:0|1:0,0:0:0:0:
360,181,187633,6,0,P|398:212|495:186,1,136.000002593994,6|8,3:2|0:0,0:0:0:0:
510,82,188128,1,0,1:0:0:0:
507,77,188293,2,0,L|435:88,1,68.0000012969971,0|0,3:0|1:0,0:0:0:0:
303,0,188622,2,0,L|375:11,1,68.0000012969971,8|0,0:0|1:0,0:0:0:0:
218,115,188952,6,0,P|214:78|208:58,2,45.3333341979981,2|8|8,3:2|0:0|0:0,0:0:0:0:
297,156,189282,2,0,P|301:119|310:100,2,45.3333341979981,10|8|0,0:0|0:0|3:0,0:0:0:0:
223,203,189611,6,0,L|135:190,1,68.0000012969971,10|0,0:0|0:0,0:0:0:0:
321,292,189941,2,0,L|409:279,1,68.0000012969971,2|0,3:2|0:0,0:0:0:0:
237,368,190271,6,0,B|217:335|183:331|152:336|152:336|112:366,1,136.000002593994,6|0,3:2|0:0,0:0:0:0:
5,259,190765,2,0,B|25:226|59:222|90:227|90:227|130:257,1,136.000002593994,6|0,3:2|0:0,0:0:0:0:
285,192,191260,6,0,B|252:211|208:201|189:173|189:173|202:182|221:188,1,136.000002593994,6|0,3:2|0:0,0:0:0:0:
357,71,191754,2,0,B|324:52|280:62|261:90|261:90|274:81|293:75,1,136.000002593994,6|0,3:2|3:0,0:0:0:0:
415,155,192249,5,2,0:0:0:0:
482,87,192413,1,0,3:0:0:0:
480,78,192495,1,0,3:0:0:0:
478,69,192577,1,2,3:2:0:0:
261,200,192908,5,6,3:2:0:0:
256,192,192990,12,0,196864,0:0:0:0:
384,139,198183,5,4,3:2:0:0:
384,139,199501,5,0,3:0:0:0:
423,217,199666,1,0,3:0:0:0:
368,283,199831,1,0,3:0:0:0:
232,195,199996,1,0,3:0:0:0:
246,209,200078,6,0,P|252:262|259:325,1,113.999996955872,0|0,3:0|3:0,0:0:0:0:
185,371,200408,1,0,3:0:0:0:
171,378,200490,2,0,L|120:369,1,37.9999989852906,0|0,3:0|3:0,0:0:0:0:
70,312,200655,2,0,L|32:318,1,37.9999989852906,0|0,3:0|3:0,0:0:0:0:
14,228,200820,6,0,P|8:181|1:142,1,83.9999974365235,14|2,3:1|0:0,0:0:0:0:
130,0,201150,2,0,P|122:41|117:83,1,83.9999974365235,10|2,0:0|0:0,0:0:0:0:
252,228,201479,1,2,3:2:0:0:
281,142,201644,2,0,P|232:137|190:164,1,83.9999974365235,2|8,3:2|0:0,0:0:0:0:
81,313,201974,6,0,B|116:279|170:278|170:278|194:315|243:320,1,167.999994873047,6|0,3:2|3:0,0:0:0:0:
356,175,202468,1,10,0:0:0:0:
239,315,202633,6,0,B|275:291|321:292|349:315|349:315|380:357,1,167.999994873047,6|2,3:2|3:2,0:0:0:0:
512,200,203128,1,10,0:0:0:0:
423,254,203293,1,2,0:0:0:0:
429,51,203457,6,0,L|441:141,1,83.9999974365235,6|0,3:2|0:0,0:0:0:0:
254,230,203787,2,0,P|258:186|274:145,1,83.9999974365235,10|0,0:0|0:0,0:0:0:0:
103,9,204117,1,2,3:2:0:0:
166,166,204282,1,0,3:0:0:0:
105,4,204446,1,10,0:0:0:0:
1,248,204611,6,0,B|29:214|77:210|110:227|110:227|147:275,1,167.999994873047,6|0,3:2|3:0,0:0:0:0:
257,378,205106,2,0,L|388:358,1,125.999996154785,10|0,0:0|0:0,0:0:0:0:
506,292,205435,2,0,P|466:276|423:285,1,83.9999974365235,2|0,3:2|3:0,0:0:0:0:
350,105,205765,1,10,0:0:0:0:
475,175,205930,1,0,0:0:0:0:
295,258,206095,6,0,B|257:231|203:245|203:245|183:276|144:286,1,167.999994873047,6|10,3:2|0:0,0:0:0:0:
36,76,206589,5,2,0:0:0:0:
123,193,206754,1,0,3:0:0:0:
29,249,206919,5,6,3:2:0:0:
133,21,207084,1,8,0:0:0:0:
226,105,207249,6,0,P|271:121|371:57,1,167.999994873047,2|0,3:2|3:0,0:0:0:0:
276,12,207743,1,8,0:0:0:0:
452,172,207908,2,0,P|440:247|428:354,1,167.999994873047,6|2,3:2|3:2,0:0:0:0:
290,381,208402,1,10,0:0:0:0:
269,345,208484,1,8,0:0:0:0:
231,329,208566,1,2,3:2:0:0:
191,339,208649,1,0,3:0:0:0:
181,349,208732,6,0,B|126:345|78:326|78:326|49:343|36:370,1,167.999994873047,14|8,3:1|0:0,0:0:0:0:
157,246,209227,1,2,0:0:0:0:
18,173,209391,1,2,3:2:0:0:
124,82,209556,2,0,P|117:130|113:169,1,83.9999974365235,2|8,3:2|0:0,0:0:0:0:
205,329,209886,6,0,P|233:297|354:300,1,167.999994873047,6|2,3:2|3:2,0:0:0:0:
496,356,210380,1,10,0:0:0:0:
357,305,210545,2,0,P|351:258|339:128,1,167.999994873047,2|2,0:0|3:2,0:0:0:0:
425,0,211040,2,0,P|434:40|423:80,1,83.9999974365235,10|2,0:0|0:0,0:0:0:0:
248,172,211369,6,0,B|235:135|197:111|150:118|150:118|111:145,1,167.999994873047,6|10,3:2|0:0,0:0:0:0:
48,321,211946,1,0,0:0:0:0:
65,330,212029,6,0,P|114:322|154:317,1,83.9999974365235,2|0,3:2|3:0,0:0:0:0:
5,237,212358,1,10,0:0:0:0:
153,326,212523,6,0,P|199:295|314:312,1,167.999994873047,6|2,3:2|3:2,0:0:0:0:
448,378,213018,1,10,0:0:0:0:
317,314,213182,6,0,B|281:290|271:249|285:210|285:210|319:167,1,167.999994873047,6|2,3:2|3:2,0:0:0:0:
381,81,213677,2,0,L|297:69,1,83.9999974365235,8|2,0:0|0:0,0:0:0:0:
151,191,214007,6,0,B|106:219|52:207|52:207|36:177|-14:168,2,167.999994873047,4|8|0,3:2|0:0|3:0,0:0:0:0:
217,116,214831,1,0,3:0:0:0:
46,8,214996,5,10,0:0:0:0:
126,65,215161,2,0,P|180:86|268:31,1,167.999994873047,4|0,3:2|3:0,0:0:0:0:
360,173,215655,2,0,P|362:131|367:89,1,83.9999974365235,8|0,0:0|0:0,0:0:0:0:
449,207,215985,5,0,3:0:0:0:
301,332,216150,1,2,3:2:0:0:
479,301,216314,2,0,P|439:298|387:292,1,83.9999974365235,10|2,0:0|0:0,0:0:0:0:
240,238,216644,6,0,B|138:256|180:205|67:225,1,167.999994873047,6|10,3:2|0:0,0:0:0:0:
203,130,217139,1,0,0:0:0:0:
108,1,217303,2,0,P|94:40|102:81,1,83.9999974365235,2|4,3:2|3:2,0:0:0:0:
292,207,217633,1,10,0:0:0:0:
185,297,217798,6,0,L|202:129,1,167.999994873047,2|0,3:2|3:0,0:0:0:0:
354,1,218292,1,10,0:0:0:0:
207,121,218457,6,0,B|231:83|268:73|306:80|306:80|351:112,1,167.999994873047,6|2,3:2|3:2,0:0:0:0:
439,271,218952,1,10,0:0:0:0:
448,312,219034,1,8,0:0:0:0:
433,351,219116,1,0,3:0:0:0:
400,375,219199,1,0,3:0:0:0:
390,375,219282,6,0,B|352:368|336:351|324:305|343:280|343:280|344:307|360:324,1,160,6|2,3:2|0:0,0:0:0:0:
351,312,220600,5,4,3:2:0:0:
157,384,220765,1,4,3:2:0:0:
87,232,221260,5,8,0:0:0:0:
89,221,221342,1,8,0:0:0:0:
90,211,221424,1,8,0:0:0:0:
91,200,221507,1,8,0:0:0:0:
93,190,221590,2,0,L|99:143,1,41.9999987182618,8|8,0:0|0:0,0:0:0:0:
171,42,221754,6,0,B|214:22|261:32|261:32|271:64|315:77,1,151.999995941162,4|2,3:2|3:0,0:0:0:0:
501,138,222248,2,0,B|474:111|437:103|401:117|401:117|369:159,1,151.999995941162,8|0,0:0|3:0,0:0:0:0:
329,286,222743,1,0,1:0:0:0:
497,249,222908,2,0,L|418:235,1,75.9999979705811,8|0,0:0|1:0,0:0:0:0:
222,234,223237,6,0,P|230:289|243:390,2,151.999995941162,0|8|0,3:0|0:0|3:0,0:0:0:0:
151,180,224062,1,0,1:0:0:0:
258,21,224226,2,0,P|258:58|237:95,1,75.9999979705811,8|0,0:0|1:0,0:0:0:0:
144,185,224556,6,0,P|85:177|14:239,2,151.999995941162,0|8|0,3:0|0:0|3:0,0:0:0:0:
327,303,225380,1,0,1:0:0:0:
243,371,225545,1,8,0:0:0:0:
292,208,225710,1,0,1:0:0:0:
298,201,225792,1,0,0:0:0:0:
304,195,225875,6,0,P|350:205|390:211,1,75.9999979705811,0|0,3:0|1:0,0:0:0:0:
154,304,226205,2,0,L|78:310,1,75.9999979705811,8|0,0:0|1:0,0:0:0:0:
107,207,226534,1,2,3:2:0:0:
243,371,226699,1,8,0:0:0:0:
267,342,226781,1,8,0:0:0:0:
302,330,226863,1,10,0:0:0:0:
339,338,226946,1,8,0:0:0:0:
348,344,227029,6,0,B|389:367|435:359|460:335|460:335|488:280,1,167.999994873047,6|0,3:2|3:0,0:0:0:0:
459,207,227441,1,0,3:0:0:0:
454,202,227523,1,8,0:0:0:0:
330,78,227688,1,0,3:0:0:0:
329,86,227771,1,0,3:0:0:0:
328,94,227853,1,10,0:0:0:0:
424,13,228018,5,0,3:0:0:0:
283,214,228183,1,10,0:0:0:0:
204,129,228348,6,0,B|162:143|123:134|97:98|97:98|109:121|108:147,1,167.999994873047,6|0,3:2|3:0,0:0:0:0:
10,326,228842,1,8,0:0:0:0:
110,280,229007,1,0,3:0:0:0:
119,283,229089,1,0,3:0:0:0:
129,286,229172,1,10,0:0:0:0:
257,377,229337,1,0,3:0:0:0:
266,374,229419,1,0,3:0:0:0:
276,371,229502,1,14,0:0:0:0:
460,301,229666,6,0,P|422:248|315:261,1,167.999994873047,2|2,3:2|3:2,0:0:0:0:
249,288,230078,1,0,3:0:0:0:
240,283,230161,1,10,0:0:0:0:
132,174,230326,1,0,3:0:0:0:
142,171,230408,1,0,3:0:0:0:
152,169,230490,1,10,0:0:0:0:
368,112,230655,5,0,3:0:0:0:
220,22,230820,1,10,0:0:0:0:
343,225,230985,6,0,L|509:204,1,167.999994873047,6|0,3:2|0:0,0:0:0:0:
359,356,231479,1,8,0:0:0:0:
350,353,231562,1,8,0:0:0:0:
341,350,231644,1,0,3:0:0:0:
155,202,231809,1,2,3:2:0:0:
255,142,231974,5,0,3:0:0:0:
182,384,232139,1,14,0:0:0:0:
109,317,232304,6,0,P|163:289|236:300,1,136.000002593994,2|0,3:2|0:0,0:0:0:0:
306,375,232798,2,0,P|310:331|325:235,2,136.000002593994,2|2|10,0:0|0:0|0:0,0:0:0:0:
417,203,233622,6,0,P|358:214|272:147,1,167.999994873047,6|0,3:2|3:0,0:0:0:0:
154,19,234117,1,10,0:0:0:0:
115,3,234199,1,8,0:0:0:0:
73,5,234281,1,0,3:0:0:0:
37,24,234364,1,0,3:0:0:0:
12,58,234446,5,2,3:2:0:0:
167,250,234611,1,2,3:2:0:0:
63,195,234776,5,8,0:0:0:0:
261,16,234941,1,6,3:2:0:0:
256,192,235023,12,0,240216,0:0:0:0:
