osu file format v14

[General]
AudioFilename: audio.mp3
AudioLeadIn: 0
PreviewTime: -1
Countdown: 0
SampleSet: None
StackLeniency: 0.7
Mode: 0
LetterboxInBreaks: 0
WidescreenStoryboard: 0

[Editor]
DistanceSpacing: 0.5
BeatDivisor: 4
GridSize: 32
TimelineZoom: 1

[Metadata]
Title:Mis mun koirat on?
TitleUnicode:Mis mun koirat on?
Artist:Laveerre
ArtistUnicode:Laveerre
Creator:Takapaska
Version:takiksen maniat
Source:
Tags:
BeatmapID:4549321
BeatmapSetID:2157980

[Difficulty]
HPDrainRate:5
CircleSize:3
OverallDifficulty:3
ApproachRate:9
SliderMultiplier:2
SliderTickRate:1

[Events]
//Background and Video events
0,0,"Takis_moment.png",0,0
//Break Periods
//Storyboard Layer 0 (Background)
//Storyboard Layer 1 (Fail)
//Storyboard Layer 2 (Pass)
//Storyboard Layer 3 (Foreground)
//Storyboard Layer 4 (Overlay)
//Storyboard Sound Samples

[TimingPoints]
3.2134831460676,666.666666666667,4,2,0,100,1,0

[HitObjects]
148,112,1749,5,0,1:1:0:0:
416,319,2066,1,0,1:1:0:0:
369,113,3395,5,0,1:1:0:0:
141,267,4669,1,0,1:1:0:0:
192,128,6503,1,0,1:1:0:0:
320,288,6706,1,0,1:1:0:0:
396,132,7077,1,0,1:1:0:0:
224,96,8332,1,0,0:0:0:0:
188,261,8498,1,0,0:0:0:0:
384,160,8669,1,0,0:0:0:0:
139,115,9003,1,0,0:0:0:0:
155,148,12448,1,0,0:0:0:0:
348,194,12773,1,0,0:0:0:0:
64,64,15669,1,0,0:0:0:0:
96,64,15836,1,0,0:0:0:0:
128,64,16003,1,0,0:0:0:0:
160,64,16169,1,0,0:0:0:0:
192,96,16336,1,0,0:0:0:0:
224,96,16503,1,0,0:0:0:0:
224,128,16669,5,0,0:0:0:0:
224,128,16836,5,0,0:0:0:0:
224,160,17003,1,0,0:0:0:0:
224,192,17169,1,0,0:0:0:0:
192,192,17336,1,0,0:0:0:0:
160,192,17503,1,0,0:0:0:0:
128,160,17669,1,0,0:0:0:0:
128,128,17836,1,0,0:0:0:0:
160,96,18003,1,0,0:0:0:0:
192,96,18169,1,0,0:0:0:0:
224,64,18336,1,0,0:0:0:0:
224,64,18503,1,0,0:0:0:0:
256,64,18669,1,0,0:0:0:0:
256,96,18836,1,0,0:0:0:0:
288,96,19003,1,0,0:0:0:0:
288,128,19169,1,0,0:0:0:0:
288,160,19336,1,0,0:0:0:0:
320,192,19503,1,0,0:0:0:0:
352,224,19669,1,0,0:0:0:0:
352,224,19836,1,0,0:0:0:0:
384,224,20003,1,0,0:0:0:0:
416,224,20169,1,0,0:0:0:0:
416,192,20336,1,0,0:0:0:0:
448,192,20503,1,0,0:0:0:0:
448,160,20669,1,0,0:0:0:0:
448,128,20836,1,0,0:0:0:0:
416,96,21003,1,0,0:0:0:0:
160,128,21336,5,0,0:0:0:0:
352,32,21503,5,0,0:0:0:0:
320,288,21669,1,0,0:0:0:0:
224,64,21836,1,0,0:0:0:0:
192,288,22003,1,0,0:0:0:0:
352,128,22169,1,0,0:0:0:0:
416,288,22336,1,0,0:0:0:0:
192,128,22503,1,0,0:0:0:0:
96,288,22669,1,0,0:0:0:0:
128,160,23003,1,0,0:0:0:0:
384,160,23336,1,0,0:0:0:0:
256,256,23669,1,0,0:0:0:0:
256,192,24003,1,0,0:0:0:0:
128,96,24336,1,0,0:0:0:0:
320,224,24503,5,0,0:0:0:0:
224,288,24669,1,0,0:0:0:0:
320,96,24836,1,0,0:0:0:0:
128,128,25003,1,0,0:0:0:0:
320,288,25169,1,0,0:0:0:0:
224,96,25336,1,0,0:0:0:0:
256,192,25669,1,0,0:0:0:0:
256,192,26336,1,0,0:0:0:0:
160,128,27003,1,0,0:0:0:0:
320,256,27169,1,0,0:0:0:0:
192,224,27336,1,0,0:0:0:0:
352,96,27503,1,0,0:0:0:0:
256,288,27669,1,0,0:0:0:0:
224,96,27836,1,0,0:0:0:0:
160,192,28336,1,0,0:0:0:0:
128,96,28503,1,0,0:0:0:0:
256,64,28669,1,0,0:0:0:0:
352,192,29003,1,0,0:0:0:0:
160,160,29336,1,0,0:0:0:0:
192,288,29669,1,0,0:0:0:0:
160,128,29836,1,0,0:0:0:0:
384,256,30003,1,0,0:0:0:0:
352,160,30336,1,0,0:0:0:0:
256,128,30669,1,0,0:0:0:0:
160,128,32003,5,0,0:0:0:0:
320,256,32336,1,0,0:0:0:0:
320,96,32503,1,0,0:0:0:0:
416,192,32669,1,0,0:0:0:0:
160,160,33003,1,0,0:0:0:0:
224,288,33169,1,0,0:0:0:0:
384,224,33669,1,0,0:0:0:0:
256,96,33836,1,0,0:0:0:0:
224,256,34003,1,0,0:0:0:0:
128,96,34169,1,0,0:0:0:0:
96,288,34336,1,0,0:0:0:0:
224,224,34669,1,0,0:0:0:0:
352,96,34836,1,0,0:0:0:0:
416,288,35003,1,0,0:0:0:0:
256,96,35169,1,0,0:0:0:0:
256,320,35336,1,0,0:0:0:0:
384,192,35503,1,0,0:0:0:0:
192,192,35669,1,0,0:0:0:0:
128,288,35836,1,0,0:0:0:0:
96,128,36003,1,0,0:0:0:0:
32,256,36169,1,0,0:0:0:0:
256,96,36336,1,0,0:0:0:0:
256,192,37336,1,0,0:0:0:0:
128,128,37669,1,0,0:0:0:0:
128,288,37836,1,0,0:0:0:0:
224,128,38003,1,0,0:0:0:0:
64,224,38169,1,0,0:0:0:0:
32,128,38336,1,0,0:0:0:0:
256,256,38503,1,0,0:0:0:0:
160,96,39003,1,0,0:0:0:0:
256,256,39169,1,0,0:0:0:0:
416,256,39336,1,0,0:0:0:0:
64,160,39669,1,0,0:0:0:0:
128,288,40003,1,0,0:0:0:0:
192,128,40169,1,0,0:0:0:0:
256,288,40336,1,0,0:0:0:0:
320,160,40503,1,0,0:0:0:0:
192,192,40669,1,0,0:0:0:0:
288,256,40836,1,0,0:0:0:0:
256,64,41003,1,0,0:0:0:0:
160,256,41169,1,0,0:0:0:0:
128,256,42336,1,0,0:0:0:0:
384,96,42503,1,0,0:0:0:0:
96,128,42669,1,0,0:0:0:0:
352,288,42836,1,0,0:0:0:0:
256,96,43003,1,0,0:0:0:0:
192,288,43169,1,0,0:0:0:0:
128,128,43669,1,0,0:0:0:0:
256,288,43836,1,0,0:0:0:0:
384,128,44003,1,0,0:0:0:0:
448,288,44336,1,0,0:0:0:0:
128,160,44669,1,0,0:0:0:0:
224,288,45003,1,0,0:0:0:0:
320,128,45169,1,0,0:0:0:0:
352,256,45336,1,0,0:0:0:0:
128,224,45669,1,0,0:0:0:0:
192,128,46003,1,0,0:0:0:0:
320,256,46169,1,0,0:0:0:0:
416,96,46336,1,0,0:0:0:0:
448,256,46503,1,0,0:0:0:0:
288,96,46669,1,0,0:0:0:0:
192,256,46836,1,0,0:0:0:0:
352,320,47003,1,0,0:0:0:0:
384,96,47669,1,0,0:0:0:0:
224,192,47836,1,0,0:0:0:0:
96,128,48003,1,0,0:0:0:0:
256,288,48169,1,0,0:0:0:0:
384,128,48336,1,0,0:0:0:0:
96,288,48503,1,0,0:0:0:0:
352,256,49169,1,0,0:0:0:0:
96,288,50336,1,0,0:0:0:0:
320,64,50669,1,0,0:0:0:0:
448,320,51003,1,0,0:0:0:0:
416,288,51336,1,0,0:0:0:0:
416,288,51419,1,0,0:0:0:0:
416,288,51503,1,0,0:0:0:0:
416,288,51586,1,0,0:0:0:0:
416,288,51669,1,0,0:0:0:0:
416,288,51753,1,0,0:0:0:0:
416,288,51836,1,0,0:0:0:0:
352,288,52669,1,0,0:0:0:0:
160,160,53050,1,0,0:0:0:0:
192,160,53146,1,0,0:0:0:0:
224,160,53241,1,0,0:0:0:0:
128,128,53419,1,0,0:0:0:0:
192,256,53669,1,0,0:0:0:0:
352,64,53836,1,0,0:0:0:0:
384,288,54003,1,0,0:0:0:0:
224,96,54169,1,0,0:0:0:0:
96,256,54336,1,0,0:0:0:0:
320,288,54503,1,0,0:0:0:0:
128,128,54669,1,0,0:0:0:0:
384,96,54836,1,0,0:0:0:0:
224,288,55003,1,0,0:0:0:0:
224,96,55169,1,0,0:0:0:0:
32,160,55503,1,0,0:0:0:0:
128,320,55669,1,0,0:0:0:0:
256,96,55836,1,0,0:0:0:0:
352,288,56003,1,0,0:0:0:0:
128,192,56336,1,0,0:0:0:0:
416,128,56669,1,0,0:0:0:0:
256,288,57003,1,0,0:0:0:0:
256,128,57169,1,0,0:0:0:0:
160,256,57336,1,0,0:0:0:0:
64,128,57669,1,0,0:0:0:0:
320,192,57836,1,0,0:0:0:0:
384,288,58169,1,0,0:0:0:0:
416,128,58336,1,0,0:0:0:0:
192,128,58503,1,0,0:0:0:0:
256,288,58669,1,0,0:0:0:0:
320,192,59003,5,0,0:0:0:0:
64,160,59336,1,0,0:0:0:0:
160,320,59503,1,0,0:0:0:0:
96,224,59669,1,0,0:0:0:0:
256,96,60003,1,0,0:0:0:0:
384,288,60336,1,0,0:0:0:0:
160,160,60669,1,0,0:0:0:0:
160,320,61003,1,0,0:0:0:0:
416,160,61169,1,0,0:0:0:0:
224,128,61336,1,0,0:0:0:0:
320,288,61503,1,0,0:0:0:0:
160,224,61669,1,0,0:0:0:0:
384,128,61836,1,0,0:0:0:0:
160,96,62003,1,0,0:0:0:0:
320,224,62169,1,0,0:0:0:0:
192,320,62336,1,0,0:0:0:0:
128,192,62503,1,0,0:0:0:0:
320,128,62669,1,0,0:0:0:0:
352,256,62836,1,0,0:0:0:0:
160,96,63003,1,0,0:0:0:0:
192,224,63169,1,0,0:0:0:0:
64,160,63336,1,0,0:0:0:0:
160,128,64003,5,0,0:0:0:0:
352,288,64336,1,0,0:0:0:0:
352,128,64503,1,0,0:0:0:0:
192,288,64836,1,0,0:0:0:0:
128,128,65003,1,0,0:0:0:0:
64,320,65169,1,0,0:0:0:0:
64,160,65336,1,0,0:0:0:0:
256,256,65503,1,0,0:0:0:0:
384,128,65669,1,0,0:0:0:0:
384,288,65836,1,0,0:0:0:0:
192,128,66336,1,0,0:0:0:0:
256,288,66503,1,0,0:0:0:0:
384,160,66669,1,0,0:0:0:0:
288,160,66836,1,0,0:0:0:0:
352,288,67003,1,0,0:0:0:0:
192,160,67169,1,0,0:0:0:0:
160,320,67336,1,0,0:0:0:0:
64,192,67503,1,0,0:0:0:0:
320,192,67669,1,0,0:0:0:0:
288,352,67836,1,0,0:0:0:0:
192,160,68003,1,0,0:0:0:0:
96,288,68169,1,0,0:0:0:0:
320,128,68336,1,0,0:0:0:0:
416,256,68503,1,0,0:0:0:0:
416,64,68669,1,0,0:0:0:0:
256,64,68836,1,0,0:0:0:0:
192,160,69003,1,0,0:0:0:0:
96,96,69169,1,0,0:0:0:0:
96,224,69336,1,0,0:0:0:0:
224,160,69669,1,0,0:0:0:0:
222,195,69754,1,0,0:0:0:0:
224,224,69836,1,0,0:0:0:0:
96,288,70003,1,0,0:0:0:0:
96,160,70169,1,0,0:0:0:0:
256,160,70336,1,0,0:0:0:0:
352,128,70503,1,0,0:0:0:0:
448,224,70669,1,0,0:0:0:0:
256,288,71003,1,0,0:0:0:0:
224,192,71336,1,0,0:0:0:0:
224,320,71669,1,0,0:0:0:0:
320,224,71836,1,0,0:0:0:0:
192,160,72003,1,0,0:0:0:0:
256,224,72169,1,0,0:0:0:0:
352,128,72336,1,0,0:0:0:0:
384,320,72503,1,0,0:0:0:0:
256,128,72669,1,0,0:0:0:0:
128,320,73003,1,0,0:0:0:0:
96,128,73169,1,0,0:0:0:0:
352,224,73336,1,0,0:0:0:0:
256,320,73503,1,0,0:0:0:0:
224,128,73669,1,0,0:0:0:0:
128,288,73836,1,0,0:0:0:0:
96,128,74003,1,0,0:0:0:0:
256,224,74169,1,0,0:0:0:0:
352,128,74336,1,0,0:0:0:0:
448,288,74503,1,0,0:0:0:0:
224,320,74669,1,0,0:0:0:0:
128,96,75003,1,0,0:0:0:0:
320,224,75169,1,0,0:0:0:0:
352,96,75336,1,0,0:0:0:0:
160,288,75503,1,0,0:0:0:0:
96,128,75669,1,0,0:0:0:0:
320,288,75836,1,0,0:0:0:0:
384,128,76003,1,0,0:0:0:0:
256,160,76169,1,0,0:0:0:0:
224,320,76336,1,0,0:0:0:0:
128,128,76836,1,0,0:0:0:0:
320,288,77003,1,0,0:0:0:0:
320,96,77169,1,0,0:0:0:0:
192,288,77336,1,0,0:0:0:0:
128,128,77503,1,0,0:0:0:0:
384,224,77669,1,0,0:0:0:0:
352,320,77836,1,0,0:0:0:0:
96,224,78003,1,0,0:0:0:0:
352,128,78169,1,0,0:0:0:0:
384,256,78669,1,0,0:0:0:0:
256,96,79003,1,0,0:0:0:0:
352,128,79836,1,0,0:0:0:0:
160,128,80003,5,0,0:0:0:0:
256,288,80169,1,0,0:0:0:0:
160,320,80336,1,0,0:0:0:0:
320,128,80503,1,0,0:0:0:0:
384,320,80669,1,0,0:0:0:0:
160,192,80836,1,0,0:0:0:0:
96,288,81003,1,0,0:0:0:0:
64,96,81169,1,0,0:0:0:0:
416,160,81336,1,0,0:0:0:0:
256,320,81503,1,0,0:0:0:0:
256,64,81669,1,0,0:0:0:0:
64,224,81836,1,0,0:0:0:0:
320,224,82003,1,0,0:0:0:0:
160,96,82169,1,0,0:0:0:0:
160,288,82336,1,0,0:0:0:0:
320,96,82503,1,0,0:0:0:0:
352,320,82669,1,0,0:0:0:0:
160,128,82836,1,0,0:0:0:0:
160,352,83003,1,0,0:0:0:0:
384,128,83169,1,0,0:0:0:0:
64,256,83336,1,0,0:0:0:0:
416,288,83503,1,0,0:0:0:0:
224,64,83669,1,0,0:0:0:0:
256,288,83836,1,0,0:0:0:0:
64,128,84003,1,0,0:0:0:0:
416,96,84169,1,0,0:0:0:0:
128,288,84336,1,0,0:0:0:0:
416,288,84503,1,0,0:0:0:0:
224,64,84669,1,0,0:0:0:0:
128,128,85169,1,0,0:0:0:0:
224,128,85336,1,0,0:0:0:0:
288,224,85503,1,0,0:0:0:0:
128,256,85669,1,0,0:0:0:0:
352,96,85836,1,0,0:0:0:0:
384,288,86003,1,0,0:0:0:0:
224,96,86169,1,0,0:0:0:0:
256,288,86336,1,0,0:0:0:0:
96,160,86503,1,0,0:0:0:0:
384,160,86669,1,0,0:0:0:0:
352,320,86836,1,0,0:0:0:0:
256,96,87003,1,0,0:0:0:0:
224,320,87169,1,0,0:0:0:0:
160,128,87336,1,0,0:0:0:0:
128,320,87503,1,0,0:0:0:0:
96,128,87669,1,0,0:0:0:0:
64,320,87836,1,0,0:0:0:0:
32,128,88003,1,0,0:0:0:0:
160,320,88169,1,0,0:0:0:0:
160,128,88336,1,0,0:0:0:0:
288,288,88503,1,0,0:0:0:0:
288,96,88669,1,0,0:0:0:0:
352,288,88836,1,0,0:0:0:0:
416,128,89003,1,0,0:0:0:0:
416,288,89169,1,0,0:0:0:0:
384,352,89336,1,0,0:0:0:0:
256,160,89503,1,0,0:0:0:0:
224,320,89669,1,0,0:0:0:0:
96,160,89836,1,0,0:0:0:0:
352,160,90003,1,0,0:0:0:0:
96,224,90669,1,0,0:0:0:0:
352,128,91003,1,0,0:0:0:0:
352,320,91336,1,0,0:0:0:0:
192,128,91503,1,0,0:0:0:0:
192,320,91669,1,0,0:0:0:0:
96,192,91836,1,0,0:0:0:0:
384,192,92003,1,0,0:0:0:0:
224,96,92669,1,0,0:0:0:0:
128,288,93003,1,0,0:0:0:0:
96,96,93336,1,0,0:0:0:0:
352,160,93669,1,0,0:0:0:0:
384,288,93836,1,0,0:0:0:0:
192,96,94003,1,0,0:0:0:0:
192,288,94169,1,0,0:0:0:0:
32,224,94336,1,0,0:0:0:0:
352,128,94503,1,0,0:0:0:0:
352,352,94836,1,0,0:0:0:0:
448,160,95003,1,0,0:0:0:0:
480,352,95169,1,0,0:0:0:0:
256,192,95336,1,0,0:0:0:0:
96,320,95669,1,0,0:0:0:0:
96,96,96003,1,0,0:0:0:0:
384,96,96336,1,0,0:0:0:0:
288,288,96669,1,0,0:0:0:0:
128,160,96836,1,0,0:0:0:0:
384,192,97003,1,0,0:0:0:0:
416,288,97169,1,0,0:0:0:0:
224,96,97336,1,0,0:0:0:0:
224,288,97503,1,0,0:0:0:0:
352,96,97669,1,0,0:0:0:0:
128,192,97836,1,0,0:0:0:0:
64,96,98336,1,0,0:0:0:0:
352,288,98669,1,0,0:0:0:0:
320,96,99003,1,0,0:0:0:0:
192,288,99336,1,0,0:0:0:0:
96,128,99669,1,0,0:0:0:0:
384,192,99836,1,0,0:0:0:0:
288,320,100003,1,0,0:0:0:0:
256,96,100169,1,0,0:0:0:0:
160,288,100336,1,0,0:0:0:0:
64,128,100503,1,0,0:0:0:0:
192,224,100836,1,0,0:0:0:0:
320,160,101003,1,0,0:0:0:0:
384,224,101169,1,0,0:0:0:0:
160,128,101336,1,0,0:0:0:0:
288,288,101503,1,0,0:0:0:0:
384,96,101669,1,0,0:0:0:0:
416,320,101836,1,0,0:0:0:0:
288,96,102003,1,0,0:0:0:0:
224,288,102169,1,0,0:0:0:0:
96,96,102336,1,0,0:0:0:0:
96,320,102503,1,0,0:0:0:0:
416,192,102669,1,0,0:0:0:0:
192,160,102836,1,0,0:0:0:0:
416,96,103003,1,0,0:0:0:0:
192,32,103169,1,0,0:0:0:0:
416,32,103503,5,0,0:0:0:0:
384,224,103669,1,0,0:0:0:0:
256,192,103836,1,0,0:0:0:0:
96,96,104003,1,0,0:0:0:0:
160,256,104169,1,0,0:0:0:0:
320,128,104336,1,0,0:0:0:0:
352,288,104503,1,0,0:0:0:0:
160,160,104669,1,0,0:0:0:0:
96,288,104836,1,0,0:0:0:0:
365,155,105003,1,0,0:0:0:0:
259,308,105169,1,0,0:0:0:0:
160,96,105336,1,0,0:0:0:0:
384,320,105503,1,0,0:0:0:0:
128,256,105669,1,0,0:0:0:0:
352,96,105836,1,0,0:0:0:0:
256,320,106003,1,0,0:0:0:0:
128,96,106169,1,0,0:0:0:0:
96,320,106336,1,0,0:0:0:0:
375,182,106503,1,0,0:0:0:0:
332,93,106669,1,0,0:0:0:0:
192,96,107003,1,0,0:0:0:0:
64,128,107169,1,0,0:0:0:0:
192,288,107336,1,0,0:0:0:0:
320,96,107669,1,0,0:0:0:0:
384,288,107836,1,0,0:0:0:0:
192,128,108336,1,0,0:0:0:0:
128,288,108503,1,0,0:0:0:0:
416,192,108669,1,0,0:0:0:0:
224,64,109003,1,0,0:0:0:0:
288,288,109669,1,0,0:0:0:0:
160,160,109836,1,0,0:0:0:0:
128,288,110003,1,0,0:0:0:0:
64,224,110669,1,0,0:0:0:0:
160,128,111336,1,0,0:0:0:0:
96,128,111669,1,0,0:0:0:0:
192,288,111836,1,0,0:0:0:0:
256,128,112003,1,0,0:0:0:0:
320,320,112336,1,0,0:0:0:0:
384,128,112503,1,0,0:0:0:0:
448,320,113003,1,0,0:0:0:0:
224,160,113169,1,0,0:0:0:0:
224,320,113336,1,0,0:0:0:0:
96,160,113503,1,0,0:0:0:0:
96,320,113669,1,0,0:0:0:0:
32,224,113836,1,0,0:0:0:0:
256,256,114003,1,0,0:0:0:0:
192,96,114336,1,0,0:0:0:0:
384,160,114669,1,0,0:0:0:0:
352,320,115003,1,0,0:0:0:0:
224,160,115669,1,0,0:0:0:0:
224,320,115836,1,0,0:0:0:0:
128,192,116003,1,0,0:0:0:0:
384,160,116169,1,0,0:0:0:0:
320,288,116336,1,0,0:0:0:0:
160,128,117003,1,0,0:0:0:0:
128,288,117169,1,0,0:0:0:0:
288,128,117336,1,0,0:0:0:0:
192,224,117503,1,0,0:0:0:0:
384,288,117669,1,0,0:0:0:0:
448,128,117836,1,0,0:0:0:0:
288,288,118003,1,0,0:0:0:0:
352,192,118336,1,0,0:0:0:0:
160,160,118503,1,0,0:0:0:0:
160,288,118669,1,0,0:0:0:0:
64,224,118836,1,0,0:0:0:0:
288,96,119003,1,0,0:0:0:0:
320,288,119169,1,0,0:0:0:0:
448,160,119336,1,0,0:0:0:0:
448,320,119669,1,0,0:0:0:0:
256,192,119836,1,0,0:0:0:0:
352,192,120003,5,0,0:0:0:0:
352,192,120169,1,0,0:0:0:0:
352,192,120336,1,0,0:0:0:0:
352,192,120503,1,0,0:0:0:0:
352,192,120669,1,0,0:0:0:0:
352,192,120836,1,0,0:0:0:0:
352,192,121003,1,0,0:0:0:0:
352,192,121169,1,0,0:0:0:0:
352,192,121336,1,0,0:0:0:0:
352,192,121503,1,0,0:0:0:0:
128,128,122336,1,0,0:0:0:0:
160,288,122503,1,0,0:0:0:0:
288,128,122669,1,0,0:0:0:0:
320,288,122836,1,0,0:0:0:0:
160,96,123003,1,0,0:0:0:0:
160,192,123169,1,0,0:0:0:0:
96,288,123336,1,0,0:0:0:0:
64,128,123503,1,0,0:0:0:0:
224,224,123669,1,0,0:0:0:0:
352,128,124336,1,0,0:0:0:0:
416,288,124503,1,0,0:0:0:0:
192,128,124669,1,0,0:0:0:0:
224,320,125003,1,0,0:0:0:0:
416,160,125336,1,0,0:0:0:0:
288,64,125669,1,0,0:0:0:0:
288,192,125836,1,0,0:0:0:0:
352,320,126003,1,0,0:0:0:0:
160,96,126336,1,0,0:0:0:0:
256,256,126503,1,0,0:0:0:0:
96,320,126669,1,0,0:0:0:0:
192,160,126836,1,0,0:0:0:0:
320,160,127003,1,0,0:0:0:0:
192,256,127169,1,0,0:0:0:0:
96,192,127336,1,0,0:0:0:0:
256,320,127669,1,0,0:0:0:0:
