osu file format v14

[General]
AudioFilename: audio.mp3
AudioLeadIn: 0
PreviewTime: 47100
Countdown: 0
SampleSet: Normal
StackLeniency: 0.2
Mode: 0
LetterboxInBreaks: 0
WidescreenStoryboard: 1

[Editor]
Bookmarks: 5604
DistanceSpacing: 1.9
BeatDivisor: 8
GridSize: 4
TimelineZoom: 2.899999

[Metadata]
Title:I Like Me Better
TitleUnicode:I Like Me Better
Artist:Lauv
ArtistUnicode:Lauv
Creator:Pandize
Version:with you...
Source:
Tags:
BeatmapID:1694642
BeatmapSetID:807465

[Difficulty]
HPDrainRate:5
CircleSize:3.5
OverallDifficulty:6
ApproachRate:8.7
SliderMultiplier:3
SliderTickRate:1

[Events]
//Background and Video events
0,0,"nsMeqoh.jpg",0,0
//Break Periods
//Storyboard Layer 0 (Background)
//Storyboard Layer 1 (Fail)
//Storyboard Layer 2 (Pass)
//Storyboard Layer 3 (Foreground)
//Storyboard Sound Samples

[TimingPoints]
144,652.173913043478,4,1,1,40,1,0
144,-200,4,1,1,40,0,0
2100,-100,4,1,1,40,0,0
2752,-200,4,1,1,40,0,0
5361,-133.333333333333,4,1,1,40,0,0
6665,-200,4,1,1,40,0,0
7970,-133.333333333333,4,1,1,40,0,0
28513,-333.333333333333,4,1,1,40,0,0
28839,-133.333333333333,4,1,1,60,0,0
47426,-133.333333333333,4,1,1,85,0,0
49057,-133.333333333333,4,1,1,85,0,0
49220,-133.333333333333,4,1,1,40,0,0
49383,-166.666666666667,4,1,1,40,0,0
49627,-166.666666666667,4,1,1,5,0,0
49709,-100,4,1,1,85,0,1
51665,-400,4,1,1,85,0,1
52317,-100,4,1,1,85,0,1
57046,-400,4,1,1,85,0,1
57535,-100,4,1,1,85,0,1
62263,-400,4,1,1,85,0,1
62752,-100,4,1,1,85,0,1
67480,-400,4,1,1,85,0,1
67970,-100,4,1,1,85,0,1
68296,-80,4,1,1,85,0,1
69926,-1000,4,1,1,85,0,0
70252,-1000,4,1,1,30,0,0
70578,-1000,4,1,1,30,0,0

[Colours]
Combo1 : 83,255,255
Combo2 : 31,98,171
Combo3 : 225,251,255
Combo4 : 0,128,255
SliderTrackOverride : 10,10,70
SliderBorder : 120,120,220

[HitObjects]
250,175,144,6,0,P|285:164|321:173,1,75,0|0,0:0|2:0,0:0:0:0:
399,199,633,2,0,P|403:173|401:153,1,37.5,0|0,0:0|2:0,0:0:0:0:
411,47,959,2,0,P|395:67|347:91,1,75,0|0,0:0|2:0,0:0:0:0:
280,48,1448,2,0,P|271:64|267:82,1,37.5,0|0,0:0|2:0,0:0:0:0:
320,171,1774,2,0,P|314:188|304:204,1,37.5,0|0,0:0|2:0,0:0:0:0:
173,151,2100,6,0,P|140:147|103:158,2,37.5
223,216,2426,1,0,0:0:0:0:
188,293,2589,1,0,0:0:0:0:
304,205,2752,6,0,P|330:200|385:214,1,75,0|0,0:0|2:0,0:0:0:0:
352,321,3241,2,0,P|338:299|334:279,1,37.5,0|0,0:0|2:0,0:0:0:0:
379,138,3567,2,0,P|386:161|374:215,1,75,0|0,0:0|2:0,0:0:0:0:
236,250,4056,6,0,P|220:238|207:225,1,37.5,0|0,0:0|2:0,0:0:0:0:
271,150,4382,2,0,P|288:157|301:170,1,37.5,0|0,0:0|2:0,0:0:0:0:
335,265,4709,1,0,0:0:0:0:
403,163,4871,1,0,0:0:0:0:
403,163,5361,6,0,L|289:168,1,112.500004291535,0|0,0:0|2:0,0:0:0:0:
205,173,5850,1,0,0:0:0:0:
205,173,6176,1,0,0:0:0:0:
371,253,6665,6,0,L|282:257,1,75,0|0,0:0|2:0,0:0:0:0:
209,263,7154,1,0,0:0:0:0:
209,263,7480,1,0,0:0:0:0:
97,211,7970,5,0,0:0:0:0:
97,211,8296,5,0,0:0:0:0:
133,116,8459,1,0,0:0:0:0:
195,190,8622,2,0,P|235:191|272:182,1,56.2500021457673,0|0,0:0|2:0,0:0:0:0:
314,106,8948,5,0,0:0:0:0:
350,201,9111,1,0,0:0:0:0:
412,127,9274,2,0,P|452:126|489:135,1,56.2500021457673,0|0,0:0|2:0,0:0:0:0:
348,256,9600,6,0,P|347:216|356:179,1,56.2500021457673,0|0,0:0|2:0,0:0:0:0:
467,128,9926,2,0,P|427:129|390:120,1,56.2500021457673,0|0,0:0|2:0,0:0:0:0:
258,104,10252,2,0,P|298:103|335:112,1,56.2500021457673,0|0,0:0|2:0,0:0:0:0:
436,223,10578,5,0,0:0:0:0:
377,36,10741,1,0,0:0:0:0:
377,36,11231,5,0,2:0:0:0:
377,36,11557,6,0,L|314:34,1,56.2500021457673,0|0,2:0|2:0,2:0:0:0:
232,59,11883,2,0,L|169:61,2,56.2500021457673,0|0|0,2:0|2:0|2:0,2:0:0:0:
320,34,12372,2,0,P|324:63|318:97,1,56.2500021457673,0|0,2:0|2:0,2:0:0:0:
245,150,12698,1,0,2:0:0:0:
232,59,12861,1,0,2:0:0:0:
333,184,13024,1,0,2:0:0:0:
151,113,13187,5,0,0:0:0:0:
151,113,13513,5,0,0:0:0:0:
132,208,13676,1,0,0:0:0:0:
10,141,13839,2,0,P|50:140|87:149,1,56.2500021457673,0|0,0:0|2:0,0:0:0:0:
132,208,14165,5,0,0:0:0:0:
223,177,14328,1,0,0:0:0:0:
238,323,14491,2,0,P|221:300|209:275,1,56.2500021457673,0|0,0:0|2:0,0:0:0:0:
223,177,14817,5,0,0:0:0:0:
315,208,14980,1,0,0:0:0:0:
297,58,15144,2,0,P|293:86|295:114,1,56.2500021457673,0|0,0:0|2:0,0:0:0:0:
315,208,15470,5,0,0:0:0:0:
407,167,15633,1,0,0:0:0:0:
405,327,15797,2,0,P|404:298|398:271,1,56.2500021457673,0|0,0:0|2:0,0:0:0:0:
315,208,16122,5,0,0:0:0:0:
307,305,16285,1,0,0:0:0:0:
230,175,16448,2,0,P|202:171|174:173,1,56.2500021457673,0|0,0:0|2:0,0:0:0:0:
93,251,16774,2,0,P|70:210|108:85,1,168.750006437302
95,96,17426,1,0,0:0:0:0:
174,173,17589,2,0,L|236:173,1,56.2500021457673
230,173,17915,5,0,0:0:0:0:
196,67,18078,1,0,0:0:0:0:
185,274,18241,1,0,0:0:0:0:
302,89,18404,5,0,0:0:0:0:
302,89,18731,5,0,0:0:0:0:
230,173,18894,1,0,0:0:0:0:
332,191,19057,2,0,P|372:192|409:183,1,56.2500021457673,0|0,0:0|2:0,0:0:0:0:
467,112,19383,5,0,0:0:0:0:
490,220,19546,1,0,0:0:0:0:
357,87,19709,2,0,P|317:86|280:95,1,56.2500021457673,0|0,0:0|2:0,0:0:0:0:
202,146,20035,6,0,P|203:106|194:69,1,56.2500021457673,0|0,0:0|2:0,0:0:0:0:
76,23,20361,2,0,P|116:22|153:31,1,56.2500021457673,0|0,0:0|2:0,0:0:0:0:
257,147,20687,2,0,P|217:148|180:139,1,56.2500021457673,0|0,0:0|2:0,0:0:0:0:
76,23,21013,5,0,0:0:0:0:
111,222,21176,1,0,0:0:0:0:
111,222,21665,5,0,0:0:0:0:
111,222,21991,6,0,L|174:220,1,56.2500021457673,0|0,2:0|2:0,2:0:0:0:
239,155,22317,2,0,L|237:92,2,56.2500021457673,0|0|0,2:0|2:0|2:0,2:0:0:0:
267,245,22807,1,0,0:0:0:0:
397,333,22970,5,0,0:0:0:0:
428,241,23133,1,0,0:0:0:0:
296,336,23296,1,0,0:0:0:0:
348,182,23459,1,0,0:0:0:0:
267,245,23623,6,0,L|154:238,1,112.500004291535
58,263,24111,2,0,P|68:289|85:311,2,56.2500021457673
81,167,24600,2,0,P|103:149|129:139,1,56.2500021457673
223,200,24926,2,0,P|249:189|271:172,1,56.2500021457673
364,77,25252,2,0,P|355:103|353:131,1,56.2500021457673
397,333,25578,5,0,0:0:0:0:
428,241,25741,1,0,0:0:0:0:
296,336,25904,1,0,0:0:0:0:
348,182,26067,1,0,0:0:0:0:
267,245,26231,6,0,L|154:238,1,112.500004291535
85,165,26720,2,0,P|67:189|55:229,2,56.2500021457673
181,142,27209,1,0,0:0:0:0:
85,165,28513,6,0,L|69:147,1,22.4999993133545,0|0,2:0|2:0,2:0:0:0:
83,267,28839,5,0,0:0:0:0:
83,267,29165,5,0,0:0:0:0:
168,211,29328,2,0,P|196:210|224:216,1,56.2500021457673,0|8,0:0|0:2,0:0:0:0:
371,258,29654,2,0,P|343:263|315:262,1,56.2500021457673
219,107,29981,2,0,P|210:154|228:223,1,112.500004291535,0|0,0:0|2:0,0:0:0:0:
363,149,30470,6,0,P|332:148|290:161,1,56.2500021457673
167,212,30796,2,0,P|194:217|223:216,1,56.2500021457673,8|0,0:2|0:0,0:0:0:0:
363,149,31122,2,0,P|361:177|381:245,1,84.3750032186509,0|0,0:0|2:0,0:0:0:0:
423,257,31448,1,0,0:0:0:0:
223,216,31611,1,0,0:0:0:0:
363,149,32100,5,8,2:0:0:0:
295,86,32426,2,0,L|291:24,2,56.2500021457673,0|0|0,2:0|2:0|2:0,2:0:0:0:
363,149,32915,2,0,L|366:205,1,56.2500021457673,0|0,2:0|2:0,2:0:0:0:
366,205,33241,1,0,2:0:0:0:
511,165,33404,1,8,2:0:0:0:
400,63,33567,5,0,2:0:0:0:
366,205,33731,1,0,2:0:0:0:
497,77,33894,1,0,2:0:0:0:
271,186,34057,5,0,0:0:0:0:
271,186,34383,5,0,0:0:0:0:
190,256,34546,2,0,P|159:257|117:244,1,56.2500021457673,0|8,0:0|0:2,0:0:0:0:
16,178,34872,2,0,P|44:177|71:182,1,56.2500021457673
129,360,35199,2,0,P|120:313|138:244,1,112.500004291535,0|0,0:0|2:0,0:0:0:0:
76,126,35688,6,0,P|77:157|64:199,1,56.2500021457673
4,270,36014,2,0,P|-1:297|0:325,1,56.2500021457673,8|0,0:2|0:0,0:0:0:0:
216,240,36340,2,0,P|188:238|119:258,1,84.3750032186509,0|0,0:0|2:0,0:0:0:0:
108,300,36666,1,0,0:0:0:0:
76,126,36829,1,0,0:0:0:0:
209,146,37318,5,8,2:0:0:0:
252,62,37644,2,0,L|310:42,2,56.2500021457673,0|0|0,2:0|2:0|2:0,2:0:0:0:
209,146,38133,2,0,L|212:202,1,56.2500021457673,0|0,2:0|2:0,2:0:0:0:
212,202,38459,1,0,2:0:0:0:
71,159,38622,1,8,2:0:0:0:
129,69,38785,5,0,2:0:0:0:
113,258,38949,1,0,2:0:0:0:
71,159,39112,1,0,2:0:0:0:
252,317,39274,5,0,0:0:0:0:
252,317,39600,5,0,0:0:0:0:
229,220,39763,1,0,0:0:0:0:
323,246,39926,2,0,L|393:243,2,56.2500021457673,8|0|0,0:2|2:0|0:0,2:0:0:0:
229,220,40415,1,0,0:0:0:0:
307,96,40578,2,0,P|306:124|299:151,1,56.2500021457673,0|0,0:0|2:0,2:0:0:0:
209,43,40904,2,0,P|209:71|216:98,1,56.2500021457673,0|0,0:0|2:0,2:0:0:0:
360,214,41231,2,0,P|319:201|186:265,1,196.875007510186,8|0,0:2|2:0,0:0:0:0:
188,316,41883,5,0,0:0:0:0:
188,316,42209,5,0,0:0:0:0:
248,244,42372,2,0,P|255:216|256:188,1,56.2500021457673,0|0,0:0|2:0,2:0:0:0:
165,93,42698,2,0,P|165:121|172:148,1,56.2500021457673,0|0,0:0|2:0,2:0:0:0:
257,189,43024,1,0,0:0:0:0:
66,200,43187,2,0,B|115:223|163:196|163:196|204:175|263:191,1,196.875007510186,0|0,0:0|2:0,0:0:0:0:
305,234,43839,2,0,P|306:206|313:179,1,56.2500021457673,8|0,0:2|0:0,0:0:0:0:
393,72,44165,2,0,P|392:100|385:127,1,56.2500021457673
82,175,44491,5,0,0:0:0:0:
82,175,44817,5,0,0:0:0:0:
181,213,44981,2,0,L|245:212,1,56.2500021457673,0|8,0:0|0:2,0:0:0:0:
302,145,45307,2,0,P|330:145|357:152,1,56.2500021457673,0|0,0:0|2:0,0:0:0:0:
421,218,45633,2,0,P|449:217|476:210,2,56.2500021457673,0|0|0,0:0|2:0|2:0,2:0:0:0:
350,98,46122,2,0,P|356:125|357:153,1,56.2500021457673,0|0,0:0|2:0,2:0:0:0:
332,242,46366,1,0,2:0:0:0:
332,242,46448,1,8,0:2:0:0:
451,116,47100,5,0,0:0:0:0:
303,146,47426,5,0,2:0:0:0:
396,116,47589,2,0,P|427:114|467:120,1,56.2500021457673,0|0,2:0|2:0,2:0:0:0:
303,146,47915,2,0,P|285:171|270:209,1,56.2500021457673,0|0,2:0|2:0,2:0:0:0:
352,272,48241,2,0,P|338:244|256:189,1,112.500004291535,0|0,2:0|2:0,2:0:0:0:
176,202,48731,6,0,P|179:172|194:142,1,56.2500021457673,0|0,2:0|2:0,2:0:0:0:
163,15,49057,2,0,P|160:45|145:75,1,56.2500021457673,8|0,0:1|2:0,2:0:0:0:
0,94,49383,6,0,P|32:91|76:103,1,67.4999979400635,0|0,2:0|2:0,2:0:0:0:
133,167,49709,6,0,L|270:174,1,112.5,2|0,0:3|0:0,0:0:0:0:
326,206,50035,2,0,P|333:174|323:130,1,75
251,83,50279,1,0,0:0:0:0:
251,83,50361,1,8,0:0:0:0:
326,206,50524,2,0,P|357:212|401:202,2,75
251,83,51013,6,0,L|242:172,1,75
26,93,51339,2,0,L|32:182,1,75,2|0,0:3|0:0,0:0:0:0:
145,309,51665,1,8,0:0:0:0:
31,167,51828,2,0,L|8:166,2,18.75,0|0|0,0:0|2:0|2:0,0:0:0:0:
257,237,52317,6,0,L|393:243,1,112.5,2|0,0:3|0:0,0:0:0:0:
453,277,52643,2,0,P|459:245|449:200,1,75
379,159,52887,1,0,0:0:0:0:
379,159,52969,1,8,0:0:0:0:
289,321,53132,2,0,P|258:327|213:317,2,75
379,159,53622,5,0,3:0:0:0:
92,128,53948,1,2,3:3:0:0:
470,138,54274,6,0,P|474:163|473:183,1,37.5,8|0,0:0|0:0,0:0:0:0:
405,296,54437,2,0,P|401:271|402:251,1,37.5
504,275,54600,1,0,0:0:0:0:
379,159,54763,1,2,0:3:0:0:
245,292,54926,6,0,L|109:298,1,112.5,2|0,0:3|0:0,0:0:0:0:
48,333,55252,2,0,P|41:301|51:257,1,75
120,208,55496,1,0,0:0:0:0:
120,208,55578,1,8,0:0:0:0:
17,116,55741,2,0,P|11:85|21:41,2,75,0|0|0,0:3|0:3|0:3,0:3:0:0:
241,105,56230,6,0,L|232:194,1,75
17,116,56557,2,0,L|23:205,1,75,2|0,0:3|0:0,0:0:0:0:
233,179,56882,1,8,0:0:0:0:
119,27,57046,2,0,L|121:1,2,18.75,0|0|0,0:0|2:0|2:0,0:0:0:0:
321,96,57535,6,0,L|458:103,1,112.5,2|0,0:3|0:0,0:0:0:0:
512,136,57861,2,0,P|519:104|509:60,1,75
439,16,58105,1,0,0:0:0:0:
439,16,58187,1,8,0:0:0:0:
371,201,58350,2,0,P|407:209|444:204,2,75,0|2|0,0:0|0:3|0:0,0:0:0:0:
316,89,58839,6,0,L|453:96,1,112.5,0|0,0:3|0:0,0:0:0:0:
507,129,59165,2,0,P|514:97|504:53,1,75,2|0,0:3|0:0,0:0:0:0:
434,9,59409,1,0,0:0:0:0:
434,9,59491,1,8,0:0:0:0:
366,194,59654,2,0,P|402:202|438:196,2,75,2|0|2,0:3|0:3|0:3,0:0:0:0:
275,74,60144,6,0,L|163:68,1,112.5,2|0,0:3|0:0,0:0:0:0:
80,32,60470,2,0,P|72:68|79:104,1,75
160,160,60714,1,0,0:0:0:0:
160,160,60796,1,8,0:0:0:0:
75,196,60959,2,0,P|69:227|78:271,2,75
250,196,61448,6,0,L|241:285,1,75
80,121,61774,2,0,L|74:210,1,75,2|0,0:3|0:0,0:0:0:0:
65,319,62100,1,8,0:0:0:0:
202,107,62263,2,0,L|225:106,2,18.75,0|0|0,0:0|2:0|2:0,0:0:0:0:
250,219,62752,6,0,L|386:225,1,112.5,2|0,0:3|0:0,0:0:0:0:
449,261,63078,2,0,P|455:229|445:184,1,75
374,138,63322,1,0,0:0:0:0:
374,138,63404,1,8,0:0:0:0:
306,334,63567,2,0,P|337:340|382:330,2,75
321,202,64057,5,0,3:0:0:0:
35,168,64383,1,2,3:3:0:0:
318,164,64709,6,0,P|322:189|321:209,1,37.5,8|0,0:0|0:0,0:0:0:0:
252,327,64872,2,0,P|248:302|249:282,1,37.5
355,292,65035,1,0,0:0:0:0:
115,276,65198,1,2,0:3:0:0:
318,164,65361,6,0,L|454:170,1,112.5,2|0,0:3|0:0,0:0:0:0:
511,131,65687,2,0,P|519:167|512:204,1,75
433,258,65931,1,0,0:0:0:0:
433,258,66013,1,8,0:0:0:0:
347,77,66176,2,0,P|316:71|272:81,2,75,0|0|0,0:3|0:3|0:3,0:3:0:0:
426,183,66665,6,0,L|435:272,1,75
275,80,66992,2,0,L|269:169,1,75,2|0,0:3|0:0,0:0:0:0:
255,277,67317,1,8,0:0:0:0:
390,80,67481,2,0,L|388:54,2,18.75,0|0|0,0:0|2:0|2:0,0:0:0:0:
368,271,67970,6,0,L|231:278,1,112.5,2|0,0:3|0:0,0:0:0:0:
103,277,68296,1,0,0:0:0:0:
252,179,68459,1,0,0:0:0:0:
258,378,68622,1,8,0:0:0:0:
29,224,68785,2,0,P|61:257|103:277,1,93.75
255,276,69111,1,0,0:0:0:0:
72,363,69274,6,0,P|80:317|103:277,1,93.75,0|0,3:0|0:0,0:0:0:0:
252,179,69600,1,0,0:0:0:0:
169,348,69763,1,0,0:0:0:0:
363,340,69926,6,0,L|379:339,1,15,8|0,0:0|2:0,0:0:0:0:
377,339,70578,1,0,2:0:0:0:
