osu file format v14

[General]
AudioFilename: audio.mp3
AudioLeadIn: 0
PreviewTime: 47100
Countdown: 0
SampleSet: Normal
StackLeniency: 1
Mode: 0
LetterboxInBreaks: 0
WidescreenStoryboard: 1

[Editor]
DistanceSpacing: 1
BeatDivisor: 4
GridSize: 4
TimelineZoom: 2.899999

[Metadata]
Title:I Like Me Better
TitleUnicode:I Like Me Better
Artist:Lauv
ArtistUnicode:Lauv
Creator:Pandize
Version:Normal
Source:
Tags:
BeatmapID:1702229
BeatmapSetID:807465

[Difficulty]
HPDrainRate:3
CircleSize:3
OverallDifficulty:3
ApproachRate:5
SliderMultiplier:2
SliderTickRate:1

[Events]
//Background and Video events
0,0,"nsMeqoh.jpg",0,0
//Break Periods
//Storyboard Layer 0 (Background)
//Storyboard Layer 1 (Fail)
//Storyboard Layer 2 (Pass)
//Storyboard Layer 3 (Foreground)
//Storyboard Sound Samples

[TimingPoints]
144,652.173913043478,4,1,1,40,1,0
144,-100,4,1,1,40,0,0
49057,-100,4,1,1,85,0,0
49709,-100,4,1,1,85,0,1
69926,-100,4,1,1,85,0,0

[Colours]
Combo1 : 83,255,255
Combo2 : 31,98,171
Combo3 : 225,251,255
Combo4 : 0,128,255
SliderTrackOverride : 10,10,70
SliderBorder : 120,120,220

[HitObjects]
63,128,144,6,0,P|112:114|178:126,1,100,0|0,2:0|2:0,2:0:0:0:
172,167,633,2,0,P|221:181|287:169,1,100,0|0,2:0|2:0,2:0:0:0:
373,67,1448,1,0,2:0:0:0:
472,78,1774,1,0,2:0:0:0:
417,161,2100,2,0,P|417:187|426:221,1,50,0|0,0:0|2:0,2:0:0:0:
458,244,2426,2,0,P|458:270|449:304,1,50,0|0,0:0|2:0,2:0:0:0:
423,334,2752,6,0,P|373:339|325:325,1,100,0|0,0:0|2:0,0:0:0:0:
310,277,3241,2,0,P|260:271|212:285,1,100
76,350,4057,2,0,P|62:302|67:252,1,100
156,208,4709,2,0,B|171:165|153:123|153:123|138:88|152:49,1,150,0|0,0:0|2:0,0:0:0:0:
169,16,5361,6,0,P|218:10|266:24,1,100,0|0,0:0|2:0,0:0:0:0:
276,73,5850,2,0,P|325:78|373:64,1,100
506,133,6665,6,0,P|456:127|408:141,1,100,0|0,0:0|2:0,0:0:0:0:
399,190,7154,2,0,P|349:195|301:181,1,100
192,78,7970,5,0,0:0:0:0:
124,151,8296,2,0,P|125:185|131:212,2,50
99,54,8948,2,0,P|69:37|42:29,2,50
192,78,9600,2,0,P|241:83|289:69,2,100
99,54,10578,2,0,P|98:88|102:115,1,50
231,175,11230,5,0,2:0:0:0:
67,290,11883,2,0,L|74:358,2,50,0|0|0,2:0|2:0|2:0,2:0:0:0:
45,244,12372,2,0,P|44:210|84:143,2,100,0|0|0,2:0|2:0|2:0,2:0:0:0:
20,286,13187,5,0,0:0:0:0:
143,225,13513,2,0,P|174:225|204:232,2,50
73,152,14165,2,0,P|73:121|80:91,2,50
137,232,14817,2,0,P|137:263|130:293,2,50
67,159,15470,2,0,P|36:159|6:166,2,50
143,225,16122,6,0,P|174:225|204:218,1,50
223,181,16448,1,0,0:0:0:0:
290,254,16774,2,0,L|419:250,1,100
484,218,17426,2,0,P|488:242|487:267,2,50
449,182,17915,2,0,P|440:135|458:72,1,100,0|0,2:0|2:0,2:0:0:0:
454,34,18404,5,0,0:0:0:0:
363,75,18730,2,0,P|338:79|313:78,2,50
446,128,19383,2,0,P|450:152|449:177,2,50
363,75,20035,2,0,P|314:70|266:84,2,100
446,128,21013,2,0,P|447:162|443:189,1,50
385,315,21665,5,0,2:0:0:0:
136,103,22317,2,0,P|181:88|246:112,1,100
249,147,22807,1,0,0:0:0:0:
281,256,23133,2,0,P|236:271|171:247,1,100
137,248,23622,2,0,P|122:203|146:138,1,100
136,103,24111,2,0,P|181:88|246:112,1,100
249,147,24600,2,0,P|294:162|359:138,1,100
390,61,25252,1,0,0:0:0:0:
446,139,25578,2,0,P|450:186|423:248,1,100
371,314,26230,6,0,P|324:296|274:300,1,100,0|0,0:0|2:0,0:0:0:0:
252,345,26720,2,0,P|205:362|155:358,1,100,0|0,0:0|2:0,0:0:0:0:
126,317,27209,1,0,0:0:0:0:
174,111,28513,5,0,2:0:0:0:
239,186,28839,2,0,P|288:189|334:171,1,100
347,123,29328,2,0,P|396:119|442:137,2,100
211,188,30470,6,0,P|193:141|196:92,1,100,0|8,0:0|0:2,0:0:0:0:
295,78,31122,2,0,P|312:124|309:173,1,100
111,146,32100,1,8,2:2:0:0:
225,242,33241,6,0,P|221:192|239:146,1,100,0|0,2:0|2:0,2:0:0:0:
288,135,33730,2,0,P|289:101|285:74,1,50,0|0,2:0|2:0,2:0:0:0:
264,40,34057,6,0,P|310:57|359:54,1,100
386,11,34546,2,0,P|435:7|481:25,2,100
278,116,35687,6,0,P|274:165|292:211,1,100,0|8,0:0|0:2,0:0:0:0:
392,205,36339,2,0,P|395:155|377:109,1,100
194,190,37316,1,8,2:2:0:0:
347,150,38458,6,0,P|297:153|251:135,1,100,0|0,2:0|2:0,2:0:0:0:
240,87,38947,2,0,P|206:86|179:90,1,50,0|0,2:0|2:0,2:0:0:0:
147,114,39274,6,0,P|143:163|161:209,1,100
208,224,39763,1,0,0:0:0:0:
303,195,40089,6,0,P|307:244|289:290,1,100
280,339,40578,2,0,P|231:342|185:324,1,100
208,224,41230,2,0,P|135:233|85:299,1,150,8|0,0:2|2:0,0:0:0:0:
47,318,41883,6,0,P|28:271|31:222,1,100
61,183,42372,1,0,0:0:0:0:
3,101,42698,2,0,P|50:82|99:85,1,100
124,127,43187,2,0,L|282:119,1,150,0|0,0:0|2:0,0:0:0:0:
307,82,43839,2,0,P|288:129|291:178,1,100,8|0,0:2|0:0,0:0:0:0:
389,195,44491,6,0,P|408:242|405:291,1,100
379,333,44980,2,0,P|332:352|283:349,2,100
350,185,46122,2,0,P|300:182|254:201,1,100,0|8,0:0|0:2,0:0:0:0:
149,370,47100,5,0,0:0:0:0:
230,238,49057,5,0,0:0:0:0:
76,109,49709,6,0,P|126:103|186:120,1,100,2|0,0:3|0:0,0:0:0:0:
218,137,50198,2,0,P|206:88|212:39,1,100
357,2,51013,1,0,0:0:0:0:
338,100,51339,1,0,0:0:0:0:
317,197,51665,2,0,B|360:182|394:199|394:199|433:216|476:201,1,150,8|0,0:0|2:0,0:0:0:0:
510,187,52317,6,0,P|516:237|499:297,1,100,2|0,0:3|0:0,0:0:0:0:
478,327,52806,2,0,P|429:315|380:321,1,100
237,367,53622,1,0,0:0:0:0:
138,350,53948,1,2,0:3:0:0:
202,273,54274,2,0,P|202:245|194:213,1,50,8|0,0:0|0:0,0:0:0:0:
153,199,54600,2,0,P|153:171|161:139,1,50,0|2,0:0|0:3,0:0:0:0:
186,108,54926,6,0,P|136:114|76:97,1,100,2|0,0:3|0:0,0:0:0:0:
54,65,55415,2,0,P|65:113|59:162,1,100
2,302,56230,1,0,0:0:0:0:
87,249,56557,1,0,0:0:0:0:
169,193,56883,2,0,B|213:182|247:201|247:201|284:219|327:210,1,150,8|0,0:0|2:0,0:0:0:0:
362,198,57535,6,0,P|368:248|351:308,1,100,2|0,0:3|0:0,0:0:0:0:
326,335,58024,2,0,P|277:346|228:340,1,100
79,234,58839,6,0,P|73:184|90:124,1,100,0|2,0:3|0:3,0:0:0:0:
117,99,59328,2,0,P|165:87|214:93,1,100,0|2,0:0|0:3,0:0:0:0:
176,239,60143,6,0,P|126:245|66:228,1,100,2|0,0:3|0:0,0:0:0:0:
30,219,60632,2,0,P|30:268|49:314,1,100
199,336,61448,1,0,0:0:0:0:
176,239,61774,1,0,0:0:0:0:
152,142,62099,2,0,B|195:133|232:153|232:153|266:172|300:164,1,150,8|0,0:0|2:0,0:0:0:0:
341,141,62751,6,0,P|347:191|330:251,1,100,2|0,0:3|0:0,0:0:0:0:
327,288,63240,2,0,P|376:292|423:279,1,100,0|0,3:0|3:0,3:0:0:0:
477,139,64056,1,0,0:0:0:0:
457,41,64382,1,2,0:3:0:0:
382,108,64709,2,0,P|354:108|322:100,1,50,8|0,0:0|0:0,0:0:0:0:
302,63,65034,2,0,P|274:63|242:71,1,50,0|2,0:0|0:3,0:0:0:0:
223,107,65360,6,0,P|173:113|113:96,1,100,2|0,0:3|0:0,0:0:0:0:
86,70,65849,2,0,P|74:118|80:167,1,100
175,283,66665,1,0,0:0:0:0:
272,304,66991,1,0,0:0:0:0:
368,324,67317,2,0,B|382:281|366:245|366:245|352:207|364:165,1,150,8|0,0:0|2:0,0:0:0:0:
382,131,67970,6,0,P|333:119|284:125,1,100,2|0,0:3|0:0,0:0:0:0:
269,173,68459,2,0,P|220:184|171:178,2,100
318,31,69600,1,2,0:3:0:0:
394,95,69926,6,0,L|401:198,1,100,8|0,0:0|2:0,0:0:0:0:
408,294,70578,1,0,2:0:0:0:
