osu file format v14

[General]
AudioFilename: audio.mp3
AudioLeadIn: 0
PreviewTime: 3269
Countdown: 0
SampleSet: Soft
StackLeniency: 0.7
Mode: 0
LetterboxInBreaks: 0
WidescreenStoryboard: 1

[Editor]
Bookmarks: 20722
DistanceSpacing: 2.1
BeatDivisor: 4
GridSize: 16
TimelineZoom: 1.7

[Metadata]
Title:The Garfield Show Theme (TV Size)
TitleUnicode:The Garfield Show Theme (TV Size)
Artist:Laurent Bertaud, Jean-Christophe Prudhomme
ArtistUnicode:Laurent Bertaud, Jean-Christophe Prudhomme
Creator:Clarity
Version:Lasagna II
Source:The Garfield Show
Tags:garfield you fat cat why are you so big and fat i eat jon it's what i do pop jazz instrumental c[[ [ c[[ [ c[[ c[[_[_c[[_[_c[[ FriendoFox Zekao
BeatmapID:2480975
BeatmapSetID:532308

[Difficulty]
HPDrainRate:4
CircleSize:4.5
OverallDifficulty:8.9
ApproachRate:9.4
SliderMultiplier:1.99999990463257
SliderTickRate:2

[Events]
//Background and Video events
0,0,"garfield.jpg",0,0
//Break Periods
//Storyboard Layer 0 (Background)
//Storyboard Layer 1 (Fail)
//Storyboard Layer 2 (Pass)
//Storyboard Layer 3 (Foreground)
//Storyboard Layer 4 (Overlay)
//Storyboard Sound Samples

[TimingPoints]
3270,236.127508854782,4,2,0,80,1,0
3270,-100,4,2,0,80,0,0
9881,-100,4,2,0,30,0,0
10117,-100,4,2,0,40,0,0
10353,-100,4,2,0,50,0,0
10589,-100,4,2,0,80,0,0
12478,-100,4,2,0,60,0,0
14367,-83.3333333333333,4,2,0,80,0,0
16257,-66.6666666666667,4,2,0,90,0,1
19798,-66.6666666666667,4,2,0,20,0,0
19857,-66.6666666666667,4,2,0,35,0,0
19916,-66.6666666666667,4,2,0,50,0,0
19976,-66.6666666666667,4,2,0,65,0,0
20035,-1000,4,2,0,80,0,0
20271,-50,4,2,0,90,0,1
21333,-66.6666666666667,4,2,0,90,0,1
21924,-100,4,2,0,70,0,0
23104,244.897959183673,4,2,0,70,1,0
23104,-333.333333333333,4,2,0,70,0,0
23348,258.064516129032,4,2,0,70,1,0
23348,-100,4,2,0,5,0,0

[Colours]
Combo1 : 121,255,121
Combo2 : 254,147,1
Combo3 : 64,143,208
Combo4 : 254,139,225

[HitObjects]
256,192,1144,12,4,3033,0:0:0:0:
471,112,3270,6,0,P|433:210|355:152,1,199.999990463257,8|0,0:0|0:0,0:0:0:0:
283,78,3624,1,0,0:0:0:0:
142,245,3742,2,0,L|-2:238,1,99.9999952316285,8|0,0:0|0:0,0:0:0:0:
181,31,3978,6,0,P|209:117|223:269,1,199.999990463257,0|8,0:0|0:0,0:0:0:0:
421,339,4332,2,0,P|403:250|408:97,1,199.999990463257
328,21,4686,1,8,0:0:0:0:
512,204,4804,1,0,0:0:0:0:
240,280,4922,6,0,L|124:266,1,99.9999952316285
0,159,5159,1,8,0:0:0:0:
90,360,5277,1,0,0:0:0:0:
227,194,5395,2,0,L|217:83,1,99.9999952316285
344,6,5631,1,8,0:0:0:0:
473,309,5749,6,0,B|522:258|522:258|509:89,1,199.999990463257
313,17,6103,2,0,L|199:26,1,99.9999952316285,8|0,0:0|0:0,0:0:0:0:
0,287,6339,2,0,P|73:308|116:302,1,99.9999952316285
240,249,6575,1,8,0:0:0:0:
362,339,6693,1,0,0:0:0:0:
512,162,6811,6,0,P|462:158|414:172,1,99.9999952316285
75,24,7048,2,0,L|317:48,1,199.999990463257,8|0,0:0|0:0,0:0:0:0:
471,243,7402,1,0,0:0:0:0:
241,347,7520,2,0,P|222:313|231:244,1,99.9999952316285,8|0,0:0|0:0,0:0:0:0:
0,43,7756,6,0,P|38:66|71:118,1,99.9999952316285
153,252,7992,1,8,0:0:0:0:
332,44,8110,2,0,P|331:116|364:248,1,199.999990463257
294,350,8464,1,8,0:0:0:0:
465,134,8582,1,0,0:0:0:0:
186,27,8700,6,0,L|44:40,1,99.9999952316285
376,329,8937,2,0,L|518:316,1,99.9999952316285,8|0,0:0|0:0,0:0:0:0:
382,160,9173,5,0,0:0:0:0:
197,267,9291,1,0,0:0:0:0:
414,7,9409,1,8,0:0:0:0:
502,350,9527,2,0,L|264:337,1,199.999990463257
93,187,9881,6,0,L|183:182,3,49.9999976158143,0|0|0|0,1:0|1:0|1:0|1:0,1:0:0:0:
194,114,10117,2,0,L|243:116,3,49.9999976158143,0|0|0|0,1:0|1:0|1:0|1:0,1:0:0:0:
295,213,10353,2,0,L|344:210,3,49.9999976158143,0|0|0|0,1:0|1:0|1:0|1:0,1:0:0:0:
445,32,10589,6,0,P|437:128|464:254,1,199.999990463257,4|8,0:0|0:0,0:0:0:0:
277,341,10944,1,0,0:0:0:0:
135,129,11062,2,0,P|133:74|145:19,1,99.9999952316285
355,163,11298,2,0,P|356:212|369:261,1,99.9999952316285,8|0,0:0|0:0,0:0:0:0:
0,159,11534,5,0,0:0:0:0:
234,88,11652,1,0,0:0:0:0:
111,347,11770,1,8,0:0:0:0:
62,32,11888,1,0,0:0:0:0:
268,260,12006,2,0,L|395:253,1,99.9999952316285
499,76,12242,2,0,L|399:81,1,99.9999952316285,8|0,0:0|0:0,0:0:0:0:
169,138,12478,6,0,L|119:135,3,49.9999976158143
64,213,12715,2,0,L|14:215,3,49.9999976158143,8|0|0|0,0:0|0:0|0:0|0:0,0:0:0:0:
218,53,12951,6,0,L|267:50,3,49.9999976158143
323,128,13187,2,0,L|372:130,3,49.9999976158143,8|0|0|0,0:0|0:0|0:0|0:0,0:0:0:0:
446,65,13423,6,0,L|443:15,3,49.9999976158143
499,196,13659,2,0,L|502:147,3,49.9999976158143,8|0|0|0,0:0|0:0|0:0|0:0,0:0:0:0:
491,253,13895,5,0,0:0:0:0:
473,300,13954,1,0,0:0:0:0:
437,334,14013,1,0,0:0:0:0:
391,351,14072,1,0,0:0:0:0:
341,346,14131,5,8,0:0:0:0:
291,338,14190,1,0,0:0:0:0:
241,337,14249,1,0,0:0:0:0:
191,340,14308,1,0,0:0:0:0:
142,348,14367,6,0,P|37:300|18:145,1,239.99998123169,2|0,0:0|0:0,0:0:0:0:
273,34,14722,2,0,L|515:47,1,239.99998123169,2|0,0:0|0:0,0:0:0:0:
242,267,15076,2,0,L|0:254,1,239.99998123169,2|0,0:0|0:0,0:0:0:0:
155,357,15430,1,0,0:0:0:0:
311,180,15548,6,0,P|338:126|301:47,1,119.999990615845,2|0,0:0|0:0,0:0:0:0:
24,336,15784,2,0,P|-7:287|2:229,1,119.999990615845,2|0,0:0|0:0,0:0:0:0:
133,55,16020,1,2,0:0:0:0:
306,339,16138,1,0,0:0:0:0:
505,0,16257,6,0,L|188:17,1,299.999997138977,4|8,0:0|0:0,0:0:0:0:
50,166,16611,1,0,0:0:0:0:
342,342,16729,2,0,L|520:351,1,149.999998569489
196,70,16965,2,0,L|47:79,1,149.999998569489,8|0,0:0|0:0,0:0:0:0:
49,340,17201,5,0,0:0:0:0:
0,16,17319,1,0,0:0:0:0:
198,328,17437,5,8,0:0:0:0:
305,1,17555,1,0,0:0:0:0:
510,130,17673,6,0,P|508:186|515:299,1,149.999998569489
88,222,17909,2,0,P|89:165|83:53,1,149.999998569489,8|0,0:0|0:0,0:0:0:0:
414,18,18146,6,0,B|369:87|369:87|394:347,1,299.999997138977,4|8,0:0|0:0,0:0:0:0:
0,337,18500,2,0,L|12:22,1,299.999997138977,4|0,0:0|0:0,0:0:0:0:
512,359,18854,2,0,L|500:59,1,299.999997138977,12|0,0:0|0:0,0:0:0:0:
302,213,19208,1,0,0:0:0:0:
83,23,19326,6,0,B|52:63|52:63|70:174,1,149.999998569489,8|0,0:0|0:0,0:0:0:0:
452,337,19562,2,0,B|483:297|483:297|465:186,1,149.999998569489
242,11,19798,5,0,1:0:0:0:
241,89,19857,1,0,1:0:0:0:
241,168,19916,1,0,1:0:0:0:
241,247,19976,1,0,1:0:0:0:
240,325,20035,2,0,L|224:326,1,14.9999992847443
34,295,20271,6,0,L|509:314,1,399.999980926514,4|0,0:0|0:0,0:0:0:0:
267,34,20625,1,0,0:0:0:0:
0,177,20743,2,0,L|288:165,1,199.999990463257,8|0,0:0|0:0,0:0:0:0:
441,29,20979,6,0,P|369:158|544:332,1,399.999980926514,0|8,0:0|0:0,0:0:0:0:
0,30,21333,2,0,P|145:27|239:138,1,299.999997138977
43,344,21687,2,0,L|55:180,1,149.999998569489,8|0,0:0|0:0,0:0:0:0:
354,113,21924,6,0,L|346:15,2,66.6666634877523
423,195,22160,2,0,L|415:292,2,66.6666634877523
266,278,22396,6,0,L|273:375,2,66.6666634877523
197,196,22632,2,0,L|204:98,2,66.6666634877523
44,339,22868,5,0,0:0:0:0:
37,250,22947,1,0,0:0:0:0:
31,161,23026,1,0,0:0:0:0:
24,73,23104,6,0,L|87:76,1,59.9999953079226
256,192,23477,12,0,25412,0:0:0:0:
