osu file format v14

[General]
AudioFilename: audio 1.200x.mp3
AudioLeadIn: 0
PreviewTime: 109819
Countdown: 0
SampleSet: None
StackLeniency: 0.7
Mode: 3
LetterboxInBreaks: 0
SpecialStyle: 0
WidescreenStoryboard: 0

[Editor]
DistanceSpacing: 1
BeatDivisor: 8
GridSize: 32
TimelineZoom: 3.399999

[Metadata]
Title:Zombies on Your Lawn
TitleUnicode:Zombies on Your Lawn
Artist:Laura Shigihara
ArtistUnicode:Laura Shigihara
Creator:iParacosm
Version:1.2x
Source:Plants vs. Zombies
Tags:PvZ plants vs. zombies dump streams
BeatmapID:4556429
BeatmapSetID:2160510

[Difficulty]
HPDrainRate:9
CircleSize:4
OverallDifficulty:8.8
ApproachRate:5.7
SliderMultiplier:1.4
SliderTickRate:1

[Events]
//Background and Video events
0,0,"Zombie on your lawn.jpg",0,0
//Break Periods
//Storyboard Layer 0 (Background)
//Storyboard Layer 1 (Fail)
//Storyboard Layer 2 (Pass)
//Storyboard Layer 3 (Foreground)
//Storyboard Layer 4 (Overlay)
//Storyboard Sound Samples

[TimingPoints]
1486,476.190476190476,4,2,1,100,1,0
20057,-100,4,2,1,100,0,1
34343,-100,4,2,1,100,0,0
65771,-100,4,2,1,100,0,1
80057,-100,4,2,1,100,0,0
111962,-100,4,2,1,100,0,1
125771,-100,4,2,1,100,0,0

[HitObjects]
192,192,3390,5,0,0:0:0:0:
320,192,3510,1,0,0:0:0:0:
192,192,3629,1,0,0:0:0:0:
448,192,3748,1,0,0:0:0:0:
64,192,3867,1,0,0:0:0:0:
64,192,3985,1,0,0:0:0:0:
448,192,4224,1,0,0:0:0:0:
320,192,4462,1,0,0:0:0:0:
192,192,4700,1,0,0:0:0:0:
64,192,4819,128,0,4938:0:0:0:0:
192,192,5295,1,0,0:0:0:0:
320,192,5415,1,0,0:0:0:0:
192,192,5534,1,0,0:0:0:0:
448,192,5652,1,0,0:0:0:0:
64,192,5771,1,0,0:0:0:0:
64,192,5890,1,0,0:0:0:0:
448,192,6129,128,0,6248:0:0:0:0:
320,192,6367,1,0,0:0:0:0:
192,192,6485,1,0,0:0:0:0:
320,192,6605,1,0,0:0:0:0:
64,192,6724,1,0,0:0:0:0:
192,192,6843,1,0,0:0:0:0:
320,192,6962,1,0,0:0:0:0:
64,192,7081,1,0,0:0:0:0:
192,192,7200,1,0,0:0:0:0:
320,192,7319,1,0,0:0:0:0:
192,192,7438,1,0,0:0:0:0:
448,192,7557,1,0,0:0:0:0:
64,192,7676,1,0,0:0:0:0:
64,192,7795,1,0,0:0:0:0:
448,192,8034,1,0,0:0:0:0:
320,192,8271,1,0,0:0:0:0:
192,192,8510,1,0,0:0:0:0:
64,192,8629,128,0,8748:0:0:0:0:
192,192,9105,1,0,0:0:0:0:
320,192,9224,1,0,0:0:0:0:
192,192,9343,1,0,0:0:0:0:
448,192,9462,1,0,0:0:0:0:
64,192,9581,1,0,0:0:0:0:
64,192,9700,1,0,0:0:0:0:
448,192,9938,128,0,10057:0:0:0:0:
64,192,10176,1,0,0:0:0:0:
192,192,10295,1,0,0:0:0:0:
320,192,10415,1,0,0:0:0:0:
192,192,10534,1,0,0:0:0:0:
448,192,10652,1,0,0:0:0:0:
320,192,10771,128,0,10890:0:0:0:0:
64,192,10890,1,0,0:0:0:0:
192,192,11010,128,0,11129:0:0:0:0:
448,192,11010,1,0,0:0:0:0:
320,192,11129,1,0,0:0:0:0:
448,192,11248,128,0,11367:0:0:0:0:
64,192,11248,1,0,0:0:0:0:
192,192,11367,1,0,0:0:0:0:
64,192,11485,1,0,0:0:0:0:
64,192,11605,1,0,0:0:0:0:
448,192,11843,1,0,0:0:0:0:
320,192,12081,1,0,0:0:0:0:
192,192,12319,1,0,0:0:0:0:
64,192,12438,128,0,12557:0:0:0:0:
192,192,12915,1,0,0:0:0:0:
320,192,13034,1,0,0:0:0:0:
192,192,13152,1,0,0:0:0:0:
448,192,13271,1,0,0:0:0:0:
64,192,13390,1,0,0:0:0:0:
64,192,13510,1,0,0:0:0:0:
448,192,13748,128,0,13867:0:0:0:0:
320,192,13985,1,0,0:0:0:0:
192,192,14105,1,0,0:0:0:0:
320,192,14224,1,0,0:0:0:0:
64,192,14343,1,0,0:0:0:0:
192,192,14462,1,0,0:0:0:0:
320,192,14581,1,0,0:0:0:0:
64,192,14700,1,0,0:0:0:0:
192,192,14819,1,0,0:0:0:0:
320,192,14938,1,0,0:0:0:0:
192,192,15057,1,0,0:0:0:0:
448,192,15176,1,0,0:0:0:0:
64,192,15295,1,0,0:0:0:0:
64,192,15415,1,0,0:0:0:0:
448,192,15652,1,0,0:0:0:0:
320,192,15890,1,0,0:0:0:0:
192,192,16129,1,0,0:0:0:0:
64,192,16248,128,0,16367:0:0:0:0:
192,192,16724,1,0,0:0:0:0:
320,192,16843,1,0,0:0:0:0:
192,192,16962,1,0,0:0:0:0:
448,192,17081,1,0,0:0:0:0:
64,192,17200,1,0,0:0:0:0:
64,192,17319,1,0,0:0:0:0:
448,192,17557,128,0,17676:0:0:0:0:
64,192,17795,5,0,0:0:0:0:
192,192,17915,1,0,0:0:0:0:
320,192,18034,1,0,0:0:0:0:
64,192,18152,1,0,0:0:0:0:
64,192,18629,128,0,18985:0:0:0:0:
448,192,18629,1,0,0:0:0:0:
448,192,18867,1,0,0:0:0:0:
64,192,19105,128,0,19462:0:0:0:0:
448,192,19105,1,0,0:0:0:0:
448,192,19343,1,0,0:0:0:0:
448,192,19581,1,0,0:0:0:0:
64,192,19581,128,0,19938:0:0:0:0:
448,192,19819,1,0,0:0:0:0:
448,192,20057,1,0,0:0:0:0:
64,192,20057,128,0,20295:0:0:0:0:
320,192,20117,1,0,0:0:0:0:
192,192,20176,1,0,0:0:0:0:
320,192,20235,1,0,0:0:0:0:
448,192,20295,1,0,0:0:0:0:
192,192,20335,1,0,0:0:0:0:
320,192,20375,1,0,0:0:0:0:
448,192,20415,1,0,0:0:0:0:
64,192,20454,1,0,0:0:0:0:
320,192,20534,1,0,0:0:0:0:
448,192,20534,1,0,0:0:0:0:
64,192,20563,1,0,0:0:0:0:
192,192,20593,1,0,0:0:0:0:
320,192,20623,1,0,0:0:0:0:
448,192,20652,1,0,0:0:0:0:
64,192,20692,1,0,0:0:0:0:
192,192,20732,1,0,0:0:0:0:
320,192,20771,1,0,0:0:0:0:
448,192,20811,1,0,0:0:0:0:
64,192,20851,1,0,0:0:0:0:
320,192,20904,1,0,0:0:0:0:
192,192,20957,1,0,0:0:0:0:
320,192,21010,1,0,0:0:0:0:
64,192,21010,1,0,0:0:0:0:
448,192,21050,1,0,0:0:0:0:
192,192,21089,1,0,0:0:0:0:
320,192,21129,1,0,0:0:0:0:
64,192,21188,1,0,0:0:0:0:
320,192,21248,1,0,0:0:0:0:
192,192,21287,1,0,0:0:0:0:
448,192,21327,1,0,0:0:0:0:
64,192,21367,1,0,0:0:0:0:
320,192,21406,1,0,0:0:0:0:
64,192,21446,1,0,0:0:0:0:
448,192,21485,1,0,0:0:0:0:
320,192,21515,1,0,0:0:0:0:
192,192,21545,1,0,0:0:0:0:
64,192,21575,1,0,0:0:0:0:
448,192,21605,1,0,0:0:0:0:
192,192,21645,1,0,0:0:0:0:
320,192,21685,1,0,0:0:0:0:
64,192,21724,1,0,0:0:0:0:
192,192,21784,1,0,0:0:0:0:
448,192,21843,1,0,0:0:0:0:
192,192,21883,1,0,0:0:0:0:
64,192,21922,1,0,0:0:0:0:
320,192,21962,1,0,0:0:0:0:
448,192,21962,1,0,0:0:0:0:
192,192,22015,1,0,0:0:0:0:
64,192,22068,1,0,0:0:0:0:
320,192,22120,1,0,0:0:0:0:
192,192,22174,1,0,0:0:0:0:
448,192,22226,1,0,0:0:0:0:
64,192,22260,1,0,0:0:0:0:
192,192,22290,1,0,0:0:0:0:
320,192,22319,1,0,0:0:0:0:
448,192,22349,1,0,0:0:0:0:
64,192,22379,1,0,0:0:0:0:
448,192,22438,1,0,0:0:0:0:
320,192,22438,1,0,0:0:0:0:
192,192,22491,1,0,0:0:0:0:
320,192,22544,1,0,0:0:0:0:
192,192,22597,1,0,0:0:0:0:
64,192,22650,1,0,0:0:0:0:
448,192,22703,1,0,0:0:0:0:
192,192,22755,1,0,0:0:0:0:
64,192,22795,1,0,0:0:0:0:
320,192,22835,1,0,0:0:0:0:
192,192,22875,1,0,0:0:0:0:
448,192,22915,1,0,0:0:0:0:
64,192,22915,1,0,0:0:0:0:
320,192,22967,1,0,0:0:0:0:
192,192,23020,1,0,0:0:0:0:
448,192,23073,1,0,0:0:0:0:
320,192,23152,1,0,0:0:0:0:
64,192,23152,1,0,0:0:0:0:
192,192,23271,1,0,0:0:0:0:
320,192,23271,1,0,0:0:0:0:
192,192,23390,1,0,0:0:0:0:
448,192,23510,1,0,0:0:0:0:
64,192,23510,1,0,0:0:0:0:
320,192,23629,1,0,0:0:0:0:
64,192,23629,1,0,0:0:0:0:
320,192,23748,1,0,0:0:0:0:
192,192,23748,1,0,0:0:0:0:
64,192,23867,1,0,0:0:0:0:
448,192,23867,1,0,0:0:0:0:
192,192,23926,1,0,0:0:0:0:
320,192,23985,1,0,0:0:0:0:
448,192,24045,1,0,0:0:0:0:
64,192,24105,1,0,0:0:0:0:
320,192,24145,1,0,0:0:0:0:
192,192,24185,1,0,0:0:0:0:
64,192,24224,1,0,0:0:0:0:
448,192,24264,1,0,0:0:0:0:
192,192,24343,1,0,0:0:0:0:
64,192,24343,1,0,0:0:0:0:
448,192,24373,1,0,0:0:0:0:
320,192,24402,1,0,0:0:0:0:
192,192,24432,1,0,0:0:0:0:
64,192,24462,1,0,0:0:0:0:
448,192,24502,1,0,0:0:0:0:
320,192,24541,1,0,0:0:0:0:
192,192,24581,1,0,0:0:0:0:
64,192,24620,1,0,0:0:0:0:
448,192,24660,1,0,0:0:0:0:
192,192,24714,1,0,0:0:0:0:
320,192,24767,1,0,0:0:0:0:
192,192,24819,1,0,0:0:0:0:
448,192,24819,1,0,0:0:0:0:
64,192,24859,1,0,0:0:0:0:
320,192,24899,1,0,0:0:0:0:
192,192,24938,1,0,0:0:0:0:
448,192,24998,1,0,0:0:0:0:
192,192,25057,1,0,0:0:0:0:
320,192,25097,1,0,0:0:0:0:
64,192,25136,1,0,0:0:0:0:
448,192,25176,1,0,0:0:0:0:
192,192,25216,1,0,0:0:0:0:
320,192,25255,1,0,0:0:0:0:
64,192,25295,1,0,0:0:0:0:
448,192,25295,1,0,0:0:0:0:
192,192,25335,1,0,0:0:0:0:
320,192,25375,1,0,0:0:0:0:
64,192,25415,1,0,0:0:0:0:
448,192,25454,1,0,0:0:0:0:
64,192,25494,1,0,0:0:0:0:
320,192,25534,1,0,0:0:0:0:
192,192,25573,1,0,0:0:0:0:
448,192,25613,1,0,0:0:0:0:
64,192,25652,1,0,0:0:0:0:
320,192,25692,1,0,0:0:0:0:
448,192,25732,1,0,0:0:0:0:
192,192,25771,1,0,0:0:0:0:
64,192,25771,1,0,0:0:0:0:
320,192,25825,1,0,0:0:0:0:
448,192,25878,1,0,0:0:0:0:
192,192,25930,1,0,0:0:0:0:
320,192,25984,1,0,0:0:0:0:
64,192,26036,1,0,0:0:0:0:
448,192,26069,1,0,0:0:0:0:
320,192,26099,1,0,0:0:0:0:
192,192,26129,1,0,0:0:0:0:
64,192,26159,1,0,0:0:0:0:
448,192,26188,1,0,0:0:0:0:
64,192,26248,1,0,0:0:0:0:
192,192,26248,1,0,0:0:0:0:
320,192,26301,1,0,0:0:0:0:
192,192,26354,1,0,0:0:0:0:
320,192,26406,1,0,0:0:0:0:
448,192,26460,1,0,0:0:0:0:
64,192,26512,1,0,0:0:0:0:
448,192,26565,1,0,0:0:0:0:
192,192,26618,1,0,0:0:0:0:
64,192,26671,1,0,0:0:0:0:
448,192,26724,1,0,0:0:0:0:
320,192,26724,1,0,0:0:0:0:
320,192,26843,1,0,0:0:0:0:
192,192,26962,1,0,0:0:0:0:
448,192,26962,1,0,0:0:0:0:
320,192,27081,1,0,0:0:0:0:
192,192,27081,1,0,0:0:0:0:
320,192,27200,1,0,0:0:0:0:
64,192,27319,1,0,0:0:0:0:
320,192,27438,1,0,0:0:0:0:
64,192,27676,1,0,0:0:0:0:
448,192,27676,1,0,0:0:0:0:
192,192,27735,1,0,0:0:0:0:
320,192,27795,1,0,0:0:0:0:
448,192,27855,1,0,0:0:0:0:
64,192,27915,1,0,0:0:0:0:
320,192,27954,1,0,0:0:0:0:
192,192,27994,1,0,0:0:0:0:
64,192,28034,1,0,0:0:0:0:
448,192,28073,1,0,0:0:0:0:
192,192,28152,1,0,0:0:0:0:
64,192,28152,1,0,0:0:0:0:
448,192,28182,1,0,0:0:0:0:
320,192,28212,1,0,0:0:0:0:
192,192,28242,1,0,0:0:0:0:
64,192,28271,1,0,0:0:0:0:
448,192,28311,1,0,0:0:0:0:
320,192,28351,1,0,0:0:0:0:
192,192,28390,1,0,0:0:0:0:
448,192,28430,1,0,0:0:0:0:
64,192,28470,1,0,0:0:0:0:
192,192,28523,1,0,0:0:0:0:
64,192,28575,1,0,0:0:0:0:
320,192,28629,1,0,0:0:0:0:
448,192,28629,1,0,0:0:0:0:
192,192,28669,1,0,0:0:0:0:
64,192,28708,1,0,0:0:0:0:
320,192,28748,1,0,0:0:0:0:
448,192,28807,1,0,0:0:0:0:
192,192,28867,1,0,0:0:0:0:
320,192,28906,1,0,0:0:0:0:
64,192,28946,1,0,0:0:0:0:
448,192,28985,1,0,0:0:0:0:
192,192,29025,1,0,0:0:0:0:
448,192,29065,1,0,0:0:0:0:
64,192,29105,1,0,0:0:0:0:
192,192,29135,1,0,0:0:0:0:
320,192,29165,1,0,0:0:0:0:
448,192,29194,1,0,0:0:0:0:
64,192,29224,1,0,0:0:0:0:
320,192,29264,1,0,0:0:0:0:
192,192,29303,1,0,0:0:0:0:
448,192,29343,1,0,0:0:0:0:
320,192,29402,1,0,0:0:0:0:
64,192,29462,1,0,0:0:0:0:
320,192,29502,1,0,0:0:0:0:
448,192,29541,1,0,0:0:0:0:
192,192,29581,1,0,0:0:0:0:
64,192,29581,1,0,0:0:0:0:
320,192,29634,1,0,0:0:0:0:
448,192,29687,1,0,0:0:0:0:
192,192,29740,1,0,0:0:0:0:
320,192,29793,1,0,0:0:0:0:
64,192,29845,1,0,0:0:0:0:
448,192,29879,1,0,0:0:0:0:
320,192,29909,1,0,0:0:0:0:
192,192,29938,1,0,0:0:0:0:
64,192,29968,1,0,0:0:0:0:
448,192,29998,1,0,0:0:0:0:
64,192,30057,1,0,0:0:0:0:
192,192,30057,1,0,0:0:0:0:
320,192,30110,1,0,0:0:0:0:
192,192,30163,1,0,0:0:0:0:
320,192,30216,1,0,0:0:0:0:
448,192,30269,1,0,0:0:0:0:
64,192,30322,1,0,0:0:0:0:
320,192,30375,1,0,0:0:0:0:
448,192,30415,1,0,0:0:0:0:
192,192,30454,1,0,0:0:0:0:
320,192,30494,1,0,0:0:0:0:
64,192,30534,1,0,0:0:0:0:
448,192,30534,1,0,0:0:0:0:
192,192,30586,1,0,0:0:0:0:
320,192,30640,1,0,0:0:0:0:
64,192,30692,1,0,0:0:0:0:
192,192,30771,1,0,0:0:0:0:
448,192,30771,1,0,0:0:0:0:
320,192,30890,1,0,0:0:0:0:
192,192,30890,1,0,0:0:0:0:
320,192,31010,1,0,0:0:0:0:
64,192,31129,1,0,0:0:0:0:
448,192,31129,1,0,0:0:0:0:
192,192,31248,1,0,0:0:0:0:
448,192,31248,1,0,0:0:0:0:
192,192,31367,1,0,0:0:0:0:
320,192,31367,1,0,0:0:0:0:
448,192,31485,1,0,0:0:0:0:
64,192,31485,1,0,0:0:0:0:
320,192,31545,1,0,0:0:0:0:
192,192,31605,1,0,0:0:0:0:
64,192,31665,1,0,0:0:0:0:
448,192,31724,1,0,0:0:0:0:
192,192,31764,1,0,0:0:0:0:
320,192,31803,1,0,0:0:0:0:
448,192,31843,1,0,0:0:0:0:
64,192,31883,1,0,0:0:0:0:
448,192,31962,1,0,0:0:0:0:
320,192,31962,1,0,0:0:0:0:
64,192,31992,1,0,0:0:0:0:
192,192,32021,1,0,0:0:0:0:
320,192,32051,1,0,0:0:0:0:
448,192,32081,1,0,0:0:0:0:
64,192,32120,1,0,0:0:0:0:
192,192,32160,1,0,0:0:0:0:
320,192,32200,1,0,0:0:0:0:
64,192,32240,1,0,0:0:0:0:
448,192,32280,1,0,0:0:0:0:
320,192,32319,1,0,0:0:0:0:
448,192,32379,1,0,0:0:0:0:
64,192,32438,1,0,0:0:0:0:
192,192,32438,1,0,0:0:0:0:
320,192,32478,1,0,0:0:0:0:
448,192,32518,1,0,0:0:0:0:
192,192,32557,1,0,0:0:0:0:
64,192,32617,1,0,0:0:0:0:
320,192,32676,1,0,0:0:0:0:
192,192,32716,1,0,0:0:0:0:
448,192,32755,1,0,0:0:0:0:
64,192,32795,1,0,0:0:0:0:
320,192,32835,1,0,0:0:0:0:
192,192,32875,1,0,0:0:0:0:
448,192,32915,1,0,0:0:0:0:
64,192,32915,1,0,0:0:0:0:
320,192,32954,1,0,0:0:0:0:
192,192,32994,1,0,0:0:0:0:
448,192,33034,1,0,0:0:0:0:
64,192,33073,1,0,0:0:0:0:
448,192,33113,1,0,0:0:0:0:
192,192,33152,1,0,0:0:0:0:
320,192,33192,1,0,0:0:0:0:
64,192,33232,1,0,0:0:0:0:
448,192,33271,1,0,0:0:0:0:
192,192,33311,1,0,0:0:0:0:
64,192,33351,1,0,0:0:0:0:
320,192,33390,1,0,0:0:0:0:
448,192,33390,1,0,0:0:0:0:
192,192,33443,1,0,0:0:0:0:
64,192,33496,1,0,0:0:0:0:
320,192,33550,1,0,0:0:0:0:
192,192,33602,1,0,0:0:0:0:
448,192,33655,1,0,0:0:0:0:
64,192,33688,1,0,0:0:0:0:
192,192,33718,1,0,0:0:0:0:
320,192,33748,1,0,0:0:0:0:
448,192,33777,1,0,0:0:0:0:
64,192,33807,1,0,0:0:0:0:
448,192,33867,1,0,0:0:0:0:
320,192,33867,1,0,0:0:0:0:
192,192,33920,1,0,0:0:0:0:
320,192,33972,1,0,0:0:0:0:
192,192,34025,1,0,0:0:0:0:
64,192,34078,1,0,0:0:0:0:
448,192,34130,1,0,0:0:0:0:
64,192,34185,1,0,0:0:0:0:
320,192,34236,1,0,0:0:0:0:
448,192,34290,1,0,0:0:0:0:
64,192,34343,1,0,0:0:0:0:
192,192,34343,1,0,0:0:0:0:
192,192,34462,1,0,0:0:0:0:
320,192,34581,1,0,0:0:0:0:
64,192,34581,1,0,0:0:0:0:
192,192,34700,1,0,0:0:0:0:
320,192,34700,1,0,0:0:0:0:
192,192,34819,1,0,0:0:0:0:
448,192,34819,1,0,0:0:0:0:
448,192,35057,1,0,0:0:0:0:
320,192,35057,1,0,0:0:0:0:
64,192,35097,1,0,0:0:0:0:
192,192,35136,1,0,0:0:0:0:
320,192,35176,1,0,0:0:0:0:
448,192,35295,1,0,0:0:0:0:
320,192,35295,1,0,0:0:0:0:
64,192,35295,1,0,0:0:0:0:
192,192,35415,1,0,0:0:0:0:
64,192,35415,1,0,0:0:0:0:
320,192,35534,1,0,0:0:0:0:
448,192,35534,1,0,0:0:0:0:
448,192,35652,1,0,0:0:0:0:
320,192,35653,1,0,0:0:0:0:
448,192,35771,1,0,0:0:0:0:
64,192,35771,1,0,0:0:0:0:
192,192,35771,1,0,0:0:0:0:
320,192,35831,1,0,0:0:0:0:
64,192,35890,1,0,0:0:0:0:
448,192,35950,1,0,0:0:0:0:
64,192,36010,1,0,0:0:0:0:
192,192,36129,1,0,0:0:0:0:
320,192,36129,1,0,0:0:0:0:
448,192,36248,1,0,0:0:0:0:
320,192,36248,1,0,0:0:0:0:
64,192,36248,1,0,0:0:0:0:
192,192,36307,1,0,0:0:0:0:
448,192,36367,1,0,0:0:0:0:
64,192,36426,1,0,0:0:0:0:
448,192,36485,1,0,0:0:0:0:
192,192,36605,1,0,0:0:0:0:
64,192,36605,1,0,0:0:0:0:
320,192,36605,1,0,0:0:0:0:
64,192,36724,1,0,0:0:0:0:
448,192,36724,1,0,0:0:0:0:
64,192,36843,1,0,0:0:0:0:
320,192,36843,1,0,0:0:0:0:
192,192,36902,1,0,0:0:0:0:
320,192,36962,1,0,0:0:0:0:
192,192,37021,1,0,0:0:0:0:
448,192,37081,1,0,0:0:0:0:
320,192,37140,1,0,0:0:0:0:
448,192,37200,1,0,0:0:0:0:
64,192,37200,1,0,0:0:0:0:
192,192,37253,1,0,0:0:0:0:
320,192,37306,1,0,0:0:0:0:
64,192,37359,1,0,0:0:0:0:
448,192,37438,1,0,0:0:0:0:
320,192,37438,1,0,0:0:0:0:
192,192,37557,1,0,0:0:0:0:
64,192,37557,1,0,0:0:0:0:
448,192,37676,1,0,0:0:0:0:
320,192,37676,1,0,0:0:0:0:
64,192,37676,1,0,0:0:0:0:
192,192,37735,1,0,0:0:0:0:
448,192,37795,1,0,0:0:0:0:
64,192,37855,1,0,0:0:0:0:
448,192,37915,1,0,0:0:0:0:
192,192,38034,1,0,0:0:0:0:
320,192,38034,1,0,0:0:0:0:
448,192,38152,1,0,0:0:0:0:
192,192,38152,1,0,0:0:0:0:
64,192,38152,1,0,0:0:0:0:
64,192,38271,1,0,0:0:0:0:
320,192,38390,1,0,0:0:0:0:
192,192,38390,1,0,0:0:0:0:
320,192,38510,1,0,0:0:0:0:
448,192,38510,1,0,0:0:0:0:
64,192,38629,1,0,0:0:0:0:
192,192,38629,1,0,0:0:0:0:
448,192,38629,1,0,0:0:0:0:
64,192,38748,1,0,0:0:0:0:
192,192,38748,1,0,0:0:0:0:
64,192,38867,1,0,0:0:0:0:
448,192,38867,1,0,0:0:0:0:
320,192,38926,1,0,0:0:0:0:
192,192,38985,1,0,0:0:0:0:
320,192,39045,1,0,0:0:0:0:
448,192,39105,1,0,0:0:0:0:
64,192,39105,1,0,0:0:0:0:
192,192,39158,1,0,0:0:0:0:
320,192,39210,1,0,0:0:0:0:
64,192,39264,1,0,0:0:0:0:
448,192,39343,1,0,0:0:0:0:
320,192,39343,1,0,0:0:0:0:
320,192,39462,1,0,0:0:0:0:
448,192,39462,1,0,0:0:0:0:
448,192,39581,1,0,0:0:0:0:
192,192,39581,1,0,0:0:0:0:
64,192,39581,1,0,0:0:0:0:
320,192,39640,1,0,0:0:0:0:
64,192,39700,1,0,0:0:0:0:
448,192,39760,1,0,0:0:0:0:
64,192,39819,1,0,0:0:0:0:
320,192,39938,1,0,0:0:0:0:
448,192,39938,1,0,0:0:0:0:
64,192,40057,1,0,0:0:0:0:
448,192,40057,1,0,0:0:0:0:
192,192,40097,1,0,0:0:0:0:
320,192,40136,1,0,0:0:0:0:
64,192,40176,1,0,0:0:0:0:
448,192,40216,1,0,0:0:0:0:
192,192,40295,1,0,0:0:0:0:
64,192,40295,1,0,0:0:0:0:
192,192,40415,1,0,0:0:0:0:
320,192,40415,1,0,0:0:0:0:
320,192,40534,1,0,0:0:0:0:
448,192,40652,1,0,0:0:0:0:
64,192,40652,1,0,0:0:0:0:
192,192,40712,1,0,0:0:0:0:
320,192,40771,1,0,0:0:0:0:
64,192,40831,1,0,0:0:0:0:
448,192,40890,1,0,0:0:0:0:
320,192,40890,1,0,0:0:0:0:
448,192,41010,1,0,0:0:0:0:
192,192,41010,1,0,0:0:0:0:
64,192,41010,1,0,0:0:0:0:
64,192,41129,1,0,0:0:0:0:
320,192,41129,1,0,0:0:0:0:
64,192,41248,1,0,0:0:0:0:
320,192,41248,1,0,0:0:0:0:
448,192,41367,1,0,0:0:0:0:
192,192,41367,1,0,0:0:0:0:
320,192,41485,1,0,0:0:0:0:
448,192,41485,1,0,0:0:0:0:
64,192,41485,1,0,0:0:0:0:
64,192,41605,1,0,0:0:0:0:
192,192,41605,1,0,0:0:0:0:
320,192,41605,1,0,0:0:0:0:
192,192,41724,1,0,0:0:0:0:
448,192,41724,1,0,0:0:0:0:
192,192,41843,1,0,0:0:0:0:
320,192,41843,1,0,0:0:0:0:
448,192,41962,1,0,0:0:0:0:
320,192,41962,1,0,0:0:0:0:
64,192,41962,1,0,0:0:0:0:
448,192,42081,1,0,0:0:0:0:
192,192,42081,1,0,0:0:0:0:
448,192,42200,1,0,0:0:0:0:
64,192,42200,1,0,0:0:0:0:
192,192,42200,1,0,0:0:0:0:
64,192,42319,1,0,0:0:0:0:
320,192,42319,1,0,0:0:0:0:
448,192,42438,1,0,0:0:0:0:
64,192,42438,1,0,0:0:0:0:
192,192,42498,1,0,0:0:0:0:
448,192,42557,1,0,0:0:0:0:
192,192,42617,1,0,0:0:0:0:
448,192,42676,1,0,0:0:0:0:
192,192,42735,1,0,0:0:0:0:
448,192,42795,1,0,0:0:0:0:
64,192,42915,1,0,0:0:0:0:
192,192,42944,1,0,0:0:0:0:
320,192,42974,1,0,0:0:0:0:
448,192,43004,1,0,0:0:0:0:
64,192,43034,1,0,0:0:0:0:
192,192,43063,1,0,0:0:0:0:
320,192,43093,1,0,0:0:0:0:
448,192,43123,1,0,0:0:0:0:
64,192,43152,1,0,0:0:0:0:
192,192,43182,1,0,0:0:0:0:
320,192,43212,1,0,0:0:0:0:
448,192,43242,1,0,0:0:0:0:
64,192,43271,1,0,0:0:0:0:
192,192,43301,1,0,0:0:0:0:
320,192,43331,1,0,0:0:0:0:
448,192,43360,1,0,0:0:0:0:
64,192,43390,1,0,0:0:0:0:
192,192,43420,1,0,0:0:0:0:
320,192,43450,1,0,0:0:0:0:
448,192,43480,1,0,0:0:0:0:
64,192,43510,1,0,0:0:0:0:
448,192,43629,1,0,0:0:0:0:
320,192,43629,1,0,0:0:0:0:
64,192,43669,1,0,0:0:0:0:
192,192,43708,1,0,0:0:0:0:
320,192,43748,1,0,0:0:0:0:
448,192,43867,1,0,0:0:0:0:
192,192,43867,1,0,0:0:0:0:
64,192,43867,1,0,0:0:0:0:
320,192,43985,1,0,0:0:0:0:
448,192,43985,1,0,0:0:0:0:
192,192,44105,1,0,0:0:0:0:
64,192,44105,1,0,0:0:0:0:
64,192,44224,1,0,0:0:0:0:
192,192,44224,1,0,0:0:0:0:
448,192,44343,1,0,0:0:0:0:
64,192,44343,1,0,0:0:0:0:
320,192,44343,1,0,0:0:0:0:
192,192,44402,1,0,0:0:0:0:
448,192,44462,1,0,0:0:0:0:
64,192,44521,1,0,0:0:0:0:
448,192,44581,1,0,0:0:0:0:
192,192,44700,1,0,0:0:0:0:
320,192,44700,1,0,0:0:0:0:
448,192,44819,1,0,0:0:0:0:
320,192,44819,1,0,0:0:0:0:
64,192,44819,1,0,0:0:0:0:
192,192,44938,1,0,0:0:0:0:
64,192,44938,1,0,0:0:0:0:
448,192,45057,1,0,0:0:0:0:
320,192,45057,1,0,0:0:0:0:
192,192,45176,1,0,0:0:0:0:
320,192,45176,1,0,0:0:0:0:
64,192,45295,1,0,0:0:0:0:
448,192,45295,1,0,0:0:0:0:
192,192,45355,1,0,0:0:0:0:
320,192,45415,1,0,0:0:0:0:
64,192,45474,1,0,0:0:0:0:
320,192,45534,1,0,0:0:0:0:
192,192,45593,1,0,0:0:0:0:
448,192,45652,1,0,0:0:0:0:
320,192,45712,1,0,0:0:0:0:
448,192,45771,1,0,0:0:0:0:
64,192,45771,1,0,0:0:0:0:
192,192,45825,1,0,0:0:0:0:
320,192,45878,1,0,0:0:0:0:
64,192,45930,1,0,0:0:0:0:
448,192,46010,1,0,0:0:0:0:
192,192,46010,1,0,0:0:0:0:
192,192,46129,1,0,0:0:0:0:
320,192,46129,1,0,0:0:0:0:
64,192,46248,1,0,0:0:0:0:
448,192,46248,1,0,0:0:0:0:
192,192,46287,1,0,0:0:0:0:
320,192,46327,1,0,0:0:0:0:
64,192,46367,1,0,0:0:0:0:
448,192,46406,1,0,0:0:0:0:
64,192,46485,1,0,0:0:0:0:
192,192,46485,1,0,0:0:0:0:
320,192,46605,1,0,0:0:0:0:
192,192,46605,1,0,0:0:0:0:
64,192,46724,1,0,0:0:0:0:
320,192,46724,1,0,0:0:0:0:
448,192,46724,1,0,0:0:0:0:
448,192,46843,1,0,0:0:0:0:
192,192,46843,1,0,0:0:0:0:
192,192,46962,1,0,0:0:0:0:
320,192,46962,1,0,0:0:0:0:
320,192,47081,1,0,0:0:0:0:
448,192,47200,1,0,0:0:0:0:
64,192,47200,1,0,0:0:0:0:
192,192,47200,1,0,0:0:0:0:
192,192,47319,1,0,0:0:0:0:
320,192,47319,1,0,0:0:0:0:
448,192,47438,1,0,0:0:0:0:
64,192,47438,1,0,0:0:0:0:
192,192,47498,1,0,0:0:0:0:
320,192,47557,1,0,0:0:0:0:
192,192,47617,1,0,0:0:0:0:
64,192,47676,1,0,0:0:0:0:
448,192,47676,1,0,0:0:0:0:
320,192,47730,1,0,0:0:0:0:
192,192,47782,1,0,0:0:0:0:
448,192,47835,1,0,0:0:0:0:
64,192,47915,1,0,0:0:0:0:
192,192,47915,1,0,0:0:0:0:
192,192,48034,1,0,0:0:0:0:
64,192,48034,1,0,0:0:0:0:
64,192,48152,1,0,0:0:0:0:
320,192,48152,1,0,0:0:0:0:
448,192,48152,1,0,0:0:0:0:
192,192,48212,1,0,0:0:0:0:
448,192,48271,1,0,0:0:0:0:
64,192,48331,1,0,0:0:0:0:
448,192,48390,1,0,0:0:0:0:
192,192,48510,1,0,0:0:0:0:
64,192,48510,1,0,0:0:0:0:
448,192,48629,1,0,0:0:0:0:
64,192,48629,1,0,0:0:0:0:
320,192,48629,1,0,0:0:0:0:
192,192,48748,1,0,0:0:0:0:
320,192,48867,1,0,0:0:0:0:
448,192,48867,1,0,0:0:0:0:
320,192,48985,1,0,0:0:0:0:
192,192,48985,1,0,0:0:0:0:
448,192,49105,1,0,0:0:0:0:
64,192,49105,1,0,0:0:0:0:
192,192,49165,1,0,0:0:0:0:
320,192,49224,1,0,0:0:0:0:
64,192,49284,1,0,0:0:0:0:
320,192,49343,1,0,0:0:0:0:
448,192,49402,1,0,0:0:0:0:
64,192,49462,1,0,0:0:0:0:
192,192,49462,1,0,0:0:0:0:
64,192,49581,1,0,0:0:0:0:
320,192,49581,1,0,0:0:0:0:
448,192,49581,1,0,0:0:0:0:
192,192,49700,1,0,0:0:0:0:
448,192,49700,1,0,0:0:0:0:
64,192,49819,1,0,0:0:0:0:
448,192,49819,1,0,0:0:0:0:
320,192,49879,1,0,0:0:0:0:
64,192,49938,1,0,0:0:0:0:
320,192,49998,1,0,0:0:0:0:
64,192,50057,1,0,0:0:0:0:
320,192,50117,1,0,0:0:0:0:
64,192,50176,1,0,0:0:0:0:
320,192,50235,1,0,0:0:0:0:
64,192,50295,1,0,0:0:0:0:
64,192,50415,1,0,0:0:0:0:
320,192,50415,1,0,0:0:0:0:
64,192,50534,1,0,0:0:0:0:
448,192,50534,1,0,0:0:0:0:
64,192,51962,1,0,0:0:0:0:
448,192,51962,1,0,0:0:0:0:
64,192,52200,1,0,0:0:0:0:
320,192,52240,1,0,0:0:0:0:
192,192,52280,1,0,0:0:0:0:
448,192,52319,1,0,0:0:0:0:
320,192,52359,1,0,0:0:0:0:
64,192,52399,1,0,0:0:0:0:
192,192,52438,1,0,0:0:0:0:
448,192,52478,1,0,0:0:0:0:
64,192,52518,1,0,0:0:0:0:
320,192,52557,1,0,0:0:0:0:
192,192,52617,1,0,0:0:0:0:
64,192,52676,1,0,0:0:0:0:
448,192,52736,1,0,0:0:0:0:
64,192,52795,1,0,0:0:0:0:
448,192,52855,1,0,0:0:0:0:
64,192,52915,1,0,0:0:0:0:
320,192,52954,1,0,0:0:0:0:
192,192,52994,1,0,0:0:0:0:
448,192,53034,1,0,0:0:0:0:
64,192,53073,1,0,0:0:0:0:
320,192,53113,1,0,0:0:0:0:
192,192,53153,1,0,0:0:0:0:
448,192,53192,1,0,0:0:0:0:
64,192,53232,1,0,0:0:0:0:
320,192,53271,1,0,0:0:0:0:
192,192,53331,1,0,0:0:0:0:
64,192,53390,1,0,0:0:0:0:
448,192,53430,1,0,0:0:0:0:
192,192,53470,1,0,0:0:0:0:
320,192,53510,1,0,0:0:0:0:
64,192,53569,1,0,0:0:0:0:
192,192,53629,1,0,0:0:0:0:
320,192,53688,1,0,0:0:0:0:
64,192,53748,1,0,0:0:0:0:
448,192,53787,1,0,0:0:0:0:
320,192,53827,1,0,0:0:0:0:
192,192,53867,1,0,0:0:0:0:
64,192,53867,1,0,0:0:0:0:
448,192,53906,1,0,0:0:0:0:
320,192,53946,1,0,0:0:0:0:
192,192,53985,1,0,0:0:0:0:
64,192,54025,1,0,0:0:0:0:
448,192,54065,1,0,0:0:0:0:
192,192,54105,1,0,0:0:0:0:
64,192,54145,1,0,0:0:0:0:
320,192,54185,1,0,0:0:0:0:
192,192,54224,1,0,0:0:0:0:
448,192,54284,1,0,0:0:0:0:
320,192,54343,1,0,0:0:0:0:
64,192,54383,1,0,0:0:0:0:
192,192,54422,1,0,0:0:0:0:
448,192,54462,1,0,0:0:0:0:
320,192,54502,1,0,0:0:0:0:
64,192,54541,1,0,0:0:0:0:
448,192,54581,1,0,0:0:0:0:
192,192,54640,1,0,0:0:0:0:
448,192,54700,1,0,0:0:0:0:
64,192,54760,1,0,0:0:0:0:
448,192,54819,1,0,0:0:0:0:
320,192,54859,1,0,0:0:0:0:
192,192,54899,1,0,0:0:0:0:
64,192,54938,1,0,0:0:0:0:
320,192,54978,1,0,0:0:0:0:
448,192,55018,1,0,0:0:0:0:
192,192,55057,1,0,0:0:0:0:
320,192,55097,1,0,0:0:0:0:
64,192,55136,1,0,0:0:0:0:
448,192,55190,1,0,0:0:0:0:
64,192,55242,1,0,0:0:0:0:
320,192,55295,1,0,0:0:0:0:
64,192,55771,1,0,0:0:0:0:
448,192,55771,1,0,0:0:0:0:
448,192,56010,1,0,0:0:0:0:
192,192,56050,1,0,0:0:0:0:
320,192,56089,1,0,0:0:0:0:
64,192,56129,1,0,0:0:0:0:
192,192,56169,1,0,0:0:0:0:
448,192,56208,1,0,0:0:0:0:
320,192,56248,1,0,0:0:0:0:
64,192,56287,1,0,0:0:0:0:
448,192,56327,1,0,0:0:0:0:
192,192,56367,1,0,0:0:0:0:
320,192,56426,1,0,0:0:0:0:
448,192,56485,1,0,0:0:0:0:
192,192,56545,1,0,0:0:0:0:
448,192,56605,1,0,0:0:0:0:
64,192,56665,1,0,0:0:0:0:
448,192,56724,1,0,0:0:0:0:
192,192,56764,1,0,0:0:0:0:
320,192,56803,1,0,0:0:0:0:
64,192,56843,1,0,0:0:0:0:
448,192,56883,1,0,0:0:0:0:
192,192,56922,1,0,0:0:0:0:
320,192,56962,1,0,0:0:0:0:
64,192,57002,1,0,0:0:0:0:
448,192,57041,1,0,0:0:0:0:
192,192,57081,1,0,0:0:0:0:
320,192,57140,1,0,0:0:0:0:
448,192,57200,1,0,0:0:0:0:
64,192,57240,1,0,0:0:0:0:
320,192,57280,1,0,0:0:0:0:
192,192,57319,1,0,0:0:0:0:
448,192,57379,1,0,0:0:0:0:
192,192,57438,1,0,0:0:0:0:
320,192,57478,1,0,0:0:0:0:
64,192,57518,1,0,0:0:0:0:
448,192,57557,1,0,0:0:0:0:
192,192,57597,1,0,0:0:0:0:
320,192,57636,1,0,0:0:0:0:
448,192,57676,1,0,0:0:0:0:
64,192,57676,1,0,0:0:0:0:
192,192,57716,1,0,0:0:0:0:
320,192,57755,1,0,0:0:0:0:
64,192,57795,1,0,0:0:0:0:
320,192,57855,1,0,0:0:0:0:
64,192,57915,1,0,0:0:0:0:
448,192,57915,1,0,0:0:0:0:
192,192,57954,1,0,0:0:0:0:
320,192,57994,1,0,0:0:0:0:
448,192,58034,1,0,0:0:0:0:
64,192,58093,1,0,0:0:0:0:
320,192,58152,1,0,0:0:0:0:
448,192,58152,1,0,0:0:0:0:
192,192,58192,1,0,0:0:0:0:
64,192,58232,1,0,0:0:0:0:
448,192,58271,1,0,0:0:0:0:
320,192,58311,1,0,0:0:0:0:
64,192,58351,1,0,0:0:0:0:
448,192,58390,1,0,0:0:0:0:
192,192,58450,1,0,0:0:0:0:
448,192,58510,1,0,0:0:0:0:
192,192,58569,1,0,0:0:0:0:
320,192,58629,1,0,0:0:0:0:
64,192,58669,1,0,0:0:0:0:
192,192,58708,1,0,0:0:0:0:
448,192,58748,1,0,0:0:0:0:
320,192,58787,1,0,0:0:0:0:
192,192,58827,1,0,0:0:0:0:
64,192,58867,1,0,0:0:0:0:
448,192,59581,1,0,0:0:0:0:
64,192,59581,1,0,0:0:0:0:
448,192,59819,1,0,0:0:0:0:
192,192,59859,1,0,0:0:0:0:
320,192,59899,1,0,0:0:0:0:
64,192,59938,1,0,0:0:0:0:
192,192,59978,1,0,0:0:0:0:
448,192,60018,1,0,0:0:0:0:
320,192,60057,1,0,0:0:0:0:
64,192,60097,1,0,0:0:0:0:
448,192,60136,1,0,0:0:0:0:
192,192,60176,1,0,0:0:0:0:
320,192,60235,1,0,0:0:0:0:
448,192,60295,1,0,0:0:0:0:
64,192,60355,1,0,0:0:0:0:
448,192,60415,1,0,0:0:0:0:
64,192,60474,1,0,0:0:0:0:
448,192,60534,1,0,0:0:0:0:
192,192,60573,1,0,0:0:0:0:
320,192,60613,1,0,0:0:0:0:
64,192,60652,1,0,0:0:0:0:
448,192,60692,1,0,0:0:0:0:
192,192,60732,1,0,0:0:0:0:
320,192,60771,1,0,0:0:0:0:
64,192,60811,1,0,0:0:0:0:
448,192,60851,1,0,0:0:0:0:
192,192,60890,1,0,0:0:0:0:
320,192,60950,1,0,0:0:0:0:
448,192,61010,1,0,0:0:0:0:
64,192,61050,1,0,0:0:0:0:
320,192,61089,1,0,0:0:0:0:
192,192,61129,1,0,0:0:0:0:
448,192,61188,1,0,0:0:0:0:
320,192,61248,1,0,0:0:0:0:
192,192,61307,1,0,0:0:0:0:
448,192,61367,1,0,0:0:0:0:
64,192,61406,1,0,0:0:0:0:
192,192,61446,1,0,0:0:0:0:
320,192,61485,1,0,0:0:0:0:
448,192,61485,1,0,0:0:0:0:
64,192,61525,1,0,0:0:0:0:
192,192,61565,1,0,0:0:0:0:
320,192,61605,1,0,0:0:0:0:
448,192,61645,1,0,0:0:0:0:
64,192,61685,1,0,0:0:0:0:
320,192,61724,1,0,0:0:0:0:
448,192,61764,1,0,0:0:0:0:
192,192,61803,1,0,0:0:0:0:
320,192,61843,1,0,0:0:0:0:
64,192,61902,1,0,0:0:0:0:
192,192,61962,1,0,0:0:0:0:
448,192,62002,1,0,0:0:0:0:
320,192,62041,1,0,0:0:0:0:
64,192,62081,1,0,0:0:0:0:
192,192,62120,1,0,0:0:0:0:
448,192,62160,1,0,0:0:0:0:
64,192,62200,1,0,0:0:0:0:
320,192,62260,1,0,0:0:0:0:
64,192,62319,1,0,0:0:0:0:
448,192,62379,1,0,0:0:0:0:
64,192,62438,1,0,0:0:0:0:
192,192,62478,1,0,0:0:0:0:
320,192,62518,1,0,0:0:0:0:
448,192,62557,1,0,0:0:0:0:
192,192,62597,1,0,0:0:0:0:
64,192,62636,1,0,0:0:0:0:
320,192,62676,1,0,0:0:0:0:
192,192,62716,1,0,0:0:0:0:
448,192,62755,1,0,0:0:0:0:
64,192,62809,1,0,0:0:0:0:
448,192,62861,1,0,0:0:0:0:
192,192,62915,1,0,0:0:0:0:
448,192,63390,1,0,0:0:0:0:
64,192,63390,1,0,0:0:0:0:
64,192,64105,1,0,0:0:0:0:
320,192,64145,1,0,0:0:0:0:
192,192,64185,1,0,0:0:0:0:
448,192,64224,1,0,0:0:0:0:
64,192,64284,1,0,0:0:0:0:
448,192,64343,1,0,0:0:0:0:
320,192,64343,1,0,0:0:0:0:
192,192,64383,1,0,0:0:0:0:
64,192,64422,1,0,0:0:0:0:
320,192,64462,1,0,0:0:0:0:
448,192,64502,1,0,0:0:0:0:
192,192,64555,1,0,0:0:0:0:
448,192,64608,1,0,0:0:0:0:
64,192,64660,1,0,0:0:0:0:
320,192,64714,1,0,0:0:0:0:
64,192,64766,1,0,0:0:0:0:
320,192,64819,1,0,0:0:0:0:
448,192,64819,1,0,0:0:0:0:
192,192,64859,1,0,0:0:0:0:
64,192,64899,1,0,0:0:0:0:
448,192,64938,1,0,0:0:0:0:
192,192,64978,1,0,0:0:0:0:
320,192,65018,1,0,0:0:0:0:
448,192,65057,1,0,0:0:0:0:
64,192,65097,1,0,0:0:0:0:
320,192,65136,1,0,0:0:0:0:
448,192,65176,1,0,0:0:0:0:
64,192,65216,1,0,0:0:0:0:
192,192,65255,1,0,0:0:0:0:
320,192,65295,1,0,0:0:0:0:
448,192,65295,1,0,0:0:0:0:
64,192,65325,1,0,0:0:0:0:
192,192,65355,1,0,0:0:0:0:
320,192,65385,1,0,0:0:0:0:
448,192,65415,1,0,0:0:0:0:
64,192,65444,1,0,0:0:0:0:
192,192,65474,1,0,0:0:0:0:
320,192,65504,1,0,0:0:0:0:
448,192,65534,1,0,0:0:0:0:
64,192,65563,1,0,0:0:0:0:
192,192,65593,1,0,0:0:0:0:
320,192,65623,1,0,0:0:0:0:
448,192,65652,1,0,0:0:0:0:
64,192,65682,1,0,0:0:0:0:
192,192,65712,1,0,0:0:0:0:
320,192,65742,1,0,0:0:0:0:
448,192,65771,1,0,0:0:0:0:
64,192,65771,1,0,0:0:0:0:
192,192,65831,1,0,0:0:0:0:
320,192,65890,1,0,0:0:0:0:
448,192,65950,1,0,0:0:0:0:
192,192,66010,1,0,0:0:0:0:
64,192,66050,1,0,0:0:0:0:
320,192,66089,1,0,0:0:0:0:
192,192,66129,1,0,0:0:0:0:
448,192,66169,1,0,0:0:0:0:
192,192,66248,1,0,0:0:0:0:
64,192,66248,1,0,0:0:0:0:
448,192,66277,1,0,0:0:0:0:
320,192,66307,1,0,0:0:0:0:
192,192,66337,1,0,0:0:0:0:
64,192,66367,1,0,0:0:0:0:
448,192,66406,1,0,0:0:0:0:
320,192,66446,1,0,0:0:0:0:
192,192,66485,1,0,0:0:0:0:
64,192,66525,1,0,0:0:0:0:
448,192,66565,1,0,0:0:0:0:
192,192,66618,1,0,0:0:0:0:
320,192,66671,1,0,0:0:0:0:
192,192,66724,1,0,0:0:0:0:
448,192,66724,1,0,0:0:0:0:
64,192,66764,1,0,0:0:0:0:
320,192,66803,1,0,0:0:0:0:
192,192,66843,1,0,0:0:0:0:
448,192,66902,1,0,0:0:0:0:
192,192,66962,1,0,0:0:0:0:
320,192,67002,1,0,0:0:0:0:
64,192,67041,1,0,0:0:0:0:
448,192,67081,1,0,0:0:0:0:
192,192,67120,1,0,0:0:0:0:
448,192,67160,1,0,0:0:0:0:
64,192,67200,1,0,0:0:0:0:
192,192,67230,1,0,0:0:0:0:
320,192,67260,1,0,0:0:0:0:
448,192,67290,1,0,0:0:0:0:
64,192,67319,1,0,0:0:0:0:
320,192,67359,1,0,0:0:0:0:
192,192,67399,1,0,0:0:0:0:
448,192,67438,1,0,0:0:0:0:
320,192,67498,1,0,0:0:0:0:
64,192,67557,1,0,0:0:0:0:
320,192,67597,1,0,0:0:0:0:
448,192,67636,1,0,0:0:0:0:
192,192,67676,1,0,0:0:0:0:
64,192,67676,1,0,0:0:0:0:
320,192,67729,1,0,0:0:0:0:
448,192,67782,1,0,0:0:0:0:
192,192,67835,1,0,0:0:0:0:
320,192,67888,1,0,0:0:0:0:
64,192,67940,1,0,0:0:0:0:
448,192,67974,1,0,0:0:0:0:
320,192,68004,1,0,0:0:0:0:
192,192,68034,1,0,0:0:0:0:
64,192,68063,1,0,0:0:0:0:
448,192,68093,1,0,0:0:0:0:
64,192,68152,1,0,0:0:0:0:
192,192,68152,1,0,0:0:0:0:
320,192,68205,1,0,0:0:0:0:
192,192,68258,1,0,0:0:0:0:
320,192,68311,1,0,0:0:0:0:
448,192,68364,1,0,0:0:0:0:
64,192,68417,1,0,0:0:0:0:
320,192,68470,1,0,0:0:0:0:
448,192,68510,1,0,0:0:0:0:
192,192,68550,1,0,0:0:0:0:
320,192,68589,1,0,0:0:0:0:
64,192,68629,1,0,0:0:0:0:
448,192,68629,1,0,0:0:0:0:
192,192,68681,1,0,0:0:0:0:
320,192,68735,1,0,0:0:0:0:
64,192,68787,1,0,0:0:0:0:
192,192,68867,1,0,0:0:0:0:
448,192,68867,1,0,0:0:0:0:
320,192,68985,1,0,0:0:0:0:
192,192,68985,1,0,0:0:0:0:
320,192,69105,1,0,0:0:0:0:
64,192,69224,1,0,0:0:0:0:
448,192,69224,1,0,0:0:0:0:
192,192,69343,1,0,0:0:0:0:
448,192,69343,1,0,0:0:0:0:
192,192,69462,1,0,0:0:0:0:
320,192,69462,1,0,0:0:0:0:
448,192,69581,1,0,0:0:0:0:
64,192,69581,1,0,0:0:0:0:
320,192,69640,1,0,0:0:0:0:
192,192,69700,1,0,0:0:0:0:
64,192,69760,1,0,0:0:0:0:
448,192,69819,1,0,0:0:0:0:
192,192,69859,1,0,0:0:0:0:
320,192,69899,1,0,0:0:0:0:
448,192,69938,1,0,0:0:0:0:
64,192,69978,1,0,0:0:0:0:
320,192,70057,1,0,0:0:0:0:
448,192,70057,1,0,0:0:0:0:
64,192,70087,1,0,0:0:0:0:
192,192,70117,1,0,0:0:0:0:
320,192,70146,1,0,0:0:0:0:
448,192,70176,1,0,0:0:0:0:
64,192,70216,1,0,0:0:0:0:
192,192,70255,1,0,0:0:0:0:
320,192,70295,1,0,0:0:0:0:
448,192,70335,1,0,0:0:0:0:
64,192,70375,1,0,0:0:0:0:
320,192,70428,1,0,0:0:0:0:
192,192,70481,1,0,0:0:0:0:
320,192,70534,1,0,0:0:0:0:
64,192,70534,1,0,0:0:0:0:
448,192,70573,1,0,0:0:0:0:
192,192,70613,1,0,0:0:0:0:
320,192,70652,1,0,0:0:0:0:
64,192,70712,1,0,0:0:0:0:
320,192,70771,1,0,0:0:0:0:
192,192,70811,1,0,0:0:0:0:
448,192,70851,1,0,0:0:0:0:
64,192,70890,1,0,0:0:0:0:
320,192,70930,1,0,0:0:0:0:
192,192,70970,1,0,0:0:0:0:
448,192,71010,1,0,0:0:0:0:
64,192,71010,1,0,0:0:0:0:
320,192,71050,1,0,0:0:0:0:
192,192,71089,1,0,0:0:0:0:
448,192,71129,1,0,0:0:0:0:
64,192,71169,1,0,0:0:0:0:
448,192,71208,1,0,0:0:0:0:
192,192,71248,1,0,0:0:0:0:
320,192,71287,1,0,0:0:0:0:
64,192,71327,1,0,0:0:0:0:
448,192,71367,1,0,0:0:0:0:
192,192,71406,1,0,0:0:0:0:
64,192,71446,1,0,0:0:0:0:
320,192,71485,1,0,0:0:0:0:
448,192,71485,1,0,0:0:0:0:
192,192,71539,1,0,0:0:0:0:
64,192,71592,1,0,0:0:0:0:
320,192,71645,1,0,0:0:0:0:
192,192,71698,1,0,0:0:0:0:
448,192,71750,1,0,0:0:0:0:
64,192,71784,1,0,0:0:0:0:
192,192,71813,1,0,0:0:0:0:
320,192,71843,1,0,0:0:0:0:
448,192,71873,1,0,0:0:0:0:
64,192,71902,1,0,0:0:0:0:
448,192,71962,1,0,0:0:0:0:
320,192,71962,1,0,0:0:0:0:
192,192,72015,1,0,0:0:0:0:
320,192,72068,1,0,0:0:0:0:
192,192,72120,1,0,0:0:0:0:
64,192,72174,1,0,0:0:0:0:
448,192,72226,1,0,0:0:0:0:
64,192,72280,1,0,0:0:0:0:
320,192,72332,1,0,0:0:0:0:
448,192,72385,1,0,0:0:0:0:
64,192,72438,1,0,0:0:0:0:
192,192,72438,1,0,0:0:0:0:
192,192,72557,1,0,0:0:0:0:
320,192,72676,1,0,0:0:0:0:
64,192,72676,1,0,0:0:0:0:
192,192,72795,1,0,0:0:0:0:
320,192,72795,1,0,0:0:0:0:
192,192,72915,1,0,0:0:0:0:
448,192,73034,1,0,0:0:0:0:
192,192,73152,1,0,0:0:0:0:
448,192,73390,1,0,0:0:0:0:
64,192,73390,1,0,0:0:0:0:
320,192,73450,1,0,0:0:0:0:
192,192,73510,1,0,0:0:0:0:
64,192,73569,1,0,0:0:0:0:
448,192,73629,1,0,0:0:0:0:
192,192,73669,1,0,0:0:0:0:
320,192,73708,1,0,0:0:0:0:
448,192,73748,1,0,0:0:0:0:
64,192,73787,1,0,0:0:0:0:
320,192,73867,1,0,0:0:0:0:
448,192,73867,1,0,0:0:0:0:
64,192,73896,1,0,0:0:0:0:
192,192,73926,1,0,0:0:0:0:
320,192,73956,1,0,0:0:0:0:
448,192,73985,1,0,0:0:0:0:
64,192,74025,1,0,0:0:0:0:
192,192,74065,1,0,0:0:0:0:
320,192,74105,1,0,0:0:0:0:
64,192,74145,1,0,0:0:0:0:
448,192,74185,1,0,0:0:0:0:
320,192,74237,1,0,0:0:0:0:
448,192,74290,1,0,0:0:0:0:
192,192,74343,1,0,0:0:0:0:
64,192,74343,1,0,0:0:0:0:
320,192,74383,1,0,0:0:0:0:
448,192,74422,1,0,0:0:0:0:
192,192,74462,1,0,0:0:0:0:
64,192,74521,1,0,0:0:0:0:
320,192,74581,1,0,0:0:0:0:
192,192,74620,1,0,0:0:0:0:
448,192,74660,1,0,0:0:0:0:
64,192,74700,1,0,0:0:0:0:
320,192,74740,1,0,0:0:0:0:
64,192,74780,1,0,0:0:0:0:
448,192,74819,1,0,0:0:0:0:
320,192,74849,1,0,0:0:0:0:
192,192,74879,1,0,0:0:0:0:
64,192,74909,1,0,0:0:0:0:
448,192,74938,1,0,0:0:0:0:
192,192,74978,1,0,0:0:0:0:
320,192,75018,1,0,0:0:0:0:
64,192,75057,1,0,0:0:0:0:
192,192,75117,1,0,0:0:0:0:
448,192,75176,1,0,0:0:0:0:
192,192,75216,1,0,0:0:0:0:
64,192,75255,1,0,0:0:0:0:
320,192,75295,1,0,0:0:0:0:
448,192,75295,1,0,0:0:0:0:
192,192,75348,1,0,0:0:0:0:
64,192,75401,1,0,0:0:0:0:
320,192,75454,1,0,0:0:0:0:
192,192,75507,1,0,0:0:0:0:
448,192,75560,1,0,0:0:0:0:
64,192,75593,1,0,0:0:0:0:
192,192,75623,1,0,0:0:0:0:
320,192,75652,1,0,0:0:0:0:
448,192,75682,1,0,0:0:0:0:
64,192,75712,1,0,0:0:0:0:
448,192,75771,1,0,0:0:0:0:
320,192,75771,1,0,0:0:0:0:
192,192,75825,1,0,0:0:0:0:
320,192,75877,1,0,0:0:0:0:
192,192,75930,1,0,0:0:0:0:
64,192,75983,1,0,0:0:0:0:
448,192,76036,1,0,0:0:0:0:
192,192,76089,1,0,0:0:0:0:
64,192,76129,1,0,0:0:0:0:
320,192,76169,1,0,0:0:0:0:
192,192,76208,1,0,0:0:0:0:
448,192,76248,1,0,0:0:0:0:
64,192,76248,1,0,0:0:0:0:
320,192,76300,1,0,0:0:0:0:
192,192,76354,1,0,0:0:0:0:
448,192,76406,1,0,0:0:0:0:
320,192,76485,1,0,0:0:0:0:
64,192,76485,1,0,0:0:0:0:
192,192,76605,1,0,0:0:0:0:
320,192,76605,1,0,0:0:0:0:
192,192,76724,1,0,0:0:0:0:
448,192,76843,1,0,0:0:0:0:
64,192,76843,1,0,0:0:0:0:
320,192,76962,1,0,0:0:0:0:
64,192,76962,1,0,0:0:0:0:
320,192,77081,1,0,0:0:0:0:
192,192,77081,1,0,0:0:0:0:
64,192,77200,1,0,0:0:0:0:
448,192,77200,1,0,0:0:0:0:
192,192,77260,1,0,0:0:0:0:
320,192,77319,1,0,0:0:0:0:
448,192,77379,1,0,0:0:0:0:
64,192,77438,1,0,0:0:0:0:
320,192,77478,1,0,0:0:0:0:
192,192,77518,1,0,0:0:0:0:
64,192,77557,1,0,0:0:0:0:
448,192,77597,1,0,0:0:0:0:
64,192,77676,1,0,0:0:0:0:
192,192,77676,1,0,0:0:0:0:
448,192,77706,1,0,0:0:0:0:
320,192,77735,1,0,0:0:0:0:
192,192,77765,1,0,0:0:0:0:
64,192,77795,1,0,0:0:0:0:
448,192,77835,1,0,0:0:0:0:
320,192,77875,1,0,0:0:0:0:
192,192,77915,1,0,0:0:0:0:
448,192,77954,1,0,0:0:0:0:
64,192,77994,1,0,0:0:0:0:
192,192,78034,1,0,0:0:0:0:
64,192,78093,1,0,0:0:0:0:
448,192,78152,1,0,0:0:0:0:
320,192,78152,1,0,0:0:0:0:
192,192,78192,1,0,0:0:0:0:
64,192,78232,1,0,0:0:0:0:
320,192,78271,1,0,0:0:0:0:
448,192,78331,1,0,0:0:0:0:
192,192,78390,1,0,0:0:0:0:
320,192,78430,1,0,0:0:0:0:
64,192,78470,1,0,0:0:0:0:
448,192,78510,1,0,0:0:0:0:
192,192,78550,1,0,0:0:0:0:
320,192,78589,1,0,0:0:0:0:
64,192,78629,1,0,0:0:0:0:
448,192,78629,1,0,0:0:0:0:
192,192,78669,1,0,0:0:0:0:
320,192,78708,1,0,0:0:0:0:
64,192,78748,1,0,0:0:0:0:
448,192,78787,1,0,0:0:0:0:
64,192,78827,1,0,0:0:0:0:
320,192,78867,1,0,0:0:0:0:
192,192,78906,1,0,0:0:0:0:
448,192,78946,1,0,0:0:0:0:
64,192,78985,1,0,0:0:0:0:
320,192,79025,1,0,0:0:0:0:
448,192,79065,1,0,0:0:0:0:
192,192,79105,1,0,0:0:0:0:
64,192,79105,1,0,0:0:0:0:
320,192,79157,1,0,0:0:0:0:
448,192,79210,1,0,0:0:0:0:
192,192,79264,1,0,0:0:0:0:
320,192,79316,1,0,0:0:0:0:
64,192,79369,1,0,0:0:0:0:
448,192,79402,1,0,0:0:0:0:
320,192,79432,1,0,0:0:0:0:
192,192,79462,1,0,0:0:0:0:
64,192,79492,1,0,0:0:0:0:
448,192,79521,1,0,0:0:0:0:
64,192,79581,1,0,0:0:0:0:
192,192,79581,1,0,0:0:0:0:
320,192,79634,1,0,0:0:0:0:
192,192,79686,1,0,0:0:0:0:
320,192,79740,1,0,0:0:0:0:
448,192,79792,1,0,0:0:0:0:
64,192,79845,1,0,0:0:0:0:
448,192,79899,1,0,0:0:0:0:
192,192,79950,1,0,0:0:0:0:
64,192,80004,1,0,0:0:0:0:
448,192,80057,1,0,0:0:0:0:
320,192,80057,1,0,0:0:0:0:
320,192,80176,1,0,0:0:0:0:
192,192,80295,1,0,0:0:0:0:
448,192,80295,1,0,0:0:0:0:
320,192,80415,1,0,0:0:0:0:
192,192,80415,1,0,0:0:0:0:
320,192,80534,1,0,0:0:0:0:
64,192,80534,1,0,0:0:0:0:
64,192,80771,1,0,0:0:0:0:
192,192,80771,1,0,0:0:0:0:
448,192,80811,1,0,0:0:0:0:
320,192,80851,1,0,0:0:0:0:
192,192,80890,1,0,0:0:0:0:
64,192,81010,1,0,0:0:0:0:
192,192,81010,1,0,0:0:0:0:
448,192,81010,1,0,0:0:0:0:
320,192,81129,1,0,0:0:0:0:
448,192,81129,1,0,0:0:0:0:
192,192,81248,1,0,0:0:0:0:
64,192,81248,1,0,0:0:0:0:
64,192,81367,1,0,0:0:0:0:
192,192,81367,1,0,0:0:0:0:
64,192,81485,1,0,0:0:0:0:
448,192,81485,1,0,0:0:0:0:
320,192,81485,1,0,0:0:0:0:
192,192,81545,1,0,0:0:0:0:
448,192,81605,1,0,0:0:0:0:
64,192,81665,1,0,0:0:0:0:
448,192,81724,1,0,0:0:0:0:
320,192,81843,1,0,0:0:0:0:
192,192,81843,1,0,0:0:0:0:
64,192,81962,1,0,0:0:0:0:
192,192,81962,1,0,0:0:0:0:
448,192,81962,1,0,0:0:0:0:
320,192,82021,1,0,0:0:0:0:
64,192,82081,1,0,0:0:0:0:
448,192,82140,1,0,0:0:0:0:
64,192,82200,1,0,0:0:0:0:
320,192,82319,1,0,0:0:0:0:
448,192,82319,1,0,0:0:0:0:
192,192,82319,1,0,0:0:0:0:
448,192,82438,1,0,0:0:0:0:
64,192,82438,1,0,0:0:0:0:
448,192,82557,1,0,0:0:0:0:
192,192,82557,1,0,0:0:0:0:
320,192,82617,1,0,0:0:0:0:
192,192,82676,1,0,0:0:0:0:
320,192,82735,1,0,0:0:0:0:
64,192,82795,1,0,0:0:0:0:
192,192,82855,1,0,0:0:0:0:
64,192,82915,1,0,0:0:0:0:
448,192,82915,1,0,0:0:0:0:
320,192,82967,1,0,0:0:0:0:
192,192,83020,1,0,0:0:0:0:
448,192,83073,1,0,0:0:0:0:
64,192,83152,1,0,0:0:0:0:
192,192,83152,1,0,0:0:0:0:
320,192,83271,1,0,0:0:0:0:
448,192,83271,1,0,0:0:0:0:
64,192,83390,1,0,0:0:0:0:
192,192,83390,1,0,0:0:0:0:
448,192,83390,1,0,0:0:0:0:
320,192,83450,1,0,0:0:0:0:
64,192,83510,1,0,0:0:0:0:
448,192,83569,1,0,0:0:0:0:
64,192,83629,1,0,0:0:0:0:
320,192,83748,1,0,0:0:0:0:
192,192,83748,1,0,0:0:0:0:
64,192,83867,1,0,0:0:0:0:
320,192,83867,1,0,0:0:0:0:
448,192,83867,1,0,0:0:0:0:
448,192,83985,1,0,0:0:0:0:
192,192,84105,1,0,0:0:0:0:
320,192,84105,1,0,0:0:0:0:
192,192,84224,1,0,0:0:0:0:
64,192,84224,1,0,0:0:0:0:
448,192,84343,1,0,0:0:0:0:
320,192,84343,1,0,0:0:0:0:
64,192,84343,1,0,0:0:0:0:
448,192,84462,1,0,0:0:0:0:
320,192,84462,1,0,0:0:0:0:
448,192,84581,1,0,0:0:0:0:
64,192,84581,1,0,0:0:0:0:
192,192,84640,1,0,0:0:0:0:
320,192,84700,1,0,0:0:0:0:
192,192,84760,1,0,0:0:0:0:
64,192,84819,1,0,0:0:0:0:
448,192,84819,1,0,0:0:0:0:
320,192,84872,1,0,0:0:0:0:
192,192,84925,1,0,0:0:0:0:
448,192,84978,1,0,0:0:0:0:
64,192,85057,1,0,0:0:0:0:
192,192,85057,1,0,0:0:0:0:
192,192,85176,1,0,0:0:0:0:
64,192,85176,1,0,0:0:0:0:
64,192,85295,1,0,0:0:0:0:
320,192,85295,1,0,0:0:0:0:
448,192,85295,1,0,0:0:0:0:
192,192,85355,1,0,0:0:0:0:
448,192,85415,1,0,0:0:0:0:
64,192,85474,1,0,0:0:0:0:
448,192,85534,1,0,0:0:0:0:
192,192,85652,1,0,0:0:0:0:
64,192,85652,1,0,0:0:0:0:
448,192,85771,1,0,0:0:0:0:
64,192,85771,1,0,0:0:0:0:
320,192,85811,1,0,0:0:0:0:
192,192,85851,1,0,0:0:0:0:
448,192,85890,1,0,0:0:0:0:
64,192,85930,1,0,0:0:0:0:
320,192,86010,1,0,0:0:0:0:
448,192,86010,1,0,0:0:0:0:
320,192,86129,1,0,0:0:0:0:
192,192,86129,1,0,0:0:0:0:
192,192,86248,1,0,0:0:0:0:
64,192,86367,1,0,0:0:0:0:
448,192,86367,1,0,0:0:0:0:
320,192,86426,1,0,0:0:0:0:
192,192,86485,1,0,0:0:0:0:
448,192,86545,1,0,0:0:0:0:
64,192,86605,1,0,0:0:0:0:
192,192,86605,1,0,0:0:0:0:
64,192,86724,1,0,0:0:0:0:
320,192,86724,1,0,0:0:0:0:
448,192,86724,1,0,0:0:0:0:
448,192,86843,1,0,0:0:0:0:
192,192,86843,1,0,0:0:0:0:
448,192,86962,1,0,0:0:0:0:
192,192,86962,1,0,0:0:0:0:
64,192,87081,1,0,0:0:0:0:
320,192,87081,1,0,0:0:0:0:
192,192,87200,1,0,0:0:0:0:
64,192,87200,1,0,0:0:0:0:
448,192,87200,1,0,0:0:0:0:
448,192,87319,1,0,0:0:0:0:
192,192,87319,1,0,0:0:0:0:
320,192,87438,1,0,0:0:0:0:
64,192,87438,1,0,0:0:0:0:
320,192,87557,1,0,0:0:0:0:
192,192,87557,1,0,0:0:0:0:
448,192,87557,1,0,0:0:0:0:
64,192,87676,1,0,0:0:0:0:
192,192,87676,1,0,0:0:0:0:
448,192,87676,1,0,0:0:0:0:
64,192,87795,1,0,0:0:0:0:
320,192,87795,1,0,0:0:0:0:
64,192,87915,1,0,0:0:0:0:
448,192,87915,1,0,0:0:0:0:
320,192,87915,1,0,0:0:0:0:
448,192,88034,1,0,0:0:0:0:
192,192,88034,1,0,0:0:0:0:
64,192,88152,1,0,0:0:0:0:
448,192,88152,1,0,0:0:0:0:
320,192,88212,1,0,0:0:0:0:
64,192,88271,1,0,0:0:0:0:
320,192,88331,1,0,0:0:0:0:
64,192,88390,1,0,0:0:0:0:
64,192,88510,1,0,0:0:0:0:
320,192,88510,1,0,0:0:0:0:
448,192,88629,1,0,0:0:0:0:
64,192,88629,1,0,0:0:0:0:
64,192,89343,1,0,0:0:0:0:
192,192,89343,1,0,0:0:0:0:
448,192,89383,1,0,0:0:0:0:
320,192,89422,1,0,0:0:0:0:
192,192,89462,1,0,0:0:0:0:
64,192,89581,1,0,0:0:0:0:
320,192,89581,1,0,0:0:0:0:
448,192,89581,1,0,0:0:0:0:
192,192,89700,1,0,0:0:0:0:
64,192,89700,1,0,0:0:0:0:
320,192,89819,1,0,0:0:0:0:
448,192,89819,1,0,0:0:0:0:
448,192,89938,1,0,0:0:0:0:
320,192,89938,1,0,0:0:0:0:
64,192,90057,1,0,0:0:0:0:
448,192,90057,1,0,0:0:0:0:
192,192,90057,1,0,0:0:0:0:
320,192,90117,1,0,0:0:0:0:
64,192,90176,1,0,0:0:0:0:
448,192,90235,1,0,0:0:0:0:
64,192,90295,1,0,0:0:0:0:
320,192,90415,1,0,0:0:0:0:
192,192,90415,1,0,0:0:0:0:
64,192,90534,1,0,0:0:0:0:
192,192,90534,1,0,0:0:0:0:
448,192,90534,1,0,0:0:0:0:
320,192,90652,1,0,0:0:0:0:
448,192,90652,1,0,0:0:0:0:
64,192,90771,1,0,0:0:0:0:
192,192,90771,1,0,0:0:0:0:
320,192,90890,1,0,0:0:0:0:
192,192,90890,1,0,0:0:0:0:
448,192,91010,1,0,0:0:0:0:
320,192,91010,1,0,0:0:0:0:
64,192,91010,1,0,0:0:0:0:
192,192,91069,1,0,0:0:0:0:
448,192,91129,1,0,0:0:0:0:
64,192,91188,1,0,0:0:0:0:
448,192,91248,1,0,0:0:0:0:
192,192,91307,1,0,0:0:0:0:
320,192,91367,1,0,0:0:0:0:
64,192,91426,1,0,0:0:0:0:
320,192,91485,1,0,0:0:0:0:
448,192,91485,1,0,0:0:0:0:
192,192,91539,1,0,0:0:0:0:
64,192,91591,1,0,0:0:0:0:
448,192,91645,1,0,0:0:0:0:
64,192,91724,1,0,0:0:0:0:
320,192,91724,1,0,0:0:0:0:
320,192,91843,1,0,0:0:0:0:
192,192,91843,1,0,0:0:0:0:
448,192,91962,1,0,0:0:0:0:
64,192,91962,1,0,0:0:0:0:
320,192,92002,1,0,0:0:0:0:
192,192,92041,1,0,0:0:0:0:
448,192,92081,1,0,0:0:0:0:
64,192,92120,1,0,0:0:0:0:
448,192,92200,1,0,0:0:0:0:
320,192,92200,1,0,0:0:0:0:
192,192,92319,1,0,0:0:0:0:
320,192,92319,1,0,0:0:0:0:
448,192,92438,1,0,0:0:0:0:
192,192,92438,1,0,0:0:0:0:
64,192,92438,1,0,0:0:0:0:
64,192,92557,1,0,0:0:0:0:
320,192,92557,1,0,0:0:0:0:
320,192,92676,1,0,0:0:0:0:
192,192,92676,1,0,0:0:0:0:
192,192,92795,1,0,0:0:0:0:
64,192,92915,1,0,0:0:0:0:
448,192,92915,1,0,0:0:0:0:
320,192,92915,1,0,0:0:0:0:
320,192,93034,1,0,0:0:0:0:
192,192,93034,1,0,0:0:0:0:
64,192,93152,1,0,0:0:0:0:
448,192,93152,1,0,0:0:0:0:
320,192,93212,1,0,0:0:0:0:
192,192,93271,1,0,0:0:0:0:
320,192,93331,1,0,0:0:0:0:
448,192,93390,1,0,0:0:0:0:
64,192,93390,1,0,0:0:0:0:
192,192,93444,1,0,0:0:0:0:
320,192,93496,1,0,0:0:0:0:
64,192,93550,1,0,0:0:0:0:
448,192,93629,1,0,0:0:0:0:
320,192,93629,1,0,0:0:0:0:
320,192,93748,1,0,0:0:0:0:
448,192,93748,1,0,0:0:0:0:
448,192,93867,1,0,0:0:0:0:
192,192,93867,1,0,0:0:0:0:
64,192,93867,1,0,0:0:0:0:
320,192,93926,1,0,0:0:0:0:
64,192,93985,1,0,0:0:0:0:
448,192,94045,1,0,0:0:0:0:
64,192,94105,1,0,0:0:0:0:
320,192,94224,1,0,0:0:0:0:
448,192,94224,1,0,0:0:0:0:
64,192,94343,1,0,0:0:0:0:
448,192,94343,1,0,0:0:0:0:
192,192,94343,1,0,0:0:0:0:
320,192,94462,1,0,0:0:0:0:
192,192,94581,1,0,0:0:0:0:
64,192,94581,1,0,0:0:0:0:
192,192,94700,1,0,0:0:0:0:
320,192,94700,1,0,0:0:0:0:
64,192,94819,1,0,0:0:0:0:
448,192,94819,1,0,0:0:0:0:
320,192,94879,1,0,0:0:0:0:
192,192,94938,1,0,0:0:0:0:
448,192,94998,1,0,0:0:0:0:
192,192,95057,1,0,0:0:0:0:
64,192,95117,1,0,0:0:0:0:
448,192,95176,1,0,0:0:0:0:
320,192,95176,1,0,0:0:0:0:
448,192,95295,1,0,0:0:0:0:
192,192,95295,1,0,0:0:0:0:
64,192,95295,1,0,0:0:0:0:
320,192,95415,1,0,0:0:0:0:
64,192,95415,1,0,0:0:0:0:
448,192,95534,1,0,0:0:0:0:
64,192,95534,1,0,0:0:0:0:
192,192,95593,1,0,0:0:0:0:
448,192,95652,1,0,0:0:0:0:
192,192,95712,1,0,0:0:0:0:
448,192,95771,1,0,0:0:0:0:
192,192,95831,1,0,0:0:0:0:
448,192,95890,1,0,0:0:0:0:
192,192,95950,1,0,0:0:0:0:
448,192,96010,1,0,0:0:0:0:
448,192,96129,1,0,0:0:0:0:
192,192,96129,1,0,0:0:0:0:
448,192,96248,1,0,0:0:0:0:
64,192,96248,1,0,0:0:0:0:
448,192,97676,1,0,0:0:0:0:
64,192,97676,1,0,0:0:0:0:
448,192,97915,1,0,0:0:0:0:
192,192,97954,1,0,0:0:0:0:
320,192,97994,1,0,0:0:0:0:
64,192,98034,1,0,0:0:0:0:
192,192,98073,1,0,0:0:0:0:
448,192,98113,1,0,0:0:0:0:
320,192,98152,1,0,0:0:0:0:
64,192,98192,1,0,0:0:0:0:
448,192,98232,1,0,0:0:0:0:
192,192,98271,1,0,0:0:0:0:
320,192,98331,1,0,0:0:0:0:
448,192,98390,1,0,0:0:0:0:
64,192,98450,1,0,0:0:0:0:
448,192,98510,1,0,0:0:0:0:
64,192,98569,1,0,0:0:0:0:
448,192,98629,1,0,0:0:0:0:
192,192,98669,1,0,0:0:0:0:
320,192,98708,1,0,0:0:0:0:
64,192,98748,1,0,0:0:0:0:
448,192,98787,1,0,0:0:0:0:
192,192,98827,1,0,0:0:0:0:
320,192,98867,1,0,0:0:0:0:
64,192,98906,1,0,0:0:0:0:
448,192,98946,1,0,0:0:0:0:
192,192,98985,1,0,0:0:0:0:
320,192,99045,1,0,0:0:0:0:
448,192,99105,1,0,0:0:0:0:
64,192,99145,1,0,0:0:0:0:
320,192,99185,1,0,0:0:0:0:
192,192,99224,1,0,0:0:0:0:
448,192,99284,1,0,0:0:0:0:
320,192,99343,1,0,0:0:0:0:
192,192,99402,1,0,0:0:0:0:
448,192,99462,1,0,0:0:0:0:
64,192,99502,1,0,0:0:0:0:
192,192,99541,1,0,0:0:0:0:
320,192,99581,1,0,0:0:0:0:
448,192,99581,1,0,0:0:0:0:
64,192,99620,1,0,0:0:0:0:
192,192,99660,1,0,0:0:0:0:
320,192,99700,1,0,0:0:0:0:
448,192,99740,1,0,0:0:0:0:
64,192,99780,1,0,0:0:0:0:
320,192,99819,1,0,0:0:0:0:
448,192,99859,1,0,0:0:0:0:
192,192,99899,1,0,0:0:0:0:
320,192,99938,1,0,0:0:0:0:
64,192,99998,1,0,0:0:0:0:
192,192,100057,1,0,0:0:0:0:
448,192,100097,1,0,0:0:0:0:
320,192,100136,1,0,0:0:0:0:
64,192,100176,1,0,0:0:0:0:
192,192,100216,1,0,0:0:0:0:
448,192,100255,1,0,0:0:0:0:
64,192,100295,1,0,0:0:0:0:
320,192,100355,1,0,0:0:0:0:
64,192,100415,1,0,0:0:0:0:
448,192,100474,1,0,0:0:0:0:
64,192,100534,1,0,0:0:0:0:
192,192,100573,1,0,0:0:0:0:
320,192,100613,1,0,0:0:0:0:
448,192,100652,1,0,0:0:0:0:
192,192,100692,1,0,0:0:0:0:
64,192,100732,1,0,0:0:0:0:
320,192,100771,1,0,0:0:0:0:
192,192,100811,1,0,0:0:0:0:
448,192,100851,1,0,0:0:0:0:
64,192,100904,1,0,0:0:0:0:
448,192,100956,1,0,0:0:0:0:
192,192,101010,1,0,0:0:0:0:
448,192,101485,1,0,0:0:0:0:
64,192,101485,1,0,0:0:0:0:
64,192,101724,1,0,0:0:0:0:
320,192,101764,1,0,0:0:0:0:
192,192,101803,1,0,0:0:0:0:
448,192,101843,1,0,0:0:0:0:
320,192,101883,1,0,0:0:0:0:
64,192,101922,1,0,0:0:0:0:
192,192,101962,1,0,0:0:0:0:
448,192,102002,1,0,0:0:0:0:
64,192,102041,1,0,0:0:0:0:
320,192,102081,1,0,0:0:0:0:
192,192,102140,1,0,0:0:0:0:
64,192,102200,1,0,0:0:0:0:
320,192,102260,1,0,0:0:0:0:
64,192,102319,1,0,0:0:0:0:
448,192,102379,1,0,0:0:0:0:
64,192,102438,1,0,0:0:0:0:
320,192,102478,1,0,0:0:0:0:
192,192,102518,1,0,0:0:0:0:
448,192,102557,1,0,0:0:0:0:
64,192,102597,1,0,0:0:0:0:
320,192,102636,1,0,0:0:0:0:
192,192,102676,1,0,0:0:0:0:
448,192,102716,1,0,0:0:0:0:
64,192,102755,1,0,0:0:0:0:
320,192,102795,1,0,0:0:0:0:
192,192,102855,1,0,0:0:0:0:
64,192,102915,1,0,0:0:0:0:
448,192,102954,1,0,0:0:0:0:
192,192,102994,1,0,0:0:0:0:
320,192,103034,1,0,0:0:0:0:
64,192,103093,1,0,0:0:0:0:
320,192,103152,1,0,0:0:0:0:
192,192,103192,1,0,0:0:0:0:
448,192,103232,1,0,0:0:0:0:
64,192,103271,1,0,0:0:0:0:
320,192,103311,1,0,0:0:0:0:
192,192,103351,1,0,0:0:0:0:
64,192,103390,1,0,0:0:0:0:
448,192,103390,1,0,0:0:0:0:
320,192,103430,1,0,0:0:0:0:
192,192,103470,1,0,0:0:0:0:
448,192,103510,1,0,0:0:0:0:
192,192,103569,1,0,0:0:0:0:
448,192,103629,1,0,0:0:0:0:
64,192,103629,1,0,0:0:0:0:
320,192,103669,1,0,0:0:0:0:
192,192,103708,1,0,0:0:0:0:
64,192,103748,1,0,0:0:0:0:
448,192,103807,1,0,0:0:0:0:
192,192,103867,1,0,0:0:0:0:
64,192,103867,1,0,0:0:0:0:
320,192,103906,1,0,0:0:0:0:
448,192,103946,1,0,0:0:0:0:
64,192,103985,1,0,0:0:0:0:
192,192,104025,1,0,0:0:0:0:
448,192,104065,1,0,0:0:0:0:
64,192,104105,128,0,104224:0:0:0:0:
320,192,104224,128,0,104343:0:0:0:0:
192,192,104343,128,0,104462:0:0:0:0:
448,192,104462,128,0,104581:0:0:0:0:
192,192,104581,128,0,104660:0:0:0:0:
320,192,104660,128,0,104740:0:0:0:0:
64,192,104740,128,0,104819:0:0:0:0:
192,192,104819,128,0,104899:0:0:0:0:
448,192,104899,128,0,104978:0:0:0:0:
320,192,104978,128,0,105057:0:0:0:0:
64,192,105057,128,0,105117:0:0:0:0:
448,192,105117,128,0,105176:0:0:0:0:
320,192,105176,128,0,105235:0:0:0:0:
192,192,105235,128,0,105295:0:0:0:0:
64,192,105295,1,0,0:0:0:0:
448,192,105295,1,0,0:0:0:0:
64,192,105534,1,0,0:0:0:0:
320,192,105573,1,0,0:0:0:0:
192,192,105613,1,0,0:0:0:0:
448,192,105652,1,0,0:0:0:0:
320,192,105692,1,0,0:0:0:0:
64,192,105732,1,0,0:0:0:0:
192,192,105771,1,0,0:0:0:0:
448,192,105811,1,0,0:0:0:0:
64,192,105851,1,0,0:0:0:0:
320,192,105890,1,0,0:0:0:0:
192,192,105950,1,0,0:0:0:0:
64,192,106010,1,0,0:0:0:0:
448,192,106069,1,0,0:0:0:0:
64,192,106129,1,0,0:0:0:0:
448,192,106188,1,0,0:0:0:0:
64,192,106248,1,0,0:0:0:0:
320,192,106287,1,0,0:0:0:0:
192,192,106327,1,0,0:0:0:0:
448,192,106367,1,0,0:0:0:0:
64,192,106406,1,0,0:0:0:0:
320,192,106446,1,0,0:0:0:0:
192,192,106485,1,0,0:0:0:0:
448,192,106525,1,0,0:0:0:0:
64,192,106565,1,0,0:0:0:0:
320,192,106605,1,0,0:0:0:0:
192,192,106665,1,0,0:0:0:0:
64,192,106724,1,0,0:0:0:0:
448,192,106764,1,0,0:0:0:0:
192,192,106803,1,0,0:0:0:0:
320,192,106843,1,0,0:0:0:0:
64,192,106902,1,0,0:0:0:0:
192,192,106962,1,0,0:0:0:0:
320,192,107021,1,0,0:0:0:0:
64,192,107081,1,0,0:0:0:0:
448,192,107120,1,0,0:0:0:0:
320,192,107160,1,0,0:0:0:0:
192,192,107200,1,0,0:0:0:0:
64,192,107200,1,0,0:0:0:0:
448,192,107240,1,0,0:0:0:0:
320,192,107280,1,0,0:0:0:0:
192,192,107319,1,0,0:0:0:0:
64,192,107359,1,0,0:0:0:0:
448,192,107399,1,0,0:0:0:0:
192,192,107438,1,0,0:0:0:0:
64,192,107478,1,0,0:0:0:0:
320,192,107518,1,0,0:0:0:0:
192,192,107557,1,0,0:0:0:0:
448,192,107617,1,0,0:0:0:0:
320,192,107676,1,0,0:0:0:0:
64,192,107716,1,0,0:0:0:0:
192,192,107755,1,0,0:0:0:0:
448,192,107795,1,0,0:0:0:0:
320,192,107835,1,0,0:0:0:0:
64,192,107875,1,0,0:0:0:0:
448,192,107915,1,0,0:0:0:0:
192,192,107974,1,0,0:0:0:0:
448,192,108034,1,0,0:0:0:0:
64,192,108093,1,0,0:0:0:0:
448,192,108152,1,0,0:0:0:0:
320,192,108192,1,0,0:0:0:0:
192,192,108232,1,0,0:0:0:0:
64,192,108271,1,0,0:0:0:0:
320,192,108311,1,0,0:0:0:0:
448,192,108351,1,0,0:0:0:0:
192,192,108390,1,0,0:0:0:0:
320,192,108430,1,0,0:0:0:0:
64,192,108470,1,0,0:0:0:0:
448,192,108523,1,0,0:0:0:0:
64,192,108575,1,0,0:0:0:0:
320,192,108629,1,0,0:0:0:0:
64,192,109105,1,0,0:0:0:0:
448,192,109105,1,0,0:0:0:0:
448,192,109819,1,0,0:0:0:0:
192,192,109859,1,0,0:0:0:0:
320,192,109899,1,0,0:0:0:0:
64,192,109938,1,0,0:0:0:0:
448,192,109998,1,0,0:0:0:0:
64,192,110057,1,0,0:0:0:0:
192,192,110057,1,0,0:0:0:0:
320,192,110097,1,0,0:0:0:0:
448,192,110136,1,0,0:0:0:0:
192,192,110176,1,0,0:0:0:0:
64,192,110216,1,0,0:0:0:0:
320,192,110269,1,0,0:0:0:0:
64,192,110322,1,0,0:0:0:0:
448,192,110375,1,0,0:0:0:0:
192,192,110428,1,0,0:0:0:0:
448,192,110480,1,0,0:0:0:0:
192,192,110534,1,0,0:0:0:0:
64,192,110534,1,0,0:0:0:0:
320,192,110573,1,0,0:0:0:0:
448,192,110613,1,0,0:0:0:0:
64,192,110652,1,0,0:0:0:0:
320,192,110692,1,0,0:0:0:0:
192,192,110732,1,0,0:0:0:0:
64,192,110771,1,0,0:0:0:0:
448,192,110811,1,0,0:0:0:0:
192,192,110851,1,0,0:0:0:0:
64,192,110890,1,0,0:0:0:0:
448,192,110930,1,0,0:0:0:0:
320,192,110970,1,0,0:0:0:0:
192,192,111010,1,0,0:0:0:0:
64,192,111010,1,0,0:0:0:0:
448,192,111040,1,0,0:0:0:0:
320,192,111069,1,0,0:0:0:0:
192,192,111099,1,0,0:0:0:0:
64,192,111129,1,0,0:0:0:0:
448,192,111159,1,0,0:0:0:0:
320,192,111188,1,0,0:0:0:0:
192,192,111218,1,0,0:0:0:0:
64,192,111248,1,0,0:0:0:0:
448,192,111277,1,0,0:0:0:0:
320,192,111307,1,0,0:0:0:0:
192,192,111337,1,0,0:0:0:0:
64,192,111367,1,0,0:0:0:0:
448,192,111396,1,0,0:0:0:0:
320,192,111426,1,0,0:0:0:0:
192,192,111456,1,0,0:0:0:0:
64,192,111485,1,0,0:0:0:0:
448,192,111485,1,0,0:0:0:0:
320,192,111545,1,0,0:0:0:0:
192,192,111605,1,0,0:0:0:0:
64,192,111665,1,0,0:0:0:0:
320,192,111724,1,0,0:0:0:0:
448,192,111764,1,0,0:0:0:0:
192,192,111803,1,0,0:0:0:0:
320,192,111843,1,0,0:0:0:0:
64,192,111883,1,0,0:0:0:0:
320,192,111962,1,0,0:0:0:0:
448,192,111962,1,0,0:0:0:0:
64,192,111992,1,0,0:0:0:0:
192,192,112021,1,0,0:0:0:0:
320,192,112051,1,0,0:0:0:0:
448,192,112081,1,0,0:0:0:0:
64,192,112120,1,0,0:0:0:0:
192,192,112160,1,0,0:0:0:0:
320,192,112200,1,0,0:0:0:0:
448,192,112240,1,0,0:0:0:0:
64,192,112280,1,0,0:0:0:0:
320,192,112332,1,0,0:0:0:0:
192,192,112385,1,0,0:0:0:0:
320,192,112438,1,0,0:0:0:0:
64,192,112438,1,0,0:0:0:0:
448,192,112478,1,0,0:0:0:0:
192,192,112518,1,0,0:0:0:0:
320,192,112557,1,0,0:0:0:0:
64,192,112617,1,0,0:0:0:0:
320,192,112676,1,0,0:0:0:0:
192,192,112716,1,0,0:0:0:0:
448,192,112755,1,0,0:0:0:0:
64,192,112795,1,0,0:0:0:0:
320,192,112835,1,0,0:0:0:0:
64,192,112875,1,0,0:0:0:0:
448,192,112915,1,0,0:0:0:0:
320,192,112944,1,0,0:0:0:0:
192,192,112974,1,0,0:0:0:0:
64,192,113004,1,0,0:0:0:0:
448,192,113034,1,0,0:0:0:0:
192,192,113073,1,0,0:0:0:0:
320,192,113113,1,0,0:0:0:0:
64,192,113152,1,0,0:0:0:0:
192,192,113212,1,0,0:0:0:0:
448,192,113271,1,0,0:0:0:0:
192,192,113311,1,0,0:0:0:0:
64,192,113351,1,0,0:0:0:0:
320,192,113390,1,0,0:0:0:0:
448,192,113390,1,0,0:0:0:0:
192,192,113443,1,0,0:0:0:0:
64,192,113496,1,0,0:0:0:0:
320,192,113550,1,0,0:0:0:0:
192,192,113602,1,0,0:0:0:0:
448,192,113655,1,0,0:0:0:0:
64,192,113688,1,0,0:0:0:0:
192,192,113718,1,0,0:0:0:0:
320,192,113748,1,0,0:0:0:0:
448,192,113777,1,0,0:0:0:0:
64,192,113807,1,0,0:0:0:0:
448,192,113867,1,0,0:0:0:0:
320,192,113867,1,0,0:0:0:0:
192,192,113920,1,0,0:0:0:0:
320,192,113972,1,0,0:0:0:0:
192,192,114025,1,0,0:0:0:0:
64,192,114078,1,0,0:0:0:0:
448,192,114131,1,0,0:0:0:0:
192,192,114185,1,0,0:0:0:0:
64,192,114224,1,0,0:0:0:0:
320,192,114264,1,0,0:0:0:0:
192,192,114303,1,0,0:0:0:0:
448,192,114343,1,0,0:0:0:0:
64,192,114343,1,0,0:0:0:0:
320,192,114395,1,0,0:0:0:0:
192,192,114449,1,0,0:0:0:0:
448,192,114502,1,0,0:0:0:0:
320,192,114581,1,0,0:0:0:0:
64,192,114581,1,0,0:0:0:0:
192,192,114700,1,0,0:0:0:0:
320,192,114700,1,0,0:0:0:0:
192,192,114819,1,0,0:0:0:0:
448,192,114938,1,0,0:0:0:0:
64,192,114938,1,0,0:0:0:0:
320,192,115057,1,0,0:0:0:0:
64,192,115057,1,0,0:0:0:0:
320,192,115176,1,0,0:0:0:0:
192,192,115176,1,0,0:0:0:0:
64,192,115295,1,0,0:0:0:0:
448,192,115295,1,0,0:0:0:0:
192,192,115355,1,0,0:0:0:0:
320,192,115415,1,0,0:0:0:0:
448,192,115474,1,0,0:0:0:0:
64,192,115534,1,0,0:0:0:0:
320,192,115573,1,0,0:0:0:0:
192,192,115613,1,0,0:0:0:0:
64,192,115652,1,0,0:0:0:0:
448,192,115692,1,0,0:0:0:0:
192,192,115771,1,0,0:0:0:0:
64,192,115771,1,0,0:0:0:0:
448,192,115801,1,0,0:0:0:0:
320,192,115831,1,0,0:0:0:0:
192,192,115860,1,0,0:0:0:0:
64,192,115890,1,0,0:0:0:0:
448,192,115930,1,0,0:0:0:0:
320,192,115970,1,0,0:0:0:0:
192,192,116010,1,0,0:0:0:0:
64,192,116050,1,0,0:0:0:0:
448,192,116089,1,0,0:0:0:0:
192,192,116142,1,0,0:0:0:0:
320,192,116195,1,0,0:0:0:0:
192,192,116248,1,0,0:0:0:0:
448,192,116248,1,0,0:0:0:0:
64,192,116287,1,0,0:0:0:0:
320,192,116327,1,0,0:0:0:0:
192,192,116367,1,0,0:0:0:0:
448,192,116426,1,0,0:0:0:0:
192,192,116485,1,0,0:0:0:0:
320,192,116525,1,0,0:0:0:0:
64,192,116565,1,0,0:0:0:0:
448,192,116605,1,0,0:0:0:0:
192,192,116645,1,0,0:0:0:0:
320,192,116685,1,0,0:0:0:0:
64,192,116724,1,0,0:0:0:0:
448,192,116724,1,0,0:0:0:0:
192,192,116764,1,0,0:0:0:0:
320,192,116803,1,0,0:0:0:0:
64,192,116843,1,0,0:0:0:0:
448,192,116883,1,0,0:0:0:0:
64,192,116922,1,0,0:0:0:0:
320,192,116962,1,0,0:0:0:0:
192,192,117002,1,0,0:0:0:0:
448,192,117041,1,0,0:0:0:0:
64,192,117081,1,0,0:0:0:0:
320,192,117120,1,0,0:0:0:0:
448,192,117160,1,0,0:0:0:0:
192,192,117200,1,0,0:0:0:0:
64,192,117200,1,0,0:0:0:0:
320,192,117253,1,0,0:0:0:0:
448,192,117306,1,0,0:0:0:0:
192,192,117359,1,0,0:0:0:0:
320,192,117412,1,0,0:0:0:0:
64,192,117465,1,0,0:0:0:0:
448,192,117498,1,0,0:0:0:0:
320,192,117527,1,0,0:0:0:0:
192,192,117557,1,0,0:0:0:0:
64,192,117587,1,0,0:0:0:0:
448,192,117617,1,0,0:0:0:0:
64,192,117676,1,0,0:0:0:0:
192,192,117676,1,0,0:0:0:0:
320,192,117730,1,0,0:0:0:0:
192,192,117782,1,0,0:0:0:0:
320,192,117835,1,0,0:0:0:0:
448,192,117888,1,0,0:0:0:0:
64,192,117940,1,0,0:0:0:0:
448,192,117994,1,0,0:0:0:0:
192,192,118046,1,0,0:0:0:0:
64,192,118100,1,0,0:0:0:0:
448,192,118152,1,0,0:0:0:0:
320,192,118152,1,0,0:0:0:0:
320,192,118271,1,0,0:0:0:0:
192,192,118390,1,0,0:0:0:0:
448,192,118390,1,0,0:0:0:0:
320,192,118510,1,0,0:0:0:0:
192,192,118510,1,0,0:0:0:0:
320,192,118629,1,0,0:0:0:0:
64,192,118748,1,0,0:0:0:0:
320,192,118867,1,0,0:0:0:0:
64,192,119105,1,0,0:0:0:0:
448,192,119105,1,0,0:0:0:0:
192,192,119165,1,0,0:0:0:0:
320,192,119224,1,0,0:0:0:0:
448,192,119284,1,0,0:0:0:0:
64,192,119343,1,0,0:0:0:0:
320,192,119383,1,0,0:0:0:0:
192,192,119422,1,0,0:0:0:0:
64,192,119462,1,0,0:0:0:0:
448,192,119502,1,0,0:0:0:0:
192,192,119581,1,0,0:0:0:0:
64,192,119581,1,0,0:0:0:0:
448,192,119610,1,0,0:0:0:0:
320,192,119640,1,0,0:0:0:0:
192,192,119670,1,0,0:0:0:0:
64,192,119700,1,0,0:0:0:0:
448,192,119740,1,0,0:0:0:0:
320,192,119780,1,0,0:0:0:0:
192,192,119819,1,0,0:0:0:0:
448,192,119859,1,0,0:0:0:0:
64,192,119899,1,0,0:0:0:0:
192,192,119951,1,0,0:0:0:0:
64,192,120004,1,0,0:0:0:0:
320,192,120057,1,0,0:0:0:0:
448,192,120057,1,0,0:0:0:0:
192,192,120097,1,0,0:0:0:0:
64,192,120136,1,0,0:0:0:0:
320,192,120176,1,0,0:0:0:0:
448,192,120235,1,0,0:0:0:0:
192,192,120295,1,0,0:0:0:0:
320,192,120335,1,0,0:0:0:0:
64,192,120375,1,0,0:0:0:0:
448,192,120415,1,0,0:0:0:0:
192,192,120454,1,0,0:0:0:0:
448,192,120494,1,0,0:0:0:0:
64,192,120534,1,0,0:0:0:0:
192,192,120563,1,0,0:0:0:0:
320,192,120593,1,0,0:0:0:0:
448,192,120623,1,0,0:0:0:0:
64,192,120652,1,0,0:0:0:0:
320,192,120692,1,0,0:0:0:0:
192,192,120732,1,0,0:0:0:0:
448,192,120771,1,0,0:0:0:0:
320,192,120831,1,0,0:0:0:0:
64,192,120890,1,0,0:0:0:0:
320,192,120930,1,0,0:0:0:0:
448,192,120970,1,0,0:0:0:0:
192,192,121010,1,0,0:0:0:0:
64,192,121010,1,0,0:0:0:0:
320,192,121062,1,0,0:0:0:0:
448,192,121115,1,0,0:0:0:0:
192,192,121169,1,0,0:0:0:0:
320,192,121221,1,0,0:0:0:0:
64,192,121274,1,0,0:0:0:0:
448,192,121307,1,0,0:0:0:0:
320,192,121337,1,0,0:0:0:0:
192,192,121367,1,0,0:0:0:0:
64,192,121396,1,0,0:0:0:0:
448,192,121426,1,0,0:0:0:0:
64,192,121485,1,0,0:0:0:0:
192,192,121485,1,0,0:0:0:0:
320,192,121539,1,0,0:0:0:0:
192,192,121591,1,0,0:0:0:0:
320,192,121645,1,0,0:0:0:0:
448,192,121697,1,0,0:0:0:0:
64,192,121750,1,0,0:0:0:0:
320,192,121803,1,0,0:0:0:0:
448,192,121843,1,0,0:0:0:0:
192,192,121883,1,0,0:0:0:0:
320,192,121922,1,0,0:0:0:0:
64,192,121962,1,0,0:0:0:0:
448,192,121962,1,0,0:0:0:0:
192,192,122015,1,0,0:0:0:0:
320,192,122068,1,0,0:0:0:0:
64,192,122120,1,0,0:0:0:0:
192,192,122200,1,0,0:0:0:0:
448,192,122200,1,0,0:0:0:0:
320,192,122319,1,0,0:0:0:0:
192,192,122319,1,0,0:0:0:0:
320,192,122438,1,0,0:0:0:0:
64,192,122557,1,0,0:0:0:0:
448,192,122557,1,0,0:0:0:0:
192,192,122676,1,0,0:0:0:0:
448,192,122676,1,0,0:0:0:0:
192,192,122795,1,0,0:0:0:0:
320,192,122795,1,0,0:0:0:0:
448,192,122915,1,0,0:0:0:0:
64,192,122915,1,0,0:0:0:0:
320,192,122974,1,0,0:0:0:0:
192,192,123034,1,0,0:0:0:0:
64,192,123093,1,0,0:0:0:0:
448,192,123152,1,0,0:0:0:0:
192,192,123192,1,0,0:0:0:0:
320,192,123232,1,0,0:0:0:0:
448,192,123271,1,0,0:0:0:0:
64,192,123311,1,0,0:0:0:0:
448,192,123390,1,0,0:0:0:0:
320,192,123390,1,0,0:0:0:0:
64,192,123420,1,0,0:0:0:0:
192,192,123450,1,0,0:0:0:0:
320,192,123480,1,0,0:0:0:0:
448,192,123510,1,0,0:0:0:0:
64,192,123550,1,0,0:0:0:0:
192,192,123589,1,0,0:0:0:0:
320,192,123629,1,0,0:0:0:0:
64,192,123669,1,0,0:0:0:0:
448,192,123708,1,0,0:0:0:0:
320,192,123748,1,0,0:0:0:0:
448,192,123807,1,0,0:0:0:0:
64,192,123867,1,0,0:0:0:0:
192,192,123867,1,0,0:0:0:0:
320,192,123906,1,0,0:0:0:0:
448,192,123946,1,0,0:0:0:0:
192,192,123985,1,0,0:0:0:0:
64,192,124045,1,0,0:0:0:0:
320,192,124105,1,0,0:0:0:0:
192,192,124145,1,0,0:0:0:0:
448,192,124185,1,0,0:0:0:0:
64,192,124224,1,0,0:0:0:0:
320,192,124264,1,0,0:0:0:0:
192,192,124303,1,0,0:0:0:0:
448,192,124343,1,0,0:0:0:0:
64,192,124343,1,0,0:0:0:0:
320,192,124383,1,0,0:0:0:0:
192,192,124422,1,0,0:0:0:0:
448,192,124462,1,0,0:0:0:0:
64,192,124502,1,0,0:0:0:0:
448,192,124541,1,0,0:0:0:0:
192,192,124581,1,0,0:0:0:0:
320,192,124620,1,0,0:0:0:0:
64,192,124660,1,0,0:0:0:0:
448,192,124700,1,0,0:0:0:0:
192,192,124740,1,0,0:0:0:0:
64,192,124780,1,0,0:0:0:0:
320,192,124819,1,0,0:0:0:0:
448,192,124819,1,0,0:0:0:0:
192,192,124871,1,0,0:0:0:0:
64,192,124925,1,0,0:0:0:0:
320,192,124978,1,0,0:0:0:0:
192,192,125030,1,0,0:0:0:0:
448,192,125083,1,0,0:0:0:0:
64,192,125117,1,0,0:0:0:0:
192,192,125146,1,0,0:0:0:0:
320,192,125176,1,0,0:0:0:0:
448,192,125206,1,0,0:0:0:0:
64,192,125235,1,0,0:0:0:0:
448,192,125295,1,0,0:0:0:0:
320,192,125295,1,0,0:0:0:0:
192,192,125348,1,0,0:0:0:0:
320,192,125400,1,0,0:0:0:0:
192,192,125454,1,0,0:0:0:0:
64,192,125506,1,0,0:0:0:0:
448,192,125559,1,0,0:0:0:0:
64,192,125613,1,0,0:0:0:0:
320,192,125665,1,0,0:0:0:0:
448,192,125718,1,0,0:0:0:0:
64,192,125771,1,0,0:0:0:0:
192,192,125771,1,0,0:0:0:0:
192,192,125890,1,0,0:0:0:0:
320,192,126010,1,0,0:0:0:0:
64,192,126010,1,0,0:0:0:0:
192,192,126129,1,0,0:0:0:0:
320,192,126129,1,0,0:0:0:0:
192,192,126248,1,0,0:0:0:0:
448,192,126248,1,0,0:0:0:0:
192,192,127200,5,0,0:0:0:0:
320,192,127319,1,0,0:0:0:0:
192,192,127438,1,0,0:0:0:0:
448,192,127557,1,0,0:0:0:0:
64,192,127676,1,0,0:0:0:0:
64,192,127795,1,0,0:0:0:0:
448,192,128034,1,0,0:0:0:0:
320,192,128271,1,0,0:0:0:0:
192,192,128510,1,0,0:0:0:0:
64,192,128629,128,0,128748:0:0:0:0:
192,192,129105,1,0,0:0:0:0:
320,192,129224,1,0,0:0:0:0:
192,192,129343,1,0,0:0:0:0:
448,192,129462,1,0,0:0:0:0:
64,192,129581,1,0,0:0:0:0:
320,192,129640,128,0,129760:0:0:0:0:
448,192,129640,128,0,129760:0:0:0:0:
64,192,129700,1,0,0:0:0:0:
192,192,129879,1,0,0:0:0:0:
448,192,129938,128,0,130057:0:0:0:0:
64,192,129938,1,0,0:0:0:0:
320,192,130176,1,0,0:0:0:0:
192,192,130295,1,0,0:0:0:0:
320,192,130415,1,0,0:0:0:0:
64,192,130534,1,0,0:0:0:0:
192,192,130652,1,0,0:0:0:0:
320,192,130771,1,0,0:0:0:0:
64,192,130890,1,0,0:0:0:0:
192,192,131010,1,0,0:0:0:0:
320,192,131129,1,0,0:0:0:0:
192,192,131248,1,0,0:0:0:0:
448,192,131367,1,0,0:0:0:0:
64,192,131485,1,0,0:0:0:0:
64,192,131605,1,0,0:0:0:0:
448,192,131843,1,0,0:0:0:0:
320,192,132081,1,0,0:0:0:0:
192,192,132319,1,0,0:0:0:0:
64,192,132438,128,0,132557:0:0:0:0:
192,192,132915,1,0,0:0:0:0:
320,192,133034,1,0,0:0:0:0:
192,192,133152,1,0,0:0:0:0:
448,192,133271,1,0,0:0:0:0:
64,192,133390,1,0,0:0:0:0:
64,192,133510,1,0,0:0:0:0:
448,192,133748,128,0,133867:0:0:0:0:
64,192,133985,1,0,0:0:0:0:
192,192,134105,1,0,0:0:0:0:
320,192,134224,1,0,0:0:0:0:
192,192,134343,1,0,0:0:0:0:
448,192,134462,1,0,0:0:0:0:
320,192,134581,1,0,0:0:0:0:
64,192,134700,1,0,0:0:0:0:
448,192,134819,1,0,0:0:0:0:
