osu file format v14

[General]
AudioFilename: audio.ogg
AudioLeadIn: 0
PreviewTime: 40087
Countdown: 0
SampleSet: Soft
StackLeniency: 0.7
Mode: 0
LetterboxInBreaks: 0
WidescreenStoryboard: 1

[Editor]
DistanceSpacing: 1.6
BeatDivisor: 4
GridSize: 4
TimelineZoom: 1

[Metadata]
Title:Zen Garden
TitleUnicode:Zen Garden
Artist:Laura Shigihara
ArtistUnicode:Laura Shigihara
Creator:EnuHQ
Version:Hard
Source:Plants Vs. Zombies
Tags:OST VGM piano instrumental peaceful peace video game music pvz original sound track soundtrack PopCap Games
BeatmapID:4008320
BeatmapSetID:1938922

[Difficulty]
HPDrainRate:4
CircleSize:4
OverallDifficulty:5.6
ApproachRate:6.5
SliderMultiplier:1.52
SliderTickRate:1

[Events]
//Background and Video events
0,0,"TqpFjf.jpg",0,0
//Break Periods
//Storyboard Layer 0 (Background)
//Storyboard Layer 1 (Fail)
//Storyboard Layer 2 (Pass)
//Storyboard Layer 3 (Foreground)
//Storyboard Layer 4 (Overlay)
//Storyboard Sound Samples

[TimingPoints]
208,500,4,2,1,40,1,0
208,-106.382978723404,4,2,1,40,0,0
24208,-106.382978723404,4,2,1,55,0,0
26708,-106.382978723404,4,2,1,40,0,0
32208,-106.382978723404,4,2,1,55,0,0
34708,-106.382978723404,4,2,1,40,0,0

[Colours]
Combo1 : 240,187,77
Combo2 : 247,250,175
Combo3 : 179,199,177
Combo4 : 138,248,135

[HitObjects]
228,28,208,6,0,P|195:14|160:4,1,71.4400000000002,2|0,2:0|2:0,2:0:0:0:
87,73,708,2,0,P|65:47|61:10,1,71.4400000000002,2|0,2:0|2:0,2:0:0:0:
173,101,1208,2,0,P|146:169|126:236,1,142.88,2|2,2:0|2:0,2:0:0:0:
203,328,1958,1,2,2:0:0:0:
131,378,2208,6,0,B|88:354|88:354|46:383|-11:377,2,142.88,2|2|2,2:0|2:0|2:0,2:0:0:0:
271,261,4208,5,2,2:0:0:0:
271,261,4458,1,2,2:0:0:0:
335,323,4708,2,0,P|350:292|358:255,1,71.4400000000002,6|0,2:0|2:0,2:0:0:0:
429,202,5208,2,0,P|421:167|405:135,1,71.4400000000002,2|0,2:0|2:0,2:0:0:0:
462,63,5708,1,2,2:0:0:0:
380,12,5958,1,2,2:0:0:0:
326,90,6208,6,0,P|257:63|190:43,1,142.88,2|2,2:0|2:0,2:0:0:0:
107,22,6958,1,2,2:0:0:0:
107,22,7208,1,2,2:0:0:0:
0,289,8208,5,2,2:0:0:0:
60,224,8458,1,2,2:0:0:0:
2,158,8708,1,2,2:0:0:0:
98,30,9208,1,2,2:0:0:0:
191,159,9708,1,2,2:0:0:0:
191,159,10958,5,2,2:0:0:0:
191,159,11458,2,0,L|123:183,2,71.4400000000002,2|2|2,2:0|2:0|2:0,2:0:0:0:
254,108,12208,6,0,P|288:117|321:131,1,71.4400000000002,2|0,2:0|2:0,2:0:0:0:
386,205,12708,2,0,B|421:125|421:125|393:76,2,142.88,6|2|2,2:0|2:0|2:0,2:0:0:0:
242,14,14958,5,2,2:0:0:0:
112,53,15458,1,2,2:0:0:0:
112,53,15708,2,0,P|79:66|44:76,1,71.4400000000002,2|0,2:0|2:0,2:0:0:0:
3,151,16208,6,0,P|16:183|26:218,1,71.4400000000002,2|0,2:0|2:0,2:0:0:0:
62,287,16708,1,2,2:0:0:0:
158,159,17208,1,2,2:0:0:0:
251,288,17708,1,2,2:0:0:0:
489,211,18958,5,2,2:0:0:0:
489,211,19458,2,0,L|513:279,2,71.4400000000002,2|2|2,2:0|2:0|2:0,2:0:0:0:
455,138,20208,1,2,2:0:0:0:
455,138,20458,1,2,2:0:0:0:
410,57,20708,6,0,P|375:66|342:80,1,71.4400000000002,6|0,2:0|2:0,2:0:0:0:
280,148,21208,2,0,P|257:120|253:85,1,71.4400000000002,2|0,2:0|2:0,2:0:0:0:
359,180,21708,2,0,P|345:212|316:232,1,71.4400000000002,2|0,2:0|2:0,2:0:0:0:
115,67,22958,5,2,2:0:0:0:
115,67,23458,2,0,L|139:-1,2,71.4400000000002,2|2|2,2:0|2:0|2:0,2:0:0:0:
83,153,24208,5,2,2:0:0:0:
52,235,24458,1,2,2:0:0:0:
23,317,24708,2,0,P|55:330|90:339,1,71.4400000000002,2|0,2:0|2:0,2:0:0:0:
167,384,25208,2,0,P|199:370|234:361,1,71.4400000000002,2|0,2:0|2:0,2:0:0:0:
281,267,25708,6,0,P|332:313|339:383,1,142.88,2|0,2:0|2:0,2:0:0:0:
489,136,26708,2,0,P|475:103|466:68,1,71.4400000000002,2|0,2:0|2:0,2:0:0:0:
393,161,27208,2,0,P|406:193|415:228,1,71.4400000000002,2|0,2:0|2:0,2:0:0:0:
492,285,27708,1,2,2:0:0:0:
432,354,27958,1,2,2:0:0:0:
359,297,28208,2,0,P|324:305|291:319,1,71.4400000000002,2|0,2:0|2:0,2:0:0:0:
191,384,28708,6,0,P|203:353|191:312,1,71.4400000000002,6|0,2:0|2:0,2:0:0:0:
99,343,29208,2,0,P|87:312|98:271,1,71.4400000000002,2|0,2:0|2:0,2:0:0:0:
2,221,29708,6,0,P|70:194|137:174,1,142.88,2|2,2:0|2:0,2:0:0:0:
348,20,30958,1,2,2:0:0:0:
348,20,31458,2,0,L|416:44,2,71.4400000000002,2|2|2,2:0|2:0|2:0,2:0:0:0:
258,1,32208,5,2,2:0:0:0:
288,87,32458,1,2,2:0:0:0:
234,165,32708,2,0,P|202:152|167:143,1,71.4400000000002,2|0,2:0|2:0,2:0:0:0:
225,262,33208,2,0,P|259:253|292:239,1,71.4400000000002,2|0,2:0|2:0,2:0:0:0:
365,174,33708,6,0,B|398:212|398:212|400:262|356:322,1,142.88,2|0,2:0|2:0,2:0:0:0:
174,316,34708,2,0,P|188:349|197:384,1,71.4400000000002,2|0,2:0|2:0,2:0:0:0:
270,291,35208,2,0,P|257:259|248:224,1,71.4400000000002,2|0,2:0|2:0,2:0:0:0:
305,144,35708,1,2,2:0:0:0:
226,87,35958,1,2,2:0:0:0:
170,166,36208,6,0,P|137:152|102:144,1,71.4400000000002,2|0,2:0|2:0,2:0:0:0:
19,76,36708,2,0,P|-11:162|18:224,2,142.88,6|2|2,2:0|2:0|2:0,2:0:0:0:
92,326,38958,5,2,2:0:0:0:
92,326,39458,2,0,L|24:350,2,71.4400000000002,2|2|2,2:0|2:0|2:0,2:0:0:0:
151,267,40208,5,2,2:0:0:0:
151,267,40458,1,2,2:0:0:0:
218,334,40708,1,2,2:0:0:0:
279,250,40958,2,0,P|307:315|325:384,1,142.88,2|2,2:0|2:0,2:0:0:0:
476,161,42208,5,2,2:0:0:0:
476,161,42458,1,2,2:0:0:0:
409,228,42708,1,2,2:0:0:0:
348,144,42958,2,0,P|319:209|301:278,1,142.88,2|2,2:0|2:0,2:0:0:0:
148,41,44208,5,2,2:0:0:0:
148,41,44458,1,2,2:0:0:0:
215,108,44708,1,2,2:0:0:0:
276,24,44958,2,0,P|304:89|322:158,1,142.88,2|2,2:0|2:0,2:0:0:0:
445,241,45958,6,0,P|484:223|525:212,2,71.4400000000002,2|2|2,2:0|2:0|2:0,2:0:0:0:
376,285,46708,1,2,2:0:0:0:
255,0,48208,6,0,P|240:34|232:67,1,71.4400000000002,2|0,2:0|2:0,2:0:0:0:
219,143,48708,1,2,2:0:0:0:
137,52,48958,2,0,P|102:60|69:74,1,71.4400000000002,2|0,2:0|2:0,2:0:0:0:
0,109,49458,1,2,2:0:0:0:
113,233,50208,5,2,2:0:0:0:
113,233,50458,1,2,2:0:0:0:
51,298,50708,1,2,2:0:0:0:
113,361,50958,2,0,P|172:334|247:313,1,142.88,2|2,2:0|2:0,2:0:0:0:
512,345,52208,6,0,P|479:359|444:369,1,71.4400000000002,2|0,2:0|2:0,2:0:0:0:
371,300,52708,2,0,P|349:326|345:363,1,71.4400000000002,2|0,2:0|2:0,2:0:0:0:
457,272,53208,2,0,P|430:204|410:137,1,142.88,2|0,2:0|2:0,2:0:0:0:
385,59,53958,1,2,2:0:0:0:
299,139,54208,6,0,P|207:81|198:30,2,142.88,2|2|2,2:0|2:0|2:0,2:0:0:0:
512,384,56208,5,2,2:0:0:0:
512,384,56458,1,2,2:0:0:0:
468,309,56708,2,0,P|437:294|400:286,1,71.4400000000002,6|0,2:0|2:0,2:0:0:0:
338,227,57208,2,0,P|303:235|271:251,1,71.4400000000002,2|0,2:0|2:0,2:0:0:0:
226,332,57708,1,2,2:0:0:0:
154,277,57958,1,2,2:0:0:0:
200,188,58208,6,0,P|173:119|153:52,1,142.88,2|2,2:0|2:0,2:0:0:0:
260,95,58958,1,2,2:0:0:0:
318,2,59208,2,0,P|344:68|364:136,1,142.88,2|0,2:0|2:0,2:0:0:0:
