osu file format v14

[General]
AudioFilename: audio.ogg
AudioLeadIn: 0
PreviewTime: 40087
Countdown: 0
SampleSet: Soft
StackLeniency: 0.7
Mode: 0
LetterboxInBreaks: 0
WidescreenStoryboard: 0

[Editor]
DistanceSpacing: 0.9
BeatDivisor: 4
GridSize: 4
TimelineZoom: 1.6

[Metadata]
Title:Zen Garden
TitleUnicode:Zen Garden
Artist:Laura Shigihara
ArtistUnicode:Laura Shigihara
Creator:EnuHQ
Version:Garden of Peace
Source:Plants Vs. Zombies
Tags:OST VGM piano instrumental peaceful peace video game music pvz original sound track soundtrack PopCap Games
BeatmapID:4008301
BeatmapSetID:1938922

[Difficulty]
HPDrainRate:4.4
CircleSize:4.4
OverallDifficulty:7.4
ApproachRate:7.8
SliderMultiplier:1.64
SliderTickRate:1

[Events]
//Background and Video events
0,0,"TqpFjf.jpg",0,0
//Break Periods
//Storyboard Layer 0 (Background)
//Storyboard Layer 1 (Fail)
//Storyboard Layer 2 (Pass)
//Storyboard Layer 3 (Foreground)
//Storyboard Layer 4 (Overlay)
//Storyboard Sound Samples

[TimingPoints]
208,500,4,2,0,40,1,0
208,-103.092783505155,4,2,1,40,0,0
2208,-103.092783505155,4,2,1,40,0,0
4708,-78.7401574803149,4,2,1,40,0,0
6208,-103.092783505155,4,2,1,40,0,0
8708,-129.87012987013,4,2,1,40,0,0
10958,-114.942528735632,4,2,1,40,0,0
12708,-78.7401574803149,4,2,1,40,0,0
14958,-114.942528735632,4,2,1,40,0,0
16208,-103.092783505155,4,2,1,40,0,0
16708,-85.4700854700855,4,2,1,40,0,0
17208,-114.942528735632,4,2,1,40,0,0
20208,-103.092783505155,4,2,1,40,0,0
20708,-78.7401574803149,4,2,1,40,0,0
21708,-129.87012987013,4,2,1,40,0,0
24208,-212.765957446809,4,2,1,55,0,0
26708,-149.253731343284,4,2,1,40,0,0
27208,-114.942528735632,4,2,1,40,0,0
27708,-93.4579439252337,4,2,1,40,0,0
28708,-78.7401574803149,4,2,1,40,0,0
32208,-212.765957446809,4,2,1,55,0,0
34708,-129.87012987013,4,2,1,40,0,0
35208,-103.092783505155,4,2,1,40,0,0
35708,-78.7401574803149,4,2,1,40,0,0
40208,-85.4700854700855,4,2,1,40,0,0
40958,-175.438596491228,4,2,1,40,0,0
42208,-85.4700854700855,4,2,1,40,0,0
42958,-175.438596491228,4,2,1,40,0,0
45458,-114.942528735632,4,2,1,40,0,0
50208,-85.4700854700855,4,2,1,40,0,0
51458,-114.942528735632,4,2,1,40,0,0
52208,-103.092783505155,4,2,1,40,0,0
56708,-78.7401574803149,4,2,1,40,0,0

[Colours]
Combo1 : 240,187,77
Combo2 : 247,250,175
Combo3 : 179,199,177
Combo4 : 138,248,135

[HitObjects]
142,219,208,6,0,P|176:240|186:277,1,79.5400018812104,2|0,2:0|2:0,0:0:0:0:
97,378,708,1,2,2:0:0:0:
97,378,958,1,2,2:0:0:0:
17,271,1208,2,0,P|55:280|92:294,1,79.5400018812104,2|0,2:0|2:0,0:0:0:0:
175,327,1708,5,2,2:0:0:0:
270,366,1958,5,2,2:0:0:0:
478,248,2208,6,0,B|524:289|524:347|524:347|497:383,1,159.080003762421,2|2,2:0|2:0,0:0:0:0:
342,308,2958,1,2,2:0:0:0:
401,384,3208,1,2,2:0:0:0:
3,18,4208,6,0,P|40:27|64:58,1,79.5400018812104,2|2,2:0|2:0,0:0:0:0:
179,0,4708,2,0,B|157:53|157:53|174:96,1,104.139999205475,6|0,2:0|2:0,0:0:0:0:
34,240,5208,5,2,2:0:0:0:
94,141,5458,1,2,2:0:0:0:
188,191,5708,1,2,2:0:0:0:
128,290,5958,1,2,2:0:0:0:
331,216,6208,6,0,P|365:237|375:274,1,79.5400018812104,2|2,2:0|2:0,0:0:0:0:
256,377,6708,1,2,2:0:0:0:
256,377,6958,1,2,2:0:0:0:
293,293,7208,1,2,2:0:0:0:
512,0,8208,6,0,P|474:9|437:26,1,79.5400018812104,2|0,2:0|2:0,0:0:0:0:
340,151,8708,6,0,P|360:174|368:207,1,63.1399987475281,2|0,2:0|0:0,0:0:0:0:
454,169,9208,2,0,P|433:145|425:114,1,63.1399987475281,2|0,2:0|0:0,0:0:0:0:
437,251,9708,5,2,2:0:0:0:
140,384,10958,6,0,P|149:349|163:316,1,71.3400005987091,2|0,2:0|0:0,0:0:0:0:
194,247,11458,2,0,P|207:214|217:179,1,71.3400005987091,2|0,2:0|2:0,0:0:0:0:
175,113,11958,1,2,2:0:0:0:
240,68,12208,1,2,2:0:0:0:
282,135,12458,1,2,2:0:0:0:
391,19,12708,6,0,B|428:34|428:34|439:57|439:57|478:75,1,104.139999205475,6|0,2:0|0:0,0:0:0:0:
311,144,13208,6,0,B|273:159|273:159|262:182|262:182|223:200,1,104.139999205475,2|0,2:0|0:0,0:0:0:0:
429,212,13708,6,0,B|466:227|466:227|477:250|477:250|516:268,1,104.139999205475,2|0,2:0|0:0,0:0:0:0:
325,32,14958,6,0,B|245:57|271:82|205:109,1,142.680001197418,2|2,2:0|2:0,0:0:0:0:
148,153,15708,1,2,2:0:0:0:
85,196,15958,1,2,2:0:0:0:
135,67,16208,6,0,P|94:9|64:11,1,79.5400018812104,2|0,2:0|0:0,0:0:0:0:
22,42,16708,2,0,P|51:105|82:111,1,95.9400003659821,2|0,2:0|0:0,0:0:0:0:
202,0,17208,6,0,P|269:18|336:46,1,142.680001197418,2|2,2:0|2:0,0:0:0:0:
1,251,18958,5,2,2:0:0:0:
1,251,19458,5,2,2:0:0:0:
72,275,19708,1,2,2:0:0:0:
3,221,19958,1,2,2:0:0:0:
89,384,20208,6,0,P|55:365|-5:350,1,79.5400018812104,2|0,2:0|2:0,0:0:0:0:
149,229,20708,2,0,P|171:274|152:321,1,104.139999205475,6|0,2:0|0:0,0:0:0:0:
33,179,21208,2,0,P|57:224|71:274,1,104.139999205475,2|0,2:0|0:0,0:0:0:0:
120,146,21708,5,2,2:0:0:0:
414,374,22958,5,2,2:0:0:0:
465,317,23458,5,2,2:0:0:0:
512,257,23708,1,2,2:0:0:0:
414,374,23958,1,2,2:0:0:0:
256,183,24208,6,0,B|143:148|88:312|-13:332,1,308.31999529541,2|0,2:0|2:0,0:0:0:0:
111,65,26708,6,0,P|137:71|158:88,1,54.9399974012147,2|0,2:0|2:0,0:0:0:0:
299,1,27208,6,0,P|271:23|237:31,1,71.3400005987091,2|0,2:0|2:0,0:0:0:0:
283,198,27708,6,0,P|271:155|243:122,1,87.7399973223878,2|0,2:0|2:0,0:0:0:0:
383,73,28208,5,2,2:0:0:0:
463,190,28458,1,2,2:0:0:0:
512,0,28708,2,0,P|491:47|478:98,1,104.139999205475,6|0,2:0|0:0,0:0:0:0:
308,0,29208,2,0,P|287:47|274:98,1,104.139999205475,2|0,2:0|0:0,0:0:0:0:
113,0,29708,2,0,P|92:47|79:98,1,104.139999205475,2|0,2:0|0:0,0:0:0:0:
69,176,30208,5,2,2:0:0:0:
13,131,30458,1,0,2:0:0:0:
13,131,30708,1,0,2:0:0:0:
69,176,30958,1,2,2:0:0:0:
243,233,31458,5,2,2:0:0:0:
208,213,31708,1,2,2:0:0:0:
208,254,31958,1,2,2:0:0:0:
266,49,32208,6,0,B|301:162|137:217|117:318,1,308.31999529541,2|0,2:0|2:0,0:0:0:0:
135,29,34708,6,0,P|152:55|160:85,1,63.1399987475281,2|0,2:0|2:0,0:0:0:0:
372,22,35208,6,0,P|350:55|320:80,1,79.5400018812104,2|0,2:0|2:0,0:0:0:0:
419,329,35708,6,0,P|380:323|326:285,1,104.139999205475,2|0,2:0|2:0,0:0:0:0:
264,230,36208,5,2,2:0:0:0:
56,382,36458,1,2,2:0:0:0:
89,311,36708,2,0,P|110:264|123:213,1,104.139999205475,6|0,2:0|2:0,0:0:0:0:
293,203,37208,2,0,P|314:156|327:105,1,104.139999205475,2|0,2:0|2:0,0:0:0:0:
475,97,37708,2,0,P|496:50|509:-1,1,104.139999205475,2|0,2:0|2:0,0:0:0:0:
491,231,38208,5,2,2:0:0:0:
435,186,38458,1,2,2:0:0:0:
435,186,38708,1,2,2:0:0:0:
491,231,38958,1,2,2:0:0:0:
262,107,39458,5,2,2:0:0:0:
285,35,39708,1,2,2:0:0:0:
339,89,39958,1,2,2:0:0:0:
512,0,40208,6,0,P|492:43|481:90,1,95.9400003659821,2|0,2:0|2:0,0:0:0:0:
466,172,40708,1,2,2:0:0:0:
298,76,40958,2,0,P|251:87|209:105,1,93.4799988588867,2|2,2:0|2:0,0:0:0:0:
31,291,42208,6,0,P|50:247|61:200,1,95.9400003659821,2|0,2:0|2:0,0:0:0:0:
77,119,42708,1,2,2:0:0:0:
306,272,42958,1,2,2:0:0:0:
231,211,43208,2,0,P|277:199|320:182,1,93.4799988588867,2|0,2:0|2:0,0:0:0:0:
481,231,44208,5,2,2:0:0:0:
363,382,44458,1,0,2:0:0:0:
495,324,44708,1,2,2:0:0:0:
344,206,44958,1,2,2:0:0:0:
344,206,45458,6,0,P|357:239|367:273,1,71.3400005987091,2|0,2:0|2:0,0:0:0:0:
450,178,45958,1,2,2:0:0:0:
450,178,46208,1,2,2:0:0:0:
359,88,46458,1,2,2:0:0:0:
512,0,46708,2,0,B|436:23|462:48|393:78,2,142.680001197418,2|2|2,2:0|2:0|2:0,0:0:0:0:
172,121,48208,5,2,2:0:0:0:
228,28,48458,1,2,2:0:0:0:
315,75,48708,1,2,2:0:0:0:
259,167,48958,1,2,2:0:0:0:
228,28,49458,1,2,2:0:0:0:
417,318,50208,6,0,P|373:299|326:288,1,95.9400003659821,2|0,2:0|2:0,0:0:0:0:
419,159,50708,1,2,2:0:0:0:
489,246,50958,1,2,2:0:0:0:
489,246,51208,1,0,2:0:0:0:
293,193,51458,2,0,P|321:258|342:326,1,142.680001197418,2|0,2:0|2:0,0:0:0:0:
387,0,52208,6,0,P|353:21|343:58,1,79.5400018812104,2|0,2:0|2:0,0:0:0:0:
432,159,52708,1,2,2:0:0:0:
432,159,52958,1,2,2:0:0:0:
512,52,53208,2,0,P|474:61|437:75,1,79.5400018812104,2|0,2:0|2:0,0:0:0:0:
297,125,53708,2,0,P|259:139|221:148,1,79.5400018812104,2|0,2:0|2:0,0:0:0:0:
400,300,54208,6,0,B|446:259|446:201|446:201|419:165,1,159.080003762421,2|2,2:0|2:0,0:0:0:0:
368,104,54958,5,2,2:0:0:0:
459,262,55208,1,2,2:0:0:0:
238,384,56208,6,0,P|206:360|192:323,1,79.5400018812104,2|0,2:0|2:0,0:0:0:0:
21,227,56708,2,0,B|43:280|43:280|26:323,1,104.139999205475,6|0,2:0|2:0,0:0:0:0:
147,219,57208,5,2,2:0:0:0:
253,108,57458,1,2,2:0:0:0:
160,202,57708,1,2,2:0:0:0:
54,92,57958,1,2,2:0:0:0:
186,0,58208,2,0,P|168:48|156:99,1,104.139999205475,2|0,2:0|2:0,0:0:0:0:
142,175,58708,5,2,2:0:0:0:
142,175,58958,1,2,2:0:0:0:
312,38,59208,2,0,P|373:118|512:168,1,208.27999841095,2|0,2:0|0:0,0:0:0:0:
