osu file format v14

[General]
AudioFilename: audio.mp3
AudioLeadIn: 0
PreviewTime: 15
Countdown: 1
SampleSet: Soft
StackLeniency: 0.7
Mode: 0
LetterboxInBreaks: 0
WidescreenStoryboard: 1

[Editor]
Bookmarks: 1264,13250,25240,37240,49255,61254,67258,70258,76245,82257,94245,106257
DistanceSpacing: 1.3
BeatDivisor: 4
GridSize: 8
TimelineZoom: 2.400001

[Metadata]
Title:Loonboon
TitleUnicode:Loonboon
Artist:Laura Shigihara
ArtistUnicode:Laura Shigihara
Creator:itzKira811
Version:procq's Insane
Source:Plants Vs. Zombies
Tags:pvz soundtrack instrumental video game electronic piano procq popcap ea arts tower defense
BeatmapID:3977444
BeatmapSetID:1370640

[Difficulty]
HPDrainRate:5.3
CircleSize:3.9
OverallDifficulty:9
ApproachRate:9
SliderMultiplier:1.7
SliderTickRate:1

[Events]
//Background and Video events
0,0,"bg.jpg",0,0
//Break Periods
//Storyboard Layer 0 (Background)
//Storyboard Layer 1 (Fail)
//Storyboard Layer 2 (Pass)
//Storyboard Layer 3 (Foreground)
//Storyboard Layer 4 (Overlay)
//Storyboard Sound Samples

[TimingPoints]
-4704,375,4,2,1,60,1,0
66,-166.666666666667,4,2,1,60,0,0
440,-111.111111111111,4,2,1,60,0,0
815,-83.3333333333333,4,2,1,60,0,0
1283,-66.6666666666667,4,2,1,60,0,0
13283,-90.9090909090909,4,2,1,60,0,0
19283,-125,4,2,1,60,0,0
25283,-66.6666666666667,4,2,1,60,0,0
37283,-90.9090909090909,4,2,1,60,0,0
43283,-125,4,2,1,60,0,0
62408,-100,4,2,1,60,0,0
71783,-71.4285714285714,4,2,1,60,0,0
72533,-62.5,4,2,1,60,0,0
73283,-100,4,2,1,60,0,0
74783,-71.4285714285714,4,2,1,60,0,0
75533,-62.5,4,2,1,60,0,0
76296,375,4,2,1,60,1,0
82283,-125,4,2,1,60,0,0
94283,-111.111111111111,4,2,1,60,0,0

[Colours]
Combo1 : 0,234,0
Combo2 : 0,128,0
Combo3 : 215,45,49
Combo4 : 211,81,84
Combo5 : 178,154,191
Combo6 : 211,205,215

[HitObjects]
225,356,77,70,0,L|259:351,1,25.5,2|2,2:0|2:0,2:0:0:0:
344,270,452,70,0,L|299:264,1,38.25,2|2,2:0|2:0,2:0:0:0:
180,184,827,6,0,L|248:175,1,51,2|2,2:0|2:0,2:0:0:0:
359,119,1202,5,2,2:0:0:0:
361,122,1296,2,0,B|327:123|303:100|303:100|280:76|246:78,1,127.5,2|0,2:0|2:0,2:0:0:0:
369,26,1577,1,0,2:0:0:0:
373,30,1671,2,0,L|499:14,1,127.5,8|0,2:0|2:0,2:0:0:0:
465,119,1952,5,0,2:0:0:0:
461,123,2046,2,0,P|450:173|445:250,1,127.5,0|0,2:0|2:0,2:0:0:0:
311,273,2421,1,8,2:0:0:0:
472,357,2608,1,0,2:0:0:0:
379,318,2796,2,0,P|295:316|223:337,1,127.5,2|0,2:0|2:0,2:0:0:0:
216,241,3077,69,2,2:0:0:0:
209,239,3171,2,0,P|143:259|112:337,1,127.5,10|0,2:0|2:0,2:0:0:0:
55,373,3452,5,2,2:0:0:0:
58,368,3546,2,0,P|73:301|20:235,1,127.5,2|0,2:0|2:0,2:0:0:0:
18,169,3827,69,2,2:0:0:0:
20,173,3921,2,0,P|70:220|153:207,1,127.5,10|0,2:0|2:0,2:0:0:0:
216,241,4202,5,2,2:0:0:0:
209,239,4296,1,2,2:0:0:0:
360,33,4483,69,0,2:0:0:0:
273,120,4671,1,10,2:0:0:0:
398,165,4858,1,0,2:0:0:0:
331,227,5046,1,0,2:0:0:0:
386,295,5233,1,0,2:0:0:0:
474,288,5421,1,10,2:0:0:0:
390,299,5608,1,0,2:0:0:0:
350,378,5796,1,0,2:0:0:0:
155,380,6077,5,2,2:0:0:0:
150,384,6171,2,0,P|152:322|134:253,1,127.5,10|0,2:0|2:0,2:0:0:0:
48,272,6452,69,2,2:0:0:0:
44,276,6546,2,0,P|45:213|63:152,1,127.5,2|0,2:0|2:0,2:0:0:0:
114,80,6827,5,2,2:0:0:0:
118,86,6921,1,10,2:0:0:0:
152,61,7014,69,8,2:0:0:0:
179,63,7108,1,8,2:0:0:0:
201,77,7202,1,10,2:0:0:0:
217,97,7296,2,0,B|181:96|157:73|157:73|135:49|100:52,1,127.5,2|2,2:0|2:0,2:0:0:0:
225,2,7671,6,0,B|277:-3|317:25|317:25|354:57|405:46,1,191.25,10|0,2:0|2:0,2:0:0:0:
491,34,8046,2,0,P|438:69|431:133,1,127.5,2|0,2:0|2:0,2:0:0:0:
491,219,8421,70,0,B|440:208|403:239|403:239|362:269|310:263,1,191.25,10|0,2:0|2:0,2:0:0:0:
322,134,8796,6,0,P|357:191|324:246,1,127.5,2|0,2:0|2:0,2:0:0:0:
223,322,9077,69,2,2:0:0:0:
219,326,9171,2,0,L|236:190,1,127.5,10|0,2:0|2:0,2:0:0:0:
128,94,9452,5,2,2:0:0:0:
124,90,9546,2,0,L|141:225,1,127.5,2|0,2:0|2:0,2:0:0:0:
56,242,9827,69,2,2:0:0:0:
52,246,9921,2,0,P|72:277|113:294,1,63.75,10|0,2:0|2:0,2:0:0:0:
142,361,10108,5,0,2:0:0:0:
146,365,10202,1,2,2:0:0:0:
150,369,10296,2,0,P|211:362|276:372,1,127.5,2|0,2:0|2:0,2:0:0:0:
376,380,10577,1,0,2:0:0:0:
380,383,10671,2,0,P|355:282|440:269,1,191.25,8|0,2:0|2:0,2:0:0:0:
447,279,11046,69,0,2:0:0:0:
423,126,11233,1,0,2:0:0:0:
510,190,11421,1,8,2:0:0:0:
355,182,11608,1,0,2:0:0:0:
468,57,11796,2,0,P|410:89|344:87,1,127.5,2|0,2:0|2:0,2:0:0:0:
249,75,12077,5,0,2:0:0:0:
245,79,12171,2,0,L|113:62,1,127.5,10|0,2:0|2:0,2:0:0:0:
24,55,12452,69,2,2:0:0:0:
20,59,12546,2,0,L|36:190,1,127.5,2|0,2:0|2:0,2:0:0:0:
132,248,12827,5,2,2:0:0:0:
136,252,12921,1,10,2:0:0:0:
169,259,13014,53,8,2:0:0:0:
193,272,13108,1,8,2:0:0:0:
211,291,13202,1,10,2:0:0:0:
221,309,13296,2,0,B|170:315|130:286|130:286|93:256|43:266,1,187,2|2,2:0|2:0,2:0:0:0:
69,356,13858,69,0,2:0:0:0:
276,239,14046,2,0,P|303:261|313:323,1,93.5,10|0,2:0|2:0,2:0:0:0:
290,384,14327,2,0,P|304:356|343:352,1,46.75,2|0,2:0|2:0,2:0:0:0:
199,262,14702,5,2,2:0:0:0:
203,266,14796,2,0,P|249:185|279:95,1,187,2|0,2:0|2:0,2:0:0:0:
123,199,15358,1,0,2:0:0:0:
127,203,15546,70,0,P|156:115|163:22,1,187,10|0,2:0|2:0,2:0:0:0:
69,89,16108,1,0,2:0:0:0:
1,11,16296,6,0,P|20:45|35:221,1,187,2|2,2:0|2:0,2:0:0:0:
4,274,16858,1,0,2:0:0:0:
184,326,17046,2,0,P|119:345|74:381,1,93.5,10|0,2:0|2:0,2:0:0:0:
23,360,17327,2,0,P|51:366|72:397,1,46.75,2|0,2:0|2:0,2:0:0:0:
271,380,17702,69,2,2:0:0:0:
267,384,17796,2,0,L|293:176,1,187,2|0,2:0|2:0,2:0:0:0:
384,16,18358,1,0,2:0:0:0:
431,110,18546,2,0,B|382:128|337:109|337:109|293:89|247:111,1,187,8|0,2:0|2:0,2:0:0:0:
6,49,19296,6,0,L|18:150,1,102,2|0,2:0|2:0,2:0:0:0:
32,268,19671,2,0,L|19:166,1,102,2|0,2:0|2:0,2:0:0:0:
89,15,20046,70,0,L|101:116,1,102,10|0,2:0|2:0,2:0:0:0:
115,235,20421,2,0,L|102:133,1,102,2|0,2:0|2:0,2:0:0:0:
178,30,20796,6,0,L|190:131,1,102,2|0,2:0|2:0,2:0:0:0:
205,250,21171,2,0,L|192:148,1,102,0|0,2:0|2:0,2:0:0:0:
178,30,21546,1,10,2:0:0:0:
272,145,21733,1,0,2:0:0:0:
276,149,21827,2,0,L|281:183,1,34,2|0,2:0|2:0,2:0:0:0:
319,50,22202,1,2,2:0:0:0:
323,54,22296,2,0,P|370:49|427:75,1,102,2|0,2:0|2:0,2:0:0:0:
441,90,22671,69,2,2:0:0:0:
358,149,22858,1,2,2:0:0:0:
203,130,23046,2,0,L|77:115,1,102,10|0,2:0|2:0,2:0:0:0:
129,44,23421,2,0,L|254:58,1,102,2|0,2:0|2:0,2:0:0:0:
305,25,23796,5,2,2:0:0:0:
489,89,24077,69,2,2:0:0:0:
418,106,24171,1,2,2:0:0:0:
287,193,24452,5,2,2:0:0:0:
341,205,24546,1,2,2:0:0:0:
465,281,24827,69,2,2:0:0:0:
431,287,24921,1,2,2:0:0:0:
346,355,25202,21,0,2:0:0:0:
368,359,25296,2,0,L|240:374,1,127.5,2|0,2:0|2:0,2:0:0:0:
179,329,25577,1,0,2:0:0:0:
175,333,25671,2,0,P|126:307|48:326,1,127.5,8|0,2:0|2:0,2:0:0:0:
0,375,25952,5,0,2:0:0:0:
4,379,26046,2,0,L|21:224,1,127.5,0|0,2:0|2:0,2:0:0:0:
0,23,26421,2,0,P|25:95|25:162,1,127.5,8|0,2:0|2:0,2:0:0:0:
238,172,26796,2,0,P|180:175|95:208,1,127.5,2|0,2:0|2:0,2:0:0:0:
298,115,27077,69,2,2:0:0:0:
301,111,27171,2,0,P|362:97|419:121,1,127.5,10|0,2:0|2:0,2:0:0:0:
494,139,27452,5,2,2:0:0:0:
498,143,27546,2,0,P|479:202|428:240,1,127.5,2|0,2:0|2:0,2:0:0:0:
375,293,27827,69,2,2:0:0:0:
371,297,27921,2,0,P|328:250|321:188,1,127.5,10|0,2:0|2:0,2:0:0:0:
297,115,28202,5,2,2:0:0:0:
301,111,28296,1,2,2:0:0:0:
25,70,28483,69,0,2:0:0:0:
215,47,28671,1,10,2:0:0:0:
137,222,28858,1,0,2:0:0:0:
117,24,29046,1,2,2:0:0:0:
130,110,29233,1,2,2:0:0:0:
210,148,29421,1,10,2:0:0:0:
132,115,29608,1,2,2:0:0:0:
57,164,29796,1,2,2:0:0:0:
0,337,30077,5,2,2:0:0:0:
3,333,30171,2,0,P|65:321|123:345,1,127.5,10|0,2:0|2:0,2:0:0:0:
179,289,30452,69,2,2:0:0:0:
183,285,30546,2,0,P|243:295|296:352,1,127.5,2|0,2:0|2:0,2:0:0:0:
362,379,30827,5,2,2:0:0:0:
366,376,30921,1,10,2:0:0:0:
373,340,31014,69,8,2:0:0:0:
369,314,31108,1,8,2:0:0:0:
356,292,31202,1,10,2:0:0:0:
336,276,31296,2,0,P|388:306|417:379,1,127.5,2|2,2:0|2:0,2:0:0:0:
508,351,31577,5,0,2:0:0:0:
512,347,31671,2,0,L|488:157,1,191.25,10|0,2:0|2:0,2:0:0:0:
474,72,32046,2,0,P|455:130|399:162,1,127.5,2|0,2:0|2:0,2:0:0:0:
226,0,32421,70,0,L|202:189,1,191.25,10|0,2:0|2:0,2:0:0:0:
309,145,32796,2,0,P|246:146|202:189,1,127.5,2|0,2:0|2:0,2:0:0:0:
259,241,33077,5,2,2:0:0:0:
263,245,33171,2,0,P|200:231|137:228,1,127.5,10|0,2:0|2:0,2:0:0:0:
31,234,33452,69,2,2:0:0:0:
27,230,33546,2,0,P|39:289|37:355,1,127.5,2|0,2:0|2:0,2:0:0:0:
130,318,33827,5,2,2:0:0:0:
131,312,33921,2,0,P|147:284|147:253,1,63.75,10|0,2:0|2:0,2:0:0:0:
84,157,34108,69,0,2:0:0:0:
80,153,34202,1,2,2:0:0:0:
76,149,34296,2,0,P|52:95|139:15,1,191.25,2|0,2:0|2:0,2:0:0:0:
171,17,34671,1,8,2:0:0:0:
323,89,34858,5,0,2:0:0:0:
327,93,34952,1,0,2:0:0:0:
331,97,35046,1,0,2:0:0:0:
440,9,35233,1,0,2:0:0:0:
448,176,35421,1,8,2:0:0:0:
306,223,35608,1,0,2:0:0:0:
506,121,35796,2,0,P|491:183|488:246,1,127.5,2|0,2:0|2:0,2:0:0:0:
502,334,36077,69,0,2:0:0:0:
498,338,36171,2,0,P|442:336|354:382,1,127.5,10|0,2:0|2:0,2:0:0:0:
291,381,36452,5,2,2:0:0:0:
287,377,36546,2,0,P|231:379|143:333,1,127.5,2|0,2:0|2:0,2:0:0:0:
56,292,36827,69,2,2:0:0:0:
52,288,36921,1,10,2:0:0:0:
67,257,37014,69,8,2:0:0:0:
89,243,37108,1,8,2:0:0:0:
114,247,37202,1,10,2:0:0:0:
128,260,37296,2,0,B|146:211|127:166|127:166|107:122|129:76,1,187,2|2,2:0|2:0,2:0:0:0:
22,213,37858,69,0,2:0:0:0:
257,42,38046,2,0,P|249:87|215:118,1,93.5,10|0,2:0|2:0,2:0:0:0:
210,122,38327,2,0,P|236:126|249:149,1,46.75,2|0,2:0|2:0,2:0:0:0:
336,306,38702,5,2,2:0:0:0:
332,311,38796,2,0,P|341:226|378:128,1,187,2|0,2:0|2:0,2:0:0:0:
313,17,39358,1,0,2:0:0:0:
411,26,39546,2,0,P|326:62|233:75,1,187,10|0,2:0|2:0,2:0:0:0:
169,186,40108,69,0,2:0:0:0:
126,100,40296,2,0,P|200:155|258:228,1,187,2|2,2:0|2:0,2:0:0:0:
300,140,40858,1,0,2:0:0:0:
508,194,41046,2,0,P|439:200|406:238,1,93.5,10|0,2:0|2:0,2:0:0:0:
347,218,41327,2,0,P|370:219|390:233,1,46.75,2|0,2:0|2:0,2:0:0:0:
239,373,41702,5,2,2:0:0:0:
243,377,41796,2,0,P|267:305|169:274,1,187,2|0,2:0|2:0,2:0:0:0:
45,364,42358,1,0,2:0:0:0:
0,267,42546,2,0,B|49:249|94:268|94:268|138:288|184:266,1,187,8|0,2:0|2:0,2:0:0:0:
77,23,43296,70,0,P|92:71|90:121,1,102,2|0,2:0|2:0,2:0:0:0:
24,186,43671,2,0,P|8:138|10:88,1,102,2|0,2:0|2:0,2:0:0:0:
223,16,44046,6,0,P|227:67|211:116,1,102,10|0,2:0|2:0,2:0:0:0:
131,162,44421,2,0,P|127:112|141:63,1,102,2|0,2:0|2:0,2:0:0:0:
368,45,44796,70,0,P|358:95|331:139,1,102,2|0,2:0|2:0,2:0:0:0:
242,165,45171,2,0,P|250:115|275:71,1,102,0|0,2:0|2:0,2:0:0:0:
402,116,45546,5,10,2:0:0:0:
477,79,45733,1,0,2:0:0:0:
481,75,45827,2,0,L|476:41,1,34,2|0,2:0|2:0,2:0:0:0:
488,256,46202,1,2,2:0:0:0:
492,260,46296,2,0,L|477:381,1,102,2|0,2:0|2:0,2:0:0:0:
451,383,46671,69,2,2:0:0:0:
387,234,46858,1,2,2:0:0:0:
313,187,47046,2,0,P|262:177|211:175,1,102,10|0,2:0|2:0,2:0:0:0:
205,250,47421,2,0,P|255:261|306:262,1,102,2|0,2:0|2:0,2:0:0:0:
383,235,47796,5,2,2:0:0:0:
379,239,48171,1,2,2:0:0:0:
375,243,48546,1,2,2:0:0:0:
371,247,48921,1,2,2:0:0:0:
367,251,49296,5,2,2:0:0:0:
301,199,49483,1,0,2:0:0:0:
219,216,49671,1,0,2:0:0:0:
60,242,49858,5,2,2:0:0:0:
71,186,50046,1,0,2:0:0:0:
115,129,50233,1,0,2:0:0:0:
198,102,50421,1,0,2:0:0:0:
295,143,50608,1,0,2:0:0:0:
443,130,50796,69,2,2:0:0:0:
374,179,50983,1,0,2:0:0:0:
365,94,51171,1,0,2:0:0:0:
451,214,51358,5,2,2:0:0:0:
382,263,51546,1,0,2:0:0:0:
390,347,51733,2,0,L|321:328,1,68,0|0,2:0|2:0,2:0:0:0:
217,36,52296,69,2,2:0:0:0:
304,71,52483,1,0,2:0:0:0:
386,63,52671,1,0,2:0:0:0:
483,170,52858,5,2,2:0:0:0:
387,176,53046,1,0,2:0:0:0:
318,217,53233,1,0,2:0:0:0:
106,274,53608,69,0,2:0:0:0:
153,200,53796,1,2,2:0:0:0:
66,197,53983,1,0,2:0:0:0:
113,123,54171,1,0,2:0:0:0:
193,277,54358,1,2,2:0:0:0:
6,353,54733,5,0,2:0:0:0:
153,200,54921,1,2,2:0:0:0:
129,87,55296,69,2,2:0:0:0:
213,97,55483,1,0,2:0:0:0:
259,167,55671,1,0,2:0:0:0:
353,298,55858,5,2,2:0:0:0:
385,251,56046,1,0,2:0:0:0:
394,179,56233,1,0,2:0:0:0:
354,102,56421,1,0,2:0:0:0:
257,62,56608,1,0,2:0:0:0:
96,28,56796,69,2,2:0:0:0:
137,119,56983,1,0,2:0:0:0:
128,217,57171,1,0,2:0:0:0:
57,275,57358,5,2,2:0:0:0:
103,351,57546,1,0,2:0:0:0:
185,378,57733,2,0,L|176:310,1,68,0|0,2:0|2:0,2:0:0:0:
338,369,58296,69,2,2:0:0:0:
422,326,58483,1,0,2:0:0:0:
503,322,58671,1,0,2:0:0:0:
341,274,58858,5,2,2:0:0:0:
260,270,59046,1,0,2:0:0:0:
176,227,59233,1,0,2:0:0:0:
81,94,59608,69,0,2:0:0:0:
135,25,59796,1,2,2:0:0:0:
50,13,59983,1,0,2:0:0:0:
27,163,60171,1,0,2:0:0:0:
165,105,60358,1,2,2:0:0:0:
332,129,60733,5,0,2:0:0:0:
181,193,60921,1,2,2:0:0:0:
29,277,61296,69,2,2:0:0:0:
113,252,61483,1,0,2:0:0:0:
197,279,61671,1,0,2:0:0:0:
410,321,61858,5,2,2:0:0:0:
312,287,62046,1,0,2:0:0:0:
246,368,62233,1,0,2:0:0:0:
250,372,62327,1,0,2:0:0:0:
254,376,62421,2,0,L|355:363,1,85,0|0,2:0|2:0,2:0:0:0:
391,217,62796,69,2,2:0:0:0:
335,132,62983,1,0,2:0:0:0:
331,128,63077,1,0,2:0:0:0:
327,124,63171,2,0,L|225:136,1,85,0|2,2:0|2:0,2:0:0:0:
107,67,63546,5,0,2:0:0:0:
157,141,63733,1,0,2:0:0:0:
197,61,63921,1,0,2:0:0:0:
412,12,64296,69,2,2:0:0:0:
512,29,64483,1,0,2:0:0:0:
449,107,64671,1,0,2:0:0:0:
296,125,64858,5,2,2:0:0:0:
212,100,65046,1,0,2:0:0:0:
155,218,65233,1,0,2:0:0:0:
151,222,65327,1,0,2:0:0:0:
147,226,65421,2,0,L|136:142,1,85,0|0,2:0|2:0,2:0:0:0:
14,195,65796,69,2,2:0:0:0:
47,36,65983,1,0,2:0:0:0:
43,32,66077,1,0,2:0:0:0:
39,28,66171,2,0,L|28:111,1,85,0|2,2:0|2:0,2:0:0:0:
285,164,66733,5,0,2:0:0:0:
266,32,66921,1,2,2:0:0:0:
103,176,67296,69,2,2:0:0:0:
192,172,67483,1,0,2:0:0:0:
152,250,67671,1,0,2:0:0:0:
144,97,67858,1,2,2:0:0:0:
65,255,68046,1,8,2:0:0:0:
240,246,68233,1,0,2:0:0:0:
243,249,68327,1,0,2:0:0:0:
246,252,68421,2,0,P|280:261|316:320,1,85,0|0,2:0|2:0,2:0:0:0:
114,328,68796,5,2,2:0:0:0:
148,246,68983,1,0,2:0:0:0:
151,243,69077,1,0,2:0:0:0:
154,240,69171,2,0,P|163:206|220:166,1,85,0|2,2:0|2:0,2:0:0:0:
60,69,69546,1,8,2:0:0:0:
210,86,69733,1,0,2:0:0:0:
129,120,69921,1,0,2:0:0:0:
140,34,70108,1,0,2:0:0:0:
282,204,70296,70,0,L|292:116,1,85,2|0,2:0|2:0,2:0:0:0:
395,115,70671,1,0,2:0:0:0:
501,4,70858,2,0,P|457:6|414:20,1,85,2|8,2:0|2:0,2:0:0:0:
485,147,71233,1,0,2:0:0:0:
489,151,71327,1,0,2:0:0:0:
493,155,71421,2,0,L|482:244,1,85,0|0,2:0|2:0,2:0:0:0:
310,280,71796,70,0,B|343:284|356:342|383:289|418:293,1,119,2|0,2:0|2:0,2:0:0:0:
408,376,72171,2,0,B|373:371|360:313|333:366|299:362,1,119,2|0,2:0|2:0,2:0:0:0:
216,368,72546,2,0,B|177:372|146:312|131:378|92:383,1,136,2|0,2:0|2:0,2:0:0:0:
80,289,72921,2,0,B|119:284|150:344|165:278|204:274,1,136,2|0,2:0|2:0,2:0:0:0:
217,106,73296,6,0,L|227:191,1,85,2|0,2:0|2:0,2:0:0:0:
115,108,73671,1,0,2:0:0:0:
18,3,73858,2,0,P|62:5|105:19,1,85,2|8,2:0|2:0,2:0:0:0:
34,146,74233,1,0,2:0:0:0:
30,150,74327,1,0,2:0:0:0:
26,154,74421,2,0,L|37:243,1,85,0|0,2:0|2:0,2:0:0:0:
209,279,74796,70,0,B|176:283|163:341|136:288|101:292,1,119,2|0,2:0|2:0,2:0:0:0:
111,375,75171,2,0,B|146:370|159:312|186:365|220:361,1,119,2|0,2:0|2:0,2:0:0:0:
305,361,75546,2,0,B|343:365|374:305|389:371|428:376,1,136,2|0,2:0|2:0,2:0:0:0:
441,282,75921,2,0,B|401:277|370:337|355:271|316:267,1,136,2|0,2:0|2:0,2:0:0:0:
260,160,76296,5,2,2:0:0:0:
245,84,76483,1,0,2:0:0:0:
180,30,76671,1,0,2:0:0:0:
86,34,76858,1,0,2:0:0:0:
20,117,77046,5,2,2:0:0:0:
86,34,77233,1,0,2:0:0:0:
180,30,77421,1,0,2:0:0:0:
245,84,77608,1,0,2:0:0:0:
260,160,77796,1,2,2:0:0:0:
144,171,78546,69,0,2:0:0:0:
119,167,78639,1,0,2:0:0:0:
115,145,78733,1,0,2:0:0:0:
137,133,78827,1,0,2:0:0:0:
154,150,78921,1,0,2:0:0:0:
262,322,79296,5,2,2:0:0:0:
277,246,79483,1,0,2:0:0:0:
342,192,79671,1,0,2:0:0:0:
436,196,79858,1,0,2:0:0:0:
502,279,80046,69,2,2:0:0:0:
436,196,80233,1,0,2:0:0:0:
342,192,80421,1,0,2:0:0:0:
277,246,80608,1,0,2:0:0:0:
262,322,80796,1,2,2:0:0:0:
379,336,81546,5,0,2:0:0:0:
404,332,81639,1,0,2:0:0:0:
408,310,81733,1,0,2:0:0:0:
386,298,81827,1,0,2:0:0:0:
369,315,81921,1,0,2:0:0:0:
102,349,82296,70,0,P|41:259|127:195,1,238,2|0,2:0|2:0,2:0:0:0:
190,246,83046,2,0,L|291:257,1,102,2|0,2:0|2:0,2:0:0:0:
373,164,83421,2,0,L|272:176,1,102,2|0,2:0|2:0,2:0:0:0:
445,207,83796,2,0,P|506:117|419:53,1,238,2|0,2:0|2:0,2:0:0:0:
323,69,84546,5,0,2:0:0:0:
298,65,84639,1,0,2:0:0:0:
294,43,84733,1,0,2:0:0:0:
316,31,84827,1,0,2:0:0:0:
333,48,84921,1,0,2:0:0:0:
0,72,85296,70,0,L|255:40,1,238,2|0,2:0|2:0,2:0:0:0:
294,142,86046,2,0,P|247:123|198:130,1,102,2|0,2:0|2:0,2:0:0:0:
188,209,86421,2,0,P|234:228|284:221,1,102,2|0,2:0|2:0,2:0:0:0:
338,67,86796,2,0,L|367:303,1,238,2|0,2:0|2:0,2:0:0:0:
447,356,87546,5,0,2:0:0:0:
472,359,87639,1,0,2:0:0:0:
482,340,87733,1,0,2:0:0:0:
465,322,87827,1,0,2:0:0:0:
443,332,87921,1,0,2:0:0:0:
300,374,88296,69,2,2:0:0:0:
367,303,88483,1,2,2:0:0:0:
242,302,88671,2,0,P|232:263|232:228,1,68,2|0,2:0|2:0,2:0:0:0:
141,227,89046,2,0,P|154:177|153:126,1,102,2|0,2:0|2:0,2:0:0:0:
148,91,89421,2,0,L|227:100,1,68,2|0,2:0|2:0,2:0:0:0:
333,63,89796,5,2,2:0:0:0:
472,37,89983,1,2,2:0:0:0:
512,178,90171,2,0,P|477:179|445:170,1,68,2|0,2:0|2:0,2:0:0:0:
344,221,90546,2,0,P|294:216|224:235,1,102,2|0,2:0|2:0,2:0:0:0:
211,238,90921,2,0,L|194:106,1,102,2|0,2:0|2:0,2:0:0:0:
180,112,91296,69,2,2:0:0:0:
88,91,91483,1,0,2:0:0:0:
20,158,91671,1,0,2:0:0:0:
44,249,91858,1,0,2:0:0:0:
178,96,92046,5,2,2:0:0:0:
78,73,92233,1,0,2:0:0:0:
4,145,92421,1,0,2:0:0:0:
30,244,92608,1,0,2:0:0:0:
216,186,92796,69,2,2:0:0:0:
281,266,92983,1,0,2:0:0:0:
108,327,93171,1,0,2:0:0:0:
214,378,93358,2,0,P|211:345|201:312,1,68,4|0,2:0|2:0,2:0:0:0:
122,220,93733,1,0,2:0:0:0:
320,112,93921,2,0,P|311:145|307:183,1,68,4|4,2:0|2:0,2:0:0:0:
309,356,94296,38,0,B|319:363|319:363|330:353|330:353|334:337|334:337|352:337|352:337|367:352|367:352|377:337|377:337|373:316|373:316|393:311|393:311|408:315,1,153,8|0,3:0|3:0,3:0:0:0:
139,384,94858,1,8,3:0:0:0:
50,290,95046,2,0,B|55:273|55:273|52:260|52:260|61:246|61:246|80:242|80:242|83:227|83:227|88:215|88:215|88:179,1,114.75,8|0,3:1|3:0,3:0:0:0:
119,107,95421,2,0,B|94:113|94:113|30:72|30:72|8:78,1,114.75,4|0,3:0|3:0,3:0:0:0:
121,30,95796,2,0,B|153:18|153:18|169:21|169:21|177:42|177:42|211:50|211:50|234:33|234:33|280:42|280:42|280:65|280:65|325:72,1,229.5,8|8,3:0|3:0,3:0:0:0:
391,21,96546,69,8,3:1:0:0:
389,50,96639,1,0,3:0:0:0:
409,27,96733,1,0,3:0:0:0:
380,35,96827,1,0,3:0:0:0:
408,45,96921,1,0,3:0:0:0:
505,289,97296,6,0,B|498:269|498:269|506:258|506:258|481:251|481:251|499:217|499:217|463:211|463:211|467:192,1,153,8|0,3:0|3:0,3:0:0:0:
303,146,97858,1,8,3:0:0:0:
485,104,98046,2,0,B|480:118|480:118|458:113|458:113|429:121|429:121|420:132|420:132|394:138|394:138|374:130,1,114.75,8|0,3:1|3:0,3:0:0:0:
218,214,98421,2,0,B|251:210|251:210|275:225|275:225|302:227|302:227|328:249,1,114.75,4|0,3:0|3:0,3:0:0:0:
406,283,98796,2,0,B|403:310|403:310|367:335|367:335|338:326|338:326|328:333|328:333|289:346|289:346|267:320|267:320|208:332,1,229.5,8|8,3:0|3:0,3:0:0:0:
128,322,99546,69,8,3:1:0:0:
130,351,99639,1,0,3:0:0:0:
110,328,99733,1,0,3:0:0:0:
139,336,99827,1,0,3:0:0:0:
111,346,99921,1,0,3:0:0:0:
22,132,100296,6,0,B|32:124|32:124|45:136|45:136|69:143|69:143|91:152,1,76.5000000000001,8|0,3:0|3:0,3:0:0:0:
226,203,100671,1,0,3:0:0:0:
26,249,100858,1,8,3:0:0:0:
89,61,101046,2,0,B|114:58|114:58|136:67|136:67|153:57|153:57|153:38,1,76.5000000000001,8|0,3:1|3:0,3:0:0:0:
312,17,101421,2,0,B|303:30|303:30|291:24|291:24|261:30|261:30|248:41,1,76.5000000000001,0|0,3:0|3:0,3:0:0:0:
204,225,101796,69,8,3:0:0:0:
268,139,101983,1,0,3:0:0:0:
321,265,102171,1,0,3:0:0:0:
434,119,102358,1,8,3:0:0:0:
304,55,102546,2,0,B|298:56|298:56|291:37|291:37|251:48|251:48|243:46,1,76.5000000000001,8|0,3:1|3:0,3:0:0:0:
445,29,102921,2,0,B|459:20|459:20|482:34|482:34|499:24|499:24|519:23,1,76.5000000000001,0|0,3:0|3:0,3:0:0:0:
364,177,103296,5,8,3:0:0:0:
268,139,103483,1,0,3:0:0:0:
280,240,103671,1,0,3:0:0:0:
376,281,103858,1,8,3:0:0:0:
348,83,104046,69,8,3:1:0:0:
180,108,104233,1,0,3:0:0:0:
280,240,104421,1,4,3:0:0:0:
451,220,104608,1,0,3:0:0:0:
313,160,104796,5,8,3:0:0:0:
368,259,104983,1,0,3:0:0:0:
452,131,105171,1,0,3:0:0:0:
366,77,105358,1,8,3:0:0:0:
451,220,105546,69,8,3:1:0:0:
268,139,105733,1,0,3:0:0:0:
357,2,105921,2,0,L|367:82,1,76.5000000000001,0|0,3:0|3:0,3:0:0:0:
