osu file format v14

[General]
AudioFilename: audio.mp3
AudioLeadIn: 0
PreviewTime: 15
Countdown: 1
SampleSet: Soft
StackLeniency: 0.8
Mode: 0
LetterboxInBreaks: 0
WidescreenStoryboard: 1

[Editor]
Bookmarks: 1264,13250,25240,37240,49255,61254,76245,94245
DistanceSpacing: 1.1
BeatDivisor: 4
GridSize: 8
TimelineZoom: 2.400001

[Metadata]
Title:Loonboon
TitleUnicode:Loonboon
Artist:Laura Shigihara
ArtistUnicode:Laura Shigihara
Creator:itzKira811
Version:Normal
Source:Plants Vs. Zombies
Tags:pvz soundtrack instrumental video game electronic piano procq popcap ea arts tower defense
BeatmapID:3401698
BeatmapSetID:1370640

[Difficulty]
HPDrainRate:3
CircleSize:3.5
OverallDifficulty:4
ApproachRate:4
SliderMultiplier:0.899999999999999
SliderTickRate:1

[Events]
//Background and Video events
0,0,"bg.jpg",0,0
//Break Periods
//Storyboard Layer 0 (Background)
//Storyboard Layer 1 (Fail)
//Storyboard Layer 2 (Pass)
//Storyboard Layer 3 (Foreground)
//Storyboard Layer 4 (Overlay)
//Storyboard Sound Samples

[TimingPoints]
-4704,375,4,2,1,60,1,0
1283,-100,4,2,1,60,0,0
13283,-100,4,2,1,60,0,0
25296,-100,4,2,1,60,0,1
37296,-100,4,2,1,60,0,0
76296,375,4,2,1,60,1,0

[Colours]
Combo1 : 0,234,0
Combo2 : 0,128,0
Combo3 : 215,45,49
Combo4 : 211,81,84
Combo5 : 178,154,191
Combo6 : 211,205,215

[HitObjects]
32,40,1296,86,0,P|79:48|120:63,1,89.9999999999999,2|8,2:0|2:0,2:0:0:0:
152,96,1858,1,0,2:0:0:0:
184,128,2046,2,0,P|228:120|270:105,1,89.9999999999999,0|8,2:0|2:0,2:0:0:0:
352,43,2796,1,0,2:0:0:0:
449,60,3171,2,0,P|475:95|473:139,1,89.9999999999999,8|0,2:0|2:0,2:0:0:0:
410,216,3921,1,8,2:0:0:0:
332,277,4296,2,0,P|316:319|309:363,1,89.9999999999999,0|8,2:0|2:0,2:0:0:0:
264,352,4858,1,0,2:0:0:0:
214,333,5046,2,0,P|198:290|191:246,1,89.9999999999999,0|8,2:0|2:0,2:0:0:0:
188,147,5796,1,0,2:0:0:0:
138,61,6171,2,0,P|102:34|58:36,2,89.9999999999999,8|0|8,2:0|2:0|2:0,2:0:0:0:
224,109,7296,6,0,P|271:100|312:85,1,89.9999999999999,2|8,2:0|2:0,2:0:0:0:
351,57,7858,1,0,2:0:0:0:
391,29,8046,2,0,P|438:37|479:52,1,89.9999999999999,0|8,2:0|2:0,2:0:0:0:
506,146,8796,1,0,2:0:0:0:
420,195,9171,2,0,P|393:230|394:274,1,89.9999999999999,8|0,2:0|2:0,2:0:0:0:
441,361,9921,1,8,2:0:0:0:
343,377,10296,2,0,P|298:369|256:354,1,89.9999999999999,0|8,2:0|2:0,2:0:0:0:
232,312,10858,1,0,2:0:0:0:
208,272,11046,2,0,P|163:279|121:295,1,89.9999999999999,0|8,2:0|2:0,2:0:0:0:
22,251,11796,2,0,P|7:209|0:165,1,89.9999999999999,0|8,2:0|2:0,2:0:0:0:
66,91,12546,2,0,P|110:97|152:113,1,89.9999999999999,0|8,2:0|2:0,2:0:0:0:
199,127,13108,53,8,2:0:0:0:
247,138,13296,2,0,P|267:93|269:52,1,89.9999999999999,2|0,2:0|2:0,2:0:0:0:
352,0,14046,2,0,P|396:3|437:22,1,89.9999999999999,8|0,2:0|2:0,2:0:0:0:
464,64,14608,1,0,2:0:0:0:
488,104,14796,2,0,B|501:207|428:170|442:274,1,180,2|8,2:0|2:0,2:0:0:0:
471,366,15921,1,0,2:0:0:0:
372,374,16296,2,1,B|290:373|269:296|269:296|203:272|149:321,1,270,2|0,2:0|2:0,2:0:0:0:
50,325,17796,2,0,P|65:283|72:239,1,89.9999999999999,2|0,2:0|2:0,2:0:0:0:
156,186,18546,2,0,P|141:144|134:100,1,89.9999999999999,8|0,2:0|2:0,2:0:0:0:
199,24,19296,70,0,P|244:27|284:46,1,89.9999999999999,2|0,2:0|2:0,2:0:0:0:
378,15,20046,2,0,P|407:49|423:91,1,89.9999999999999,8|0,2:0|2:0,2:0:0:0:
503,157,20796,1,2,2:0:0:0:
503,157,21171,1,0,2:0:0:0:
443,236,21546,2,0,P|447:281|465:322,1,89.9999999999999,8|0,2:0|2:0,2:0:0:0:
356,322,22296,2,0,B|253:309|290:382|186:368,1,180,2|8,2:0|2:0,2:0:0:0:
99,328,23421,1,0,2:0:0:0:
117,230,23796,2,0,P|111:186|79:155,1,89.9999999999999,0|0,2:0|2:0,2:0:0:0:
6,87,24546,2,0,P|36:55|80:49,1,89.9999999999999,0|0,2:0|2:0,2:0:0:0:
177,64,25296,22,0,P|222:61|262:42,1,89.9999999999999,2|8,2:0|2:0,2:0:0:0:
312,32,25858,1,0,2:0:0:0:
360,24,26046,2,0,P|357:68|337:109,1,89.9999999999999,0|8,2:0|2:0,2:0:0:0:
278,196,26796,2,0,P|284:240|300:282,1,89.9999999999999,0|8,2:0|2:0,2:0:0:0:
386,331,27546,2,0,P|401:288|408:244,1,89.9999999999999,0|8,2:0|2:0,2:0:0:0:
456,232,28108,1,0,2:0:0:0:
504,216,28296,2,0,P|501:172|481:131,1,89.9999999999999,0|8,2:0|2:0,2:0:0:0:
395,79,29046,2,0,P|351:82|310:102,1,89.9999999999999,0|8,2:0|2:0,2:0:0:0:
251,181,29796,1,0,2:0:0:0:
158,215,30171,2,0,P|113:216|78:189,2,89.9999999999999,8|0|8,2:0|2:0|2:0,2:0:0:0:
239,270,31296,6,0,P|223:312|216:356,1,89.9999999999999,2|8,2:0|2:0,2:0:0:0:
168,368,31858,1,0,2:0:0:0:
120,376,32046,2,0,P|112:331|97:289,1,89.9999999999999,0|8,2:0|2:0,2:0:0:0:
10,243,32796,2,0,P|16:199|32:157,1,89.9999999999999,0|8,2:0|2:0,2:0:0:0:
104,88,33546,2,0,P|149:87|184:114,1,89.9999999999999,0|8,2:0|2:0,2:0:0:0:
210,154,34108,1,0,2:0:0:0:
243,190,34296,2,0,P|287:191|323:165,1,89.9999999999999,0|8,2:0|2:0,2:0:0:0:
407,112,35046,2,0,P|392:70|385:25,2,89.9999999999999,0|8|0,2:0|2:0|2:0,2:0:0:0:
456,197,36171,2,0,P|471:239|478:284,2,89.9999999999999,8|0|8,2:0|2:0|2:0,2:0:0:0:
406,190,37108,53,8,2:0:0:0:
356,186,37296,2,0,P|311:183|271:164,1,89.9999999999999,2|0,2:0|2:0,2:0:0:0:
194,101,38046,2,0,P|149:104|109:123,1,89.9999999999999,8|0,2:0|2:0,2:0:0:0:
66,213,38796,2,1,B|51:265|97:296|97:296|116:254|163:253,1,180,2|8,2:0|2:0,2:0:0:0:
256,285,39921,1,0,2:0:0:0:
336,227,40296,2,1,B|336:224|352:159|321:82|262:48|262:48|264:91|240:115,1,270,2|0,2:0|2:0,2:0:0:0:
168,48,41796,2,0,P|126:33|82:26,1,89.9999999999999,2|0,2:0|2:0,2:0:0:0:
40,53,42358,1,0,2:0:0:0:
7,90,42546,2,0,P|14:134|30:177,1,89.9999999999999,8|0,2:0|2:0,2:0:0:0:
98,248,43296,70,0,P|95:293|76:333,1,89.9999999999999,2|0,2:0|2:0,2:0:0:0:
162,380,44046,2,0,P|202:360|247:357,1,89.9999999999999,8|0,2:0|2:0,2:0:0:0:
302,275,44796,2,0,P|344:290|377:319,1,89.9999999999999,2|0,2:0|2:0,2:0:0:0:
471,365,45546,1,8,2:0:0:0:
471,365,45921,1,0,2:0:0:0:
510,274,46296,2,0,B|514:172|445:216|449:112,1,180,2|8,2:0|2:0,2:0:0:0:
472,19,47421,1,0,2:0:0:0:
472,19,47796,1,0,2:0:0:0:
202,70,49296,22,0,P|186:112|183:156,1,89.9999999999999,2|0,2:0|2:0,2:0:0:0:
218,190,49858,2,0,P|262:187|297:213,1,89.9999999999999,2|0,2:0|2:0,2:0:0:0:
306,262,50421,1,0,2:0:0:0:
215,336,50796,6,0,P|170:332|128:317,1,89.9999999999999,2|0,2:0|2:0,2:0:0:0:
95,280,51358,2,0,P|91:235|76:193,1,89.9999999999999,2|0,2:0|2:0,2:0:0:0:
47,152,51921,1,0,2:0:0:0:
94,44,52296,70,0,P|129:17|173:20,1,89.9999999999999,2|0,2:0|2:0,2:0:0:0:
206,52,52858,2,0,P|241:78|285:75,1,89.9999999999999,2|0,2:0|2:0,2:0:0:0:
326,52,53421,1,0,2:0:0:0:
443,97,53796,6,0,P|439:142|424:184,1,89.9999999999999,2|0,2:0|2:0,2:0:0:0:
387,209,54358,2,0,P|361:244|365:288,1,89.9999999999999,2|0,2:0|2:0,2:0:0:0:
403,321,54921,1,0,2:0:0:0:
284,363,55296,70,0,P|239:359|197:344,1,89.9999999999999,2|0,2:0|2:0,2:0:0:0:
172,307,55858,2,0,P|198:271|193:227,1,89.9999999999999,2|0,2:0|2:0,2:0:0:0:
164,195,56421,1,0,2:0:0:0:
39,176,56796,6,0,P|43:131|58:89,1,89.9999999999999,2|0,2:0|2:0,2:0:0:0:
95,64,57358,2,0,P|138:68|174:42,1,89.9999999999999,2|0,2:0|2:0,2:0:0:0:
191,0,57921,1,0,2:0:0:0:
315,18,58296,70,0,P|319:63|334:105,1,89.9999999999999,2|0,2:0|2:0,2:0:0:0:
371,130,58858,2,0,P|414:126|450:152,1,89.9999999999999,2|0,2:0|2:0,2:0:0:0:
467,194,59421,1,0,2:0:0:0:
377,283,59796,6,0,P|333:289|305:323,1,89.9999999999999,2|0,2:0|2:0,2:0:0:0:
281,355,60358,2,0,P|238:359|202:333,1,89.9999999999999,2|0,2:0|2:0,2:0:0:0:
189,289,60921,1,0,2:0:0:0:
145,170,61296,70,0,L|101:181,1,45,2|0,2:0|2:0,2:0:0:0:
65,170,61671,1,0,2:0:0:0:
33,154,61858,2,0,P|7:118|10:74,1,89.9999999999999,2|0,2:0|2:0,2:0:0:0:
37,38,62421,1,0,2:0:0:0:
159,6,62796,6,0,L|202:17,1,45,2|0,2:0|2:0,2:0:0:0:
227,38,63171,1,0,2:0:0:0:
251,62,63358,2,0,P|286:87|330:84,1,89.9999999999999,2|0,2:0|2:0,2:0:0:0:
364,53,63921,1,0,2:0:0:0:
478,105,64296,70,0,L|463:159,1,45,2|0,2:0|2:0,2:0:0:0:
438,169,64671,1,0,2:0:0:0:
406,185,64858,2,0,P|410:230|425:272,1,89.9999999999999,2|0,2:0|2:0,2:0:0:0:
454,305,65421,1,0,2:0:0:0:
353,381,65796,2,0,P|308:377|266:362,1,89.9999999999999,2|0,2:0|2:0,2:0:0:0:
241,325,66358,2,0,P|256:282|259:238,1,89.9999999999999,2|0,2:0|2:0,2:0:0:0:
241,197,66921,1,0,2:0:0:0:
150,109,67296,6,0,P|101:113|49:135,1,89.9999999999999,2|0,2:0|2:0,2:0:0:0:
28,229,68046,2,0,L|39:272,1,45,8|0,2:0|2:0,2:0:0:0:
76,301,68421,2,0,L|119:312,1,45,0|0,2:0|2:0,2:0:0:0:
164,293,68796,70,0,P|187:256|230:256,1,89.9999999999999,2|0,2:0|2:0,2:0:0:0:
330,295,69546,2,0,L|374:283,1,45,8|0,2:0|2:0,2:0:0:0:
408,249,69921,2,0,L|419:205,1,45,0|0,2:0|2:0,2:0:0:0:
449,172,70296,6,0,P|441:128|406:101,1,89.9999999999999,2|0,2:0|2:0,2:0:0:0:
314,172,71046,2,0,L|271:160,1,45,8|0,2:0|2:0,2:0:0:0:
234,133,71421,2,0,L|223:89,1,45,0|0,2:0|2:0,2:0:0:0:
186,49,71796,53,0,2:0:0:0:
95,29,72171,1,0,2:0:0:0:
24,88,72546,1,0,2:0:0:0:
24,178,72921,1,0,2:0:0:0:
84,245,73296,6,0,P|132:250|184:272,1,89.9999999999999,2|0,2:0|2:0,2:0:0:0:
200,298,73858,1,0,2:0:0:0:
234,326,74046,2,0,L|277:314,1,45,8|0,2:0|2:0,2:0:0:0:
304,277,74421,2,0,L|348:288,1,45,0|0,2:0|2:0,2:0:0:0:
384,314,74796,69,0,2:0:0:0:
473,317,75171,1,0,2:0:0:0:
505,233,75546,1,0,2:0:0:0:
454,158,75921,1,0,2:0:0:0:
363,175,76296,6,1,B|353:208|282:245|219:174|268:62|360:60,1,269.999999999999,2|0,2:0|2:0,2:0:0:0:
447,104,78546,2,0,L|458:152,2,45,0|0|0,2:0|2:0|2:0,2:0:0:0:
361,39,79296,6,0,P|281:0|192:0,2,180,0|0|0,2:0|2:0|2:0,2:0:0:0:
330,216,81546,2,0,L|322:265,2,45,0|0|0,2:0|2:0|2:0,2:0:0:0:
273,118,82296,70,0,P|224:113|129:211,1,180,2|0,2:0|2:0,2:0:0:0:
120,288,83421,1,2,2:0:0:0:
40,240,83796,2,0,P|15:180|2:100,1,135,4|0,2:0|2:0,2:0:0:0:
25,72,84546,2,0,P|45:88|69:93,2,45,0|0|0,2:0|2:0|2:0,2:0:0:0:
111,7,85296,6,0,P|174:29|241:39,1,135,4|0,2:0|2:0,2:0:0:0:
287,23,86046,2,0,P|321:50|330:93,1,89.9999999999999,4|0,2:0|2:0,2:0:0:0:
431,111,86796,2,0,P|406:170|393:250,1,135,4|0,2:0|2:0,2:0:0:0:
415,278,87546,2,0,L|459:271,2,45,0|0|0,2:0|2:0|2:0,2:0:0:0:
343,359,88296,70,0,L|281:342,1,45,4|0,2:0|2:0,2:0:0:0:
263,319,88671,2,0,L|251:275,1,45,0|0,2:0|2:0,2:0:0:0:
263,231,89046,2,0,P|249:192|195:185,1,89.9999999999999,4|0,2:0|2:0,2:0:0:0:
130,102,89796,6,0,L|144:47,1,45,4|0,2:0|2:0,2:0:0:0:
170,22,90171,2,0,L|224:7,1,45,0|0,2:0|2:0,2:0:0:0:
258,30,90546,2,0,P|289:56|339:35,1,89.9999999999999,4|0,2:0|2:0,2:0:0:0:
441,48,91296,70,1,B|514:124|472:236|422:181|338:328|507:365|507:365|473:309|529:216|361:192,1,629.999999999999,4|4,2:0|2:0,2:0:0:0:
301,272,94296,38,0,P|239:300|173:300,1,135,8|8,3:0|3:0,3:0:0:0:
133,288,95046,1,8,3:1:0:0:
57,211,95421,69,4,3:0:0:0:
81,123,95796,2,0,P|132:80|209:107,1,135,8|8,3:0|3:0,3:0:0:0:
235,74,96546,2,0,L|242:25,2,45,8|0|0,3:1|3:0|3:0,3:0:0:0:
300,159,97296,6,0,P|363:181|430:191,1,135,8|8,3:0|3:0,3:0:0:0:
469,168,98046,2,0,P|503:195|512:238,1,89.9999999999999,8|4,3:1|3:0,3:0:0:0:
463,314,98796,2,0,P|407:351|345:378,1,135,8|8,3:0|3:0,3:0:0:0:
303,360,99546,2,0,L|310:311,2,45,8|0|0,3:1|3:0|3:0,3:0:0:0:
216,294,100296,70,0,L|172:282,1,45,8|0,3:0|3:0,3:0:0:0:
136,254,100671,2,0,P|121:212|117:167,2,89.9999999999999,0|8|0,3:0|3:1|3:0,3:0:0:0:
223,191,101796,6,0,L|240:129,1,45,8|0,3:0|3:0,3:0:0:0:
263,111,102171,2,0,P|305:96|350:92,2,89.9999999999999,0|8|0,3:0|3:1|3:0,3:0:0:0:
331,205,103296,70,0,L|374:216,2,45,8|0|0,3:0|3:0|3:0,3:0:0:0:
293,229,103858,1,8,3:0:0:0:
255,254,104046,2,0,L|212:266,2,45,8|0|4,3:1|3:0|3:0,3:0:0:0:
323,325,104796,6,0,L|366:337,2,45,8|0|0,3:0|3:0|3:0,3:0:0:0:
290,356,105358,1,8,3:0:0:0:
253,382,105546,2,0,L|210:370,1,45,8|0,3:1|3:0,3:0:0:0:
171,346,105921,2,0,L|114:362,1,45,0|0,3:0|3:0,3:0:0:0:
