osu file format v14

[General]
AudioFilename: audio.mp3
AudioLeadIn: 0
PreviewTime: 15
Countdown: 1
SampleSet: Soft
StackLeniency: 0.7
Mode: 0
LetterboxInBreaks: 0
WidescreenStoryboard: 1

[Editor]
Bookmarks: 1264,13250,25240,37240,49255,61254,76245,94245
DistanceSpacing: 1.9
BeatDivisor: 4
GridSize: 8
TimelineZoom: 2.400001

[Metadata]
Title:Loonboon
TitleUnicode:Loonboon
Artist:Laura Shigihara
ArtistUnicode:Laura Shigihara
Creator:itzKira811
Version:Hard
Source:Plants Vs. Zombies
Tags:pvz soundtrack instrumental video game electronic piano procq popcap ea arts tower defense
BeatmapID:3974458
BeatmapSetID:1370640

[Difficulty]
HPDrainRate:4
CircleSize:4
OverallDifficulty:7
ApproachRate:8
SliderMultiplier:1.2
SliderTickRate:1

[Events]
//Background and Video events
0,0,"bg.jpg",0,0
//Break Periods
//Storyboard Layer 0 (Background)
//Storyboard Layer 1 (Fail)
//Storyboard Layer 2 (Pass)
//Storyboard Layer 3 (Foreground)
//Storyboard Layer 4 (Overlay)
//Storyboard Sound Samples

[TimingPoints]
-4704,375,4,2,1,60,1,0
1283,-83.3333333333333,4,2,1,60,0,0
13283,-100,4,2,1,60,0,0
25296,-83.3333333333333,4,2,1,60,0,1
37296,-100,4,2,1,60,0,0
76296,375,4,2,1,60,1,0
94283,-98.1189320010704,4,2,1,60,0,0
95033,-97.7443229589054,4,2,1,60,0,0
95408,-100,4,2,1,60,0,0
95783,-98.2702155087192,4,2,1,60,0,0
96533,-100,4,2,1,60,0,0
97283,-97.0313774669656,4,2,1,60,0,0
98033,-98.2302836405488,4,2,1,60,0,0
98408,-100,4,2,1,60,0,0
98783,-98.6358969990175,4,2,1,60,0,0
99533,-100,4,2,1,60,0,0
100283,-98.0129013536917,4,2,1,60,0,0
100658,-100,4,2,1,60,0,0
101033,-97.9108648164477,4,2,1,60,0,0
101783,-97.880170456743,4,2,1,60,0,0
102158,-100,4,2,1,60,0,0
102533,-97.8510177964195,4,2,1,60,0,0
104033,-97.9573764017946,4,2,1,60,0,0
104408,-100,4,2,1,60,0,0
105533,-97.9534757406436,4,2,1,60,0,0
105908,-100,4,2,1,60,0,0

[Colours]
Combo1 : 0,234,0
Combo2 : 0,128,0
Combo3 : 215,45,49
Combo4 : 211,81,84
Combo5 : 178,154,191
Combo6 : 211,205,215

[HitObjects]
24,176,77,69,2,2:0:0:0:
48,152,171,2,0,P|92:149|127:175,1,90,2|2,2:0|2:0,0:0:0:0:
144,200,546,2,0,P|188:196|229:177,1,90,2|2,2:0|2:0,0:0:0:0:
240,152,921,2,0,P|223:110|219:65,1,90,2|2,2:0|2:0,0:0:0:0:
240,40,1296,6,0,P|275:40|307:57,1,72,2|0,2:0|2:0,2:0:0:0:
328,80,1577,1,0,2:0:0:0:
360,104,1671,2,0,P|396:102|430:84,1,72,8|0,2:0|2:0,2:0:0:0:
448,64,1952,1,0,2:0:0:0:
472,40,2046,2,0,L|490:109,1,72,0|0,2:0|2:0,2:0:0:0:
432,192,2421,1,8,2:0:0:0:
424,264,2608,1,0,2:0:0:0:
416,336,2796,2,0,P|384:351|348:353,1,72,2|0,2:0|2:0,2:0:0:0:
320,336,3077,5,2,2:0:0:0:
296,320,3171,2,0,P|300:268|270:225,1,72,10|0,2:0|2:0,2:0:0:0:
262,230,3452,1,2,2:0:0:0:
231,210,3546,2,0,P|196:224|160:226,2,72,2|0|10,2:0|2:0|2:0,2:0:0:0:
233,125,4108,69,0,2:0:0:0:
217,109,4202,1,2,2:0:0:0:
201,93,4296,2,0,P|166:93|134:110,1,72,2|0,2:0|2:0,0:0:0:0:
121,133,4577,1,0,0:0:0:0:
105,157,4671,2,0,P|70:157|38:140,1,72,10|0,2:0|2:0,0:0:0:0:
25,125,4952,1,0,0:0:0:0:
17,101,5046,2,0,P|17:66|34:34,1,72,0|0,2:0|2:0,0:0:0:0:
112,0,5421,1,10,2:0:0:0:
176,56,5608,2,0,P|211:56|243:39,1,72,0|0,2:0|2:0,0:0:0:0:
344,88,6077,5,2,2:0:0:0:
320,104,6171,2,0,P|299:155|293:210,1,108,10|2,2:0|2:0,2:0:0:0:
328,240,6546,2,0,P|359:223|395:222,1,72,2|0,2:0|2:0,2:0:0:0:
496,208,6921,2,0,L|484:161,3,36,10|8|8|10,2:0|2:0|2:0|2:0,0:0:0:0:
512,240,7296,70,0,L|487:316,1,72,2|2,2:0|2:0,2:0:0:0:
472,328,7577,1,0,0:0:0:0:
456,344,7671,2,0,P|424:360|388:362,1,72,10|0,2:0|0:0,2:0:0:0:
368,344,7952,1,0,2:0:0:0:
344,320,8046,2,0,P|308:321|276:338,1,72,2|0,2:0|2:0,2:0:0:0:
192,368,8421,1,10,2:0:0:0:
104,344,8608,1,0,0:0:0:0:
56,264,8796,2,0,P|57:228|74:196,1,72,2|0,2:0|2:0,2:0:0:0:
96,184,9077,5,2,2:0:0:0:
120,168,9171,2,0,P|141:137|139:99,1,72,10|0,2:0|2:0,2:0:0:0:
119,74,9452,1,2,2:0:0:0:
91,50,9546,2,0,P|55:52|22:66,2,72,2|0|10,2:0|2:0|2:0,2:0:0:0:
200,8,10108,1,0,2:0:0:0:
224,24,10202,1,2,2:0:0:0:
248,40,10296,2,0,P|264:71|265:107,1,72,2|0,2:0|2:0,2:0:0:0:
248,136,10577,1,0,2:0:0:0:
224,160,10671,2,0,P|188:159|157:176,1,72,8|0,2:0|0:0,2:0:0:0:
144,208,10952,1,0,2:0:0:0:
136,240,11046,70,0,L|204:262,1,72,0|0,2:0|2:0,0:0:0:0:
232,352,11421,2,0,L|300:329,1,72,8|0,2:0|2:0,0:0:0:0:
352,256,11796,1,2,2:0:0:0:
440,240,11983,1,0,2:0:0:0:
456,216,12077,1,0,2:0:0:0:
472,192,12171,2,0,P|475:138|444:96,1,108,10|2,2:0|2:0,2:0:0:0:
408,80,12546,2,0,P|378:100|343:98,1,72,2|0,2:0|2:0,2:0:0:0:
254,36,12921,2,0,L|270:-25,3,36,10|8|8|10,2:0|2:0|2:0|2:0,0:0:0:0:
212,54,13296,70,0,B|180:51|157:33|157:33|140:54|140:94,1,120,2|2,2:0|2:0,2:0:0:0:
48,104,13858,1,0,2:0:0:0:
48,104,14046,2,0,P|53:133|67:159,1,60,10|0,2:0|2:0,2:0:0:0:
120,224,14421,2,0,P|114:253|99:279,1,60,0|0,2:0|0:0,0:0:0:0:
168,336,14796,2,0,P|221:310|281:311,1,120,2|0,2:0|2:0,2:0:0:0:
384,320,15358,1,0,2:0:0:0:
384,320,15546,2,0,P|369:294|363:264,1,60,10|0,2:0|0:0,2:0:0:0:
392,192,15921,2,0,P|417:177|447:171,1,60,0|0,2:0|2:0,0:0:0:0:
488,104,16296,70,0,P|497:47|450:15,1,120,2|2,2:0|2:0,2:0:0:0:
376,40,16858,1,0,2:0:0:0:
376,40,17046,2,0,P|361:65|355:95,1,60,10|0,2:0|2:0,2:0:0:0:
368,176,17421,1,0,2:0:0:0:
448,240,17702,1,2,2:0:0:0:
472,256,17796,2,0,P|481:312|434:344,1,120,2|0,2:0|2:0,2:0:0:0:
360,312,18358,1,0,2:0:0:0:
360,312,18546,2,0,P|334:297|304:291,1,60,8|0,2:0|0:0,2:0:0:0:
240,336,18921,2,0,P|214:350|184:356,1,60,0|0,2:0|0:0,0:0:0:0:
112,312,19296,6,0,P|118:255|143:196,1,120,2|2,2:0|2:0,2:0:0:0:
48,160,19858,1,0,0:0:0:0:
48,160,20046,2,0,P|42:103|17:44,1,120,10|2,2:0|2:0,2:0:0:0:
112,8,20608,1,0,0:0:0:0:
112,8,20796,2,0,P|167:30|214:67,1,120,2|0,2:0|2:0,2:0:0:0:
280,136,21358,1,0,0:0:0:0:
280,136,21546,2,0,P|326:98|382:76,1,120,10|0,2:0|2:0,0:0:0:0:
512,72,22108,1,0,0:0:0:0:
512,72,22296,2,0,B|562:152|562:255|455:316|363:270|402:179,1,360,2|2,2:0|2:0,2:0:0:0:
488,88,23796,69,2,2:0:0:0:
320,120,24077,5,2,2:0:0:0:
335,115,24171,1,2,2:0:0:0:
344,16,24452,69,2,2:0:0:0:
358,23,24546,1,2,2:0:0:0:
456,0,24827,5,2,2:0:0:0:
460,14,24921,1,2,2:0:0:0:
512,104,25202,5,0,2:0:0:0:
496,120,25296,2,0,L|471:212,1,72,2|0,2:0|2:0,2:0:0:0:
480,224,25577,1,0,2:0:0:0:
480,256,25671,2,0,P|448:273|412:274,1,72,8|0,2:0|2:0,2:0:0:0:
389,258,25952,1,0,2:0:0:0:
365,242,26046,2,0,P|333:225|297:224,1,72,0|0,2:0|2:0,2:0:0:0:
240,264,26421,1,8,2:0:0:0:
176,304,26608,1,0,2:0:0:0:
112,344,26796,2,0,P|76:342|44:325,1,72,2|0,2:0|2:0,2:0:0:0:
32,296,27077,5,2,2:0:0:0:
24,264,27171,2,0,P|64:230|74:178,1,108,10|2,2:0|2:0,2:0:0:0:
88,144,27546,2,0,P|123:130|159:128,2,72,2|0|10,2:0|2:0|2:0,2:0:0:0:
32,72,28108,69,0,2:0:0:0:
24,48,28202,1,2,2:0:0:0:
16,24,28296,2,0,P|51:25|83:42,1,72,2|0,2:0|2:0,0:0:0:0:
120,32,28577,1,0,0:0:0:0:
152,24,28671,2,0,P|187:25|219:42,1,72,10|0,2:0|2:0,0:0:0:0:
240,72,28952,1,0,0:0:0:0:
264,104,29046,2,0,P|265:139|282:171,1,72,2|2,2:0|2:0,0:0:0:0:
360,208,29421,1,10,2:0:0:0:
440,168,29608,2,0,P|475:168|507:185,1,72,2|2,2:0|2:0,0:0:0:0:
488,80,30077,5,2,2:0:0:0:
464,56,30171,2,0,P|410:62|360:83,1,108,10|2,2:0|2:0,2:0:0:0:
336,112,30546,2,0,P|335:147|317:178,1,72,2|0,2:0|2:0,2:0:0:0:
177,120,30921,2,0,L|165:73,3,36,10|8|8|10,2:0|2:0|2:0|2:0,0:0:0:0:
144,56,31296,70,0,L|75:33,1,72,2|2,2:0|2:0,2:0:0:0:
48,48,31577,1,0,2:0:0:0:
21,60,31671,2,0,P|37:92|40:128,1,72,10|0,2:0|0:0,2:0:0:0:
24,160,31952,1,0,2:0:0:0:
8,184,32046,2,0,P|8:219|25:251,1,72,2|0,2:0|2:0,2:0:0:0:
88,296,32421,1,10,2:0:0:0:
152,336,32608,1,0,0:0:0:0:
224,368,32796,2,0,P|259:367|291:350,1,72,2|0,2:0|2:0,2:0:0:0:
304,320,33077,5,2,2:0:0:0:
312,288,33171,2,0,P|282:245|285:192,1,108,10|2,2:0|2:0,2:0:0:0:
256,168,33546,2,0,P|220:170|187:184,2,72,2|0|10,2:0|2:0|2:0,2:0:0:0:
344,120,34108,1,0,2:0:0:0:
352,96,34202,1,2,2:0:0:0:
360,72,34296,2,0,P|395:72|427:88,1,72,2|0,2:0|0:0,2:0:0:0:
450,111,34577,1,0,2:0:0:0:
472,136,34671,70,0,P|455:167|456:202,1,72,8|0,2:0|2:0,0:0:0:0:
472,230,34952,1,0,2:0:0:0:
488,256,35046,2,0,P|489:291|470:321,1,72,0|0,2:0|2:0,0:0:0:0:
392,344,35421,2,0,L|324:321,1,72,8|0,2:0|2:0,0:0:0:0:
272,240,35796,1,2,2:0:0:0:
192,288,35983,5,0,2:0:0:0:
160,304,36077,1,0,2:0:0:0:
128,320,36171,2,0,P|96:277|100:224,1,108,10|2,2:0|2:0,2:0:0:0:
72,200,36546,2,0,P|36:201|5:184,1,72,2|0,2:0|2:0,2:0:0:0:
61,79,36921,2,0,L|77:18,3,36,10|8|8|10,2:0|2:0|2:0|2:0,0:0:0:0:
104,32,37296,54,0,B|136:29|159:11|159:11|176:32|176:72,1,120,2|2,2:0|2:0,2:0:0:0:
248,120,37858,1,0,2:0:0:0:
248,120,38046,2,0,P|277:115|303:101,1,60,10|0,2:0|2:0,2:0:0:0:
360,40,38421,2,0,P|389:46|415:61,1,60,0|0,2:0|0:0,0:0:0:0:
480,120,38796,2,0,P|454:173|455:233,1,120,2|0,2:0|2:0,2:0:0:0:
408,304,39358,1,0,2:0:0:0:
408,304,39546,2,0,P|382:319|352:325,1,60,10|0,2:0|0:0,2:0:0:0:
288,280,39921,2,0,P|263:265|233:259,1,60,0|0,2:0|2:0,0:0:0:0:
160,296,40296,70,0,P|127:343|71:333,1,120,2|2,2:0|2:0,2:0:0:0:
16,272,40858,1,0,2:0:0:0:
16,272,41046,2,0,P|31:247|37:217,1,60,10|0,2:0|2:0,2:0:0:0:
24,144,41421,1,0,2:0:0:0:
80,64,41702,1,2,2:0:0:0:
112,40,41796,2,0,P|171:39|225:65,1,120,2|0,2:0|2:0,2:0:0:0:
296,112,42358,1,0,2:0:0:0:
296,112,42546,2,0,P|325:106|351:91,1,60,8|0,2:0|0:0,2:0:0:0:
416,40,42921,2,0,P|445:46|472:60,1,60,0|0,2:0|0:0,0:0:0:0:
504,144,43296,6,0,P|489:179|484:217,1,60,2|0,2:0|0:0,2:0:0:0:
416,272,43671,2,0,P|403:244|396:215,1,60,2|0,2:0|0:0,2:0:0:0:
304,160,44046,70,0,P|274:166|247:179,1,60,10|0,2:0|0:0,2:0:0:0:
232,264,44421,2,0,P|202:257|175:244,1,60,2|0,2:0|0:0,2:0:0:0:
64,224,44796,6,0,P|76:196|83:167,1,60,2|0,2:0|0:0,2:0:0:0:
160,120,45171,2,0,P|147:92|140:63,1,60,0|0,2:0|0:0,2:0:0:0:
216,0,45546,70,0,L|273:15,1,60,10|0,2:0|2:0,0:0:0:0:
304,32,45827,1,2,2:0:0:0:
336,48,45921,2,0,L|393:32,1,60,0|0,2:0|0:0,0:0:0:0:
464,112,46296,6,0,B|488:120|527:164|488:231|381:225|363:173|340:98|296:83|233:87|184:148|177:231|244:290|308:264|312:233,1,480,2|2,2:0|2:0,2:0:0:0:
16,152,49296,5,2,2:0:0:0:
32,224,49483,1,0,2:0:0:0:
48,296,49671,2,0,L|117:277,1,60,0|2,2:0|2:0,0:0:0:0:
184,296,50046,2,0,L|199:238,1,60,0|0,2:0|2:0,0:0:0:0:
264,192,50421,2,0,L|321:207,1,60,0|0,2:0|2:0,0:0:0:0:
360,272,50796,2,0,L|343:333,1,60,2|0,2:0|2:0,0:0:0:0:
280,376,51171,2,0,L|222:360,1,60,0|2,2:0|2:0,0:0:0:0:
184,296,51546,1,0,2:0:0:0:
184,296,51733,1,0,2:0:0:0:
40,152,52296,6,0,L|56:90,1,60,2|0,2:0|2:0,0:0:0:0:
120,48,52671,1,0,2:0:0:0:
120,48,52858,1,2,2:0:0:0:
192,24,53046,2,0,L|249:39,1,60,0|0,2:0|2:0,0:0:0:0:
336,160,53608,70,0,L|393:144,1,60,0|2,2:0|2:0,0:0:0:0:
472,136,53983,2,0,L|488:74,1,60,0|0,2:0|2:0,0:0:0:0:
480,0,54358,1,2,2:0:0:0:
296,24,54733,5,0,2:0:0:0:
320,144,54921,1,2,2:0:0:0:
352,176,55296,69,2,2:0:0:0:
368,248,55483,1,0,2:0:0:0:
384,320,55671,2,0,L|326:335,1,60,0|2,2:0|2:0,0:0:0:0:
264,376,56046,2,0,L|206:361,1,60,0|0,2:0|2:0,0:0:0:0:
168,296,56421,1,0,2:0:0:0:
168,296,56608,1,0,2:0:0:0:
128,224,56796,2,0,L|70:240,1,60,2|0,2:0|2:0,0:0:0:0:
8,184,57171,2,0,L|24:126,1,60,0|2,2:0|2:0,0:0:0:0:
88,72,57546,1,0,2:0:0:0:
88,72,57733,1,0,2:0:0:0:
288,32,58296,6,0,L|345:47,1,60,2|0,2:0|2:0,0:0:0:0:
408,96,58671,1,0,2:0:0:0:
408,96,58858,1,2,2:0:0:0:
432,168,59046,2,0,L|416:225,1,60,0|0,2:0|2:0,0:0:0:0:
288,360,59608,70,0,L|272:302,1,60,0|2,2:0|2:0,0:0:0:0:
216,248,59983,2,0,L|154:231,1,60,0|0,2:0|2:0,0:0:0:0:
104,168,60358,1,2,2:0:0:0:
41,7,60733,5,0,2:0:0:0:
120,40,60921,1,2,2:0:0:0:
160,16,61296,70,0,P|189:18|216:31,1,60,2|0,2:0|2:0,0:0:0:0:
272,88,61671,2,0,P|301:85|328:72,1,60,0|2,2:0|2:0,0:0:0:0:
384,16,62046,1,0,2:0:0:0:
464,40,62233,1,0,2:0:0:0:
480,64,62327,1,0,2:0:0:0:
496,88,62421,2,0,P|493:117|480:144,1,60,0|0,2:0|2:0,2:0:0:0:
416,184,62796,2,0,P|419:213|432:240,1,60,2|0,2:0|2:0,0:0:0:0:
456,256,63077,1,0,2:0:0:0:
480,272,63171,2,0,P|493:298|496:328,1,60,0|2,2:0|2:0,2:0:0:0:
432,376,63546,2,0,P|402:373|375:360,1,60,0|0,2:0|2:0,0:0:0:0:
328,304,63921,2,0,P|298:306|271:319,1,60,0|0,2:0|0:0,0:0:0:0:
193,361,64296,5,2,2:0:0:0:
106,353,64483,1,0,2:0:0:0:
63,279,64671,2,0,P|65:249|78:222,1,60,0|2,2:0|2:0,0:0:0:0:
152,160,65046,2,0,P|165:133|167:103,1,60,0|0,2:0|2:0,0:0:0:0:
152,72,65327,1,0,2:0:0:0:
136,48,65421,2,0,P|109:34|79:32,1,60,0|0,2:0|2:0,2:0:0:0:
0,96,65796,2,0,L|16:157,1,60,2|0,2:0|2:0,0:0:0:0:
104,200,66171,1,0,2:0:0:0:
184,136,66358,2,0,P|211:123|240:123,1,60,2|0,2:0|0:0,0:0:0:0:
336,160,66733,1,0,2:0:0:0:
376,16,66921,1,2,2:0:0:0:
360,32,67296,70,0,L|375:89,1,60,2|0,2:0|2:0,0:0:0:0:
440,136,67671,2,0,L|424:193,1,60,0|2,2:0|2:0,0:0:0:0:
384,264,68046,1,8,2:0:0:0:
344,336,68233,1,0,2:0:0:0:
320,344,68327,1,0,2:0:0:0:
296,352,68421,2,0,P|267:349|240:335,1,60,0|0,2:0|2:0,2:0:0:0:
184,280,68796,2,0,P|155:283|128:297,1,60,2|0,2:0|2:0,0:0:0:0:
104,320,69077,1,0,2:0:0:0:
80,344,69171,2,0,P|50:344|27:327,1,60,0|2,2:0|2:0,2:0:0:0:
0,248,69546,2,0,P|13:221|15:191,1,60,8|0,2:0|2:0,0:0:0:0:
103,160,69921,2,0,P|100:130|87:103,1,60,0|0,2:0|2:0,0:0:0:0:
24,32,70296,5,2,2:0:0:0:
112,19,70483,1,0,2:0:0:0:
186,69,70671,2,0,P|212:82|242:84,1,60,0|2,2:0|2:0,0:0:0:0:
322,43,71046,2,0,P|351:46|378:59,1,60,8|0,2:0|2:0,0:0:0:0:
397,86,71327,1,0,2:0:0:0:
414,113,71421,2,0,P|415:142|428:169,1,60,0|0,2:0|2:0,2:0:0:0:
485,240,71796,54,0,L|504:310,1,60,2|0,2:0|2:0,2:0:0:0:
469,256,72171,2,0,L|488:326,1,60,2|0,2:0|2:0,2:0:0:0:
453,272,72546,2,0,L|472:342,1,60,2|0,2:0|2:0,2:0:0:0:
437,288,72921,2,0,L|456:358,1,60,2|0,2:0|2:0,2:0:0:0:
356,364,73296,5,2,2:0:0:0:
266,354,73483,1,0,2:0:0:0:
176,339,73671,2,0,P|178:310|191:283,1,60,0|2,2:0|2:0,0:0:0:0:
248,221,74046,2,0,P|245:192|232:165,1,60,8|0,2:0|2:0,0:0:0:0:
199,149,74327,1,0,2:0:0:0:
166,134,74421,2,0,P|153:108|151:78,1,60,0|0,2:0|2:0,2:0:0:0:
217,16,74796,70,0,L|287:-3,1,60,2|0,2:0|2:0,2:0:0:0:
233,32,75171,2,0,L|303:13,1,60,2|0,2:0|2:0,2:0:0:0:
249,48,75546,2,0,L|319:29,1,60,2|0,2:0|2:0,2:0:0:0:
265,64,75921,2,0,L|335:45,1,60,2|0,2:0|2:0,2:0:0:0:
425,111,76296,5,2,2:0:0:0:
468,131,76483,1,0,2:0:0:0:
488,174,76671,1,0,2:0:0:0:
475,221,76858,1,0,2:0:0:0:
436,248,77046,1,2,2:0:0:0:
388,244,77233,1,0,2:0:0:0:
354,210,77421,1,0,2:0:0:0:
350,162,77608,1,0,2:0:0:0:
378,123,77796,1,2,2:0:0:0:
460,296,78546,6,0,L|449:334,4,30,0|0|0|0|0,2:0|2:0|2:0|2:0|2:0,0:0:0:0:
222,334,79296,69,2,2:0:0:0:
179,314,79483,1,0,2:0:0:0:
159,271,79671,1,0,2:0:0:0:
172,224,79858,1,0,2:0:0:0:
211,197,80046,1,2,2:0:0:0:
259,201,80233,1,0,2:0:0:0:
293,235,80421,1,0,2:0:0:0:
297,283,80608,1,0,2:0:0:0:
269,322,80796,1,2,2:0:0:0:
54,215,81546,6,0,L|45:186,4,30,0|0|0|0|0,2:0|2:0|2:0|2:0|2:0,0:0:0:0:
128,32,82296,70,0,P|216:72|184:144,1,180,2|0,2:0|0:0,2:0:0:0:
144,200,83046,2,0,P|164:244|172:308,1,90,2|0,2:0|2:0,2:0:0:0:
200,304,83421,2,0,P|244:283|308:275,1,90,2|0,2:0|2:0,2:0:0:0:
312,296,83796,2,0,P|362:361|424:312,1,180,2|0,2:0|0:0,2:0:0:0:
480,248,84546,2,0,L|508:240,4,30,0|0|0|0|0,2:0|2:0|2:0|2:0|2:0,0:0:0:0:
376,216,85296,6,0,P|326:152|391:103,1,180,2|0,2:0|0:0,2:0:0:0:
480,104,86046,2,0,P|472:59|453:19,1,90,2|0,2:0|2:0,2:0:0:0:
408,0,86421,2,0,P|363:7|323:26,1,90,2|0,2:0|2:0,2:0:0:0:
296,64,86796,2,0,B|215:110|205:17|126:63,1,180,2|0,2:0|0:0,2:0:0:0:
72,128,87546,2,0,L|64:156,4,30,0|0|0|0|0,2:0|2:0|2:0|2:0|2:0,0:0:0:0:
168,200,88296,70,0,P|180:227|184:256,1,60,2|2,2:0|2:0,0:0:0:0:
136,320,88671,2,0,P|106:324|79:336,2,60,2|0|2,2:0|2:0|2:0,2:0:0:0:
240,376,89421,1,2,2:0:0:0:
352,336,89796,6,0,P|364:308|368:279,1,60,2|2,2:0|2:0,0:0:0:0:
312,216,90171,2,0,P|299:188|295:159,1,60,2|0,2:0|2:0,2:0:0:0:
312,80,90546,2,0,P|375:65|389:129,1,120,2|2,2:0|2:0,2:0:0:0:
488,184,91296,69,2,2:0:0:0:
448,224,91483,1,0,2:0:0:0:
392,232,91671,1,0,2:0:0:0:
336,216,91858,1,0,2:0:0:0:
296,168,92046,6,0,P|270:152|241:144,1,60,2|0,2:0|2:0,0:0:0:0:
216,64,92421,2,0,P|186:70|160:85,1,60,0|0,2:0|2:0,0:0:0:0:
72,96,92796,69,2,2:0:0:0:
80,152,92983,1,0,2:0:0:0:
88,208,93171,1,0,2:0:0:0:
96,264,93358,1,4,2:0:0:0:
104,320,93546,6,0,P|97:349|82:375,2,60,0|0|4,2:0|2:0|2:0,0:0:0:0:
192,256,94108,5,4,2:0:0:0:
192,256,94296,2,0,B|198:251|203:247|203:247|210:246|217:245|217:245|220:244|223:244|223:244|230:244|237:246|237:246|244:245|250:245|250:245|253:246|258:247|258:247|264:248|271:250|271:250|273:251|281:258|281:258|285:260|288:262|288:262|293:266|299:270|299:270|306:270|314:270|314:270|318:270|320:270|320:270|327:269|333:266|333:266|339:266|346:265|346:265|349:264|352:262|352:262|358:261|363:259,1,183.450834950014,8|8,3:0|3:0,3:0:0:0:
408,200,95046,2,0,B|405:190|404:187|404:187|406:179|408:173|408:173|408:170|409:166|409:166|412:158|414:154|414:154|415:146|415:140|415:140|417:137|418:133|418:133|420:124|421:120|421:120|424:116|427:113,1,92.0769588202464,8|0,3:1|3:0,3:0:0:0:
408,80,95421,2,0,P|363:76|321:59,1,90,4|0,3:0|3:0,3:0:0:0:
296,40,95796,6,0,B|289:42|283:44|283:44|276:43|269:43|269:43|266:44|263:44|263:44|255:44|249:45|249:45|243:48|237:52|237:52|234:54|230:56|230:56|225:60|221:65|221:65|215:67|209:71|209:71|212:74|214:77|214:77|217:82|220:89|220:89|225:93|230:99|230:99|231:102|233:105|233:105|237:110|241:116|241:116|243:124|243:130|243:130|244:133|245:137|245:137|245:141|245:147,1,183.16841890311,8|8,3:0|3:0,3:0:0:0:
184,208,96546,2,0,L|137:195,4,30,8|0|0|0|0,3:1|3:0|3:0|3:0|3:0,0:0:0:0:
296,256,97296,70,0,B|303:258|309:262|309:262|309:263|309:263|313:269|315:275|315:275|316:278|318:281|318:281|319:288|319:295|319:295|319:295|319:295|322:301|323:308|323:308|322:311|322:315|322:315|322:322|321:329|321:329|321:329|321:329|317:335|311:339|311:339|309:342|307:345|307:345|301:348|295:351|295:351|295:351|295:351|290:356|284:359|284:359|281:360|278:361|278:361|271:364|264:365|264:365|264:365|264:365|257:364|251:361|251:361|247:359|244:358|244:358|240:355|236:352,1,185.507002681974,8|8,3:0|3:0,3:0:0:0:
152,336,98046,2,0,B|142:337|138:338|138:338|131:336|125:335|125:335|122:336|118:336|118:336|109:336|104:336|104:336|97:339|92:342|92:342|89:343|85:345|85:345|78:350|74:353|74:353|70:354|66:356,1,91.6214396054626,8|0,3:1|3:0,3:0:0:0:
32,328,98421,2,0,P|48:286|52:241,1,90,4|0,3:0|3:0,3:0:0:0:
80,216,98796,2,0,B|88:216|94:216|94:216|101:218|107:220|107:220|110:220|114:219|114:219|121:220|128:220|128:220|134:216|139:212|139:212|142:210|145:208|145:208|150:203|153:197|153:197|158:193|163:188|163:188|164:185|165:181|165:181|169:175|170:168|170:168|169:161|165:155|165:155|164:151|162:148|162:148|157:143|150:142|150:142|145:138|139:137|139:137|136:137|132:138|132:138|127:139|122:141,1,182.489342598864,8|8,3:0|3:0,3:0:0:0:
48,112,99546,2,0,L|19:83,4,30,8|0|0|0|0,3:1|3:0|3:0|3:0|3:0,0:0:0:0:
136,32,100296,6,0,B|141:26|145:21|145:21|152:18|158:17|158:17|161:16|164:15|164:15|171:14|178:15|178:15|185:12|191:11,1,61.2164308691185,8|0,3:0|3:0,3:0:0:0:
256,56,100671,2,0,P|284:72|325:74,1,60,0|8,3:0|3:0,0:0:0:0:
392,64,101046,2,0,B|396:69|401:74|401:74|401:75|401:75|402:81|403:88|403:88|405:91|406:95|406:95|407:102|407:109|407:109|411:115|413:121|413:121|414:124|415:128|415:128|418:137|420:141|420:141|418:150|418:155|418:155|418:158|418:162|418:162|416:167|414:175|414:175|415:179,1,122.560453556367,8|0,3:1|3:0,3:0:0:0:
360,240,101608,69,0,3:0:0:0:
360,240,101796,2,0,B|351:246|348:247|348:247|339:248|334:247|334:247|331:248|327:249|327:249|323:248|314:246|314:246|312:247|301:249,1,61.2994437177817,8|0,3:0|3:0,0:0:0:0:
232,296,102171,2,0,P|247:321|269:342,1,60,0|8,3:0|3:0,0:0:0:0:
352,368,102546,2,0,B|355:361|358:355|358:355|364:351|370:348|370:348|373:346|376:344|376:344|383:342|389:340|389:340|393:337|401:334|401:334|404:333|407:332|407:332|415:330|421:329|421:329|428:331|435:334|435:334|438:335|441:336|441:336|446:339|452:344|452:344|454:344|456:345,1,122.635413205064,8|0,3:1|3:0,3:0:0:0:
488,224,103296,5,8,3:0:0:0:
448,176,103483,1,0,3:0:0:0:
392,152,103671,1,0,3:0:0:0:
336,160,103858,1,8,3:0:0:0:
288,200,104046,70,0,B|284:208|281:212|281:212|275:216|269:219|269:219|266:221|263:223|263:223|256:225|250:226|250:226|244:230|239:233,1,61.2511300362887,8|0,3:1|3:0,0:0:0:0:
208,304,104421,2,0,P|175:303|138:285,1,60,4|0,3:0|3:0,0:0:0:0:
64,304,104796,5,8,3:0:0:0:
40,248,104983,1,0,3:0:0:0:
48,192,105171,1,0,3:0:0:0:
80,144,105358,1,8,3:0:0:0:
136,120,105546,70,0,B|143:117|149:115|149:115|156:117|163:119|163:119|166:120|170:120|170:120|175:123|182:127|182:127|188:128|194:130,1,61.2535691524261,8|0,3:1|3:0,0:0:0:0:
248,192,105921,2,0,P|280:191|317:173,1,60,0|0,3:0|3:0,3:0:0:0:
