osu file format v14

[General]
AudioFilename: audio.mp3
AudioLeadIn: 0
PreviewTime: 91733
Countdown: 0
SampleSet: Soft
StackLeniency: 0.7
Mode: 2
LetterboxInBreaks: 0
WidescreenStoryboard: 0

[Editor]
DistanceSpacing: 1.2
BeatDivisor: 4
GridSize: 4
TimelineZoom: 1

[Metadata]
Title:Grasswalk IN-GAME
TitleUnicode:Grasswalk IN-GAME
Artist:Laura Shigihara
ArtistUnicode:Laura Shigihara
Creator:-Hex-
Version:Platter
Source:Plants vs. Zombies
Tags:PvZ Pop Cap Steam Tower Defense Strategy OST Day Stage Dapuluous Myxomatosis Desperate-kun
BeatmapID:2504364
BeatmapSetID:1202534

[Difficulty]
HPDrainRate:5
CircleSize:3.5
OverallDifficulty:7.7
ApproachRate:7.7
SliderMultiplier:1.92
SliderTickRate:2

[Events]
//Background and Video events
0,0,"TanamanvsZombie.jpg",0,0
//Break Periods
//Storyboard Layer 0 (Background)
//Storyboard Layer 1 (Fail)
//Storyboard Layer 2 (Pass)
//Storyboard Layer 3 (Foreground)
//Storyboard Layer 4 (Overlay)
//Storyboard Sound Samples

[TimingPoints]
0,521.28583840139,4,2,1,30,1,0
509,521.28583840139,4,2,1,30,1,0
2072,521.28583840139,4,2,1,30,1,0
4157,-100,4,2,1,30,0,0
7305,521.28583840139,4,2,1,30,1,0
7305,-100,4,2,1,30,0,0
8327,521.28583840139,4,2,1,35,1,0
12497,-100,4,2,1,35,0,0
15905,521.28583840139,4,2,1,35,1,0
15905,-100,4,2,1,35,0,0
16668,521.28583840139,4,2,1,40,1,0
16668,-100,4,2,1,40,0,0
29178,-100,4,2,1,40,0,0
29569,-100,4,2,1,15,0,0
29830,-100,4,2,1,30,0,0
32828,-100,4,2,1,35,0,0
33349,-83.3333333333333,4,3,1,50,0,1
50030,-100,4,3,1,40,0,0
58370,-100,4,2,1,30,0,0
75052,-100,4,2,1,35,0,0
91733,-100,4,2,1,40,0,0
114680,521.28583840139,4,2,1,30,1,0
114680,-100,4,2,1,30,0,0
123020,-100,4,2,1,35,0,0
131361,-100,4,2,1,40,0,0

[Colours]
Combo1 : 133,67,67
Combo2 : 0,206,0
Combo3 : 232,232,0

[HitObjects]
128,192,0,5,2,0:0:0:0:
316,112,509,1,0,0:0:0:0:
220,112,769,1,0,0:0:0:0:
436,252,1030,1,0,0:0:0:0:
240,168,1551,2,0,B|360:144|360:144|320:72,1,192,2|2,0:0|0:0,0:0:0:0:
124,152,2593,5,0,0:0:0:0:
28,148,2853,1,0,0:0:0:0:
240,212,3114,1,0,0:0:0:0:
336,212,3375,1,0,0:0:0:0:
432,152,3635,2,0,L|328:152,1,96,0|0,0:0|0:0,0:0:0:0:
104,152,4157,6,0,L|-12:152,2,96,2|0|0,0:0|0:0|0:0,0:0:0:0:
228,208,4939,2,0,L|336:208,2,96,2|2|0,0:0|0:0|0:0,0:0:0:0:
104,180,5721,2,0,L|4:180,1,96,2|0,0:0|0:0,0:0:0:0:
344,240,6242,1,4,0:0:0:0:
120,228,7284,5,0,0:0:0:0:
224,224,7565,1,0,0:0:0:0:
124,156,7826,1,0,0:0:0:0:
28,156,8086,1,0,0:0:0:0:
400,244,8327,5,2,0:0:0:0:
200,196,8848,1,0,0:0:0:0:
300,200,9108,1,0,0:0:0:0:
88,120,9369,1,0,0:0:0:0:
300,192,9890,2,0,B|300:276|300:276|176:300|176:300,1,192,2|2,0:0|0:0,0:0:0:0:
400,184,10933,5,0,0:0:0:0:
496,188,11194,1,0,0:0:0:0:
304,120,11454,1,0,0:0:0:0:
208,124,11715,1,0,0:0:0:0:
112,68,11976,2,0,L|232:68,1,96,0|0,0:0|0:0,0:0:0:0:
440,180,12497,6,0,L|332:180,2,96,2|0|0,0:0|0:0|0:0,0:0:0:0:
316,120,13279,2,0,L|424:120,2,96,2|2|0,0:0|0:0|0:0,0:0:0:0:
192,72,14061,2,0,L|88:72,1,96,2|0,0:0|0:0,0:0:0:0:
444,232,14582,1,4,0:0:0:0:
108,196,15905,6,0,L|228:196,2,96
440,172,16668,6,0,B|492:88|492:88|408:32|408:32,1,192,2|0,0:0|0:0,0:0:0:0:
216,196,17710,1,0,0:0:0:0:
408,136,18231,2,0,L|504:136,1,96,2|0,0:0|0:0,0:0:0:0:
272,144,18753,6,0,L|60:144,1,192,2|0,0:0|0:0,0:0:0:0:
272,200,19795,2,0,L|380:200,1,96,2|0,0:0|0:0,0:0:0:0:
256,128,20317,2,0,L|148:128,1,96,2|0,0:0|0:0,0:0:0:0:
384,148,20838,6,0,P|440:224|356:264,1,192,2|0,0:0|0:0,0:0:0:0:
160,176,21880,2,0,B|72:228|72:228|24:324|24:324,1,192,2|0,0:0|0:0,0:0:0:0:
456,268,22923,1,4,0:0:0:0:
280,196,23444,6,0,L|184:24,2,192,0|0|0,0:0|0:0|0:0,0:0:0:0:
48,192,25008,6,0,L|148:192,1,96,2|0,0:0|0:0,0:0:0:0:
260,128,25529,2,0,L|372:128,1,96,0|2,0:0|0:0,0:0:0:0:
140,192,26051,1,2,0:0:0:0:
361,242,26572,1,0,0:0:0:0:
116,160,27093,6,0,L|20:160,1,96,2|0,0:0|0:0,0:0:0:0:
140,96,27615,2,0,L|28:96,1,96,0|2,0:0|0:0,0:0:0:0:
256,156,28136,2,0,L|476:152,1,192,2|2,0:0|0:0,0:0:0:0:
44,244,29178,6,0,P|96:104|320:96,1,384,4|0,0:0|0:0,0:0:0:0:
32,196,31264,1,2,0:0:0:0:
264,200,32306,1,2,0:0:0:0:
456,196,32827,2,0,B|484:156|484:156|394:123|394:123,1,144,2|0,0:0|0:0,0:0:0:0:
164,180,33349,6,0,B|60:120|60:120|172:72|172:72,1,230.39999296875,12|2,0:2|0:0,0:0:0:0:
280,156,34131,1,2,0:2:0:0:
164,156,34391,1,2,0:2:0:0:
48,164,34652,1,0,0:0:0:0:
280,104,34913,2,0,L|404:104,1,115.199996484375,2|2,0:0|0:0,0:0:0:0:
72,208,35434,6,0,B|20:96|20:96|140:72|140:72,1,230.39999296875,4|2,0:2|0:0,0:0:0:0:
244,196,36216,2,0,L|374:192,1,115.199996484375
129,102,36737,2,0,L|8:97,2,115.199996484375
456,232,37519,6,0,B|504:112|504:112|380:84|380:84,1,230.39999296875,4|2,0:2|0:0,0:0:0:0:
186,90,38301,2,0,L|170:214,1,115.199996484375,2|2,0:0|0:2,0:0:0:0:
56,322,38822,2,0,B|120:306|120:306|176:322|176:322,2,115.199996484375,0|2|0,0:0|0:0|0:0,0:0:0:0:
380,251,39604,6,0,B|340:163|340:163|188:175|188:175,1,230.39999296875,4|2,0:2|0:0,0:0:0:0:
324,247,40386,1,2,0:0:0:0:
92,195,40647,2,0,B|212:151|212:151|320:183|320:183,1,230.39999296875,2|2,0:2|0:0,0:0:0:0:
429,188,41429,1,0,0:0:0:0:
108,174,41689,6,0,B|14:103|14:103|131:71|131:71,1,230.39999296875,12|2,0:2|0:0,0:0:0:0:
238,105,42471,1,2,0:2:0:0:
123,45,42732,2,0,L|251:41,1,115.199996484375,2|0,0:2|0:0,0:0:0:0:
10,197,43253,2,0,B|21:135|21:135|74:102|74:102,1,115.199996484375,2|2,0:0|0:0,0:0:0:0:
388,270,43774,5,4,0:2:0:0:
497,222,44035,1,2,0:0:0:0:
259,152,44296,1,2,0:0:0:0:
379,92,44556,2,0,B|455:92|455:92|487:128|487:128,2,115.199996484375,2|2|0,0:2|0:2|0:0,0:0:0:0:
147,173,45338,2,0,B|78:205|78:205|59:257|59:257,1,115.199996484375,2|0,0:0|0:0,0:0:0:0:
391,245,45860,6,0,B|471:161|471:161|355:101|355:97,1,230.39999296875,4|2,0:2|0:0,0:0:0:0:
253,169,46641,2,0,L|377:169,1,115.199996484375,2|2,0:0|0:2,0:0:0:0:
483,262,47163,2,0,L|356:259,1,115.199996484375,0|2,0:0|0:0,0:0:0:0:
483,106,47684,1,0,0:0:0:0:
147,215,47945,6,0,B|47:161|47:161|153:109|153:109,1,230.39999296875,4|2,0:2|0:0,0:0:0:0:
266,56,48727,1,2,0:0:0:0:
503,147,48987,2,0,L|271:147,1,230.39999296875,2|2,0:2|0:0,0:0:0:0:
145,150,49769,1,0,0:0:0:0:
366,249,50030,6,0,B|473:194|473:194|446:117|446:117,1,192,12|0,0:2|0:0,0:0:0:0:
333,114,50812,1,0,0:0:0:0:
113,148,51072,1,0,0:0:0:0:
305,254,51594,2,0,B|201:234|201:234|97:202|97:202,1,192
368,256,53158,2,0,B|344:204|344:204|332:144|332:144,1,96
436,140,53679,2,0,B|492:108|492:108|508:64|508:64,1,96,0|0,0:0|0:0,0:0:0:0:
170,240,54200,6,0,B|70:204|70:204|42:100|42:100,1,192
96,79,54982,1,0,0:0:0:0:
308,69,55243,1,0,0:0:0:0:
117,160,55764,2,0,L|313:156,1,192
116,156,57328,2,0,B|152:192|152:192|156:244|156:244,1,96
44,232,57849,2,0,B|8:272|8:272|40:304|40:304,1,96,0|0,0:0|0:0,0:0:0:0:
365,244,58370,6,0,B|453:200|453:200|349:160|349:160,1,192,2|0,0:0|0:0,0:0:0:0:
154,120,59413,2,0,L|354:120,1,192,2|0,0:0|0:0,0:0:0:0:
135,180,60456,2,0,L|23:180,2,96,2|0|0,0:0|0:0|0:0,0:0:0:0:
243,128,61237,1,2,0:0:0:0:
359,84,61498,2,0,L|163:84,1,192,2|0,0:0|0:0,0:0:0:0:
400,196,62541,6,0,B|340:224|340:224|304:264|304:264,2,96,2|0|0,0:0|0:0|0:0,0:0:0:0:
495,144,63323,1,2,0:0:0:0:
275,154,63583,2,0,B|171:138|171:138|111:62|111:62,1,192,2|2,0:0|0:0,0:0:0:0:
465,138,64626,2,0,L|465:346,1,192,2|2,0:0|0:0,0:0:0:0:
254,208,65668,2,0,L|50:208,1,192,2|0,0:0|0:0,0:0:0:0:
428,297,66711,6,0,B|492:221|492:221|416:161|416:161,1,192,2|0,0:0|0:0,0:0:0:0:
189,149,67754,2,0,B|109:93|109:93|201:53|201:53,1,192,2|0,0:0|0:0,0:0:0:0:
404,112,68796,2,0,L|284:112,1,96,2|0,0:0|0:0,0:0:0:0:
191,195,69317,2,0,L|75:195,1,96,0|2,0:0|0:0,0:0:0:0:
312,255,69839,2,0,L|524:255,1,192,2|0,0:0|0:0,0:0:0:0:
141,257,70881,6,0,L|141:65,1,192,2|0,0:0|0:0,0:0:0:0:
241,61,71663,1,2,0:0:0:0:
462,61,71924,2,0,L|459:282,1,192
95,107,72966,6,0,L|91:303,1,192,2|0,0:0|0:0,0:0:0:0:
263,190,74009,1,0,0:0:0:0:
147,148,74270,1,0,0:0:0:0:
263,145,74530,1,0,0:0:0:0:
147,110,74791,1,0,0:0:0:0:
482,307,75052,6,0,L|486:105,1,192
295,102,76094,2,0,B|203:150|203:150|303:182|303:182,1,192,2|0,0:0|0:0,0:0:0:0:
37,223,77137,6,0,B|33:227|57:191|57:191|113:175,2,96,2|0|0,0:0|0:0|0:0,0:0:0:0:
153,284,77919,1,2,0:0:0:0:
266,75,78179,2,0,L|50:75,1,192,2|0,0:0|0:0,0:0:0:0:
333,232,79222,6,0,L|429:232,2,96,2|0|0,0:0|0:0|0:0,0:0:0:0:
229,180,80004,1,2,0:0:0:0:
8,41,80264,2,0,L|208:41,1,192,2|2,0:0|0:0,0:0:0:0:
489,125,81307,2,0,B|482:195|482:195|358:235|358:235,1,192,2|0,0:0|0:0,0:0:0:0:
153,233,82350,2,0,B|161:235|37:195|37:195|30:125,1,192,2|0,0:0|0:0,0:0:0:0:
436,208,83392,6,0,L|228:208,1,192,2|0,0:0|0:0,0:0:0:0:
466,151,84435,2,0,L|246:147,1,192,2|0,0:0|0:0,0:0:0:0:
44,204,85477,2,0,L|40:88,1,96,2|0,0:0|0:0,0:0:0:0:
157,87,85999,2,0,L|49:87,1,96,0|2,0:0|0:0,0:0:0:0:
274,179,86520,2,0,B|366:215|366:215|414:324|414:324,1,192,2|0,0:0|0:0,0:0:0:0:
40,184,87562,6,0,L|237:187,1,192,2|0,0:0|0:0,0:0:0:0:
125,246,88344,1,2,0:0:0:0:
337,170,88605,2,0,B|425:214|425:214|329:246|329:246,1,192,2|2,0:0|0:0,0:0:0:0:
26,206,89648,6,0,B|30:127|30:127|149:81|149:81,1,192,2|0,0:0|0:0,0:0:0:0:
290,183,90690,1,0,0:0:0:0:
386,183,90951,1,0,0:0:0:0:
482,183,91211,1,0,0:0:0:0:
382,127,91472,1,0,0:0:0:0:
57,206,91733,6,0,B|23:122|23:122|129:67|129:67,1,192,12|0,0:0|3:0,0:0:0:0:
229,67,92515,1,2,0:0:0:0:
459,202,92775,2,0,B|483:102|483:102|383:66,1,192
39,222,93818,2,0,B|3:114|3:114|87:74|87:74,1,192,2|0,0:0|3:0,0:0:0:0:
179,101,94600,1,2,0:0:0:0:
379,165,94860,2,0,B|259:165|259:165|263:257|263:257,1,192,2|0,0:0|3:0,0:0:0:0:
155,234,95642,1,0,0:0:0:0:
482,197,95903,6,0,B|434:201|434:201|402:249|402:249,2,96,2|0|0,0:0|0:0|3:0,0:0:0:0:
230,122,96946,2,0,L|110:122,2,96,2|0|0,0:0|0:0|3:0,0:0:0:0:
462,232,97988,2,0,L|462:136,1,96,2|0,0:0|0:0,0:0:0:0:
358,152,98509,2,0,L|478:152,1,96,0|2,3:0|0:0,0:0:0:0:
230,205,99031,2,0,B|90:201|90:201|50:253|50:253,1,192,2|0,0:0|3:0,0:0:0:0:
405,52,100073,6,0,L|285:52,1,96,10|0,0:0|0:0,0:0:0:0:
94,255,100595,2,0,L|94:39,1,192,0|2,3:0|0:0,0:0:0:0:
326,48,101637,1,0,3:0:0:0:
115,247,102158,2,0,L|19:247,1,96,2|0,0:0|0:0,0:0:0:0:
143,178,102680,2,0,L|255:178,1,96,0|2,3:0|0:0,0:0:0:0:
26,256,103201,2,0,B|30:140|30:140|126:136|126:136,1,192,2|0,0:0|3:0,0:0:0:0:
469,197,104244,6,0,L|265:197,1,192,2|0,0:0|3:0,0:0:0:0:
172,196,105025,1,2,0:0:0:0:
55,196,105286,2,0,B|11:80|11:80|79:44|79:44,1,192,2|0,0:0|3:0,0:0:0:0:
454,189,106329,6,0,L|338:189,2,96,10|0|0,0:0|0:0|0:0,0:0:0:0:
339,121,107111,1,0,0:0:0:0:
108,188,107371,2,0,L|216:188,2,96,2|0|0,0:0|0:0|0:0,0:0:0:0:
223,126,108153,1,0,0:0:0:0:
477,222,108414,5,0,0:0:0:0:
455,128,108674,1,0,0:0:0:0:
373,92,108935,1,0,0:0:0:0:
487,23,109196,1,0,0:0:0:0:
256,201,109456,2,0,L|136:201,2,96,2|0|0,0:0|0:0|0:0,0:0:0:0:
371,202,110238,1,0,0:0:0:0:
141,111,110499,6,0,L|45:167,2,96,2|0|0,0:0|0:0|0:0,0:0:0:0:
26,45,111281,1,0,0:0:0:0:
255,130,111542,1,2,0:0:0:0:
149,129,111802,1,0,0:0:0:0:
262,64,112063,1,0,0:0:0:0:
146,50,112323,1,0,0:0:0:0:
389,183,112584,6,0,L|277:183,2,96,2|0|2,0:0|0:0|0:0,0:0:0:0:
264,108,113366,1,0,0:0:0:0:
485,203,113627,1,2,0:0:0:0:
379,200,113887,1,0,0:0:0:0:
273,197,114148,1,0,0:0:0:0:
409,59,114409,1,0,0:0:0:0:
76,171,114680,6,0,B|16:327|16:327|412:331|412:331|372:223|372:223,1,672,2|0,0:0|0:0,0:0:0:0:
160,119,116765,2,0,B|432:115|432:115|24:119|24:119,1,672,2|0,0:0|0:0,0:0:0:0:
248,159,118850,6,0,B|376:311|376:311|40:351|40:351|192:335|192:335,1,672,2|0,0:0|0:0,0:0:0:0:
400,167,120935,2,0,B|504:195|504:195|16:271|16:271|104:259|104:259,1,672,2|0,0:0|0:0,0:0:0:0:
426,209,123020,6,0,B|486:125|486:125|422:41,1,192,2|0,0:0|0:0,0:0:0:0:
203,271,124063,2,0,L|199:67,1,192
430,141,125105,2,0,L|234:145,1,192,2|0,0:0|0:0,0:0:0:0:
22,221,126148,2,0,L|238:221,1,192
96,151,126930,1,2,0:0:0:0:
432,191,127190,6,0,B|490:116|490:116|378:88|378:88,1,192,2|0,0:0|0:0,0:0:0:0:
185,115,128233,2,0,L|409:115,1,192
39,253,129276,2,0,L|267:257,2,192,2|0|0,0:0|0:0|0:0,0:0:0:0:
155,179,130579,1,0,0:0:0:0:
375,79,130839,1,0,0:0:0:0:
189,248,131361,5,2,0:0:0:0:
426,174,131621,2,0,L|426:122,1,48,0|0,0:0|0:0,0:0:0:0:
349,85,131882,1,0,0:0:0:0:
474,56,132143,1,0,0:0:0:0:
244,209,132403,1,0,0:0:0:0:
331,73,132664,2,0,L|271:73,1,48
205,70,132925,1,0,0:0:0:0:
86,78,133185,1,0,0:0:0:0:
438,191,133446,5,2,0:0:0:0:
339,304,133706,2,0,L|343:240,1,48
404,212,133967,1,0,0:0:0:0:
507,127,134228,1,0,0:0:0:0:
275,85,134488,1,0,0:0:0:0:
132,101,134749,2,0,L|132:49,1,48
205,41,135010,1,0,0:0:0:0:
89,198,135270,1,2,0:0:0:0:
454,290,135531,5,2,0:0:0:0:
348,185,135792,2,0,L|285:184,2,48,0|0|2,0:0|0:0|0:0,0:0:0:0:
445,186,136313,2,0,L|509:186,2,48,0|0|2,0:0|0:0|0:0,0:0:0:0:
349,85,136834,1,0,0:0:0:0:
296,85,136964,1,0,0:0:0:0:
242,85,137095,1,2,0:0:0:0:
376,169,137355,1,0,0:0:0:0:
29,307,137616,5,2,0:0:0:0:
135,197,137877,1,0,0:0:0:0:
83,197,138007,1,0,0:0:0:0:
31,197,138137,1,2,0:0:0:0:
187,133,138398,1,0,0:0:0:0:
135,133,138529,1,0,0:0:0:0:
83,133,138659,1,2,0:0:0:0:
295,231,138919,6,0,L|379:231,2,48,0|0|2,0:0|0:0|0:0,0:0:0:0:
160,180,139441,1,0,0:0:0:0:
508,313,139701,1,12,0:0:0:0:
