osu file format v14

[General]
AudioFilename: audio.mp3
AudioLeadIn: 0
PreviewTime: 91733
Countdown: 0
SampleSet: Soft
StackLeniency: 0.7
Mode: 2
LetterboxInBreaks: 0
WidescreenStoryboard: 0

[Editor]
Bookmarks: 4157,6242,8327
DistanceSpacing: 2.5
BeatDivisor: 4
GridSize: 16
TimelineZoom: 1

[Metadata]
Title:Grasswalk IN-GAME
TitleUnicode:Grasswalk IN-GAME
Artist:Laura Shigihara
ArtistUnicode:Laura Shigihara
Creator:-Hex-
Version:Dapu's Salad
Source:Plants vs. Zombies
Tags:PvZ Pop Cap Steam Tower Defense Strategy OST Day Stage Dapuluous Myxomatosis Desperate-kun
BeatmapID:2504363
BeatmapSetID:1202534

[Difficulty]
HPDrainRate:4
CircleSize:3
OverallDifficulty:6.6
ApproachRate:6.6
SliderMultiplier:1.7
SliderTickRate:2

[Events]
//Background and Video events
0,0,"TanamanvsZombie.jpg",0,0
//Break Periods
//Storyboard Layer 0 (Background)
//Storyboard Layer 1 (Fail)
//Storyboard Layer 2 (Pass)
//Storyboard Layer 3 (Foreground)
//Storyboard Layer 4 (Overlay)
//Storyboard Sound Samples

[TimingPoints]
0,521.28583840139,4,2,1,30,1,0
509,521.28583840139,4,2,1,30,1,0
2072,521.28583840139,4,2,1,30,1,0
4157,-100,4,2,1,30,0,0
7305,521.28583840139,4,2,1,30,1,0
7305,-100,4,2,1,30,0,0
8327,521.28583840139,4,2,1,35,1,0
12497,-100,4,2,1,35,0,0
15905,521.28583840139,4,2,1,35,1,0
15905,-100,4,2,1,35,0,0
16668,521.28583840139,4,2,1,40,1,0
16668,-100,4,2,1,40,0,0
29178,-100,4,2,1,40,0,0
29569,-100,4,2,1,15,0,0
29830,-100,4,2,1,30,0,0
32828,-100,4,2,1,35,0,0
33349,-83.3333333333333,4,3,1,50,0,1
50030,-100,4,3,1,40,0,0
58370,-100,4,2,1,30,0,0
75052,-100,4,2,1,35,0,0
91733,-100,4,2,1,40,0,0
114680,521.28583840139,4,2,1,30,1,0
114680,-100,4,2,1,30,0,0
123020,-100,4,2,1,35,0,0
131361,-100,4,2,1,40,0,0

[Colours]
Combo1 : 133,67,67
Combo2 : 0,206,0
Combo3 : 232,232,0

[HitObjects]
400,192,0,5,2,0:0:0:0:
176,192,509,1,0,0:0:0:0:
261,192,769,1,0,0:0:0:0:
346,192,1030,1,0,0:0:0:0:
112,192,1551,2,0,P|64:128|128:64,1,170,2|2,0:0|0:0,0:0:0:0:
336,64,2593,6,0,L|448:64,1,85,0|0,0:0|0:0,0:0:0:0:
288,64,3114,1,0,0:0:0:0:
160,64,3375,2,0,L|272:64,1,85,0|0,0:0|0:0,0:0:0:0:
112,64,3896,1,0,0:0:0:0:
336,64,4157,6,0,L|432:64,2,85,2|0|0,0:0|0:0|0:0,0:0:0:0:
96,64,5199,1,2,0:0:0:0:
320,64,5721,2,0,L|416:64,1,85,2|0,0:0|0:0,0:0:0:0:
176,64,6242,5,4,0:0:0:0:
416,64,7305,1,0,0:0:0:0:
176,64,7826,2,0,L|64:64,1,85,0|0,0:0|0:0,0:0:0:0:
288,64,8327,6,0,P|336:112|272:176,1,170,2|0,0:0|0:0,0:0:0:0:
192,176,9108,1,0,0:0:0:0:
112,176,9369,1,0,0:0:0:0:
368,176,9890,2,0,P|432:112|384:64,1,170,2|2,0:0|0:0,0:0:0:0:
160,64,10933,6,0,L|64:64,1,85,0|0,0:0|0:0,0:0:0:0:
208,64,11454,1,0,0:0:0:0:
336,64,11715,2,0,L|224:64,1,85,0|0,0:0|0:0,0:0:0:0:
384,64,12236,1,0,0:0:0:0:
160,64,12497,6,0,L|48:64,2,85,2|0|0,0:0|0:0|0:0,0:0:0:0:
416,64,13539,1,2,0:0:0:0:
224,64,14061,2,0,L|112:64,1,85,2|0,0:0|0:0,0:0:0:0:
368,64,14582,5,4,0:0:0:0:
112,48,15905,2,0,L|16:48,2,85,0|0|0,0:0|0:0|0:0,0:0:0:0:
304,48,16668,6,0,P|352:112|272:176,1,170,2|0,0:0|0:0,0:0:0:0:
80,176,17710,1,0,0:0:0:0:
304,176,18231,2,0,L|416:176,1,85,2|0,0:0|0:0,0:0:0:0:
176,256,18753,5,2,0:0:0:0:
400,256,19274,1,0,0:0:0:0:
176,256,19795,2,0,L|80:256,1,85,2|0,0:0|0:0,0:0:0:0:
208,256,20317,2,0,L|112:256,1,85,2|0,0:0|0:0,0:0:0:0:
336,256,20838,6,0,L|480:352,2,170,2|0|2,0:0|0:0|0:0,0:0:0:0:
112,256,22402,2,0,L|208:256,1,85,0|0,0:0|0:0,0:0:0:0:
416,256,22923,6,0,P|446:191|384:128,1,170,4|0,0:0|0:0,0:0:0:0:
160,128,23966,1,0,0:0:0:0:
384,128,24487,1,0,0:0:0:0:
32,128,25008,5,2,0:0:0:0:
144,128,25269,2,0,L|240:128,1,85,0|0,0:0|0:0,0:0:0:0:
352,128,25790,1,2,0:0:0:0:
240,128,26051,2,0,L|48:128,1,170,2|0,0:0|0:0,0:0:0:0:
368,128,27093,6,0,L|368:240,1,85,2|0,0:0|0:0,0:0:0:0:
256,208,27615,2,0,L|368:208,1,85,0|2,0:0|0:0,0:0:0:0:
224,208,28136,2,0,L|32:208,1,170,2|2,0:0|0:0,0:0:0:0:
432,48,29178,6,0,P|496:192|416:352,1,340,4|0,0:0|0:0,0:0:0:0:
48,336,31264,1,2,0:0:0:0:
384,336,32306,2,0,P|464:336|464:256,1,170,2|2,0:0|0:0,0:0:0:0:
48,256,33349,6,0,P|64:128|128:112,1,203.999993774414,12|2,0:2|0:0,0:0:0:0:
256,112,34131,2,0,L|368:112,2,101.999996887207,2|2|0,0:2|0:2|0:0,0:0:0:0:
400,112,34913,2,0,L|400:224,1,101.999996887207,2|2,0:0|0:0,0:0:0:0:
144,208,35434,6,0,P|96:112|176:48,1,203.999993774414,4|2,0:2|0:0,0:0:0:0:
288,48,36216,2,0,L|288:176,1,101.999996887207,2|2,0:0|0:2,0:0:0:0:
144,144,36737,2,0,L|32:144,2,101.999996887207,0|2|0,0:0|0:0|0:0,0:0:0:0:
400,144,37519,6,0,P|458:220|408:301,1,203.999993774414,4|2,0:2|0:0,0:0:0:0:
272,304,38301,1,2,0:0:0:0:
128,304,38562,2,0,P|32:304|48:224,1,203.999993774414,2|2,0:2|0:0,0:0:0:0:
192,224,39343,1,0,0:0:0:0:
448,224,39604,6,0,P|448:144|336:80,1,203.999993774414,4|2,0:2|0:0,0:0:0:0:
208,80,40386,1,2,0:0:0:0:
64,80,40647,2,0,P|15:164|80:240,1,203.999993774414,2|2,0:2|0:0,0:0:0:0:
208,240,41429,1,0,0:0:0:0:
464,240,41689,6,0,P|464:320|352:336,1,203.999993774414,12|2,0:2|0:0,0:0:0:0:
208,336,42471,2,0,L|310:336,2,101.999996887207,2|2|0,0:2|0:2|0:0,0:0:0:0:
352,336,43253,2,0,L|416:224,1,101.999996887207,2|2,0:0|0:0,0:0:0:0:
176,336,43774,6,0,P|256:224|320:224,1,203.999993774414,4|2,0:2|0:0,0:0:0:0:
176,224,44556,2,0,L|288:224,1,101.999996887207,2|2,0:2|0:2,0:0:0:0:
416,224,45078,2,0,L|496:144,2,101.999996887207,0|2|0,0:0|0:0|0:0,0:0:0:0:
160,224,45860,6,0,P|160:304|272:288,1,203.999993774414,4|2,0:2|0:0,0:0:0:0:
400,304,46641,1,2,0:0:0:0:
256,304,46902,2,0,L|32:304,1,203.999993774414,2|2,0:2|0:0,0:0:0:0:
192,304,47684,1,0,0:0:0:0:
448,304,47945,6,0,P|416:224|304:224,1,203.999993774414,4|2,0:2|0:0,0:0:0:0:
448,208,48727,1,2,0:0:0:0:
309,219,48987,2,0,L|464:80,1,203.999993774414,2|2,0:2|0:0,0:0:0:0:
320,80,49769,1,0,0:0:0:0:
112,80,50030,5,12,0:2:0:0:
336,80,50551,2,0,L|448:80,2,85,0|0|0,0:0|0:0|0:0,0:0:0:0:
112,80,51594,1,0,0:0:0:0:
368,80,52115,5,0,0:0:0:0:
128,192,53158,1,0,0:0:0:0:
48,192,53418,1,0,0:0:0:0:
160,192,53679,1,0,0:0:0:0:
240,192,53939,1,0,0:0:0:0:
480,192,54200,5,0,0:0:0:0:
240,192,54721,2,0,L|144:192,2,85,0|0|0,0:0|0:0|0:0,0:0:0:0:
464,192,55764,1,0,0:0:0:0:
208,192,56285,5,0,0:0:0:0:
400,192,57328,1,0,0:0:0:0:
480,192,57588,1,0,0:0:0:0:
368,96,57849,1,0,0:0:0:0:
288,96,58109,1,0,0:0:0:0:
48,96,58370,5,2,0:0:0:0:
272,96,58892,2,0,L|448:96,2,170,0|2|0,0:0|0:0|0:0,0:0:0:0:
48,96,60456,6,0,L|48:181,1,85,2|0,0:0|0:0,0:0:0:0:
176,176,60977,2,0,L|176:80,1,85,0|2,0:0|0:0,0:0:0:0:
48,96,61498,1,2,0:0:0:0:
272,96,62019,1,0,0:0:0:0:
496,96,62541,6,0,L|384:96,1,85,2|0,0:0|0:0,0:0:0:0:
288,96,63062,2,0,L|400:96,2,85,0|2|2,0:0|0:0|0:0,0:0:0:0:
64,96,64105,1,2,0:0:0:0:
448,96,64626,6,0,L|272:96,2,170,0|2|2,0:0|0:0|0:0,0:0:0:0:
192,96,66190,1,0,0:0:0:0:
416,96,66711,6,0,P|464:176|416:224,1,170,2|0,0:0|0:0,0:0:0:0:
192,224,67754,2,0,L|384:224,1,170,2|0,0:0|0:0,0:0:0:0:
128,224,68796,6,0,L|32:224,1,85,2|0,0:0|0:0,0:0:0:0:
160,224,69317,2,0,L|256:224,2,85,0|2|2,0:0|0:0|0:0,0:0:0:0:
384,224,70360,1,0,0:0:0:0:
32,224,70881,6,0,P|32:304|112:304,1,170,2|0,0:0|0:0,0:0:0:0:
336,304,71924,1,2,0:0:0:0:
112,304,72445,2,0,L|16:304,1,85,2|0,0:0|0:0,0:0:0:0:
240,304,72966,5,2,0:0:0:0:
496,304,73488,1,0,0:0:0:0:
272,304,74009,2,0,L|160:304,1,85,0|0,0:0|0:0,0:0:0:0:
64,304,74530,2,0,L|160:304,1,85,0|0,0:0|0:0,0:0:0:0:
368,304,75052,5,2,0:0:0:0:
128,304,75573,2,0,L|16:144,2,170,0|2|0,0:0|0:0|0:0,0:0:0:0:
352,288,77137,6,0,L|448:288,1,85,2|0,0:0|0:0,0:0:0:0:
304,288,77658,2,0,L|304:192,1,85,0|2,0:0|0:0,0:0:0:0:
432,208,78179,1,2,0:0:0:0:
208,208,78700,1,0,0:0:0:0:
432,80,79222,6,0,L|320:80,1,85,2|0,0:0|0:0,0:0:0:0:
224,80,79743,2,0,L|139:80,2,85,0|2|2,0:0|0:0|0:0,0:0:0:0:
448,80,80786,1,2,0:0:0:0:
64,192,81307,6,0,L|234:192,2,170,0|2|2,0:0|0:0|0:0,0:0:0:0:
336,192,82871,1,0,0:0:0:0:
112,192,83392,6,0,P|66:126|128:80,1,170,2|0,0:0|0:0,0:0:0:0:
368,80,84435,2,0,P|414:144|366:207,1,170,2|0,0:0|0:0,0:0:0:0:
144,208,85477,6,0,L|48:208,1,85,2|0,0:0|0:0,0:0:0:0:
176,208,85998,2,0,L|272:208,2,85,0|2|2,0:0|0:0|0:0,0:0:0:0:
400,208,87041,1,0,0:0:0:0:
48,208,87562,6,0,P|48:272|144:272,1,170,2|0,0:0|0:0,0:0:0:0:
368,272,88605,1,2,0:0:0:0:
144,272,89126,2,0,L|229:272,1,85,2|0,0:0|0:0,0:0:0:0:
448,272,89647,5,2,0:0:0:0:
224,272,90169,1,0,0:0:0:0:
448,272,90690,2,0,L|448:176,1,85,0|0,0:0|0:0,0:0:0:0:
320,192,91211,2,0,L|416:192,1,85,0|0,0:0|0:0,0:0:0:0:
192,192,91733,6,0,P|96:224|64:320,1,170,12|0,0:0|3:0,0:0:0:0:
144,288,92515,1,2,0:0:0:0:
256,288,92775,2,0,P|352:304|432:240,1,170,2|0,0:0|3:0,0:0:0:0:
64,288,93818,6,0,P|32:224|80:128,1,170,2|0,0:0|3:0,0:0:0:0:
208,144,94600,1,2,0:0:0:0:
80,144,94860,2,0,P|32:192|96:272,1,170,2|0,0:0|3:0,0:0:0:0:
432,272,95903,6,0,L|320:272,2,85,2|0|0,0:0|0:0|3:0,0:0:0:0:
208,272,96946,2,0,L|320:272,1,85,2|0,0:0|0:0,0:0:0:0:
416,272,97467,1,0,3:0:0:0:
80,272,97988,6,0,L|176:272,2,85,2|0|0,0:0|0:0|3:0,0:0:0:0:
165,272,98770,1,2,0:0:0:0:
384,272,99031,2,0,P|419:199|367:138,1,170,2|0,0:0|3:0,0:0:0:0:
144,144,100073,6,0,L|32:144,1,85,10|0,0:0|0:0,0:0:0:0:
272,144,100595,1,0,3:0:0:0:
48,144,101116,1,2,0:0:0:0:
304,144,101637,1,0,3:0:0:0:
80,144,102158,6,0,L|256:144,2,170,2|0|2,0:0|3:0|0:0,0:0:0:0:
304,144,103722,2,0,L|192:144,1,85,0|0,3:0|0:0,0:0:0:0:
432,320,104244,6,0,P|480:256|416:192,1,170,2|0,0:0|3:0,0:0:0:0:
256,192,105286,1,2,0:0:0:0:
480,192,105807,1,0,3:0:0:0:
256,192,106329,6,0,L|256:80,1,85,10|0,0:0|0:0,0:0:0:0:
368,112,106850,2,0,L|480:112,1,85,0|0,0:0|0:0,0:0:0:0:
336,112,107371,2,0,L|224:112,2,85,2|0|0,0:0|0:0|0:0,0:0:0:0:
453,112,108153,1,0,0:0:0:0:
240,112,108414,6,0,L|128:112,1,85,2|0,0:0|0:0,0:0:0:0:
272,112,108935,2,0,L|160:112,1,85
70,112,109456,2,0,L|155:112,2,85,2|0|0,0:0|0:0|0:0,0:0:0:0:
192,112,110238,1,0,0:0:0:0:
400,112,110499,6,0,L|496:112,2,85,2|0|0,0:0|0:0|0:0,0:0:0:0:
288,112,111281,1,0,0:0:0:0:
176,112,111542,2,0,L|64:112,2,85,2|0|0,0:0|0:0|0:0,0:0:0:0:
64,112,112323,1,0,0:0:0:0:
272,112,112584,6,0,L|384:112,2,85,2|0|0,0:0|0:0|0:0,0:0:0:0:
160,112,113366,1,0,0:0:0:0:
245,112,113627,2,0,L|133:112,2,85,2|0|0,0:0|0:0|0:0,0:0:0:0:
368,112,114409,1,0,0:0:0:0:
160,192,114680,6,0,B|207:238|367:206|367:206|223:318|191:334|159:334|127:318|111:286|127:254|143:222|143:222|160:192,1,595,2|0,0:0|0:0,0:0:0:0:
288,80,116765,6,0,B|82:74|18:106|18:106|90:84|162:74|258:72|337:85,1,595,2|0,0:0|0:0,0:0:0:0:
464,176,118850,6,0,B|417:222|257:190|257:190|401:302|433:318|465:318|497:302|513:270|497:238|481:206|481:206|464:176,1,595,2|0,0:0|0:0,0:0:0:0:
336,64,120935,6,0,B|130:58|66:90|66:90|138:68|210:58|306:56|385:69,1,595,2|0,0:0|0:0,0:0:0:0:
176,272,123020,6,0,P|80:272|80:192,1,170,2|0,0:0|0:0,0:0:0:0:
320,272,124063,2,0,P|224:272|224:192,1,170,0|0,0:0|0:0,0:0:0:0:
448,32,125105,6,0,P|480:128|464:192,1,170,2|0,0:0|0:0,0:0:0:0:
224,32,126148,2,0,L|32:32,1,170
128,32,126930,1,2,0:0:0:0:
336,32,127190,6,0,P|384:96|320:160,1,170,2|0,0:0|0:0,0:0:0:0:
80,192,128233,2,0,P|32:240|96:320,1,170,0|0,0:0|0:0,0:0:0:0:
448,304,129276,6,0,L|278:304,2,170,2|0|0,0:0|0:0|0:0,0:0:0:0:
320,304,130579,1,0,0:0:0:0:
192,304,130839,1,0,0:0:0:0:
320,192,131361,6,0,L|224:192,1,85,2|0,0:0|0:0,0:0:0:0:
112,192,131882,2,0,L|112:288,1,85,0|0,0:0|0:0,0:0:0:0:
240,272,132404,1,2,0:0:0:0:
352,272,132664,2,0,L|267:272,2,85,0|0|0,0:0|0:0|0:0,0:0:0:0:
144,272,133446,6,0,L|256:272,1,85,2|0,0:0|0:0,0:0:0:0:
352,272,133968,2,0,L|240:272,1,85,0|0,0:0|0:0,0:0:0:0:
384,272,134489,1,2,0:0:0:0:
267,272,134749,2,0,L|155:272,2,85,0|0|2,0:0|0:0|0:0,0:0:0:0:
480,272,135531,5,2,0:0:0:0:
368,272,135792,2,0,L|272:272,1,85,0|2,0:0|0:0,0:0:0:0:
160,272,136313,1,0,0:0:0:0:
272,272,136574,2,0,L|160:272,1,85,2|0,0:0|0:0,0:0:0:0:
304,272,137095,2,0,L|192:272,1,85,2|0,0:0|0:0,0:0:0:0:
432,272,137617,5,2,0:0:0:0:
320,272,137877,2,0,L|208:272,1,85,0|2,0:0|0:0,0:0:0:0:
352,272,138398,1,0,0:0:0:0:
235,272,138659,2,0,L|347:272,1,85,2|0,0:0|0:0,0:0:0:0:
432,192,139180,1,2,0:0:0:0:
80,192,139701,1,12,0:0:0:0:
