osu file format v14

[General]
AudioFilename: audio.mp3
AudioLeadIn: 0
PreviewTime: 33296
Countdown: 0
SampleSet: None
StackLeniency: 0.8
Mode: 0
LetterboxInBreaks: 0
WidescreenStoryboard: 0

[Editor]
Bookmarks: 16798,50394,59994,76792,79192,95990,98390,98427,98465,98502,98540
DistanceSpacing: 1.1
BeatDivisor: 2
GridSize: 8
TimelineZoom: 0.88

[Metadata]
Title:Cerebrawl IN-GAME
TitleUnicode:Cerebrawl IN-GAME
Artist:Laura Shigihara
ArtistUnicode:Laura Shigihara
Creator:XFroceS
Version:Easy Puzzle
Source:Plants vs. Zombies
Tags:plants vs zombies soundtrack popcap vasebreaker minigame tower defense night EggsGone pvz
BeatmapID:1450962
BeatmapSetID:685474

[Difficulty]
HPDrainRate:3
CircleSize:2.5
OverallDifficulty:3
ApproachRate:0
SliderMultiplier:0.999999999999999
SliderTickRate:2

[Events]
//Background and Video events
0,0,"GGphoto.jpg",0,0
//Break Periods
2,50591,58188
//Storyboard Layer 0 (Background)
//Storyboard Layer 1 (Fail)
//Storyboard Layer 2 (Pass)
//Storyboard Layer 3 (Foreground)
//Storyboard Sound Samples

[TimingPoints]
15,599.73012144535,4,2,1,50,1,0
16807,-100,4,3,1,50,0,0
33599,-100,4,2,1,60,0,1
50392,-100,4,2,1,60,0,0
50400,-100,4,2,1,60,0,0
59988,-100,4,2,1,60,0,0
76780,-100,4,2,1,60,0,0
78579,-100,4,2,1,60,0,0
79179,-100,4,2,1,60,0,0
95971,-100,4,2,1,60,0,0
97771,-100,4,2,1,60,0,0
98370,-100,4,2,1,60,0,0
98385,-100,4,2,1,60,0,0

[Colours]
Combo1 : 249,68,0
Combo2 : 14,188,149
Combo3 : 56,177,0
Combo4 : 38,164,67

[HitObjects]
88,96,15,6,0,L|200:96,1,99.9999999999999,2|0,0:0|0:0,0:0:0:0:
265,173,1214,2,0,L|377:173,1,99.9999999999999,2|0,0:0|0:0,0:0:0:0:
475,173,2413,5,2,0:0:0:0:
475,283,3013,2,0,P|465:329|425:377,2,99.9999999999999,0|2|0,0:0|0:0|0:0,0:0:0:0:
475,172,4812,5,2,0:0:0:0:
254,172,6012,2,0,L|138:172,1,99.9999999999999,2|0,0:0|0:0,0:0:0:0:
96,264,7211,2,0,P|63:207|87:79,1,200,2|2,0:0|0:0,0:0:0:0:
208,264,9610,6,0,P|282:294|418:250,2,200,2|2|2,0:0|0:0|0:0,0:0:0:0:
248,160,12609,2,0,L|349:159,1,99.9999999999999,0|2,0:0|0:0,0:0:0:0:
160,48,14408,2,0,B|256:24|256:24|371:52,1,200,2|2,0:0|0:0,0:0:0:0:
448,104,16207,1,0,0:0:0:0:
370,181,16807,6,0,L|288:260,1,99.9999999999999,0|8,0:0|0:0,0:0:0:0:
192,232,18006,2,0,L|269:154,1,99.9999999999999,0|8,0:0|0:0,0:0:0:0:
340,82,19206,2,0,B|376:48|376:48|320:24|208:48,2,200
256,152,22205,1,8,0:0:0:0:
146,152,22804,2,0,P|122:208|146:312,1,150
168,336,24004,6,0,P|231:377|359:329,1,200
422,268,25803,1,8,0:0:0:0:
422,157,26403,2,0,P|346:103|225:90,2,200
320,192,29401,2,0,P|259:179|206:188,1,99.9999999999999,8|0,0:0|0:0,0:0:0:0:
144,105,30601,1,8,0:0:0:0:
40,64,31200,6,0,L|48:272,1,200
144,312,33000,1,8,0:0:0:0:
216,232,33599,6,0,L|294:135,1,99.9999999999999,4|8,0:0|0:0,0:0:0:0:
391,157,34799,2,0,L|313:254,1,99.9999999999999,2|8,0:0|0:0,0:0:0:0:
218,234,35998,2,0,P|177:189|136:48,2,200,4|2|4,0:0|0:0|0:0,0:0:0:0:
411,136,39597,2,0,P|432:188|406:253,1,99.9999999999999,2|8,0:0|0:0,0:0:0:0:
336,192,40796,6,0,P|316:129|423:41,1,200,4|2,0:0|0:0,0:0:0:0:
184,48,43195,2,0,L|160:272,2,200,4|2|4,0:0|0:0|0:0,0:0:0:0:
288,80,46194,6,0,L|275:195,1,99.9999999999999,8|2,0:0|0:0,0:0:0:0:
432,23,47993,2,0,L|408:247,2,200,4|2|4,0:0|0:0|0:0,0:0:0:0:
168,192,59988,6,0,L|32:216,1,99.9999999999999,8|0,0:0|0:0,0:0:0:0:
70,100,61187,2,0,L|206:76,1,99.9999999999999,8|0,0:0|0:0,0:0:0:0:
280,56,62386,2,0,P|336:33|360:153,1,200,8|8,0:0|0:0,0:0:0:0:
379,246,64186,1,0,0:0:0:0:
280,296,64785,6,0,L|168:312,1,99.9999999999999,8|0,0:0|0:0,0:0:0:0:
120,224,65985,2,0,L|232:208,1,99.9999999999999,8|0,0:0|0:0,0:0:0:0:
328,192,67184,2,0,P|384:176|432:96,1,150,8|0,0:0|0:0,0:0:0:0:
400,56,68384,2,0,L|240:34,1,150,8|0,0:0|0:0,0:0:0:0:
200,32,69583,6,0,P|152:16|80:24,1,99.9999999999999,8|0,0:0|0:0,0:0:0:0:
32,104,70783,2,0,P|80:120|152:112,1,99.9999999999999,8|0,0:0|0:0,0:0:0:0:
208,192,71982,2,0,B|289:167|289:167|329:183|329:183|409:159,1,200,8|8,0:0|0:0,0:0:0:0:
480,240,73781,1,0,0:0:0:0:
400,312,74381,2,0,B|319:337|319:337|279:321|279:321|199:345,2,200,8|8|2,0:0|0:0|0:0,0:0:0:0:
471,233,77380,1,2,0:0:0:0:
471,233,77979,1,4,0:0:0:0:
471,122,78579,1,0,0:0:0:0:
393,44,79179,6,0,P|328:40|280:48,1,99.9999999999999,8|0,0:0|0:0,0:0:0:0:
215,122,80378,2,0,P|165:127|115:122,1,99.9999999999999,8|0,0:0|0:0,0:0:0:0:
104,232,81578,2,0,P|208:232|320:208,1,200
408,176,83377,1,0,0:0:0:0:
370,279,83977,6,0,P|316:301|263:313,1,99.9999999999999
197,233,85176,2,0,P|143:255|90:267,1,99.9999999999999
16,192,86376,2,0,P|0:136|16:32,1,150,8|0,0:0|0:0,0:0:0:0:
56,16,87575,2,0,P|112:0|216:16,1,150,8|0,0:0|0:0,0:0:0:0:
241,49,88775,6,0,L|240:164,1,99.9999999999999,8|0,0:0|0:0,0:0:0:0:
344,192,89974,2,0,L|342:320,1,99.9999999999999,8|0,0:0|0:0,0:0:0:0:
232,296,91173,2,0,P|175:286|119:150,1,200,8|8,0:0|0:0,0:0:0:0:
224,184,92973,1,0,0:0:0:0:
224,72,93572,6,0,P|281:82|337:218,2,200,8|8|2,0:0|0:0|0:0,0:0:0:0:
113,72,96571,1,2,0:0:0:0:
113,72,97171,1,4,0:0:0:0:
8,40,97771,2,0,P|8:88|48:152,1,99.9999999999999
