osu file format v14

[General]
AudioFilename: audio.ogg
AudioLeadIn: 0
PreviewTime: 42702
Countdown: 0
SampleSet: Normal
StackLeniency: 0.7
Mode: 1
LetterboxInBreaks: 0
WidescreenStoryboard: 0

[Editor]
DistanceSpacing: 1.4
BeatDivisor: 4
GridSize: 32
TimelineZoom: 1.4

[Metadata]
Title:Zo Verliefd (Yodelo)
TitleUnicode:Zo Verliefd (Yodelo)
Artist:Laura Omloop
ArtistUnicode:Laura Omloop
Creator:LGM
Version:enneya's Oni
Source:2009 Junior Eurovision Song Contest
Tags:yodel yodeley 09 jesc jevsc eurovisiesongfestival vrt ketnet love liefde belgium belgiƫ dutch flemish vlaams nederlands belgisch belgian folk pop female vocals enneya larsgonmad dabo
BeatmapID:4159101
BeatmapSetID:2000407

[Difficulty]
HPDrainRate:6.5
CircleSize:2
OverallDifficulty:5
ApproachRate:10
SliderMultiplier:1.4
SliderTickRate:1

[Events]
//Background and Video events
0,0,"101154515_p0.jpg",0,75
//Break Periods
2,40358,42046
//Storyboard Layer 0 (Background)
//Storyboard Layer 1 (Fail)
//Storyboard Layer 2 (Pass)
//Storyboard Layer 3 (Foreground)
//Storyboard Layer 4 (Overlay)
//Storyboard Sound Samples

[TimingPoints]
6796,750,4,1,0,50,1,0
42796,555.555555555555,4,1,0,80,1,0
60573,-100,4,1,0,70,0,0
69462,-100,4,1,0,80,0,0
78351,-100,4,1,0,70,0,0
87239,-100,4,1,0,40,0,0
87379,-125,4,1,0,40,0,0
95990,-111.111111111111,4,1,0,50,0,0
102795,555.555555555555,4,1,0,70,1,0
102795,-111.111111111111,4,1,0,70,0,0
103072,-111.997695520668,4,1,0,69,0,0
103350,-112.90182071609,4,1,0,69,0,0
103628,-113.820662197371,4,1,0,68,0,0
103906,-114.75458221422,4,1,0,67,0,0
104183,-115.700511843828,4,1,0,66,0,0
104461,-116.665666446618,4,1,0,66,0,0
104739,-117.647058823529,4,1,0,65,0,0
105017,-118.645102227647,4,1,0,64,0,0
105294,-119.656541408919,4,1,0,64,0,0
105572,-120.689119975167,4,1,0,63,0,0
105850,-121.739674985127,4,1,0,62,0,0
106128,-122.80867999621,4,1,0,61,0,0
106406,-123.896625346547,4,1,0,61,0,0
106683,-125,4,1,0,60,0,0
107239,555.555555555555,4,1,0,80,1,0
125016,-100,4,1,0,70,0,0
133905,-100,4,1,0,80,0,0
142794,-100,4,1,0,90,0,0
144183,-100,4,1,0,60,0,0
145016,-100,4,1,0,90,0,0

[HitObjects]
248,60,6796,5,0,0:0:0:0:
248,60,7171,1,8,0:0:0:0:
248,60,7546,1,8,0:0:0:0:
248,60,7921,1,0,0:0:0:0:
248,60,8296,1,8,0:0:0:0:
248,60,8671,1,0,0:0:0:0:
248,60,8858,1,0,0:0:0:0:
248,60,9421,1,8,0:0:0:0:
241,50,9796,1,0,0:0:0:0:
241,50,10171,1,8,0:0:0:0:
241,50,10358,1,8,0:0:0:0:
272,57,10921,1,0,0:0:0:0:
245,51,11296,1,8,0:0:0:0:
245,51,11671,1,8,0:0:0:0:
245,51,12046,1,0,0:0:0:0:
250,42,12796,1,8,0:0:0:0:
250,42,13171,1,0,0:0:0:0:
250,42,13358,1,0,0:0:0:0:
250,42,13921,1,8,0:0:0:0:
250,42,14108,1,8,0:0:0:0:
250,42,14296,1,0,0:0:0:0:
250,42,14671,1,0,0:0:0:0:
250,42,15046,1,8,0:0:0:0:
250,42,15421,1,0,0:0:0:0:
250,42,15608,1,0,0:0:0:0:
250,42,15796,1,8,0:0:0:0:
250,42,16171,1,8,0:0:0:0:
250,42,16546,1,0,0:0:0:0:
250,42,16921,1,0,0:0:0:0:
250,42,17296,1,8,0:0:0:0:
250,42,18046,1,8,0:0:0:0:
253,71,18796,1,0,0:0:0:0:
253,71,19171,1,8,0:0:0:0:
253,71,19546,1,8,0:0:0:0:
281,83,19921,1,0,0:0:0:0:
274,79,20296,1,8,0:0:0:0:
271,76,20671,1,0,0:0:0:0:
271,76,20858,1,0,0:0:0:0:
275,55,21796,1,0,0:0:0:0:
275,55,22171,1,8,0:0:0:0:
275,55,22358,1,8,0:0:0:0:
275,55,22921,1,0,0:0:0:0:
275,55,23296,1,8,0:0:0:0:
275,55,23671,1,8,0:0:0:0:
275,55,23858,1,8,0:0:0:0:
275,42,24046,1,0,0:0:0:0:
250,42,24796,1,8,0:0:0:0:
250,42,25171,1,0,0:0:0:0:
250,42,25358,1,0,0:0:0:0:
250,42,25921,1,8,0:0:0:0:
250,42,26108,1,8,0:0:0:0:
250,42,26296,1,0,0:0:0:0:
250,42,26671,1,0,0:0:0:0:
250,42,27046,1,8,0:0:0:0:
250,42,27421,1,0,0:0:0:0:
250,42,27608,1,0,0:0:0:0:
250,42,27796,1,8,0:0:0:0:
281,53,28546,1,8,0:0:0:0:
281,53,29296,1,0,0:0:0:0:
281,53,30046,1,0,0:0:0:0:
294,49,30421,1,0,0:0:0:0:
285,43,30608,1,0,0:0:0:0:
294,49,30796,1,8,0:0:0:0:
284,64,31171,1,0,0:0:0:0:
284,64,31546,1,8,0:0:0:0:
284,64,31921,1,0,0:0:0:0:
284,64,32296,1,8,0:0:0:0:
295,56,33046,1,8,0:0:0:0:
295,56,33421,1,8,0:0:0:0:
295,56,33796,1,0,0:0:0:0:
295,56,34171,1,0,0:0:0:0:
295,56,34546,1,8,0:0:0:0:
295,56,34921,1,0,0:0:0:0:
295,56,35296,1,8,0:0:0:0:
295,56,36046,1,8,0:0:0:0:
295,56,36796,1,0,0:0:0:0:
295,56,37171,1,0,0:0:0:0:
295,56,37546,1,8,0:0:0:0:
295,56,37921,1,8,0:0:0:0:
295,56,38296,1,0,0:0:0:0:
234,108,39046,1,8,0:0:0:0:
234,108,39421,1,0,0:0:0:0:
234,108,39796,1,8,0:0:0:0:
236,340,42796,5,4,0:0:0:0:
236,89,43073,1,8,0:0:0:0:
236,89,43351,1,8,0:0:0:0:
243,94,43629,1,0,0:0:0:0:
242,93,43768,1,0,0:0:0:0:
242,93,43907,1,8,0:0:0:0:
236,89,44184,1,0,0:0:0:0:
236,89,44323,1,8,0:0:0:0:
234,88,44601,1,0,0:0:0:0:
232,88,44740,1,8,0:0:0:0:
245,79,44879,1,8,0:0:0:0:
246,81,45018,1,0,0:0:0:0:
246,81,45296,1,8,0:0:0:0:
246,81,45573,1,0,0:0:0:0:
241,65,45712,1,8,0:0:0:0:
246,81,45851,1,0,0:0:0:0:
241,65,46129,1,8,0:0:0:0:
241,65,46268,1,8,0:0:0:0:
241,65,46407,1,8,0:0:0:0:
241,65,46545,1,0,0:0:0:0:
241,65,46962,1,0,0:0:0:0:
241,65,47240,1,8,0:0:0:0:
241,65,47379,1,8,0:0:0:0:
241,65,47518,1,0,0:0:0:0:
241,65,47657,1,0,0:0:0:0:
241,65,47795,1,8,0:0:0:0:
241,65,48073,1,0,0:0:0:0:
241,65,48351,1,8,0:0:0:0:
242,57,48490,1,8,0:0:0:0:
241,65,48629,1,0,0:0:0:0:
231,48,48907,1,8,0:0:0:0:
245,46,49184,1,0,0:0:0:0:
245,46,49323,1,0,0:0:0:0:
245,46,49462,1,8,0:0:0:0:
245,46,49740,1,0,0:0:0:0:
245,46,49879,1,8,0:0:0:0:
245,46,50018,1,0,0:0:0:0:
251,44,50295,1,8,0:0:0:0:
251,44,50434,1,8,0:0:0:0:
251,44,50573,1,0,0:0:0:0:
254,46,50851,1,8,0:0:0:0:
245,46,50990,1,8,0:0:0:0:
251,44,51407,1,8,0:0:0:0:
254,328,51684,1,4,0:0:0:0:
252,54,51962,1,0,0:0:0:0:
251,44,52101,1,0,0:0:0:0:
252,54,52240,1,8,0:0:0:0:
246,49,52518,1,0,0:0:0:0:
246,49,52795,1,8,0:0:0:0:
255,37,52934,1,8,0:0:0:0:
265,42,53212,1,0,0:0:0:0:
265,42,53351,1,0,0:0:0:0:
265,42,53490,1,0,0:0:0:0:
265,42,53629,1,8,0:0:0:0:
265,42,53907,1,0,0:0:0:0:
265,42,54184,1,8,0:0:0:0:
265,42,54462,1,0,0:0:0:0:
246,28,54601,1,0,0:0:0:0:
274,43,54740,1,8,0:0:0:0:
274,43,55018,1,0,0:0:0:0:
244,28,55157,1,8,0:0:0:0:
273,40,55295,1,8,0:0:0:0:
273,40,55434,1,0,0:0:0:0:
274,43,55851,1,0,0:0:0:0:
273,40,56129,1,8,0:0:0:0:
273,40,56268,1,8,0:0:0:0:
273,40,56407,1,8,0:0:0:0:
274,43,56545,1,8,0:0:0:0:
274,43,56684,1,0,0:0:0:0:
273,40,56962,1,8,0:0:0:0:
273,40,57240,1,0,0:0:0:0:
273,40,57379,1,0,0:0:0:0:
266,38,57518,1,8,0:0:0:0:
273,40,57795,1,8,0:0:0:0:
260,40,58073,1,0,0:0:0:0:
260,40,58212,1,0,0:0:0:0:
261,38,58351,1,8,0:0:0:0:
261,38,58629,1,0,0:0:0:0:
261,38,58768,1,8,0:0:0:0:
260,40,58907,1,0,0:0:0:0:
277,37,59184,1,8,0:0:0:0:
279,35,59323,1,8,0:0:0:0:
279,35,59462,1,0,0:0:0:0:
278,32,59740,1,8,0:0:0:0:
278,32,59879,1,8,0:0:0:0:
271,26,60295,1,0,0:0:0:0:
295,272,60573,1,12,0:0:0:0:
295,75,61129,1,8,0:0:0:0:
279,57,61407,1,0,0:0:0:0:
281,59,61545,1,0,0:0:0:0:
295,75,61684,1,8,0:0:0:0:
279,57,61962,1,8,0:0:0:0:
294,57,62101,1,8,0:0:0:0:
294,57,62379,1,0,0:0:0:0:
292,54,62518,1,8,0:0:0:0:
292,54,62795,1,0,0:0:0:0:
291,47,63073,1,8,0:0:0:0:
291,47,63212,1,0,0:0:0:0:
291,47,63351,1,8,0:0:0:0:
292,54,63629,1,0,0:0:0:0:
296,52,63907,1,8,0:0:0:0:
296,52,64184,1,0,0:0:0:0:
287,33,64323,1,8,0:0:0:0:
287,33,64740,1,8,0:0:0:0:
273,62,65018,1,0,0:0:0:0:
273,62,65295,1,8,0:0:0:0:
273,62,65434,1,8,0:0:0:0:
273,62,65573,1,8,0:0:0:0:
273,62,65851,1,0,0:0:0:0:
269,49,66129,1,8,0:0:0:0:
269,49,66268,1,8,0:0:0:0:
269,49,66407,1,0,0:0:0:0:
269,49,66545,1,0,0:0:0:0:
269,49,66684,1,8,0:0:0:0:
269,49,66962,1,8,0:0:0:0:
269,49,67240,1,0,0:0:0:0:
269,49,67518,1,8,0:0:0:0:
269,49,67657,1,8,0:0:0:0:
269,49,67795,1,0,0:0:0:0:
269,49,68073,1,8,0:0:0:0:
277,41,68351,1,8,0:0:0:0:
294,47,68629,1,0,0:0:0:0:
294,47,68768,1,8,0:0:0:0:
277,41,69184,1,8,0:0:0:0:
277,41,69323,1,8,0:0:0:0:
262,312,69462,1,4,0:0:0:0:
236,89,69740,1,8,0:0:0:0:
236,89,70018,1,8,0:0:0:0:
243,94,70295,1,0,0:0:0:0:
242,93,70435,1,0,0:0:0:0:
242,93,70574,1,8,0:0:0:0:
236,89,70851,1,0,0:0:0:0:
236,89,70990,1,8,0:0:0:0:
234,88,71268,1,0,0:0:0:0:
232,88,71407,1,8,0:0:0:0:
245,79,71546,1,8,0:0:0:0:
246,81,71685,1,0,0:0:0:0:
246,81,71963,1,8,0:0:0:0:
246,81,72240,1,0,0:0:0:0:
241,65,72379,1,8,0:0:0:0:
246,81,72518,1,0,0:0:0:0:
241,65,72796,1,8,0:0:0:0:
241,65,72935,1,8,0:0:0:0:
241,65,73074,1,8,0:0:0:0:
241,65,73212,1,0,0:0:0:0:
241,65,73629,1,0,0:0:0:0:
241,65,73907,1,8,0:0:0:0:
241,65,74046,1,8,0:0:0:0:
241,65,74185,1,0,0:0:0:0:
241,65,74324,1,0,0:0:0:0:
241,65,74462,1,8,0:0:0:0:
241,65,74740,1,0,0:0:0:0:
241,65,75018,1,8,0:0:0:0:
242,57,75157,1,8,0:0:0:0:
241,65,75296,1,0,0:0:0:0:
231,48,75574,1,8,0:0:0:0:
245,46,75851,1,0,0:0:0:0:
245,46,75990,1,0,0:0:0:0:
245,46,76129,1,8,0:0:0:0:
245,46,76407,1,0,0:0:0:0:
245,46,76546,1,8,0:0:0:0:
245,46,76685,1,0,0:0:0:0:
251,44,76962,1,8,0:0:0:0:
251,44,77101,1,8,0:0:0:0:
251,44,77240,1,0,0:0:0:0:
254,46,77518,1,8,0:0:0:0:
245,46,77657,1,8,0:0:0:0:
242,62,78073,1,8,0:0:0:0:
246,318,78351,1,4,0:0:0:0:
228,65,78907,1,8,0:0:0:0:
228,65,79184,1,0,0:0:0:0:
228,65,79462,1,8,0:0:0:0:
228,65,79740,1,8,0:0:0:0:
228,65,79879,1,0,0:0:0:0:
228,65,80295,1,8,0:0:0:0:
228,65,80573,1,8,0:0:0:0:
228,65,80851,1,0,0:0:0:0:
228,65,80990,1,0,0:0:0:0:
228,65,81129,1,8,0:0:0:0:
228,65,81407,1,0,0:0:0:0:
228,65,81684,1,8,0:0:0:0:
225,57,81962,1,0,0:0:0:0:
225,57,82101,1,8,0:0:0:0:
225,57,82518,1,0,0:0:0:0:
243,58,82795,1,8,0:0:0:0:
241,58,82934,1,8,0:0:0:0:
240,57,83073,1,8,0:0:0:0:
240,57,83351,1,0,0:0:0:0:
230,55,83629,1,0,0:0:0:0:
226,51,83907,1,8,0:0:0:0:
226,51,84045,1,8,0:0:0:0:
226,49,84184,1,0,0:0:0:0:
230,46,84462,1,8,0:0:0:0:
240,43,84740,1,8,0:0:0:0:
240,43,85018,1,0,0:0:0:0:
240,43,85573,1,0,0:0:0:0:
240,43,85851,1,8,0:0:0:0:
240,43,86129,1,0,0:0:0:0:
240,43,86407,1,8,0:0:0:0:
240,43,86545,1,8,0:0:0:0:
240,43,86823,1,8,0:0:0:0:
240,43,86962,1,8,0:0:0:0:
240,43,87240,1,0,0:0:0:0:
238,75,87795,1,8,0:0:0:0:
238,75,88073,1,8,0:0:0:0:
238,75,88351,1,0,0:0:0:0:
238,75,88629,1,8,0:0:0:0:
238,75,88768,1,8,0:0:0:0:
238,75,89740,1,0,0:0:0:0:
238,75,90018,1,8,0:0:0:0:
238,75,90295,1,8,0:0:0:0:
238,75,90573,1,0,0:0:0:0:
238,75,90851,1,0,0:0:0:0:
238,75,90990,1,0,0:0:0:0:
238,75,91407,1,8,0:0:0:0:
233,64,91962,1,0,0:0:0:0:
233,64,92240,1,8,0:0:0:0:
233,64,92518,1,0,0:0:0:0:
233,64,92795,1,8,0:0:0:0:
233,64,93073,1,8,0:0:0:0:
233,64,93351,1,0,0:0:0:0:
231,65,94462,1,8,0:0:0:0:
248,66,94601,1,8,0:0:0:0:
231,65,95018,1,0,0:0:0:0:
231,65,95295,1,0,0:0:0:0:
231,65,95573,1,8,0:0:0:0:
253,59,96129,1,0,0:0:0:0:
253,59,96407,1,0,0:0:0:0:
253,59,96684,1,8,0:0:0:0:
253,59,96962,1,8,0:0:0:0:
245,45,97240,1,0,0:0:0:0:
245,45,97518,1,8,0:0:0:0:
245,45,97657,1,8,0:0:0:0:
253,41,98351,1,0,0:0:0:0:
253,41,98629,1,0,0:0:0:0:
253,41,98907,1,8,0:0:0:0:
253,41,99184,1,0,0:0:0:0:
253,41,99462,1,8,0:0:0:0:
253,41,99740,1,0,0:0:0:0:
253,41,99879,1,0,0:0:0:0:
253,41,100295,1,8,0:0:0:0:
253,41,100851,1,0,0:0:0:0:
253,41,101129,1,8,0:0:0:0:
253,41,101407,1,0,0:0:0:0:
253,41,101684,1,8,0:0:0:0:
253,41,101962,1,8,0:0:0:0:
253,41,102240,1,0,0:0:0:0:
266,342,102795,1,12,0:0:0:0:
255,93,103073,1,0,0:0:0:0:
266,110,103351,1,8,0:0:0:0:
255,93,103629,1,0,0:0:0:0:
266,110,103907,1,8,0:0:0:0:
255,93,104184,1,0,0:0:0:0:
255,93,104462,1,8,0:0:0:0:
255,93,104740,1,0,0:0:0:0:
269,103,105018,1,8,0:0:0:0:
269,103,105295,1,0,0:0:0:0:
269,103,105573,1,8,0:0:0:0:
269,103,105851,1,0,0:0:0:0:
269,103,106129,1,8,0:0:0:0:
269,103,106407,1,0,0:0:0:0:
269,103,106684,1,0,0:0:0:0:
253,310,107239,1,12,0:0:0:0:
249,83,107515,1,0,0:0:0:0:
249,83,107793,1,8,0:0:0:0:
249,83,108071,1,8,0:0:0:0:
249,83,108210,1,8,0:0:0:0:
249,83,108349,1,0,0:0:0:0:
249,83,108627,1,8,0:0:0:0:
249,83,108765,1,0,0:0:0:0:
249,83,109043,1,8,0:0:0:0:
249,83,109182,1,0,0:0:0:0:
269,76,109321,1,0,0:0:0:0:
269,76,109460,1,8,0:0:0:0:
258,78,109738,1,0,0:0:0:0:
258,78,109877,1,0,0:0:0:0:
258,78,110015,1,8,0:0:0:0:
261,71,110293,1,8,0:0:0:0:
261,71,110571,1,0,0:0:0:0:
269,65,110710,1,8,0:0:0:0:
261,71,110849,1,8,0:0:0:0:
261,71,110988,1,0,0:0:0:0:
273,71,111404,1,0,0:0:0:0:
273,71,111682,1,8,0:0:0:0:
267,53,111821,1,8,0:0:0:0:
267,53,111960,1,8,0:0:0:0:
267,53,112238,1,0,0:0:0:0:
267,53,112515,1,8,0:0:0:0:
260,58,112793,1,0,0:0:0:0:
260,58,112932,1,0,0:0:0:0:
249,48,113071,1,8,0:0:0:0:
260,58,113210,1,0,0:0:0:0:
260,58,113349,1,8,0:0:0:0:
272,58,113627,1,0,0:0:0:0:
272,58,113765,1,0,0:0:0:0:
272,58,113904,1,8,0:0:0:0:
272,58,114182,1,0,0:0:0:0:
272,58,114321,1,8,0:0:0:0:
272,58,114460,1,0,0:0:0:0:
257,41,114738,1,8,0:0:0:0:
257,41,114876,1,8,0:0:0:0:
261,42,115015,1,0,0:0:0:0:
261,42,115293,1,8,0:0:0:0:
261,42,115432,1,8,0:0:0:0:
257,41,115849,1,8,0:0:0:0:
251,289,116126,1,4,0:0:0:0:
264,52,116404,1,8,0:0:0:0:
269,52,116543,1,0,0:0:0:0:
264,52,116682,1,8,0:0:0:0:
253,40,116960,1,0,0:0:0:0:
254,38,117238,1,8,0:0:0:0:
254,38,117376,1,0,0:0:0:0:
254,38,117654,1,8,0:0:0:0:
254,38,117793,1,8,0:0:0:0:
243,38,117932,1,8,0:0:0:0:
243,38,118071,1,0,0:0:0:0:
239,42,118349,1,8,0:0:0:0:
239,42,118626,1,8,0:0:0:0:
243,38,118904,1,0,0:0:0:0:
243,38,119043,1,0,0:0:0:0:
239,42,119182,1,8,0:0:0:0:
250,41,119460,1,0,0:0:0:0:
250,41,119599,1,0,0:0:0:0:
250,41,119738,1,0,0:0:0:0:
250,41,119876,1,8,0:0:0:0:
250,41,120293,1,8,0:0:0:0:
251,48,120571,1,0,0:0:0:0:
251,48,120710,1,0,0:0:0:0:
251,48,120849,1,0,0:0:0:0:
251,48,121126,1,8,0:0:0:0:
251,48,121404,1,0,0:0:0:0:
251,48,121682,1,8,0:0:0:0:
234,28,121821,1,8,0:0:0:0:
234,28,121960,1,0,0:0:0:0:
234,28,122099,1,0,0:0:0:0:
234,28,122238,1,8,0:0:0:0:
234,28,122515,1,0,0:0:0:0:
234,28,122654,1,0,0:0:0:0:
234,28,122793,1,8,0:0:0:0:
235,49,123071,1,0,0:0:0:0:
235,49,123210,1,8,0:0:0:0:
235,49,123349,1,0,0:0:0:0:
234,51,123626,1,8,0:0:0:0:
234,51,123765,1,8,0:0:0:0:
225,42,123904,1,0,0:0:0:0:
225,42,124182,1,8,0:0:0:0:
223,40,124321,1,8,0:0:0:0:
221,38,124738,1,0,0:0:0:0:
225,289,125015,1,12,0:0:0:0:
231,65,125571,1,8,0:0:0:0:
231,65,125849,1,0,0:0:0:0:
237,70,125988,1,0,0:0:0:0:
231,65,126126,1,8,0:0:0:0:
237,70,126404,1,0,0:0:0:0:
237,70,126543,1,8,0:0:0:0:
237,70,126821,1,0,0:0:0:0:
237,70,126960,1,0,0:0:0:0:
241,57,127238,1,8,0:0:0:0:
241,57,127515,1,0,0:0:0:0:
239,56,127654,1,0,0:0:0:0:
241,57,127793,1,8,0:0:0:0:
241,57,128071,1,8,0:0:0:0:
241,57,128349,1,0,0:0:0:0:
239,56,128626,1,8,0:0:0:0:
241,57,128765,1,0,0:0:0:0:
241,57,129182,1,0,0:0:0:0:
240,81,129460,1,8,0:0:0:0:
245,72,129738,1,0,0:0:0:0:
245,68,129876,1,0,0:0:0:0:
241,57,130015,1,8,0:0:0:0:
241,57,130154,1,8,0:0:0:0:
241,59,130293,1,0,0:0:0:0:
241,59,130571,1,8,0:0:0:0:
241,59,130849,1,0,0:0:0:0:
241,57,130988,1,8,0:0:0:0:
241,59,131126,1,0,0:0:0:0:
241,59,131404,1,8,0:0:0:0:
241,59,131682,1,0,0:0:0:0:
241,57,131960,1,8,0:0:0:0:
241,59,132099,1,8,0:0:0:0:
241,59,132238,1,0,0:0:0:0:
237,47,132515,1,8,0:0:0:0:
237,47,132793,1,8,0:0:0:0:
234,35,133071,1,0,0:0:0:0:
237,47,133210,1,0,0:0:0:0:
237,47,133626,1,0,0:0:0:0:
246,62,133765,1,0,0:0:0:0:
253,310,133904,1,12,0:0:0:0:
249,83,134182,1,0,0:0:0:0:
249,83,134460,1,8,0:0:0:0:
249,83,134738,1,8,0:0:0:0:
249,83,134876,1,8,0:0:0:0:
249,83,135015,1,0,0:0:0:0:
249,83,135293,1,8,0:0:0:0:
249,83,135432,1,0,0:0:0:0:
249,83,135710,1,8,0:0:0:0:
249,83,135849,1,0,0:0:0:0:
269,76,135988,1,0,0:0:0:0:
269,76,136126,1,8,0:0:0:0:
258,78,136404,1,0,0:0:0:0:
258,78,136543,1,0,0:0:0:0:
258,78,136682,1,8,0:0:0:0:
261,71,136960,1,8,0:0:0:0:
261,71,137238,1,0,0:0:0:0:
269,65,137376,1,8,0:0:0:0:
261,71,137515,1,8,0:0:0:0:
261,71,137654,1,0,0:0:0:0:
273,71,138071,1,0,0:0:0:0:
273,71,138349,1,8,0:0:0:0:
267,53,138488,1,8,0:0:0:0:
267,53,138626,1,8,0:0:0:0:
267,53,138904,1,0,0:0:0:0:
267,53,139182,1,8,0:0:0:0:
260,58,139460,1,0,0:0:0:0:
260,58,139599,1,0,0:0:0:0:
249,48,139738,1,8,0:0:0:0:
260,58,139876,1,0,0:0:0:0:
260,58,140015,1,8,0:0:0:0:
272,58,140293,1,0,0:0:0:0:
272,58,140432,1,0,0:0:0:0:
272,58,140571,1,8,0:0:0:0:
272,58,140849,1,0,0:0:0:0:
272,58,140988,1,8,0:0:0:0:
272,58,141126,1,0,0:0:0:0:
257,41,141404,1,8,0:0:0:0:
257,41,141543,1,8,0:0:0:0:
261,42,141682,1,0,0:0:0:0:
261,42,141960,1,8,0:0:0:0:
261,42,142099,1,8,0:0:0:0:
257,41,142515,1,8,0:0:0:0:
272,324,142793,1,4,0:0:0:0:
244,48,143071,1,8,0:0:0:0:
244,48,143210,1,8,0:0:0:0:
241,48,143349,1,0,0:0:0:0:
244,48,143626,1,8,0:0:0:0:
244,48,143765,1,0,0:0:0:0:
244,48,143904,1,8,0:0:0:0:
244,48,144182,1,0,0:0:0:0:
241,48,144321,1,8,0:0:0:0:
241,64,144738,1,8,0:0:0:0:
262,347,145015,1,4,0:0:0:0:
241,64,145293,1,8,0:0:0:0:
253,339,145571,1,4,0:0:0:0:
241,64,145849,1,0,0:0:0:0:
253,339,146126,1,12,0:0:0:0:
