osu file format v14

[General]
AudioFilename: audio.ogg
AudioLeadIn: 0
PreviewTime: 42702
Countdown: 0
SampleSet: Normal
StackLeniency: 0
Mode: 1
LetterboxInBreaks: 0
WidescreenStoryboard: 1

[Editor]
Bookmarks: 87240
DistanceSpacing: 1.4
BeatDivisor: 4
GridSize: 32
TimelineZoom: 1.2

[Metadata]
Title:Zo Verliefd (Yodelo)
TitleUnicode:Zo Verliefd (Yodelo)
Artist:Laura Omloop
ArtistUnicode:Laura Omloop
Creator:LGM
Version:Muzukashii
Source:2009 Junior Eurovision Song Contest
Tags:yodel yodeley 09 jesc jevsc eurovisiesongfestival vrt ketnet love liefde belgium belgiƫ dutch flemish vlaams nederlands belgisch belgian folk pop female vocals enneya larsgonmad dabo
BeatmapID:4159145
BeatmapSetID:2000407

[Difficulty]
HPDrainRate:7
CircleSize:2
OverallDifficulty:4.5
ApproachRate:10
SliderMultiplier:1.4
SliderTickRate:1

[Events]
//Background and Video events
0,0,"101154515_p0.jpg",0,75
//Break Periods
2,40358,42046
//Storyboard Layer 0 (Background)
//Storyboard Layer 1 (Fail)
//Storyboard Layer 2 (Pass)
//Storyboard Layer 3 (Foreground)
//Storyboard Layer 4 (Overlay)
//Storyboard Sound Samples

[TimingPoints]
6796,750,4,1,0,50,1,0
6796,-125,4,1,0,50,0,0
42796,555.555555555555,4,1,0,80,1,0
42796,-90.9090909090909,4,1,0,80,0,0
60573,-90.9090909090909,4,1,0,70,0,0
69462,-90.9090909090909,4,1,0,80,0,0
78351,-90.9090909090909,4,1,0,70,0,0
87240,-125,4,1,0,40,0,0
96129,-111.111111111111,4,1,0,50,0,0
102795,555.555555555555,4,1,0,60,1,0
102795,-111.111111111111,4,1,0,60,0,0
103072,-112.898542307916,4,1,0,60,0,0
103350,-114.751195324951,4,1,0,60,0,0
103629,-116.672668347137,4,1,0,60,0,0
103907,-118.65234375,4,1,0,60,0,0
104461,-122.804801010739,4,1,0,60,0,0
104739,-125,4,1,0,60,0,0
105018,-127.283441367118,4,1,0,60,0,0
105295,-129.634569218458,4,1,0,60,0,0
105572,-132.074189822678,4,1,0,60,0,0
106129,-137.268747352069,4,1,0,60,0,0
106407,-140.017286084702,4,1,0,60,0,0
107239,555.555555555555,4,1,0,80,1,0
107239,-90.9090909090909,4,1,0,80,0,0
125016,-90.9090909090909,4,1,0,70,0,0
133905,-90.9090909090909,4,1,0,80,0,0
142794,-90.9090909090909,4,1,0,90,0,0
144461,-90.9090909090909,4,1,0,60,0,0
145016,-90.9090909090909,4,1,0,90,0,0

[HitObjects]
256,192,6796,5,0,0:0:0:0:
256,192,7546,1,8,0:0:0:0:
256,192,8296,1,0,0:0:0:0:
256,192,9046,1,0,0:0:0:0:
256,192,9421,1,8,0:0:0:0:
256,192,9796,1,0,0:0:0:0:
256,192,10546,1,8,0:0:0:0:
256,192,10921,1,8,0:0:0:0:
256,192,11296,1,0,0:0:0:0:
256,192,12046,1,0,0:0:0:0:
256,192,12796,1,8,0:0:0:0:
256,192,13546,1,8,0:0:0:0:
256,192,13921,1,0,0:0:0:0:
256,192,14296,1,0,0:0:0:0:
256,192,15046,1,0,0:0:0:0:
256,192,15796,1,8,0:0:0:0:
256,192,16546,1,8,0:0:0:0:
256,192,17296,1,0,0:0:0:0:
256,192,18796,1,0,0:0:0:0:
256,192,19546,1,0,0:0:0:0:
256,192,19921,1,8,0:0:0:0:
256,192,20296,1,8,0:0:0:0:
256,192,21046,1,8,0:0:0:0:
256,192,21796,1,0,0:0:0:0:
256,192,22546,1,8,0:0:0:0:
256,192,23296,1,8,0:0:0:0:
256,192,23671,1,8,0:0:0:0:
256,192,24046,1,0,0:0:0:0:
256,192,24796,1,8,0:0:0:0:
256,192,25546,1,8,0:0:0:0:
256,192,26296,1,8,0:0:0:0:
256,192,27046,1,8,0:0:0:0:
256,192,27421,1,0,0:0:0:0:
256,192,27796,1,8,0:0:0:0:
256,192,28546,1,8,0:0:0:0:
256,192,29296,1,0,0:0:0:0:
256,192,30796,1,8,0:0:0:0:
256,192,31171,1,0,0:0:0:0:
256,192,31546,1,8,0:0:0:0:
256,192,32296,1,8,0:0:0:0:
256,192,33046,1,8,0:0:0:0:
256,192,33421,1,0,0:0:0:0:
256,192,33796,1,0,0:0:0:0:
256,192,34546,1,0,0:0:0:0:
256,192,35296,1,8,0:0:0:0:
256,192,36046,1,0,0:0:0:0:
256,192,36421,1,0,0:0:0:0:
256,192,36796,1,8,0:0:0:0:
256,192,37546,1,0,0:0:0:0:
256,192,38296,1,0,0:0:0:0:
256,192,39046,1,8,0:0:0:0:
256,192,39421,1,0,0:0:0:0:
256,192,39796,1,8,0:0:0:0:
256,192,42796,5,4,0:0:0:0:
256,192,43351,1,8,0:0:0:0:
256,192,43629,1,0,0:0:0:0:
256,192,43907,1,8,0:0:0:0:
256,192,44184,1,8,0:0:0:0:
256,192,44323,1,8,0:0:0:0:
256,192,44740,1,8,0:0:0:0:
256,192,45018,1,0,0:0:0:0:
256,192,45573,1,0,0:0:0:0:
256,192,45851,1,0,0:0:0:0:
256,192,46129,1,8,0:0:0:0:
256,192,46407,1,8,0:0:0:0:
256,192,46545,1,0,0:0:0:0:
256,192,46962,1,0,0:0:0:0:
256,192,47240,1,8,0:0:0:0:
256,192,47795,1,8,0:0:0:0:
256,192,48073,1,8,0:0:0:0:
256,192,48351,1,0,0:0:0:0:
256,192,48907,1,0,0:0:0:0:
256,192,49184,1,8,0:0:0:0:
256,192,49323,1,8,0:0:0:0:
256,192,49462,1,8,0:0:0:0:
256,192,49740,1,0,0:0:0:0:
256,192,50018,1,8,0:0:0:0:
256,192,50295,1,0,0:0:0:0:
256,192,50434,1,0,0:0:0:0:
256,192,50573,1,0,0:0:0:0:
256,192,50851,1,8,0:0:0:0:
256,192,51129,1,8,0:0:0:0:
256,192,51684,1,4,0:0:0:0:
256,192,52240,1,8,0:0:0:0:
256,192,52518,1,0,0:0:0:0:
256,192,52795,1,8,0:0:0:0:
256,192,52934,1,8,0:0:0:0:
256,192,53212,1,8,0:0:0:0:
256,192,53629,1,0,0:0:0:0:
256,192,53907,1,8,0:0:0:0:
256,192,54184,1,0,0:0:0:0:
256,192,54462,1,8,0:0:0:0:
256,192,54601,1,8,0:0:0:0:
256,192,54740,1,0,0:0:0:0:
256,192,55018,1,0,0:0:0:0:
256,192,55295,1,8,0:0:0:0:
256,192,55434,1,8,0:0:0:0:
256,192,55851,1,0,0:0:0:0:
256,192,56129,1,8,0:0:0:0:
256,192,56684,1,0,0:0:0:0:
256,192,57240,1,8,0:0:0:0:
256,192,57518,1,8,0:0:0:0:
256,192,57795,1,0,0:0:0:0:
256,192,58073,1,8,0:0:0:0:
256,192,58212,1,8,0:0:0:0:
256,192,58351,1,8,0:0:0:0:
256,192,58629,1,0,0:0:0:0:
256,192,58907,1,8,0:0:0:0:
256,192,59184,1,0,0:0:0:0:
256,192,59323,1,0,0:0:0:0:
256,192,59462,1,0,0:0:0:0:
256,192,59740,1,8,0:0:0:0:
256,192,60018,1,8,0:0:0:0:
256,192,60573,1,12,0:0:0:0:
256,192,61129,1,8,0:0:0:0:
256,192,61407,1,0,0:0:0:0:
256,192,61684,1,8,0:0:0:0:
256,192,61962,1,8,0:0:0:0:
256,192,62101,1,8,0:0:0:0:
256,192,62379,1,0,0:0:0:0:
256,192,62518,1,0,0:0:0:0:
256,192,63073,1,0,0:0:0:0:
256,192,63351,1,8,0:0:0:0:
256,192,63629,1,8,0:0:0:0:
256,192,63907,1,0,0:0:0:0:
256,192,64184,1,8,0:0:0:0:
256,192,64323,1,8,0:0:0:0:
256,192,64601,1,0,0:0:0:0:
256,192,64740,1,0,0:0:0:0:
256,192,65018,1,8,0:0:0:0:
256,192,65573,1,0,0:0:0:0:
256,192,65851,1,0,0:0:0:0:
256,192,66129,1,8,0:0:0:0:
256,192,66268,1,8,0:0:0:0:
256,192,66407,1,0,0:0:0:0:
256,192,66684,1,8,0:0:0:0:
256,192,67240,1,8,0:0:0:0:
256,192,67518,1,0,0:0:0:0:
256,192,67795,1,8,0:0:0:0:
256,192,68073,1,8,0:0:0:0:
256,192,68351,1,8,0:0:0:0:
256,192,68907,1,8,0:0:0:0:
256,192,69462,1,4,0:0:0:0:
256,192,70017,1,8,0:0:0:0:
256,192,70295,1,8,0:0:0:0:
256,192,70573,1,0,0:0:0:0:
256,192,70850,1,0,0:0:0:0:
256,192,70989,1,8,0:0:0:0:
256,192,71406,1,8,0:0:0:0:
256,192,71684,1,0,0:0:0:0:
256,192,72239,1,0,0:0:0:0:
256,192,72518,1,0,0:0:0:0:
256,192,72795,1,8,0:0:0:0:
256,192,73073,1,8,0:0:0:0:
256,192,73211,1,8,0:0:0:0:
256,192,73628,1,0,0:0:0:0:
256,192,73906,1,8,0:0:0:0:
256,192,74462,1,8,0:0:0:0:
256,192,74739,1,0,0:0:0:0:
256,192,75018,1,8,0:0:0:0:
256,192,75573,1,0,0:0:0:0:
256,192,75850,1,8,0:0:0:0:
256,192,75989,1,8,0:0:0:0:
256,192,76128,1,8,0:0:0:0:
256,192,76406,1,8,0:0:0:0:
256,192,76684,1,8,0:0:0:0:
256,192,76961,1,0,0:0:0:0:
256,192,77100,1,0,0:0:0:0:
256,192,77239,1,0,0:0:0:0:
256,192,77517,1,0,0:0:0:0:
256,192,77795,1,8,0:0:0:0:
256,192,78351,1,4,0:0:0:0:
256,192,78907,1,0,0:0:0:0:
256,192,79184,1,8,0:0:0:0:
256,192,79462,1,8,0:0:0:0:
256,192,80295,1,8,0:0:0:0:
256,192,80573,1,8,0:0:0:0:
256,192,81129,1,0,0:0:0:0:
256,192,81407,1,8,0:0:0:0:
256,192,81684,1,8,0:0:0:0:
256,192,81962,1,0,0:0:0:0:
256,192,82101,1,0,0:0:0:0:
256,192,82518,1,0,0:0:0:0:
256,192,82795,1,8,0:0:0:0:
256,192,83351,1,0,0:0:0:0:
256,192,83629,1,8,0:0:0:0:
256,192,83907,1,8,0:0:0:0:
256,192,84740,1,8,0:0:0:0:
256,192,85018,1,8,0:0:0:0:
256,192,85295,1,0,0:0:0:0:
256,192,85573,1,8,0:0:0:0:
256,192,86129,1,8,0:0:0:0:
256,192,86545,1,8,0:0:0:0:
256,192,86962,1,8,0:0:0:0:
256,192,87240,1,0,0:0:0:0:
256,192,87795,1,8,0:0:0:0:
256,192,88351,1,8,0:0:0:0:
256,192,88768,1,0,0:0:0:0:
256,192,89740,1,0,0:0:0:0:
256,192,90018,1,8,0:0:0:0:
256,192,90573,1,0,0:0:0:0:
256,192,90990,1,8,0:0:0:0:
256,192,91407,1,0,0:0:0:0:
256,192,91962,1,0,0:0:0:0:
256,192,92240,1,8,0:0:0:0:
256,192,92795,1,8,0:0:0:0:
256,192,93073,1,0,0:0:0:0:
256,192,93351,1,0,0:0:0:0:
256,192,94462,1,8,0:0:0:0:
256,192,95018,1,0,0:0:0:0:
256,192,95295,1,8,0:0:0:0:
256,192,95573,1,0,0:0:0:0:
256,192,96129,1,0,0:0:0:0:
256,192,96684,1,8,0:0:0:0:
256,192,96962,1,8,0:0:0:0:
256,192,97240,1,0,0:0:0:0:
256,192,97795,1,8,0:0:0:0:
256,192,98629,1,8,0:0:0:0:
256,192,98907,1,0,0:0:0:0:
256,192,99462,1,8,0:0:0:0:
256,192,99879,1,8,0:0:0:0:
256,192,100295,1,0,0:0:0:0:
256,192,100851,1,0,0:0:0:0:
256,192,101129,1,8,0:0:0:0:
256,192,101684,1,8,0:0:0:0:
256,192,101962,1,0,0:0:0:0:
256,192,102240,1,0,0:0:0:0:
256,192,102795,1,12,0:0:0:0:
256,192,103072,1,0,0:0:0:0:
256,192,103350,1,8,0:0:0:0:
256,192,103629,1,0,0:0:0:0:
256,192,103907,1,8,0:0:0:0:
256,192,104461,1,8,0:0:0:0:
256,192,104739,1,0,0:0:0:0:
256,192,105018,1,8,0:0:0:0:
256,192,105295,1,0,0:0:0:0:
256,192,105572,1,8,0:0:0:0:
256,192,106129,1,8,0:0:0:0:
256,192,106407,1,8,0:0:0:0:
256,192,106684,1,0,0:0:0:0:
256,192,107239,1,4,0:0:0:0:
256,192,107516,1,8,0:0:0:0:
256,192,107794,1,0,0:0:0:0:
256,192,108350,1,8,0:0:0:0:
256,192,108627,1,8,0:0:0:0:
256,192,108766,1,8,0:0:0:0:
256,192,109183,1,8,0:0:0:0:
256,192,109461,1,0,0:0:0:0:
256,192,110016,1,0,0:0:0:0:
256,192,110294,1,0,0:0:0:0:
256,192,110572,1,8,0:0:0:0:
256,192,110850,1,8,0:0:0:0:
256,192,110989,1,0,0:0:0:0:
256,192,111405,1,0,0:0:0:0:
256,192,111683,1,8,0:0:0:0:
256,192,112238,1,8,0:0:0:0:
256,192,112516,1,8,0:0:0:0:
256,192,112794,1,0,0:0:0:0:
256,192,113072,1,0,0:0:0:0:
256,192,113350,1,8,0:0:0:0:
256,192,113627,1,8,0:0:0:0:
256,192,113766,1,8,0:0:0:0:
256,192,113905,1,8,0:0:0:0:
256,192,114183,1,0,0:0:0:0:
256,192,114461,1,8,0:0:0:0:
256,192,114738,1,0,0:0:0:0:
256,192,114877,1,0,0:0:0:0:
256,192,115016,1,0,0:0:0:0:
256,192,115294,1,8,0:0:0:0:
256,192,115572,1,8,0:0:0:0:
256,192,116127,1,4,0:0:0:0:
256,192,116683,1,8,0:0:0:0:
256,192,116961,1,0,0:0:0:0:
256,192,117238,1,8,0:0:0:0:
256,192,117516,1,0,0:0:0:0:
256,192,117655,1,8,0:0:0:0:
256,192,118072,1,0,0:0:0:0:
256,192,118350,1,8,0:0:0:0:
256,192,118905,1,8,0:0:0:0:
256,192,119183,1,8,0:0:0:0:
256,192,119461,1,0,0:0:0:0:
256,192,119738,1,8,0:0:0:0:
256,192,119877,1,8,0:0:0:0:
256,192,120294,1,0,0:0:0:0:
256,192,120572,1,8,0:0:0:0:
256,192,121127,1,8,0:0:0:0:
256,192,121405,1,0,0:0:0:0:
256,192,121683,1,8,0:0:0:0:
256,192,121961,1,8,0:0:0:0:
256,192,122238,1,0,0:0:0:0:
256,192,122516,1,8,0:0:0:0:
256,192,122655,1,8,0:0:0:0:
256,192,122794,1,8,0:0:0:0:
256,192,123072,1,0,0:0:0:0:
256,192,123350,1,8,0:0:0:0:
256,192,123627,1,0,0:0:0:0:
256,192,123766,1,0,0:0:0:0:
256,192,123905,1,0,0:0:0:0:
256,192,124183,1,8,0:0:0:0:
256,192,124461,1,8,0:0:0:0:
256,192,125016,1,12,0:0:0:0:
256,192,125572,1,8,0:0:0:0:
256,192,125850,1,0,0:0:0:0:
256,192,126127,1,8,0:0:0:0:
256,192,126405,1,8,0:0:0:0:
256,192,126544,1,8,0:0:0:0:
256,192,126822,1,0,0:0:0:0:
256,192,126961,1,0,0:0:0:0:
256,192,127516,1,8,0:0:0:0:
256,192,127794,1,0,0:0:0:0:
256,192,128072,1,0,0:0:0:0:
256,192,128350,1,8,0:0:0:0:
256,192,128627,1,8,0:0:0:0:
256,192,128766,1,8,0:0:0:0:
256,192,129044,1,0,0:0:0:0:
256,192,129183,1,0,0:0:0:0:
256,192,129461,1,8,0:0:0:0:
256,192,130016,1,8,0:0:0:0:
256,192,130294,1,0,0:0:0:0:
256,192,130572,1,8,0:0:0:0:
256,192,130711,1,8,0:0:0:0:
256,192,130850,1,0,0:0:0:0:
256,192,131127,1,8,0:0:0:0:
256,192,131683,1,8,0:0:0:0:
256,192,131961,1,0,0:0:0:0:
256,192,132238,1,8,0:0:0:0:
256,192,132516,1,8,0:0:0:0:
256,192,132794,1,8,0:0:0:0:
256,192,133350,1,8,0:0:0:0:
256,192,133905,1,4,0:0:0:0:
256,192,134460,1,8,0:0:0:0:
256,192,134738,1,8,0:0:0:0:
256,192,135016,1,0,0:0:0:0:
256,192,135293,1,8,0:0:0:0:
256,192,135433,1,8,0:0:0:0:
256,192,135850,1,8,0:0:0:0:
256,192,136127,1,0,0:0:0:0:
256,192,136682,1,0,0:0:0:0:
256,192,136960,1,0,0:0:0:0:
256,192,137238,1,8,0:0:0:0:
256,192,137516,1,8,0:0:0:0:
256,192,137654,1,0,0:0:0:0:
256,192,138071,1,0,0:0:0:0:
256,192,138349,1,8,0:0:0:0:
256,192,138904,1,8,0:0:0:0:
256,192,139182,1,0,0:0:0:0:
256,192,139460,1,8,0:0:0:0:
256,192,140016,1,0,0:0:0:0:
256,192,140293,1,8,0:0:0:0:
256,192,140432,1,8,0:0:0:0:
256,192,140571,1,8,0:0:0:0:
256,192,140849,1,0,0:0:0:0:
256,192,141127,1,8,0:0:0:0:
256,192,141404,1,0,0:0:0:0:
256,192,141543,1,0,0:0:0:0:
256,192,141682,1,0,0:0:0:0:
256,192,141960,1,8,0:0:0:0:
256,192,142238,1,8,0:0:0:0:
256,192,142794,1,12,0:0:0:0:
256,192,143072,1,0,0:0:0:0:
256,192,143350,1,12,0:0:0:0:
256,192,143627,1,8,0:0:0:0:
256,192,143905,1,4,0:0:0:0:
256,192,144461,1,8,0:0:0:0:
256,192,144738,1,0,0:0:0:0:
256,192,145015,1,12,0:0:0:0:
256,192,145294,1,0,0:0:0:0:
256,192,145572,1,12,0:0:0:0:
256,192,145850,1,8,0:0:0:0:
256,192,146126,1,4,0:0:0:0:
