osu file format v14

[General]
AudioFilename: audio.ogg
AudioLeadIn: 0
PreviewTime: 42702
Countdown: 0
SampleSet: Normal
StackLeniency: 0.7
Mode: 1
LetterboxInBreaks: 0
WidescreenStoryboard: 0

[Editor]
Bookmarks: 42796,87240,96129,107239,125016,133905
DistanceSpacing: 1.4
BeatDivisor: 4
GridSize: 32
TimelineZoom: 1.2

[Metadata]
Title:Zo Verliefd (Yodelo)
TitleUnicode:Zo Verliefd (Yodelo)
Artist:Laura Omloop
ArtistUnicode:Laura Omloop
Creator:LGM
Version:Hij doet m'n hartje zingen
Source:2009 Junior Eurovision Song Contest
Tags:yodel yodeley 09 jesc jevsc eurovisiesongfestival vrt ketnet love liefde belgium belgiƫ dutch flemish vlaams nederlands belgisch belgian folk pop female vocals enneya larsgonmad dabo
BeatmapID:4159015
BeatmapSetID:2000407

[Difficulty]
HPDrainRate:6
CircleSize:2
OverallDifficulty:6
ApproachRate:10
SliderMultiplier:1.40428572264861
SliderTickRate:1

[Events]
//Background and Video events
0,0,"101154515_p0.jpg",0,75
//Break Periods
2,39996,42046
//Storyboard Layer 0 (Background)
//Storyboard Layer 1 (Fail)
//Storyboard Layer 2 (Pass)
//Storyboard Layer 3 (Foreground)
//Storyboard Layer 4 (Overlay)
//Storyboard Sound Samples

[TimingPoints]
6796,750,4,1,0,50,1,0
6796,-125,4,1,0,50,0,0
42796,555.555555555555,4,1,0,80,1,0
42796,-76.9230769230769,4,1,0,80,0,0
49184,-76.923076923077,4,1,0,80,0,0
49323,-75.756749386419,4,1,0,80,0,0
49462,-74.625261913716,4,1,0,80,0,0
49601,-73.52707638558,4,1,0,80,0,0
49740,-72.460743909437,4,1,0,80,0,0
49879,-71.424898441919,4,1,0,80,0,0
50018,-70.41825095057,4,1,0,80,0,0
50157,-69.439584062391,4,1,0,80,0,0
50295,-68.494501701267,4,1,0,80,0,0
50434,-67.568224935545,4,1,0,80,0,0
50573,-66.666666666667,4,1,0,80,0,0
50851,-76.9230769230769,4,1,0,80,0,0
51684,-76.9230769230769,4,1,0,80,0,0
58212,-75.756749386419,4,1,0,80,0,0
58351,-74.625261913716,4,1,0,80,0,0
58491,-73.519292859789,4,1,0,80,0,0
58629,-72.460743909437,4,1,0,80,0,0
58768,-71.424898441919,4,1,0,80,0,0
58907,-70.41825095057,4,1,0,80,0,0
59045,-69.446527673616,4,1,0,80,0,0
59184,-68.494501701267,4,1,0,80,0,0
59323,-67.568224935545,4,1,0,80,0,0
59462,-66.666666666667,4,1,0,80,0,0
59740,-76.9230769230769,4,1,0,80,0,0
60573,-76.9284032682454,4,1,0,70,0,0
69462,-76.9284032682454,4,1,0,80,0,0
75989,-75.765013909344,4,1,0,80,0,0
76129,-74.625261913716,4,1,0,80,0,0
76268,-73.52707638558,4,1,0,80,0,0
76406,-72.468304899045,4,1,0,80,0,0
76545,-71.432244793006,4,1,0,80,0,0
76684,-70.425391674695,4,1,0,80,0,0
76823,-69.446527673616,4,1,0,80,0,0
76961,-68.501257582483,4,1,0,80,0,0
77100,-67.574799318901,4,1,0,80,0,0
77239,-66.673066769068,4,1,0,80,0,0
77518,-76.9284032682454,4,1,0,80,0,0
78351,-76.9230769230769,4,1,0,70,0,0
87240,-117.647058823529,4,1,0,40,0,0
96129,-100,4,1,0,50,0,0
102518,-100,4,1,0,60,0,0
102657,-100.841353428969,4,1,0,60,0,0
102795,555.555555555555,4,1,0,70,1,0
102795,-101.690777024965,4,1,0,60,0,0
103073,-103.446134740764,4,1,0,60,0,0
103211,-104.340201665936,4,1,0,60,0,0
103351,-105.263157894737,4,1,0,60,0,0
103629,-107.145154029198,4,1,0,60,0,0
103767,-108.104600609954,4,1,0,60,0,0
103907,-109.095671534281,4,1,0,60,0,0
104184,-111.111111111111,4,1,0,60,0,0
104322,-112.14324178783,4,1,0,60,0,0
104462,-113.210111443327,4,1,0,60,0,0
104740,-115.38994320543,4,1,0,60,0,0
104878,-116.503496503497,4,1,0,60,0,0
105018,-117.655367231638,4,1,0,60,0,0
105295,-120.002881221638,4,1,0,60,0,0
105433,-121.207711895235,4,1,0,60,0,0
105573,-122.454979786843,4,1,0,60,0,0
105851,-125.009379455241,4,1,0,60,0,0
105989,-126.317385700205,4,1,0,60,0,0
106129,-127.672618591463,4,1,0,60,0,0
106406,-130.441590980269,4,1,0,60,0,0
106545,-131.876830523233,4,1,0,60,0,0
107239,555.555555555555,4,1,0,80,1,0
107239,-76.9230769230769,4,1,0,80,0,0
113766,-75.756749386419,4,1,0,80,0,0
113905,-74.625261913716,4,1,0,80,0,0
114044,-73.52707638558,4,1,0,80,0,0
114183,-72.460743909437,4,1,0,80,0,0
114322,-71.424898441919,4,1,0,80,0,0
114461,-70.41825095057,4,1,0,80,0,0
114600,-69.439584062391,4,1,0,80,0,0
114738,-68.494501701267,4,1,0,80,0,0
114877,-67.568224935545,4,1,0,80,0,0
115016,-66.666666666667,4,1,0,80,0,0
115294,-76.9230769230769,4,1,0,80,0,0
116127,-76.9230769230769,4,1,0,80,0,0
122654,-75.765013909344,4,1,0,80,0,0
122793,-74.633281392725,4,1,0,80,0,0
122933,-73.52707638558,4,1,0,80,0,0
123071,-72.468304899045,4,1,0,80,0,0
123210,-71.432244793006,4,1,0,80,0,0
123349,-70.425391674695,4,1,0,80,0,0
123489,-69.439584062391,4,1,0,80,0,0
123626,-68.501257582483,4,1,0,80,0,0
123765,-67.574799318901,4,1,0,80,0,0
123904,-66.673066769068,4,1,0,80,0,0
124183,-76.9230769230769,4,1,0,80,0,0
125016,-76.9230769230769,4,1,0,70,0,0
133905,-76.9230769230769,4,1,0,80,0,0
140432,-75.765013909344,4,1,0,80,0,0
140571,-74.633281392725,4,1,0,80,0,0
140711,-73.52707638558,4,1,0,80,0,0
140849,-72.468304899045,4,1,0,80,0,0
140988,-71.432244793006,4,1,0,80,0,0
141127,-70.425391674695,4,1,0,80,0,0
141266,-69.446527673616,4,1,0,80,0,0
141404,-68.501257582483,4,1,0,80,0,0
141543,-67.574799318901,4,1,0,80,0,0
141683,-66.666666666667,4,1,0,80,0,0
141961,-76.9230769230769,4,1,0,80,0,0

[HitObjects]
256,192,6796,5,0,1:0:0:0:
256,192,7171,1,8,1:1:0:0:
256,192,7546,1,8,1:1:0:0:
256,192,7921,1,8,1:1:0:0:
256,192,8108,1,0,1:0:0:0:
256,192,8296,1,8,1:1:0:0:
256,192,8671,1,8,1:1:0:0:
256,192,8858,1,8,1:1:0:0:
256,192,9046,1,0,1:0:0:0:
256,192,9421,1,0,1:1:0:0:
256,192,9796,1,0,1:0:0:0:
256,192,10171,1,8,1:1:0:0:
256,192,10358,1,0,0:0:0:0:
256,192,10546,1,0,1:1:0:0:
256,192,10921,1,8,1:0:0:0:
256,192,11296,1,0,1:1:0:0:
256,192,11483,1,0,1:0:0:0:
256,192,11671,1,0,1:0:0:0:
256,192,12046,1,8,1:1:0:0:
256,192,12796,1,8,1:1:0:0:
256,192,13171,1,0,1:0:0:0:
256,192,13358,1,8,1:1:0:0:
256,192,13546,1,8,0:0:0:0:
256,192,13921,1,8,1:1:0:0:
256,192,14108,1,8,1:1:0:0:
256,192,14296,1,0,1:0:0:0:
256,192,14671,1,8,1:1:0:0:
256,192,15046,1,8,1:1:0:0:
256,192,15421,1,8,1:1:0:0:
256,192,15608,1,8,1:1:0:0:
256,192,15796,1,0,1:0:0:0:
256,192,16171,1,0,1:0:0:0:
256,192,16546,1,8,1:1:0:0:
256,192,16921,1,0,1:0:0:0:
256,192,17296,1,8,1:1:0:0:
256,192,18046,1,8,1:1:0:0:
256,192,18796,1,8,1:0:0:0:
256,192,18983,1,0,1:0:0:0:
256,192,19171,1,8,1:1:0:0:
256,192,19546,1,8,1:1:0:0:
256,192,19921,1,0,1:0:0:0:
256,192,20108,1,0,1:0:0:0:
256,192,20296,1,8,1:1:0:0:
256,192,20671,1,0,1:0:0:0:
256,192,20858,1,8,1:1:0:0:
256,192,21796,1,0,1:0:0:0:
256,192,21983,1,0,1:0:0:0:
256,192,22171,1,8,1:1:0:0:
256,192,22358,1,8,1:1:0:0:
256,192,22546,1,0,0:0:0:0:
256,192,22921,1,8,1:0:0:0:
256,192,23296,1,0,1:1:0:0:
256,192,23671,1,8,1:1:0:0:
256,192,23858,1,0,1:0:0:0:
256,192,24046,1,8,1:1:0:0:
256,192,24796,1,8,1:1:0:0:
256,192,25171,1,0,1:0:0:0:
256,192,25358,1,8,1:0:0:0:
256,192,25921,1,0,1:1:0:0:
256,192,26108,1,8,1:1:0:0:
256,192,26296,1,8,1:0:0:0:
256,192,26483,1,0,1:0:0:0:
256,192,26671,1,8,1:1:0:0:
256,192,27046,1,8,1:1:0:0:
256,192,27421,1,0,1:0:0:0:
256,192,27608,1,8,1:1:0:0:
256,192,27796,1,8,1:1:0:0:
256,192,28171,1,0,1:0:0:0:
256,192,28546,1,8,1:1:0:0:
256,192,28921,1,0,1:0:0:0:
256,192,29296,1,8,1:1:0:0:
256,192,30046,1,0,1:0:0:0:
256,192,30421,1,0,1:0:0:0:
256,192,30608,1,0,1:0:0:0:
256,192,30796,1,8,1:1:0:0:
256,192,31171,1,0,1:0:0:0:
256,192,31546,1,8,1:1:0:0:
256,192,31733,1,8,1:1:0:0:
256,192,31921,1,8,1:1:0:0:
256,192,32296,1,0,0:0:0:0:
256,192,33046,1,8,1:1:0:0:
256,192,33233,1,0,1:0:0:0:
256,192,33421,1,8,1:1:0:0:
256,192,33608,1,8,1:1:0:0:
256,192,33796,1,0,1:0:0:0:
256,192,34171,1,0,1:0:0:0:
256,192,34546,1,8,1:1:0:0:
256,192,34921,1,0,1:0:0:0:
256,192,35108,1,0,1:0:0:0:
256,192,35296,1,8,1:1:0:0:
256,192,36046,1,8,1:1:0:0:
256,192,36421,1,0,1:0:0:0:
256,192,36796,1,8,1:1:0:0:
256,192,37171,1,0,1:0:0:0:
256,192,37358,1,8,1:1:0:0:
256,192,37546,1,8,1:1:0:0:
256,192,37921,1,0,1:0:0:0:
256,192,38296,1,8,1:1:0:0:
256,192,39046,1,8,1:1:0:0:
256,192,39233,1,0,1:0:0:0:
256,192,39421,1,0,1:0:0:0:
256,192,39796,1,8,1:1:0:0:
256,192,42796,5,4,1:1:0:0:
256,192,43073,1,8,1:1:0:0:
256,192,43212,1,8,1:1:0:0:
256,192,43351,1,0,1:0:0:0:
256,192,43629,1,8,1:1:0:0:
256,192,43768,1,0,1:0:0:0:
256,192,43907,1,8,1:1:0:0:
256,192,44046,1,0,1:0:0:0:
256,192,44184,1,0,1:0:0:0:
256,192,44323,1,8,1:1:0:0:
256,192,44601,1,0,1:0:0:0:
256,192,44740,1,8,1:1:0:0:
256,192,45018,1,0,1:0:0:0:
256,192,45296,1,8,1:1:0:0:
256,192,45434,1,0,1:0:0:0:
256,192,45573,1,0,1:0:0:0:
256,192,45712,1,8,1:1:0:0:
256,192,45851,1,8,1:1:0:0:
256,192,45990,1,0,1:0:0:0:
256,192,46129,1,8,1:1:0:0:
256,192,46268,1,8,1:1:0:0:
256,192,46407,1,0,1:0:0:0:
256,192,46545,1,0,1:0:0:0:
256,192,46823,1,8,1:1:0:0:
256,192,46962,1,0,1:0:0:0:
256,192,47240,1,0,1:0:0:0:
256,192,47379,1,8,1:1:0:0:
256,192,47518,1,0,1:1:0:0:
256,192,47657,1,0,1:0:0:0:
256,192,47795,1,8,1:1:0:0:
256,192,47934,1,8,1:1:0:0:
256,192,48073,1,0,1:0:0:0:
256,192,48351,1,8,1:1:0:0:
256,192,48629,1,0,1:0:0:0:
256,192,48768,1,0,1:0:0:0:
256,192,48907,1,8,1:1:0:0:
256,192,49184,1,8,1:1:0:0:
256,192,49323,1,0,1:0:0:0:
256,192,49462,1,8,1:1:0:0:
256,192,49601,1,0,1:0:0:0:
256,192,49740,1,0,1:0:0:0:
256,192,49879,1,8,1:1:0:0:
256,192,50018,1,8,1:0:0:0:
256,192,50157,1,0,1:1:0:0:
256,192,50295,1,0,1:0:0:0:
256,192,50434,1,8,1:0:0:0:
256,192,50573,1,8,1:1:0:0:
256,192,50851,1,8,1:1:0:0:
256,192,50990,1,0,1:0:0:0:
256,192,51129,1,8,1:1:0:0:
256,192,51407,1,0,1:0:0:0:
256,192,51684,1,12,1:1:0:0:
256,192,51962,1,8,1:1:0:0:
256,192,52101,1,0,1:0:0:0:
256,192,52240,1,8,1:1:0:0:
256,192,52379,1,8,1:1:0:0:
256,192,52518,1,0,1:0:0:0:
256,192,52795,1,8,1:1:0:0:
256,192,52934,1,8,1:1:0:0:
256,192,53073,1,0,1:0:0:0:
256,192,53212,1,0,1:1:0:0:
256,192,53490,1,0,1:0:0:0:
256,192,53629,1,8,1:1:0:0:
256,192,53907,1,0,1:0:0:0:
256,192,54045,1,0,1:0:0:0:
256,192,54184,1,8,1:1:0:0:
256,192,54323,1,0,1:0:0:0:
256,192,54462,1,8,1:1:0:0:
256,192,54601,1,8,1:0:0:0:
256,192,54740,1,0,1:0:0:0:
256,192,55018,1,8,1:1:0:0:
256,192,55157,1,0,1:0:0:0:
256,192,55295,1,0,1:0:0:0:
256,192,55434,1,8,1:1:0:0:
256,192,55712,1,8,1:1:0:0:
256,192,55851,1,8,1:1:0:0:
256,192,56129,1,0,1:0:0:0:
256,192,56268,1,0,1:0:0:0:
256,192,56407,1,8,1:1:0:0:
256,192,56545,1,8,1:1:0:0:
256,192,56684,1,0,1:0:0:0:
256,192,56962,1,0,1:0:0:0:
256,192,57101,1,0,1:0:0:0:
256,192,57240,1,8,1:1:0:0:
256,192,57379,1,0,1:0:0:0:
256,192,57518,1,8,1:1:0:0:
256,192,57795,1,0,1:0:0:0:
256,192,58073,1,8,1:1:0:0:
256,192,58212,1,0,1:0:0:0:
256,192,58351,1,8,1:1:0:0:
256,192,58491,1,0,1:0:0:0:
256,192,58629,1,0,1:0:0:0:
256,192,58768,1,8,1:1:0:0:
256,192,58907,1,8,1:0:0:0:
256,192,59045,1,0,1:1:0:0:
256,192,59184,1,8,1:1:0:0:
256,192,59323,1,0,1:0:0:0:
256,192,59462,1,8,1:1:0:0:
256,192,59740,1,0,1:0:0:0:
256,192,59879,1,8,1:1:0:0:
256,192,60018,1,0,1:0:0:0:
256,192,60295,1,0,1:0:0:0:
256,192,60573,1,12,1:1:0:0:
256,192,60851,1,0,1:0:0:0:
256,192,60990,1,0,1:0:0:0:
256,192,61129,1,8,1:1:0:0:
256,192,61268,1,0,1:0:0:0:
256,192,61407,1,8,1:1:0:0:
256,192,61545,1,8,1:1:0:0:
256,192,61684,1,0,1:0:0:0:
256,192,61962,1,8,1:1:0:0:
256,192,62101,1,8,1:1:0:0:
256,192,62240,1,0,1:0:0:0:
256,192,62379,1,0,1:0:0:0:
256,192,62518,1,8,1:1:0:0:
256,192,62795,1,0,1:0:0:0:
256,192,63073,1,8,1:1:0:0:
256,192,63212,1,0,1:0:0:0:
256,192,63351,1,8,1:1:0:0:
256,192,63490,1,0,1:0:0:0:
256,192,63629,1,0,1:0:0:0:
256,192,63907,1,8,1:1:0:0:
256,192,64184,1,8,1:1:0:0:
256,192,64323,1,0,1:0:0:0:
256,192,64462,1,0,1:0:0:0:
256,192,64601,1,8,1:1:0:0:
256,192,64740,1,0,1:0:0:0:
256,192,65018,1,8,1:1:0:0:
256,192,65295,1,0,1:0:0:0:
256,192,65434,1,0,1:0:0:0:
256,192,65573,1,8,1:1:0:0:
256,192,65712,1,0,1:0:0:0:
256,192,65851,1,8,1:1:0:0:
256,192,66129,1,8,1:1:0:0:
256,192,66268,1,0,1:0:0:0:
256,192,66407,1,8,1:1:0:0:
256,192,66545,1,0,1:0:0:0:
256,192,66684,1,8,1:1:0:0:
256,192,66962,1,0,1:0:0:0:
256,192,67240,1,0,1:0:0:0:
256,192,67518,1,8,1:1:0:0:
256,192,67795,1,0,1:0:0:0:
256,192,68073,1,8,1:1:0:0:
256,192,68212,1,0,1:0:0:0:
256,192,68351,1,8,1:1:0:0:
256,192,68629,1,0,1:0:0:0:
256,192,68768,1,0,1:1:0:0:
256,192,68907,1,8,0:0:0:0:
256,192,69045,1,0,1:0:0:0:
256,192,69184,1,8,1:1:0:0:
256,192,69323,1,8,1:1:0:0:
256,192,69462,1,4,1:1:0:0:
256,192,69739,1,8,1:1:0:0:
256,192,69879,1,8,1:1:0:0:
256,192,70017,1,0,1:0:0:0:
256,192,70295,1,8,1:1:0:0:
256,192,70434,1,8,1:1:0:0:
256,192,70573,1,0,1:0:0:0:
256,192,70712,1,0,1:0:0:0:
256,192,70850,1,8,1:1:0:0:
256,192,70989,1,8,1:1:0:0:
256,192,71268,1,0,1:0:0:0:
256,192,71407,1,8,1:1:0:0:
256,192,71684,1,0,1:0:0:0:
256,192,71962,1,8,1:1:0:0:
256,192,72101,1,0,1:0:0:0:
256,192,72239,1,8,1:1:0:0:
256,192,72378,1,8,1:1:0:0:
256,192,72517,1,0,1:0:0:0:
256,192,72657,1,0,1:0:0:0:
256,192,72795,1,8,1:1:0:0:
256,192,72934,1,8,1:1:0:0:
256,192,73073,1,0,1:0:0:0:
256,192,73211,1,8,1:1:0:0:
256,192,73489,1,8,1:1:0:0:
256,192,73628,1,0,1:0:0:0:
256,192,73906,1,0,1:0:0:0:
256,192,74045,1,8,1:1:0:0:
256,192,74184,1,0,1:1:0:0:
256,192,74323,1,0,1:0:0:0:
256,192,74461,1,8,1:1:0:0:
256,192,74601,1,8,1:1:0:0:
256,192,74740,1,0,1:0:0:0:
256,192,75017,1,8,1:1:0:0:
256,192,75295,1,0,1:0:0:0:
256,192,75434,1,0,1:0:0:0:
256,192,75573,1,8,1:1:0:0:
256,192,75851,1,8,1:1:0:0:
256,192,75989,1,0,1:0:0:0:
256,192,76129,1,8,1:1:0:0:
256,192,76268,1,0,1:0:0:0:
256,192,76406,1,8,1:1:0:0:
256,192,76545,1,0,1:0:0:0:
256,192,76684,1,8,1:1:0:0:
256,192,76823,1,8,1:1:0:0:
256,192,76961,1,0,1:0:0:0:
256,192,77100,1,0,1:0:0:0:
256,192,77239,1,8,1:1:0:0:
256,192,77518,1,8,1:1:0:0:
256,192,77656,1,0,1:0:0:0:
256,192,77796,1,8,1:1:0:0:
256,192,78073,1,0,1:0:0:0:
256,192,78351,1,12,1:1:0:0:
256,192,78629,1,0,1:0:0:0:
256,192,78907,1,8,1:1:0:0:
256,192,79045,1,8,1:1:0:0:
256,192,79184,1,0,1:0:0:0:
256,192,79323,1,0,1:0:0:0:
256,192,79462,1,8,1:1:0:0:
256,192,79740,1,8,1:1:0:0:
256,192,79879,1,0,1:0:0:0:
256,192,80157,1,0,1:0:0:0:
256,192,80295,1,8,1:1:0:0:
256,192,80573,1,8,1:1:0:0:
256,192,80712,1,0,1:0:0:0:
256,192,80851,1,8,1:1:0:0:
256,192,80990,1,8,1:1:0:0:
256,192,81129,1,0,1:0:0:0:
256,192,81407,1,8,1:1:0:0:
256,192,81545,1,0,1:0:0:0:
256,192,81684,1,8,1:1:0:0:
256,192,81962,1,8,1:1:0:0:
256,192,82101,1,0,1:0:0:0:
256,192,82379,1,8,1:1:0:0:
256,192,82518,1,0,1:0:0:0:
256,192,82795,1,8,1:1:0:0:
256,192,82934,1,8,1:1:0:0:
256,192,83073,1,8,1:1:0:0:
256,192,83212,1,8,1:1:0:0:
256,192,83351,1,0,1:0:0:0:
256,192,83629,1,0,1:0:0:0:
256,192,83907,1,8,1:1:0:0:
256,192,84045,1,0,1:0:0:0:
256,192,84184,1,8,1:1:0:0:
256,192,84323,1,8,1:1:0:0:
256,192,84462,1,0,1:0:0:0:
256,192,84740,1,8,1:1:0:0:
256,192,84879,1,0,1:0:0:0:
256,192,85018,1,12,1:1:0:0:
256,192,85295,1,0,0:0:0:0:
256,192,85573,1,12,1:1:0:0:
256,192,85851,1,0,0:0:0:0:
256,192,85990,1,0,0:0:0:0:
256,192,86129,1,12,1:1:0:0:
256,192,86407,1,8,1:1:0:0:
256,192,86545,1,0,1:0:0:0:
256,192,86823,1,0,0:0:0:0:
256,192,86962,1,8,1:1:0:0:
256,192,87240,1,0,1:1:0:0:
256,192,87518,1,8,1:1:0:0:
256,192,87657,1,8,1:1:0:0:
256,192,87795,1,0,1:0:0:0:
256,192,88073,1,0,1:0:0:0:
256,192,88351,1,8,1:1:0:0:
256,192,88629,1,0,1:0:0:0:
256,192,88768,1,8,1:1:0:0:
256,192,89740,1,0,1:0:0:0:
256,192,89879,1,0,1:0:0:0:
256,192,90018,1,8,1:1:0:0:
256,192,90295,1,8,1:1:0:0:
256,192,90573,1,0,1:0:0:0:
256,192,90851,1,8,1:1:0:0:
256,192,90990,1,0,1:0:0:0:
256,192,91407,1,8,1:1:0:0:
256,192,91684,1,0,1:0:0:0:
256,192,91962,1,8,1:1:0:0:
256,192,92101,1,0,1:0:0:0:
256,192,92240,1,8,1:1:0:0:
256,192,92518,1,0,1:0:0:0:
256,192,92657,1,8,1:1:0:0:
256,192,92795,1,8,1:1:0:0:
256,192,93073,1,8,1:1:0:0:
256,192,93351,1,0,1:0:0:0:
256,192,93907,1,8,1:1:0:0:
256,192,94462,1,0,1:0:0:0:
256,192,94601,1,0,1:0:0:0:
256,192,94740,1,0,1:0:0:0:
256,192,95018,1,8,1:1:0:0:
256,192,95295,1,8,1:1:0:0:
256,192,95573,1,0,1:0:0:0:
256,192,96129,1,0,1:0:0:0:
256,192,96407,1,8,1:1:0:0:
256,192,96545,1,0,1:0:0:0:
256,192,96684,1,8,1:1:0:0:
256,192,96962,1,8,1:1:0:0:
256,192,97240,1,0,1:0:0:0:
256,192,97379,1,0,1:0:0:0:
256,192,97518,1,8,1:1:0:0:
256,192,97657,1,8,1:1:0:0:
256,192,97934,1,8,1:0:0:0:
256,192,98073,1,8,0:0:0:0:
256,192,98351,1,0,1:0:0:0:
256,192,98629,1,8,1:1:0:0:
256,192,98907,1,8,1:1:0:0:
256,192,99184,1,0,1:0:0:0:
256,192,99323,1,0,1:0:0:0:
256,192,99462,1,8,1:1:0:0:
256,192,99740,1,0,1:0:0:0:
256,192,99879,1,0,1:0:0:0:
256,192,100157,1,8,1:1:0:0:
256,192,100295,1,8,1:1:0:0:
256,192,100573,1,0,1:0:0:0:
256,192,100851,1,0,1:0:0:0:
256,192,100990,1,0,1:0:0:0:
256,192,101129,1,8,1:1:0:0:
256,192,101407,1,8,1:1:0:0:
256,192,101545,1,8,1:1:0:0:
256,192,101684,1,8,1:1:0:0:
256,192,101962,1,0,1:0:0:0:
256,192,102240,1,0,1:0:0:0:
256,192,102518,1,8,1:1:0:0:
256,192,102657,1,8,1:1:0:0:
256,192,102795,1,4,1:1:0:0:
256,192,103073,1,0,1:0:0:0:
256,192,103211,1,0,1:0:0:0:
256,192,103351,1,8,1:1:0:0:
256,192,103629,1,0,1:1:0:0:
256,192,103767,1,0,1:0:0:0:
256,192,103907,1,8,1:1:0:0:
256,192,104184,1,8,1:0:0:0:
256,192,104322,1,0,1:1:0:0:
256,192,104462,1,8,1:1:0:0:
256,192,104740,1,8,1:1:0:0:
256,192,104878,1,8,1:1:0:0:
256,192,105018,1,0,1:0:0:0:
256,192,105295,1,8,1:1:0:0:
256,192,105433,1,8,1:0:0:0:
256,192,105573,1,0,1:0:0:0:
256,192,105851,1,8,1:0:0:0:
256,192,105989,1,8,1:0:0:0:
256,192,106129,1,0,1:1:0:0:
256,192,106406,1,8,1:0:0:0:
256,192,106545,1,0,1:0:0:0:
256,192,106684,1,0,1:0:0:0:
256,192,107239,1,4,1:1:0:0:
256,192,107516,1,8,1:1:0:0:
256,192,107655,1,8,1:1:0:0:
256,192,107794,1,0,1:0:0:0:
256,192,107933,1,0,1:0:0:0:
256,192,108072,1,8,1:1:0:0:
256,192,108350,1,8,1:1:0:0:
256,192,108489,1,0,1:0:0:0:
256,192,108627,1,8,1:1:0:0:
256,192,108766,1,0,1:0:0:0:
256,192,108905,1,0,1:0:0:0:
256,192,109044,1,8,1:1:0:0:
256,192,109183,1,0,1:0:0:0:
256,192,109461,1,8,1:1:0:0:
256,192,109739,1,8,1:1:0:0:
256,192,109877,1,0,1:0:0:0:
256,192,110016,1,8,1:1:0:0:
256,192,110155,1,0,1:0:0:0:
256,192,110294,1,8,1:1:0:0:
256,192,110433,1,0,1:0:0:0:
256,192,110572,1,8,1:1:0:0:
256,192,110711,1,8,1:1:0:0:
256,192,110850,1,0,1:0:0:0:
256,192,110988,1,8,1:1:0:0:
256,192,111266,1,8,1:1:0:0:
256,192,111405,1,0,1:0:0:0:
256,192,111683,1,0,1:0:0:0:
256,192,111822,1,8,1:1:0:0:
256,192,111961,1,8,1:1:0:0:
256,192,112100,1,0,1:0:0:0:
256,192,112238,1,8,1:1:0:0:
256,192,112377,1,0,1:0:0:0:
256,192,112516,1,8,1:1:0:0:
256,192,112794,1,8,1:1:0:0:
256,192,112933,1,0,1:0:0:0:
256,192,113072,1,0,1:0:0:0:
256,192,113211,1,8,1:1:0:0:
256,192,113350,1,8,1:1:0:0:
256,192,113627,1,8,1:1:0:0:
256,192,113766,1,0,1:0:0:0:
256,192,113905,1,8,1:1:0:0:
256,192,114044,1,8,1:1:0:0:
256,192,114183,1,0,1:0:0:0:
256,192,114322,1,0,1:0:0:0:
256,192,114461,1,8,1:1:0:0:
256,192,114600,1,8,1:0:0:0:
256,192,114738,1,0,1:1:0:0:
256,192,114877,1,8,1:1:0:0:
256,192,115016,1,0,1:0:0:0:
256,192,115294,1,8,1:1:0:0:
256,192,115433,1,0,1:0:0:0:
256,192,115572,1,8,1:1:0:0:
256,192,115850,1,0,1:0:0:0:
256,192,116127,1,4,1:1:0:0:
256,192,116404,1,8,1:1:0:0:
256,192,116544,1,8,1:1:0:0:
256,192,116682,1,0,1:0:0:0:
256,192,116822,1,8,1:0:0:0:
256,192,116960,1,0,1:1:0:0:
256,192,117099,1,8,1:1:0:0:
256,192,117238,1,0,1:0:0:0:
256,192,117516,1,0,1:0:0:0:
256,192,117654,1,8,1:1:0:0:
256,192,117794,1,8,1:1:0:0:
256,192,117933,1,0,1:0:0:0:
256,192,118072,1,8,1:1:0:0:
256,192,118349,1,0,1:0:0:0:
256,192,118627,1,8,1:1:0:0:
256,192,118766,1,0,1:0:0:0:
256,192,118904,1,8,1:1:0:0:
256,192,119044,1,8,1:1:0:0:
256,192,119182,1,8,1:1:0:0:
256,192,119322,1,0,1:0:0:0:
256,192,119460,1,8,1:1:0:0:
256,192,119738,1,0,1:0:0:0:
256,192,119876,1,8,1:1:0:0:
256,192,120154,1,8,1:1:0:0:
256,192,120293,1,0,1:0:0:0:
256,192,120571,1,0,1:0:0:0:
256,192,120711,1,8,1:1:0:0:
256,192,120850,1,0,1:1:0:0:
256,192,120988,1,0,1:0:0:0:
256,192,121126,1,8,1:1:0:0:
256,192,121266,1,8,1:1:0:0:
256,192,121405,1,0,1:0:0:0:
256,192,121682,1,0,1:0:0:0:
256,192,121960,1,8,1:1:0:0:
256,192,122100,1,8,1:1:0:0:
256,192,122238,1,8,1:1:0:0:
256,192,122516,1,0,1:0:0:0:
256,192,122654,1,0,1:0:0:0:
256,192,122793,1,8,1:1:0:0:
256,192,122933,1,8,1:1:0:0:
256,192,123071,1,0,1:0:0:0:
256,192,123210,1,8,1:1:0:0:
256,192,123349,1,8,1:0:0:0:
256,192,123489,1,8,1:1:0:0:
256,192,123626,1,0,1:0:0:0:
256,192,123765,1,0,1:0:0:0:
256,192,123904,1,8,1:1:0:0:
256,192,124183,1,8,1:1:0:0:
256,192,124321,1,0,1:0:0:0:
256,192,124461,1,8,1:1:0:0:
256,192,124738,1,0,1:0:0:0:
256,192,125016,1,12,1:1:0:0:
256,192,125295,1,0,1:0:0:0:
256,192,125434,1,0,1:0:0:0:
256,192,125572,1,8,1:1:0:0:
256,192,125850,1,8,1:1:0:0:
256,192,125988,1,8,1:1:0:0:
256,192,126127,1,8,1:1:0:0:
256,192,126266,1,0,1:0:0:0:
256,192,126405,1,0,1:0:0:0:
256,192,126544,1,8,1:1:0:0:
256,192,126822,1,0,1:0:0:0:
256,192,126961,1,8,1:1:0:0:
256,192,127238,1,0,1:0:0:0:
256,192,127516,1,8,1:1:0:0:
256,192,127655,1,0,1:0:0:0:
256,192,127794,1,8,1:1:0:0:
256,192,127934,1,8,1:1:0:0:
256,192,128072,1,0,1:0:0:0:
256,192,128211,1,0,1:0:0:0:
256,192,128350,1,8,1:1:0:0:
256,192,128627,1,8,1:1:0:0:
256,192,128767,1,8,1:1:0:0:
256,192,128906,1,0,1:0:0:0:
256,192,129044,1,8,1:1:0:0:
256,192,129183,1,0,1:0:0:0:
256,192,129461,1,8,1:1:0:0:
256,192,129738,1,8,1:1:0:0:
256,192,129877,1,8,1:1:0:0:
256,192,130016,1,0,1:0:0:0:
256,192,130156,1,0,1:0:0:0:
256,192,130294,1,8,1:1:0:0:
256,192,130572,1,8,1:1:0:0:
256,192,130711,1,0,1:0:0:0:
256,192,130850,1,0,1:0:0:0:
256,192,130988,1,0,1:0:0:0:
256,192,131127,1,8,1:1:0:0:
256,192,131405,1,0,1:0:0:0:
256,192,131544,1,0,1:0:0:0:
256,192,131683,1,8,1:1:0:0:
256,192,131961,1,8,1:1:0:0:
256,192,132238,1,0,1:1:0:0:
256,192,132516,1,8,1:1:0:0:
256,192,132656,1,8,1:1:0:0:
256,192,132794,1,8,1:1:0:0:
256,192,133072,1,0,1:0:0:0:
256,192,133211,1,8,1:1:0:0:
256,192,133489,1,0,1:0:0:0:
256,192,133628,1,8,1:1:0:0:
256,192,133767,1,8,1:1:0:0:
256,192,133905,1,4,1:1:0:0:
256,192,134182,1,8,1:1:0:0:
256,192,134322,1,8,1:1:0:0:
256,192,134460,1,0,1:0:0:0:
256,192,134600,1,0,1:0:0:0:
256,192,134738,1,8,1:1:0:0:
256,192,135016,1,8,1:1:0:0:
256,192,135155,1,0,1:0:0:0:
256,192,135293,1,0,1:0:0:0:
256,192,135432,1,8,1:1:0:0:
256,192,135572,1,8,1:1:0:0:
256,192,135711,1,0,1:0:0:0:
256,192,135850,1,8,1:1:0:0:
256,192,136127,1,0,1:0:0:0:
256,192,136405,1,8,1:1:0:0:
256,192,136544,1,0,1:0:0:0:
256,192,136682,1,0,1:0:0:0:
256,192,136821,1,8,1:1:0:0:
256,192,136960,1,8,1:1:0:0:
256,192,137238,1,8,1:1:0:0:
256,192,137377,1,8,1:1:0:0:
256,192,137516,1,0,1:0:0:0:
256,192,137654,1,0,1:0:0:0:
256,192,137932,1,8,1:1:0:0:
256,192,138071,1,0,1:0:0:0:
256,192,138349,1,0,1:0:0:0:
256,192,138488,1,8,1:1:0:0:
256,192,138627,1,0,1:1:0:0:
256,192,138766,1,0,1:0:0:0:
256,192,138904,1,8,1:1:0:0:
256,192,139044,1,8,1:1:0:0:
256,192,139183,1,0,1:0:0:0:
256,192,139460,1,8,1:1:0:0:
256,192,139738,1,0,1:0:0:0:
256,192,139877,1,8,1:1:0:0:
256,192,140016,1,0,1:0:0:0:
256,192,140294,1,8,1:1:0:0:
256,192,140432,1,0,1:0:0:0:
256,192,140571,1,8,1:1:0:0:
256,192,140711,1,8,1:1:0:0:
256,192,140849,1,0,1:0:0:0:
256,192,140988,1,8,1:1:0:0:
256,192,141127,1,8,1:0:0:0:
256,192,141266,1,8,1:1:0:0:
256,192,141404,1,0,1:0:0:0:
256,192,141543,1,8,1:1:0:0:
256,192,141683,1,0,1:1:0:0:
256,192,141961,1,0,1:0:0:0:
256,192,142099,1,8,1:1:0:0:
256,192,142238,1,8,1:1:0:0:
256,192,142516,1,0,1:0:0:0:
256,192,142655,1,0,1:0:0:0:
256,192,142794,1,12,1:1:0:0:
256,192,143071,1,0,1:1:0:0:
256,192,143211,1,0,1:0:0:0:
256,192,143349,1,12,1:1:0:0:
256,192,143626,1,8,1:1:0:0:
256,192,143765,1,8,1:1:0:0:
256,192,143904,1,4,1:1:0:0:
256,192,144183,1,0,1:0:0:0:
256,192,144322,1,8,1:1:0:0:
256,192,144461,1,8,1:1:0:0:
256,192,144738,1,0,1:0:0:0:
256,192,144877,1,0,1:0:0:0:
256,192,145015,1,12,1:1:0:0:
256,192,145293,1,0,1:0:0:0:
256,192,145432,1,0,1:0:0:0:
256,192,145571,1,12,1:1:0:0:
256,192,145849,1,8,1:1:0:0:
256,192,145988,1,8,1:1:0:0:
256,192,146126,1,4,1:1:0:0:
