osu file format v14

[General]
AudioFilename: audio.mp3
AudioLeadIn: 0
PreviewTime: 36249
Countdown: 0
SampleSet: Soft
StackLeniency: 0.3
Mode: 0
LetterboxInBreaks: 0
WidescreenStoryboard: 1

[Editor]
Bookmarks: 24249,36249,37749,49749,61749,73749,75249,87249,99249
DistanceSpacing: 1
BeatDivisor: 4
GridSize: 4
TimelineZoom: 2.1

[Metadata]
Title:Miraculous
TitleUnicode:Miraculous
Artist:Laura Marano
ArtistUnicode:Laura Marano
Creator:ezek
Version:squirrezek's Miraculous
Source:Miraculous: Tales of Ladybug & Cat Noir
Tags:disney channel nickelodeon les aventures de chat zagtoon toei animation squirrelpascals theme song
BeatmapID:1696240
BeatmapSetID:808310

[Difficulty]
HPDrainRate:7
CircleSize:4.5
OverallDifficulty:8
ApproachRate:8.2
SliderMultiplier:1.8
SliderTickRate:1

[Events]
//Background and Video events
Video,0,"Miraesosculos.mp4"
0,0,"Ladybug.png",0,0
//Break Periods
2,75249,83521
//Storyboard Layer 0 (Background)
//Storyboard Layer 1 (Fail)
//Storyboard Layer 2 (Pass)
//Storyboard Layer 3 (Foreground)
//Storyboard Sound Samples

[TimingPoints]
12241,375,4,2,1,80,1,0
35866,-66.6666666666667,4,2,1,80,0,0
37741,-90.9090909090909,4,2,1,80,0,1
49741,-100,4,2,1,80,0,0
55366,-66.6666666666667,4,2,1,80,0,0
55741,-100,4,2,1,80,0,0
58647,-100,4,2,1,10,0,0
58741,-100,4,2,1,80,0,0
61366,-66.6666666666667,4,2,1,80,0,0
61647,-66.6666666666667,4,2,1,10,0,0
61741,-100,4,2,1,80,0,0
73366,-66.6666666666667,4,2,1,80,0,0
73741,-100,4,2,1,80,0,0
86866,-66.6666666666667,4,2,1,80,0,0
87241,-76.9230769230769,4,2,1,80,0,1
98866,-66.6666666666667,4,2,1,80,0,1
99053,-66.6666666666667,4,2,1,80,0,0
99241,-76.9230769230769,4,2,1,80,0,1
113491,-90.9090909090909,4,2,1,80,0,0

[Colours]
Combo1 : 76,76,76
Combo2 : 255,55,55

[HitObjects]
0,80,12241,6,0,P|74:97|65:21,1,180,6|8,0:0|0:0,0:0:0:0:
130,188,12803,1,2,0:0:0:0:
130,188,12991,2,0,L|131:277,1,90
206,139,13366,2,0,L|204:49,1,90,8|0,0:0|0:0,0:0:0:0:
279,192,13741,6,0,B|320:218|366:196|366:192|366:188|401:164|451:192,1,180,2|8,0:0|0:0,0:0:0:0:
321,126,14303,1,2,0:0:0:0:
321,126,14491,2,0,P|309:83|321:40,1,90
408,257,14866,2,0,P|419:299|407:342,1,90,8|0,0:0|0:0,0:0:0:0:
188,225,15241,6,0,B|188:153|188:153|204:121|204:121|204:49,1,180,2|8,0:0|0:0,0:0:0:0:
117,23,15803,1,2,0:0:0:0:
117,23,15991,1,0,0:0:0:0:
298,65,16178,1,0,0:0:0:0:
298,65,16366,2,0,L|387:62,1,90,8|0,0:0|0:0,0:0:0:0:
188,225,16741,6,0,L|98:227,1,90,2|0,0:0|0:0,0:0:0:0:
7,229,17116,1,8,0:0:0:0:
249,310,17303,2,0,P|290:232|260:150,1,180,2|2,0:0|0:0,0:0:0:0:
188,95,17866,1,8,0:0:0:0:
98,94,18053,1,2,0:0:0:0:
177,350,18241,6,0,B|249:357|249:357|280:375|280:375|351:382,1,180,6|8,0:0|0:0,0:0:0:0:
435,348,18803,1,2,0:0:0:0:
421,213,18991,1,0,0:0:0:0:
309,291,19178,1,0,0:0:0:0:
435,347,19366,2,0,P|478:338|514:311,1,90,8|0,0:0|0:0,0:0:0:0:
337,179,19741,6,0,B|265:185|265:185|234:204|234:204|163:210,1,180,2|8,0:0|0:0,0:0:0:0:
84,165,20303,1,2,0:0:0:0:
98,31,20491,1,0,0:0:0:0:
210,108,20678,1,0,0:0:0:0:
84,164,20866,2,0,P|41:155|5:128,1,90,8|0,0:0|0:0,0:0:0:0:
237,183,21241,6,0,L|221:362,1,180,2|8,0:0|0:0,0:0:0:0:
384,326,21803,2,0,P|341:339|309:371,1,90,2|0,0:0|0:0,0:0:0:0:
323,192,22178,2,0,P|355:223|398:237,1,90,2|8,0:0|0:0,0:0:0:0:
468,293,22553,1,0,0:0:0:0:
361,115,22741,6,0,B|320:89|274:111|274:115|274:119|239:143|189:115,1,180,2|8,0:0|0:0,0:0:0:0:
137,42,23303,1,2,0:0:0:0:
51,160,23491,1,0,0:0:0:0:
189,115,23678,1,0,0:0:0:0:
51,70,23866,1,8,0:0:0:0:
137,188,24053,1,0,0:0:0:0:
223,306,24241,6,0,P|260:286|321:289,1,90,6|0,0:0|0:0,0:0:0:0:
376,186,24616,2,0,P|413:166|474:169,1,90,8|2,0:0|0:0,0:0:0:0:
201,86,24991,2,0,P|264:51|370:56,1,180,0|8,0:0|0:0,0:0:0:0:
460,164,25553,6,0,B|474:261|400:233|414:330,2,180,0|0|2,0:0|0:0|0:0,0:0:0:0:
376,186,26491,1,0,0:0:0:0:
498,311,26678,1,0,0:0:0:0:
322,366,26866,2,0,P|288:369|239:341,1,90,8|0,0:0|0:0,0:0:0:0:
109,309,27241,6,0,P|71:284|27:285,1,90,2|0,0:0|0:0,0:0:0:0:
251,220,27616,2,0,P|213:195|169:196,1,90,8|2,0:0|0:0,0:0:0:0:
236,72,27991,2,0,P|160:23|71:24,1,180,0|8,0:0|0:0,0:0:0:0:
367,40,28553,6,0,B|381:137|307:109|321:206,2,180,0|0|2,0:0|0:0|0:0,0:0:0:0:
283,62,29491,1,0,0:0:0:0:
405,187,29678,1,0,0:0:0:0:
278,295,29866,2,0,P|291:331|285:396,1,90,8|0,0:0|0:0,0:0:0:0:
39,252,30241,6,0,L|54:126,1,90,6|0,0:0|0:0,0:0:0:0:
196,194,30616,2,0,L|211:68,1,90,8|2,0:0|0:0,0:0:0:0:
353,136,30991,2,0,B|369:-2|369:-2|427:40,1,180,0|8,0:0|0:0,0:0:0:0:
426,206,31553,6,0,L|448:398,2,180,0|0|2,0:0|0:0|0:0,0:0:0:0:
353,136,32491,1,0,0:0:0:0:
251,133,32678,1,0,0:0:0:0:
172,197,32866,2,0,P|122:237|85:238,1,90,8|0,0:0|0:0,0:0:0:0:
72,61,33241,6,0,L|102:273,1,180,2|8,0:0|0:0,0:0:0:0:
339,147,33803,2,0,L|239:131,1,90,2|0,0:0|0:0,0:0:0:0:
197,303,34178,2,0,L|297:287,1,90,2|8,0:0|0:0,0:0:0:0:
395,17,34553,2,0,B|395:75|453:105|453:105|512:134|512:193|512:193|512:252|453:281|453:281|395:311|395:369,1,450,2|0,0:0|0:0,0:0:0:0:
416,192,35678,5,2,0:0:0:0:
416,192,35866,2,0,L|168:192,1,202.500007724762,8|0,0:0|0:0,0:0:0:0:
96,192,36241,5,2,0:0:0:0:
100,172,36428,1,0,0:0:0:0:
222,149,36616,1,0,0:0:0:0:
226,129,36803,1,0,0:0:0:0:
348,106,36991,5,0,0:0:0:0:
364,6,37178,1,0,0:0:0:0:
488,134,37366,1,0,0:0:0:0:
472,234,37553,1,0,0:0:0:0:
222,149,37741,6,0,B|142:155|142:155|108:176|108:176|30:183,1,198.000006042481,6|8,0:0|0:0,0:0:0:0:
86,288,38303,1,2,0:0:0:0:
222,149,38491,1,0,0:0:0:0:
31,182,38678,1,0,0:0:0:0:
203,267,38866,1,8,0:0:0:0:
111,95,39053,1,0,0:0:0:0:
175,362,39241,6,0,B|224:382|270:349|269:345|269:340|302:308|362:328,1,198.000006042481,2|8,0:0|0:0,0:0:0:0:
455,359,39803,1,2,0:0:0:0:
438,102,39991,1,0,0:0:0:0:
252,214,40178,1,0,0:0:0:0:
400,251,40366,1,8,0:0:0:0:
289,65,40553,1,0,0:0:0:0:
110,313,40741,6,0,B|151:248|142:169|142:169|103:196,1,198.000006042481,2|8,0:0|0:0,0:0:0:0:
12,237,41303,2,0,P|5:189|19:142,1,99.0000030212403,2|0,0:0|0:0,0:0:0:0:
300,173,41678,2,0,P|307:125|293:78,1,99.0000030212403,2|8,0:0|0:0,0:0:0:0:
172,346,42053,1,0,0:0:0:0:
170,221,42241,5,2,0:0:0:0:
276,310,42428,1,0,0:0:0:0:
300,173,42616,1,8,0:0:0:0:
383,267,42803,1,2,0:0:0:0:
209,121,42991,1,0,0:0:0:0:
172,346,43178,1,0,0:0:0:0:
383,266,43366,2,0,P|431:262|475:284,1,99.0000030212403,8|0,0:0|0:0,0:0:0:0:
85,375,43741,6,0,L|76:177,1,198.000006042481,6|8,0:0|0:0,0:0:0:0:
4,108,44303,2,0,L|-1:7,1,99.0000030212403,2|0,0:0|0:0,0:0:0:0:
219,229,44678,2,0,L|224:128,1,99.0000030212403,2|8,0:0|0:0,0:0:0:0:
471,178,45053,1,0,0:0:0:0:
402,342,45241,6,0,P|403:245|473:178,1,198.000006042481,2|8,0:0|0:0,0:0:0:0:
330,38,45803,1,2,0:0:0:0:
324,232,45991,1,0,0:0:0:0:
215,72,46178,1,0,0:0:0:0:
396,136,46366,1,8,0:0:0:0:
207,189,46553,6,0,P|160:178|111:183,1,99.0000030212403,2|0,0:0|0:0,0:0:0:0:
324,232,46928,2,0,P|371:220|420:225,1,99.0000030212403,2|8,0:0|0:0,0:0:0:0:
138,302,47303,2,0,P|90:290|41:295,1,99.0000030212403,2|0,0:0|0:0,0:0:0:0:
398,332,47678,2,0,P|445:320|494:325,1,99.0000030212403,2|8,0:0|0:0,0:0:0:0:
200,101,48053,1,0,0:0:0:0:
209,226,48241,5,2,0:0:0:0:
307,128,48428,1,0,0:0:0:0:
343,262,48616,1,8,0:0:0:0:
417,161,48803,1,2,0:0:0:0:
200,101,48991,1,0,0:0:0:0:
257,322,49178,1,0,0:0:0:0:
418,162,49366,2,0,L|407:64,1,99.0000030212403,8|0,0:0|0:0,0:0:0:0:
257,322,49741,5,6,0:0:0:0:
257,322,50116,5,8,0:0:0:0:
194,255,50303,1,2,0:0:0:0:
116,318,50491,1,0,0:0:0:0:
53,251,50678,1,0,0:0:0:0:
205,165,50866,2,0,L|191:275,1,90,8|0,0:0|0:0,0:0:0:0:
384,68,51241,6,0,L|391:267,1,180,2|8,0:0|0:0,0:0:0:0:
493,250,51803,1,2,0:0:0:0:
416,155,51991,1,0,0:0:0:0:
488,68,52178,1,0,0:0:0:0:
329,12,52366,2,0,P|277:0|222:6,1,90,8|0,0:0|0:0,0:0:0:0:
0,128,52741,6,0,P|84:135|188:100,1,180,2|8,0:0|0:0,0:0:0:0:
143,207,53303,1,2,0:0:0:0:
111,294,53491,1,0,0:0:0:0:
58,219,53678,1,0,0:0:0:0:
257,221,53866,2,0,P|323:228|423:306,1,180,8|2,0:0|0:0,0:0:0:0:
257,221,54428,6,0,L|267:121,2,90,0|8|2,0:0|0:0|0:0,0:0:0:0:
291,331,54991,1,0,0:0:0:0:
164,309,55178,1,0,0:0:0:0:
296,350,55366,6,0,L|75:359,1,202.500007724762,8|0,0:0|0:0,0:0:0:0:
23,290,55741,6,0,B|48:191|-21:229|3:115,1,180,6|8,0:0|0:0,0:0:0:0:
78,67,56303,1,2,0:0:0:0:
46,187,56491,1,0,0:0:0:0:
171,155,56678,1,0,0:0:0:0:
23,290,56866,2,0,P|77:268|125:268,1,90,8|0,0:0|0:0,0:0:0:0:
266,358,57241,6,0,L|287:171,1,180,2|8,0:0|0:0,0:0:0:0:
397,242,57803,1,2,0:0:0:0:
509,201,57991,1,0,0:0:0:0:
351,73,58178,1,0,0:0:0:0:
463,32,58366,2,0,P|433:87|439:179,1,135,8|0,0:0|0:0,0:0:0:0:
509,201,58741,6,0,B|524:275|477:326|477:326|448:309|400:308,1,180,2|8,0:0|0:0,0:0:0:0:
324,344,59303,1,2,0:0:0:0:
346,234,59491,1,0,0:0:0:0:
227,357,59678,1,0,0:0:0:0:
175,201,59866,2,0,P|175:131|270:78,1,180,8|2,0:0|0:0,0:0:0:0:
254,164,60428,5,0,0:0:0:0:
175,201,60616,1,8,0:0:0:0:
96,164,60803,2,0,P|54:151|74:248,1,180,2|0,0:0|0:0,0:0:0:0:
254,164,61366,6,0,B|274:69|224:111|246:11|246:11|288:69,1,202.500007724762,8|0,0:0|0:0,0:0:0:0:
330,103,61741,6,0,P|374:98|415:80,1,90,6|0,0:0|0:0,0:0:0:0:
355,230,62116,2,0,P|399:225|440:207,1,90,8|2,0:0|0:0,0:0:0:0:
298,356,62491,2,0,P|278:281|214:325,1,180,0|8,0:0|0:0,0:0:0:0:
225,141,63053,6,0,L|257:57,1,90,0|2,0:0|0:0,0:0:0:0:
76,182,63428,2,0,L|43:98,1,90,0|8,0:0|0:0,0:0:0:0:
145,329,63803,1,2,0:0:0:0:
280,234,63991,1,0,0:0:0:0:
165,214,64178,1,0,0:0:0:0:
259,349,64366,2,0,P|303:349|344:331,1,90,8|0,0:0|0:0,0:0:0:0:
377,150,64741,6,0,B|370:194|370:194|378:238,1,90,2|0,0:0|0:0,0:0:0:0:
229,93,65116,2,0,B|221:137|221:137|229:181,1,90,8|2,0:0|0:0,0:0:0:0:
77,36,65491,2,0,B|41:1|41:1|35:47|66:92|54:129,1,180,0|8,0:0|0:0,0:0:0:0:
25,280,66053,6,0,P|18:324|-1:364,1,90,0|2,0:0|0:0,0:0:0:0:
165,224,66428,2,0,P|172:268|192:308,1,90,0|8,0:0|0:0,0:0:0:0:
342,213,66803,1,2,0:0:0:0:
288,364,66991,1,0,0:0:0:0:
241,210,67178,1,0,0:0:0:0:
370,305,67366,2,0,L|467:311,1,90,8|0,0:0|0:0,0:0:0:0:
434,54,67741,6,0,P|412:92|416:136,1,90,6|0,0:0|0:0,0:0:0:0:
254,43,68116,2,0,P|232:81|236:125,1,90,8|2,0:0|0:0,0:0:0:0:
75,26,68491,2,0,B|45:64|63:112|67:112|71:113|92:149|60:197,1,180,0|8,0:0|0:0,0:0:0:0:
0,321,69053,6,0,L|91:312,1,90,0|2,0:0|0:0,0:0:0:0:
149,188,69428,2,0,L|58:197,1,90,0|8,0:0|0:0,0:0:0:0:
283,379,69803,1,2,0:0:0:0:
314,216,69991,1,0,0:0:0:0:
217,282,70178,1,0,0:0:0:0:
378,314,70366,2,0,P|409:283|426:242,1,90,8|0,0:0|0:0,0:0:0:0:
364,48,70741,6,0,L|386:135,1,90,2|0,0:0|0:0,0:0:0:0:
148,48,71116,2,0,L|126:135,1,90,8|2,0:0|0:0,0:0:0:0:
256,373,71491,2,0,B|282:332|260:286|256:286|252:286|228:251|256:201,1,180,0|8,0:0|0:0,0:0:0:0:
377,47,72053,2,0,B|364:57|340:59|317:52|302:41|286:31|255:49|250:44|219:47|116:96|183:168|255:246|327:168|395:96|291:47|260:44|255:49|224:31|209:41|193:52|170:59|147:57|134:47,1,450,2|0,0:0|0:2,0:0:0:0:
256,296,73178,5,2,0:0:0:0:
172,244,73366,2,0,P|256:196|340:244,1,202.500007724762,8|0,0:0|0:0,0:0:0:0:
256,312,73741,5,4,3:0:0:0:
324,240,84241,5,2,0:0:0:0:
330,268,84616,1,2,0:0:0:0:
182,268,84991,1,2,0:0:0:0:
188,240,85366,1,2,0:0:0:0:
342,170,85741,5,2,0:0:0:0:
382,335,85928,1,2,0:0:0:0:
130,335,86116,1,2,0:0:0:0:
170,170,86303,1,2,0:0:0:0:
256,260,86491,5,2,0:0:0:0:
256,32,86678,1,2,0:0:0:0:
256,64,86772,1,2,0:0:0:0:
256,96,86866,2,0,B|146:133|182:54|56:91,1,202.500007724762,10|0,0:0|0:0,0:0:0:0:
124,228,87241,6,0,P|158:127|60:89,1,233.999989288331,6|8,0:0|0:0,0:0:0:0:
32,252,87803,1,2,0:0:0:0:
215,323,87991,1,0,0:0:0:0:
124,228,88178,1,0,0:0:0:0:
307,298,88366,1,8,0:0:0:0:
216,203,88553,1,0,0:0:0:0:
393,351,88741,6,0,B|411:171|411:171|379:102,1,233.999989288331,2|8,0:0|0:0,0:0:0:0:
307,298,89303,1,2,0:0:0:0:
484,221,89491,1,0,0:0:0:0:
317,186,89678,1,0,0:0:0:0:
492,133,89866,1,8,0:0:0:0:
475,310,90053,1,0,0:0:0:0:
224,226,90241,6,0,P|176:125|119:201,1,233.999989288331,2|8,0:0|0:0,0:0:0:0:
187,320,90803,2,0,P|247:322|312:288,1,116.999994644165,2|0,0:0|0:0,0:0:0:0:
209,51,91178,2,0,P|149:49|84:83,1,116.999994644165,0|8,0:0|0:0,0:0:0:0:
347,157,91553,1,0,0:0:0:0:
444,51,91741,5,2,0:0:0:0:
286,27,91928,1,0,0:0:0:0:
417,229,92116,1,8,0:0:0:0:
259,205,92303,1,2,0:0:0:0:
330,289,92491,5,0,0:0:0:0:
439,87,92678,1,0,0:0:0:0:
328,300,92866,1,8,0:0:0:0:
281,63,93053,1,0,0:0:0:0:
171,180,93241,6,0,P|90:184|51:315,1,233.999989288331,6|8,0:0|0:0,0:0:0:0:
199,384,93803,2,0,L|340:366,1,116.999994644165,2|0,0:0|0:0,0:0:0:0:
171,180,94178,2,0,L|30:162,1,116.999994644165,0|8,0:0|0:0,0:0:0:0:
199,384,94553,1,0,0:0:0:0:
409,333,94741,6,0,B|441:191|362:253|393:89,1,233.999989288331,2|8,0:0|0:0,0:0:0:0:
506,25,95303,1,2,0:0:0:0:
298,96,95491,1,0,0:0:0:0:
485,106,95678,1,0,0:0:0:0:
283,17,95866,1,8,0:0:0:0:
226,213,96053,6,0,P|218:257|246:343,1,116.999994644165,0|2,0:0|0:0,0:0:0:0:
494,219,96428,2,0,P|502:175|474:89,1,116.999994644165,0|8,0:0|0:0,0:0:0:0:
348,316,96803,2,0,P|292:333|235:326,1,116.999994644165,2|0,0:0|0:0,0:0:0:0:
38,34,97178,2,0,P|55:89|48:147,1,116.999994644165,0|8,0:0|0:0,0:0:0:0:
287,251,97553,1,0,0:0:0:0:
58,294,97741,5,2,0:0:0:0:
139,174,97928,1,0,0:0:0:0:
234,325,98116,1,8,0:0:0:0:
315,205,98303,1,2,0:0:0:0:
58,294,98491,5,0,0:0:0:0:
234,325,98678,1,0,0:0:0:0:
95,107,98866,2,0,P|128:25|195:81,1,202.500007724762,8|0,0:0|0:0,0:0:0:0:
239,157,99241,6,0,B|296:180|350:141|349:137|349:131|388:93|458:117,1,233.999989288331,6|8,0:0|0:0,0:0:0:0:
275,56,99803,1,2,0:0:0:0:
417,218,99991,1,0,0:0:0:0:
231,330,100178,1,0,0:0:0:0:
379,367,100366,1,8,0:0:0:0:
268,181,100553,1,0,0:0:0:0:
82,292,100741,6,0,P|24:196|60:88,1,233.999989288331,2|8,0:0|0:0,0:0:0:0:
148,183,101303,1,2,0:0:0:0:
338,59,101491,1,0,0:0:0:0:
306,214,101678,1,0,0:0:0:0:
170,93,101866,1,8,0:0:0:0:
378,149,102053,1,0,0:0:0:0:
82,292,102241,6,0,B|176:299|176:299|216:323|216:323|308:332,1,233.999989288331,2|8,0:0|0:0,0:0:0:0:
491,219,102803,2,0,B|506:251|506:251|498:332,1,116.999994644165,2|0,0:0|0:0,0:0:0:0:
325,67,103178,2,0,B|310:99|310:99|317:180,1,116.999994644165,2|8,0:0|0:0,0:0:0:0:
35,27,103553,1,2,0:0:0:0:
156,56,103741,5,2,0:0:0:0:
44,138,103928,1,0,0:0:0:0:
172,194,104116,1,8,0:0:0:0:
60,252,104303,1,2,0:0:0:0:
244,119,104491,1,0,0:0:0:0:
35,27,104678,1,0,0:0:0:0:
61,252,104866,2,0,L|71:368,1,116.999994644165,8|0,0:0|0:0,0:0:0:0:
244,119,105241,6,0,P|176:52|163:146,1,233.999989288331,6|8,0:0|0:0,0:0:0:0:
358,132,105803,2,0,P|363:74|344:19,1,116.999994644165,2|0,0:0|0:0,0:0:0:0:
217,208,106178,2,0,P|211:265|230:320,1,116.999994644165,2|8,0:0|0:0,0:0:0:0:
325,250,106553,1,0,0:0:0:0:
126,152,106741,6,0,P|93:262|130:371,1,233.999989288331,2|8,0:0|0:0,0:0:0:0:
330,346,107303,1,2,0:0:0:0:
324,152,107491,1,0,0:0:0:0:
215,312,107678,1,0,0:0:0:0:
396,248,107866,1,8,0:0:0:0:
207,195,108053,6,0,L|86:203,1,116.999994644165,2|0,0:0|0:0,0:0:0:0:
324,152,108428,2,0,L|441:160,1,116.999994644165,2|8,0:0|0:0,0:0:0:0:
138,82,108803,2,0,L|22:87,1,116.999994644165,2|0,0:0|0:0,0:0:0:0:
398,52,109178,2,0,L|516:60,1,116.999994644165,2|8,0:0|0:0,0:0:0:0:
200,283,109553,1,0,0:0:0:0:
209,158,109741,5,2,0:0:0:0:
307,256,109928,1,0,0:0:0:0:
343,122,110116,1,8,0:0:0:0:
417,223,110303,1,2,0:0:0:0:
200,283,110491,1,0,0:0:0:0:
257,62,110678,1,0,0:0:0:0:
417,223,110866,2,0,P|423:281|406:337,1,116.999994644165,8|0,0:0|0:0,0:0:0:0:
256,192,111241,12,6,113491,0:0:0:0:
