osu file format v14

[General]
AudioFilename: audio.mp3
AudioLeadIn: 0
PreviewTime: 36249
Countdown: 0
SampleSet: Soft
StackLeniency: 0.7
Mode: 0
LetterboxInBreaks: 0
WidescreenStoryboard: 1

[Editor]
Bookmarks: 24249,36249,37749,49749,61749,73749,75249,87249,99249
DistanceSpacing: 1
BeatDivisor: 4
GridSize: 8
TimelineZoom: 1

[Metadata]
Title:Miraculous
TitleUnicode:Miraculous
Artist:Laura Marano
ArtistUnicode:Laura Marano
Creator:ezek
Version:Normal
Source:Miraculous: Tales of Ladybug & Cat Noir
Tags:disney channel nickelodeon les aventures de chat zagtoon toei animation squirrelpascals theme song
BeatmapID:1696239
BeatmapSetID:808310

[Difficulty]
HPDrainRate:4
CircleSize:3
OverallDifficulty:4
ApproachRate:4.5
SliderMultiplier:1.2
SliderTickRate:1

[Events]
//Background and Video events
Video,0,"Miraesosculos.mp4"
0,0,"Ladybug.png",0,0
//Break Periods
2,75249,82929
//Storyboard Layer 0 (Background)
//Storyboard Layer 1 (Fail)
//Storyboard Layer 2 (Pass)
//Storyboard Layer 3 (Foreground)
//Storyboard Sound Samples

[TimingPoints]
12241,375,4,2,1,80,1,0
37741,-90.9090909090909,4,2,1,80,0,1
49741,-100,4,2,1,80,0,0
87241,-90.9090909090909,4,2,1,80,0,1
99053,-90.9090909090909,4,2,1,80,0,0
99241,-90.9090909090909,4,2,1,80,0,1
113491,-90.9090909090909,4,2,1,80,0,0

[Colours]
Combo1 : 76,76,76
Combo2 : 255,55,55

[HitObjects]
40,345,12241,6,0,P|97:358|156:346,1,120,6|8,0:0|0:0,0:0:0:0:
202,309,12803,1,2,0:0:0:0:
249,270,12991,2,0,P|307:257|365:271,1,120,0|8,0:0|0:0,0:0:0:0:
439,364,13741,2,0,L|451:244,1,120,2|8,0:0|0:0,0:0:0:0:
422,192,14303,1,2,0:0:0:0:
393,138,14491,2,0,L|405:18,1,120,0|8,0:0|0:0,0:0:0:0:
297,73,15241,6,0,B|240:53|240:53|180:56,1,120,2|8,0:0|0:0,0:0:0:0:
120,63,15803,1,2,0:0:0:0:
71,98,15991,2,0,B|42:151|42:151|36:211,1,120,0|8,0:0|0:0,0:0:0:0:
60,327,16741,2,0,B|100:353|146:330|146:326|146:322|181:298|231:326,1,180,2|2,0:0|0:0,0:0:0:0:
340,376,17678,1,2,0:0:0:0:
340,376,17866,1,8,0:0:0:0:
452,334,18241,6,0,P|419:285|409:226,1,120,6|8,0:0|0:0,0:0:0:0:
428,170,18803,1,2,0:0:0:0:
447,112,18991,2,0,P|438:53|404:4,1,120,0|8,0:0|0:0,0:0:0:0:
285,25,19741,2,0,L|290:145,1,120,2|8,0:0|0:0,0:0:0:0:
259,195,20303,1,2,0:0:0:0:
227,249,20491,2,0,L|232:369,1,120,0|8,0:0|0:0,0:0:0:0:
112,365,21241,6,0,B|85:313|85:313|102:253,1,120,2|8,0:0|0:0,0:0:0:0:
123,196,21803,2,0,B|139:135|139:135|113:84,1,120,2|0,0:0|0:0,0:0:0:0:
82,33,22366,1,8,0:0:0:0:
200,53,22741,2,0,B|240:79|286:56|286:52|286:48|321:24|371:52,1,180,2|2,0:0|0:0,0:0:0:0:
483,106,23678,1,2,0:0:0:0:
483,106,23866,1,8,0:0:0:0:
402,194,24241,6,0,P|381:249|390:308,1,120,6|8,0:0|0:0,0:0:0:0:
284,363,24991,2,0,P|228:342|169:351,1,120,0|8,0:0|0:0,0:0:0:0:
112,368,25553,2,0,L|82:251,1,120
54,134,26303,1,2,0:0:0:0:
54,134,26491,2,0,P|109:154|168:145,1,120,0|8,0:0|0:0,0:0:0:0:
259,66,27241,6,0,B|312:40|312:40|372:43,1,120,2|8,0:0|0:0,0:0:0:0:
478,100,27991,2,0,B|504:153|504:153|500:213,1,120,0|8,0:0|0:0,0:0:0:0:
445,239,28553,2,0,P|418:291|424:350,1,120
311,309,29303,1,2,0:0:0:0:
311,309,29491,2,0,B|258:283|258:283|197:286,1,120,0|8,0:0|0:0,0:0:0:0:
110,202,30241,6,0,L|229:195,1,120,6|8,0:0|0:0,0:0:0:0:
343,232,30991,2,0,L|462:225,1,120,0|8,0:0|0:0,0:0:0:0:
503,180,31553,2,0,P|521:124|503:68,1,120
385,42,32303,1,2,0:0:0:0:
385,42,32491,2,0,L|265:48,1,120,0|8,0:0|0:0,0:0:0:0:
145,44,33241,6,0,B|124:88|124:88|126:106|126:106|102:153,1,120,2|8,0:0|0:0,0:0:0:0:
67,202,33803,1,2,0:0:0:0:
145,292,34178,1,2,0:0:0:0:
251,236,34553,2,0,B|291:210|337:233|337:237|337:241|372:265|422:237,1,180,2|8,0:0|0:0,0:0:0:0:
476,210,35303,1,2,0:0:0:0:
414,106,35678,1,2,0:0:0:0:
414,106,35866,1,8,0:0:0:0:
218,350,37741,6,0,L|86:358,1,132.00000402832,6|8,0:0|0:0,0:0:0:0:
8,250,38491,2,0,P|-2:218|0:186,1,66.0000020141602
50,144,38866,2,0,P|60:112|58:80,1,66.0000020141602,8|0,0:0|0:0,0:0:0:0:
16,26,39241,2,0,P|78:47|140:27,1,132.00000402832,2|8,0:0|0:0,0:0:0:0:
232,121,39991,2,0,L|224:195,1,66.0000020141602
251,247,40366,2,0,L|243:321,1,66.0000020141602,8|0,0:0|0:0,0:0:0:0:
295,353,40741,6,0,B|348:347|348:347|366:354|366:354|425:350,1,132.00000402832,2|8,0:0|0:0,0:0:0:0:
490,343,41303,1,2,0:0:0:0:
512,211,41678,1,2,0:0:0:0:
476,83,42053,6,0,P|412:85|352:57,1,132.00000402832,2|0,0:0|0:0,0:0:0:0:
292,25,42616,1,8,0:0:0:0:
261,153,42991,2,0,L|271:238,2,66.0000020141602,0|0|8,0:0|0:0|0:0,0:0:0:0:
219,101,43553,1,0,0:0:0:0:
159,71,43741,6,0,L|21:91,1,132.00000402832,6|8,0:0|0:0,0:0:0:0:
3,150,44303,1,2,0:0:0:0:
88,250,44678,1,2,0:0:0:0:
24,364,45053,2,0,B|70:343|70:343|157:351,1,132.00000402832,2|0,0:0|0:0,0:0:0:0:
217,355,45616,1,8,0:0:0:0:
323,277,45991,6,0,B|404:284|404:284|450:263,1,132.00000402832,0|8,0:0|0:0,0:0:0:0:
500,220,46553,1,2,0:0:0:0:
467,92,46928,1,2,0:0:0:0:
348,151,47303,1,2,0:0:0:0:
252,60,47678,1,2,0:0:0:0:
129,109,48053,6,0,L|138:258,1,132.00000402832,2|0,0:0|0:0,0:0:0:0:
138,307,48616,2,0,P|125:337|100:358,1,66.0000020141602,8|0,0:0|0:0,0:0:0:0:
50,315,48991,2,0,P|19:302|-1:277,1,66.0000020141602,2|0,0:0|0:0,0:0:0:0:
17,214,49366,2,0,P|29:183|54:162,1,66.0000020141602,8|0,0:0|0:0,0:0:0:0:
113,160,49741,6,0,P|169:176|225:156,1,120,6|8,0:0|0:0,0:0:0:0:
272,119,50303,1,2,0:0:0:0:
325,90,50491,2,0,P|380:70|437:86,1,120,0|8,0:0|0:0,0:0:0:0:
504,185,51241,2,0,L|491:310,1,120,2|8,0:0|0:0,0:0:0:0:
458,353,51803,1,2,0:0:0:0:
402,326,51991,2,0,P|345:312|286:322,1,120,0|8,0:0|0:0,0:0:0:0:
166,304,52741,6,0,P|107:314|49:300,1,120,2|8,0:0|0:0,0:0:0:0:
25,245,53303,1,2,0:0:0:0:
10,186,53491,2,0,L|28:67,1,120,0|8,0:0|0:0,0:0:0:0:
143,32,54241,2,0,L|202:36,1,60,2|0,0:0|0:0,0:0:0:0:
259,57,54616,2,0,L|318:52,1,60,8|2,0:0|0:0,0:0:0:0:
375,31,54991,2,0,L|434:35,2,60,0|0|8,0:0|0:0|0:0,0:0:0:0:
353,148,55741,6,0,P|354:208|388:255,1,120,6|8,0:0|0:0,0:0:0:0:
438,289,56303,1,2,0:0:0:0:
488,321,56491,2,0,L|372:352,1,120,0|8,0:0|0:0,0:0:0:0:
253,372,57241,2,0,B|209:351|209:351|191:353|191:353|144:329,1,120,2|8,0:0|0:0,0:0:0:0:
90,301,57803,1,2,0:0:0:0:
35,273,57991,2,0,P|18:217|36:161,1,120,0|8,0:0|0:0,0:0:0:0:
108,64,58741,6,0,P|164:81|222:68,1,120,2|8,0:0|0:0,0:0:0:0:
277,45,59303,1,2,0:0:0:0:
334,25,59491,2,0,L|405:49,2,60,0|0|8,0:0|0:0|0:0,0:0:0:0:
288,136,60241,2,0,B|327:119|327:119|403:142,1,120,2|8,0:0|0:0,0:0:0:0:
415,199,60803,2,0,B|428:239|428:239|408:317,1,120,2|0,0:0|0:0,0:0:0:0:
389,371,61366,1,8,0:0:0:0:
506,346,61741,6,0,L|532:229,1,120,6|8,0:0|0:0,0:0:0:0:
466,128,62491,2,0,L|349:102,1,120,0|8,0:0|0:0,0:0:0:0:
292,123,63053,2,0,P|308:179|294:237,1,120
191,299,63803,1,2,0:0:0:0:
191,299,63991,2,0,P|175:242|189:184,1,120,0|8,0:0|0:0,0:0:0:0:
160,67,64741,6,0,B|111:70|111:70|96:81|96:81|44:84,1,120,2|8,0:0|0:0,0:0:0:0:
72,201,65491,2,0,B|120:197|120:197|135:186|135:186|187:183,1,120,0|8,0:0|0:0,0:0:0:0:
247,194,66053,2,0,P|233:251|249:308,1,120
361,351,66803,1,2,0:0:0:0:
361,351,66991,2,0,B|421:368|421:368|476:353,1,120,0|8,0:0|0:0,0:0:0:0:
420,246,67741,6,0,P|406:189|422:132,1,120,6|8,0:0|0:0,0:0:0:0:
352,33,68491,2,0,P|295:47|238:31,1,120,0|8,0:0|0:0,0:0:0:0:
177,22,69053,2,0,L|179:149,1,120
88,220,69803,1,2,0:0:0:0:
88,220,69991,2,0,L|87:279,2,60,0|0|8,0:0|0:0|0:0,0:0:0:0:
178,141,70741,5,2,0:0:0:0:
278,205,71116,1,8,0:0:0:0:
283,324,71491,1,0,0:0:0:0:
392,274,71866,1,8,0:0:0:0:
392,274,72053,2,0,B|417:233|394:187|390:187|386:187|362:152|390:102,1,180,2|8,0:0|0:0,0:0:0:0:
418,49,72803,2,0,L|293:36,1,120,2|2,0:0|0:0,0:0:0:0:
238,32,73366,1,8,0:0:0:0:
143,106,73741,5,4,3:0:0:0:
220,350,84241,5,2,0:0:0:0:
334,312,84616,1,2,0:0:0:0:
334,192,84991,1,2,0:0:0:0:
219,155,85366,1,2,0:0:0:0:
149,252,85741,6,0,L|89:257,1,60,2|2,0:0|0:0,0:0:0:0:
39,223,86116,2,0,L|33:163,1,60,2|2,0:0|0:0,0:0:0:0:
71,116,86491,2,0,L|130:110,1,60,2|2,0:0|0:0,0:0:0:0:
181,78,86866,2,0,L|240:72,1,60,8|2,0:0|0:0,0:0:0:0:
294,34,87241,6,0,L|426:26,1,132.00000402832,6|8,0:0|0:0,0:0:0:0:
504,134,87991,2,0,P|514:166|512:198,1,66.0000020141602
462,240,88366,2,0,P|452:272|454:304,1,66.0000020141602,8|0,0:0|0:0,0:0:0:0:
496,358,88741,2,0,P|434:337|372:357,1,132.00000402832,2|8,0:0|0:0,0:0:0:0:
280,263,89491,2,0,L|288:189,1,66.0000020141602
261,137,89866,2,0,L|269:63,1,66.0000020141602,8|0,0:0|0:0,0:0:0:0:
217,31,90241,6,0,B|164:37|164:37|146:30|146:30|87:34,1,132.00000402832,2|8,0:0|0:0,0:0:0:0:
22,41,90803,1,2,0:0:0:0:
0,173,91178,1,2,0:0:0:0:
36,301,91553,2,0,P|100:299|160:327,1,132.00000402832,2|0,0:0|0:0,0:0:0:0:
220,359,92116,1,8,0:0:0:0:
251,231,92491,2,0,L|241:146,2,66.0000020141602,0|0|8,0:0|0:0|0:0,0:0:0:0:
293,283,93053,1,0,0:0:0:0:
353,313,93241,6,0,L|491:293,1,132.00000402832,6|8,0:0|0:0,0:0:0:0:
509,234,93803,1,2,0:0:0:0:
424,134,94178,1,2,0:0:0:0:
488,20,94553,2,0,B|442:41|442:41|355:33,1,132.00000402832,2|0,0:0|0:0,0:0:0:0:
295,29,95116,1,8,0:0:0:0:
189,107,95491,6,0,B|108:100|108:100|62:121,1,132.00000402832,0|8,0:0|0:0,0:0:0:0:
12,164,96053,1,2,0:0:0:0:
45,292,96428,1,2,0:0:0:0:
164,233,96803,1,2,0:0:0:0:
260,324,97178,1,2,0:0:0:0:
383,275,97553,6,0,L|374:126,1,132.00000402832,2|0,0:0|0:0,0:0:0:0:
374,77,98116,2,0,P|387:47|412:26,1,66.0000020141602,8|0,0:0|0:0,0:0:0:0:
462,69,98491,2,0,P|493:82|513:107,1,66.0000020141602,2|0,0:0|0:0,0:0:0:0:
495,170,98866,2,0,P|483:201|458:222,1,66.0000020141602,8|0,0:0|0:0,0:0:0:0:
391,226,99241,6,0,P|327:235|283:282,1,132.00000402832,6|8,0:0|0:0,0:0:0:0:
179,363,99991,2,0,L|174:291,1,66.0000020141602
116,264,100366,2,0,L|111:192,1,66.0000020141602,8|0,0:0|0:0,0:0:0:0:
69,147,100741,2,0,P|133:138|177:91,1,132.00000402832,2|8,0:0|0:0,0:0:0:0:
287,18,101491,2,0,P|319:12|351:19,1,66.0000020141602
394,69,101866,2,0,P|426:75|458:70,1,66.0000020141602,8|0,0:0|0:0,0:0:0:0:
508,25,102241,6,0,B|487:78|487:78|489:152,1,132.00000402832,2|8,0:0|0:0,0:0:0:0:
490,218,102803,1,2,0:0:0:0:
401,316,103178,1,2,0:0:0:0:
280,261,103553,2,0,P|206:257|153:290,1,132.00000402832,2|0,0:0|0:0,0:0:0:0:
114,337,104116,2,0,L|43:347,1,66.0000020141602,8|2,0:0|0:0,0:0:0:0:
8,293,104491,2,0,L|-2:222,1,66.0000020141602,2|2,0:0|0:0,0:0:0:0:
33,172,104866,2,0,L|103:161,1,66.0000020141602,8|2,0:0|0:0,0:0:0:0:
164,154,105241,6,0,P|218:120|237:58,1,132.00000402832,6|8,0:0|0:0,0:0:0:0:
190,9,105803,1,2,0:0:0:0:
60,35,106178,1,2,0:0:0:0:
98,161,106553,2,0,L|87:294,1,132.00000402832,2|2,0:0|0:0,0:0:0:0:
69,356,107116,2,0,P|100:362|137:358,1,66.0000020141602,8|2,0:0|0:0,0:0:0:0:
185,316,107491,2,0,P|244:297|312:313,1,132.00000402832,0|8,0:0|0:0,0:0:0:0:
372,336,108053,5,2,0:0:0:0:
499,303,108428,1,2,0:0:0:0:
504,174,108803,1,2,0:0:0:0:
383,127,109178,1,2,0:0:0:0:
299,226,109553,2,0,L|164:265,1,132.00000402832,2|2,0:0|0:0,0:0:0:0:
116,271,110116,2,0,P|97:239|96:205,1,66.0000020141602,8|2,0:0|0:0,0:0:0:0:
112,146,110491,6,0,P|108:113|90:85,1,66.0000020141602,2|2,0:0|0:0,0:0:0:0:
38,45,110866,1,8,0:0:0:0:
38,45,111053,1,2,0:0:0:0:
256,192,111241,12,6,113491,0:0:0:0:
