osu file format v14

[General]
AudioFilename: audio.mp3
AudioLeadIn: 0
PreviewTime: 36249
Countdown: 0
SampleSet: Soft
StackLeniency: 0.7
Mode: 0
LetterboxInBreaks: 0
WidescreenStoryboard: 0

[Editor]
Bookmarks: 24249,36249,37749,49749,61749,73749,75249,87249,99249
DistanceSpacing: 1
BeatDivisor: 4
GridSize: 8
TimelineZoom: 1

[Metadata]
Title:Miraculous
TitleUnicode:Miraculous
Artist:Laura Marano
ArtistUnicode:Laura Marano
Creator:ezek
Version:Hard
Source:Miraculous: Tales of Ladybug & Cat Noir
Tags:disney channel nickelodeon les aventures de chat zagtoon toei animation squirrelpascals theme song
BeatmapID:1696238
BeatmapSetID:808310

[Difficulty]
HPDrainRate:6.5
CircleSize:4
OverallDifficulty:7
ApproachRate:7
SliderMultiplier:1.6
SliderTickRate:1

[Events]
//Background and Video events
Video,0,"Miraesosculos.mp4"
0,0,"Ladybug.png",0,0
//Break Periods
2,75249,83341
//Storyboard Layer 0 (Background)
//Storyboard Layer 1 (Fail)
//Storyboard Layer 2 (Pass)
//Storyboard Layer 3 (Foreground)
//Storyboard Sound Samples

[TimingPoints]
12241,375,4,2,1,80,1,0
37741,-90.9090909090909,4,2,1,80,0,1
49741,-100,4,2,1,80,0,0
87241,-90.9090909090909,4,2,1,80,0,1
99053,-90.9090909090909,4,2,1,80,0,0
99241,-90.9090909090909,4,2,1,80,0,1
113491,-90.9090909090909,4,2,1,80,0,0

[Colours]
Combo1 : 76,76,76
Combo2 : 255,55,55

[HitObjects]
0,98,12241,6,0,L|164:113,1,160,6|8,0:0|0:0,0:0:0:0:
238,123,12803,1,2,0:0:0:0:
313,95,12991,2,0,P|321:57|312:19,1,80
301,175,13366,2,0,P|292:213|301:251,1,80,8|0,0:0|0:0,0:0:0:0:
505,162,13741,6,0,P|427:158|371:212,1,160,2|8,0:0|0:0,0:0:0:0:
370,292,14303,1,2,0:0:0:0:
313,349,14491,2,0,L|234:336,1,80
135,245,14866,2,0,L|214:258,1,80,8|0,0:0|0:0,0:0:0:0:
48,336,15241,6,0,B|40:272|40:272|56:248|56:248|48:181,1,160,2|8,0:0|0:0,0:0:0:0:
100,121,15803,1,2,0:0:0:0:
161,172,15991,2,0,P|156:210|135:243,1,80
176,93,16366,2,0,P|179:54|200:21,1,80,8|0,0:0|0:0,0:0:0:0:
261,170,16741,5,2,0:0:0:0:
261,170,16928,2,0,L|252:254,1,80,0|8,0:0|0:0,0:0:0:0:
290,320,17303,2,0,B|326:343|366:323|366:320|366:316|397:295|441:320,1,160,2|2,0:0|0:0,0:0:0:0:
507,367,17866,1,8,0:0:0:0:
507,367,18053,1,0,0:0:0:0:
326,253,18241,6,0,L|351:94,1,160,6|8,0:0|0:0,0:0:0:0:
424,64,18803,1,2,0:0:0:0:
421,144,18991,2,0,L|408:223,1,80
260,163,19366,2,0,L|272:83,1,80,8|0,0:0|0:0,0:0:0:0:
125,15,19741,6,0,B|59:62|59:62|74:140,1,160,2|8,0:0|0:0,0:0:0:0:
93,217,20303,1,2,0:0:0:0:
169,238,20491,2,0,P|170:199|152:163,1,80
111,295,20866,2,0,P|109:334|127:370,1,80,8|0,0:0|0:0,0:0:0:0:
259,282,21241,6,0,L|421:321,1,160,2|8,0:0|0:0,0:0:0:0:
456,251,21803,2,0,L|294:212,1,160,2|2,0:0|0:0,0:0:0:0:
303,133,22366,1,8,0:0:0:0:
303,133,22553,1,0,0:0:0:0:
200,201,22741,6,0,P|125:216|65:166,1,160,2|8,0:0|0:0,0:0:0:0:
48,88,23303,1,2,0:0:0:0:
122,55,23491,2,0,L|149:137,1,80
223,107,23866,2,0,L|196:25,1,80,8|0,0:0|0:0,0:0:0:0:
202,202,24241,6,0,B|179:262|179:262|189:289|189:289|167:353,1,160,6|8,0:0|0:0,0:0:0:0:
243,376,24803,1,2,0:0:0:0:
309,330,24991,2,0,P|387:323|451:368,1,160,0|8,0:0|0:0,0:0:0:0:
496,302,25553,6,0,L|508:142,1,160,2|2,0:0|0:0,0:0:0:0:
372,57,26303,1,2,0:0:0:0:
297,87,26491,2,0,P|308:124|301:164,1,80
233,205,26866,2,0,P|221:167|228:127,1,80,8|0,0:0|0:0,0:0:0:0:
270,273,27241,6,0,B|234:296|194:276|194:273|194:269|163:248|119:273,1,160,2|8,0:0|0:0,0:0:0:0:
71,339,27803,1,2,0:0:0:0:
7,289,27991,2,0,L|21:129,1,160,0|8,0:0|0:0,0:0:0:0:
44,53,28553,6,0,P|108:98|186:91,1,160
344,65,29303,1,2,0:0:0:0:
266,90,29491,2,0,L|259:169,1,80
322,288,29866,2,0,L|328:208,1,80,8|0,0:0|0:0,0:0:0:0:
254,346,30241,6,0,P|324:378|393:342,1,160,6|8,0:0|0:0,0:0:0:0:
449,285,30803,1,0,0:0:0:0:
389,231,30991,2,0,P|318:198|249:234,1,160,0|8,0:0|0:0,0:0:0:0:
191,289,31553,6,0,B|155:312|115:292|115:289|115:285|84:264|40:289,1,160
145,169,32303,1,2,0:0:0:0:
117,95,32491,2,0,P|74:84|38:92,2,80,0|0|8,0:0|0:0|0:0,0:0:0:0:
257,18,33241,6,0,L|243:177,1,160,6|8,0:0|0:0,0:0:0:0:
234,256,33803,1,2,0:0:0:0:
372,335,34178,1,2,0:0:0:0:
483,219,34553,6,0,P|478:103|388:29,1,240,2|8,0:0|0:0,0:0:0:0:
318,70,35303,2,0,P|259:121|180:124,1,160,2|2,0:0|0:0,0:0:0:0:
105,95,35866,1,8,0:0:0:0:
53,246,36241,5,2,0:0:0:0:
124,271,36428,1,0,0:0:0:0:
124,351,36616,1,0,0:0:0:0:
53,375,36803,1,0,0:0:0:0:
8,311,36991,2,0,L|11:229,1,80
65,90,37366,2,0,L|63:170,1,80
124,351,37741,6,0,B|164:376|209:354|209:351|209:346|244:322|291:349,1,176.000005371094,6|8,0:0|0:0,0:0:0:0:
375,376,38303,1,2,0:0:0:0:
445,321,38491,2,0,P|456:279|448:236,1,88.000002685547
371,100,38866,2,0,P|363:143|375:186,1,88.000002685547,8|0,0:0|0:0,0:0:0:0:
419,26,39241,6,0,B|348:17|348:17|322:34|322:34|249:26,1,176.000005371094,2|8,0:0|0:0,0:0:0:0:
162,16,39803,1,2,0:0:0:0:
193,98,39991,2,0,B|168:133|168:133|124:143,1,88.000002685547
0,29,40366,2,0,B|42:40|42:40|67:75,1,88.000002685547,8|0,0:0|0:0,0:0:0:0:
145,228,40741,6,0,B|158:364|158:364|187:334,1,176.000005371094,2|8,0:0|0:0,0:0:0:0:
244,270,41303,1,2,0:0:0:0:
402,347,41678,1,2,0:0:0:0:
483,191,42053,1,2,0:0:0:0:
402,228,42241,6,0,P|361:240|318:230,1,88.000002685547,2|0,0:0|0:0,0:0:0:0:
161,182,42616,2,0,P|203:170|246:180,1,88.000002685547,8|0,0:0|0:0,0:0:0:0:
89,233,42991,1,0,0:0:0:0:
78,145,43178,1,0,0:0:0:0:
67,57,43366,1,8,0:0:0:0:
147,92,43553,1,0,0:0:0:0:
6,202,43741,6,0,P|-9:286|30:363,1,176.000005371094,6|8,0:0|0:0,0:0:0:0:
116,383,44303,1,2,0:0:0:0:
193,224,44678,1,2,0:0:0:0:
301,362,45053,6,0,B|347:352|364:305|362:302|358:299|367:257|419:244,1,176.000005371094,2|2,0:0|0:0,0:0:0:0:
506,226,45616,1,8,0:0:0:0:
444,163,45803,1,2,0:0:0:0:
444,163,45991,2,0,L|530:145,1,88.000002685547
377,105,46366,1,8,0:0:0:0:
377,105,46553,2,0,L|286:123,1,88.000002685547,0|2,0:0|0:0,0:0:0:0:
124,102,46928,6,0,P|120:59|131:17,1,88.000002685547,0|8,0:0|0:0,0:0:0:0:
46,210,47303,2,0,P|42:167|53:125,1,88.000002685547,2|0,0:0|0:0,0:0:0:0:
126,250,47678,2,0,P|130:293|119:335,1,88.000002685547,2|8,0:0|0:0,0:0:0:0:
204,142,48053,2,0,P|208:185|197:227,1,88.000002685547,0|2,0:0|0:0,0:0:0:0:
264,285,48428,5,0,0:0:0:0:
389,216,48616,1,8,0:0:0:0:
389,216,48803,1,2,0:0:0:0:
259,123,48991,1,0,0:0:0:0:
259,123,49178,1,2,0:0:0:0:
393,35,49366,1,8,0:0:0:0:
393,35,49553,1,0,0:0:0:0:
512,170,49741,6,0,L|499:329,1,160,6|8,0:0|0:0,0:0:0:0:
427,363,50303,1,2,0:0:0:0:
362,314,50491,2,0,L|284:299,1,80
133,350,50866,2,0,L|211:335,1,80,8|0,0:0|0:0,0:0:0:0:
76,297,51241,6,0,B|53:261|73:221|76:221|80:221|101:190|76:146,1,160,2|8,0:0|0:0,0:0:0:0:
40,72,51803,1,2,0:0:0:0:
110,32,51991,2,0,P|148:23|187:29,1,80
307,92,52366,2,0,P|269:102|230:95,1,80,8|0,0:0|0:0,0:0:0:0:
358,28,52741,6,0,P|434:13|504:48,1,160,2|8,0:0|0:0,0:0:0:0:
452,109,53303,1,2,0:0:0:0:
508,165,53491,2,0,B|517:207|517:207|506:242,1,80
458,382,53866,2,0,B|448:347|448:347|457:305,1,80,8|0,0:0|0:0,0:0:0:0:
335,370,54241,6,0,P|303:347|285:312,1,80,2|0,0:0|0:0,0:0:0:0:
350,174,54616,2,0,P|332:209|300:233,1,80,8|2,0:0|0:0,0:0:0:0:
223,256,54991,1,0,0:0:0:0:
151,220,55178,1,0,0:0:0:0:
118,146,55366,1,8,0:0:0:0:
136,68,55553,1,0,0:0:0:0:
69,212,55741,6,0,B|45:336|45:336|77:326,1,160,6|8,0:0|0:0,0:0:0:0:
155,309,56303,1,2,0:0:0:0:
214,362,56491,2,0,L|293:367,1,80
435,321,56866,2,0,L|356:316,1,80,8|0,0:0|0:0,0:0:0:0:
269,202,57241,6,0,L|428:212,1,160,2|8,0:0|0:0,0:0:0:0:
483,155,57803,1,2,0:0:0:0:
459,77,57991,2,0,P|437:45|401:29,1,80
273,100,58366,2,0,P|306:78|322:41,1,80,8|0,0:0|0:0,0:0:0:0:
231,168,58741,6,0,P|168:122|89:120,1,160,2|8,0:0|0:0,0:0:0:0:
20,160,59303,1,2,0:0:0:0:
48,234,59491,2,0,L|37:317,2,80,0|0|8,0:0|0:0|0:0,0:0:0:0:
116,192,60053,1,0,0:0:0:0:
104,346,60241,6,0,B|143:369|143:369|258:356,1,160,2|8,0:0|0:0,0:0:0:0:
297,287,60803,2,0,B|410:274|410:274|449:297,1,160,2|0,0:0|0:0,0:0:0:0:
510,347,61366,1,8,0:0:0:0:
476,115,61741,6,0,B|440:92|400:112|400:115|400:119|369:140|325:115,1,160,6|8,0:0|0:0,0:0:0:0:
265,58,62303,1,2,0:0:0:0:
200,105,62491,2,0,L|212:264,1,160,0|8,0:0|0:0,0:0:0:0:
199,343,63053,6,0,P|128:373|57:341,1,160
41,181,63803,1,2,0:0:0:0:
119,197,63991,2,0,L|128:276,1,80
175,139,64366,2,0,L|165:59,1,80,8|0,0:0|0:0,0:0:0:0:
240,184,64741,6,0,B|308:220|308:220|386:192,1,160,2|8,0:0|0:0,0:0:0:0:
459,161,65303,1,0,0:0:0:0:
394,112,65491,2,0,B|326:76|326:76|247:103,1,160,0|8,0:0|0:0,0:0:0:0:
175,139,66053,6,0,B|139:162|99:142|99:139|99:135|68:114|24:139,1,160
74,291,66803,1,2,0:0:0:0:
138,338,66991,2,0,P|176:346|215:339,1,80
354,289,67366,2,0,P|316:280|277:287,1,80,8|0,0:0|0:0,0:0:0:0:
418,338,67741,6,0,B|446:280|446:280|438:252|438:252|466:190,1,160,6|8,0:0|0:0,0:0:0:0:
503,120,68303,1,2,0:0:0:0:
453,56,68491,2,0,P|381:85|308:58,1,160,0|8,0:0|0:0,0:0:0:0:
230,34,69053,2,0,P|156:7|84:36,1,160
128,190,69803,1,2,0:0:0:0:
68,243,69991,2,0,L|55:326,2,80,0|0|8,0:0|0:0|0:0,0:0:0:0:
245,365,70741,6,0,L|268:207,1,160,6|8,0:0|0:0,0:0:0:0:
412,137,71491,1,2,0:0:0:0:
282,42,71866,1,8,0:0:0:0:
207,12,72053,6,0,B|162:60|182:125|186:126|192:127|216:179|166:239,1,240,2|8,0:0|0:0,0:0:0:0:
90,258,72803,2,0,P|167:250|227:300,1,160,2|2,0:0|0:0,0:0:0:0:
276,364,73366,2,0,P|318:377|356:372,1,80,8|0,0:0|0:0,0:0:0:0:
496,324,73741,5,4,3:0:0:0:
298,321,84241,5,2,0:0:0:0:
145,272,84616,1,2,0:0:0:0:
145,111,84991,1,2,0:0:0:0:
298,62,85366,1,2,0:0:0:0:
392,192,85741,6,0,L|472:193,1,80,2|2,0:0|0:0,0:0:0:0:
326,238,86116,2,0,L|246:236,1,80,2|2,0:0|0:0,0:0:0:0:
93,227,86491,1,2,0:0:0:0:
173,188,86678,1,2,0:0:0:0:
253,149,86866,1,10,0:0:0:0:
246,236,87053,1,0,0:0:0:0:
220,26,87241,6,0,P|122:12|58:48,1,176.000005371094,6|8,0:0|0:0,0:0:0:0:
0,115,87803,1,2,0:0:0:0:
69,169,87991,2,0,P|85:214|71:259,1,88.000002685547
8,383,88366,2,0,P|-7:343|2:301,1,88.000002685547,8|0,0:0|0:0,0:0:0:0:
149,363,88741,6,0,L|326:379,1,176.000005371094,2|8,0:0|0:0,0:0:0:0:
412,382,89303,1,2,0:0:0:0:
480,326,89491,2,0,B|492:287|492:287|484:237,1,88.000002685547
417,92,89866,2,0,B|410:139|410:139|422:178,1,88.000002685547,8|0,0:0|0:0,0:0:0:0:
460,18,90241,6,0,B|420:-7|375:15|375:18|375:23|340:47|293:20,1,176.000005371094,2|8,0:0|0:0,0:0:0:0:
206,3,90803,1,2,0:0:0:0:
236,176,91178,1,0,0:0:0:0:
61,157,91553,1,0,0:0:0:0:
1,222,91741,6,0,P|-4:265|9:306,1,88.000002685547,2|0,0:0|0:0,0:0:0:0:
104,374,92116,2,0,P|110:331|96:290,1,88.000002685547,8|2,0:0|0:0,0:0:0:0:
193,375,92491,1,0,0:0:0:0:
280,373,92678,1,0,0:0:0:0:
233,298,92866,1,8,0:0:0:0:
186,222,93053,1,0,0:0:0:0:
315,298,93241,6,0,L|490:313,1,176.000005371094,6|8,0:0|0:0,0:0:0:0:
510,227,93803,1,2,0:0:0:0:
383,104,94178,1,2,0:0:0:0:
253,222,94553,6,0,B|207:212|190:165|192:162|196:159|187:117|135:104,1,176.000005371094,2|2,0:0|0:0,0:0:0:0:
48,84,95116,1,8,0:0:0:0:
79,172,95303,1,2,0:0:0:0:
79,172,95491,2,0,L|71:261,1,88.000002685547
142,384,95866,1,8,0:0:0:0:
142,384,96053,2,0,L|150:297,1,88.000002685547,0|2,0:0|0:0,0:0:0:0:
174,121,96428,6,0,B|131:108|131:108|88:113,1,88.000002685547,0|8,0:0|0:0,0:0:0:0:
303,60,96803,2,0,B|260:47|260:47|217:52,1,88.000002685547,2|0,0:0|0:0,0:0:0:0:
380,120,97178,2,0,B|423:133|423:133|465:127,1,88.000002685547,0|8,0:0|0:0,0:0:0:0:
251,181,97553,2,0,B|294:194|294:194|336:188,1,88.000002685547,0|2,0:0|0:0,0:0:0:0:
174,121,97928,5,0,0:0:0:0:
189,274,98116,1,8,0:0:0:0:
189,274,98303,1,2,0:0:0:0:
29,201,98491,1,0,0:0:0:0:
29,201,98678,1,2,0:0:0:0:
35,356,98866,1,8,0:0:0:0:
35,356,99053,1,0,0:0:0:0:
191,247,99241,6,0,B|260:262|260:262|279:287|279:287|350:305,1,176.000005371094,6|8,0:0|0:0,0:0:0:0:
437,318,99803,1,2,0:0:0:0:
497,253,99991,2,0,L|493:159,1,88.000002685547
429,28,100366,2,0,L|429:116,1,88.000002685547,8|0,0:0|0:0,0:0:0:0:
436,318,100741,6,0,P|368:370|281:372,1,176.000005371094,2|8,0:0|0:0,0:0:0:0:
194,368,101303,1,2,0:0:0:0:
193,286,101491,2,0,B|168:251|168:251|124:241,1,88.000002685547
0,355,101866,2,0,B|42:344|42:344|67:309,1,88.000002685547,8|0,0:0|0:0,0:0:0:0:
145,156,102241,6,0,B|158:20|158:20|187:50,1,176.000005371094,2|8,0:0|0:0,0:0:0:0:
244,114,102803,1,2,0:0:0:0:
402,37,103178,1,2,0:0:0:0:
483,193,103553,1,2,0:0:0:0:
402,156,103741,6,0,P|361:144|318:154,1,88.000002685547,2|0,0:0|0:0,0:0:0:0:
161,202,104116,2,0,P|203:214|246:204,1,88.000002685547,8|0,0:0|0:0,0:0:0:0:
89,151,104491,1,0,0:0:0:0:
78,239,104678,1,0,0:0:0:0:
67,327,104866,1,8,0:0:0:0:
147,292,105053,1,0,0:0:0:0:
6,182,105241,6,0,P|-9:98|30:21,1,176.000005371094,6|8,0:0|0:0,0:0:0:0:
116,1,105803,1,2,0:0:0:0:
193,160,106178,1,2,0:0:0:0:
301,22,106553,6,0,B|347:32|364:79|362:82|358:85|367:127|419:140,1,176.000005371094,2|2,0:0|0:0,0:0:0:0:
506,158,107116,1,8,0:0:0:0:
444,221,107303,1,2,0:0:0:0:
444,221,107491,2,0,L|530:239,1,88.000002685547
377,279,107866,1,8,0:0:0:0:
377,279,108053,2,0,L|286:261,1,88.000002685547,0|2,0:0|0:0,0:0:0:0:
124,282,108428,6,0,P|120:325|131:367,1,88.000002685547,0|8,0:0|0:0,0:0:0:0:
46,174,108803,2,0,P|42:217|53:259,1,88.000002685547,2|0,0:0|0:0,0:0:0:0:
126,134,109178,2,0,P|130:91|119:49,1,88.000002685547,2|8,0:0|0:0,0:0:0:0:
204,242,109553,2,0,P|208:199|197:157,1,88.000002685547,0|2,0:0|0:0,0:0:0:0:
264,99,109928,5,0,0:0:0:0:
389,168,110116,1,8,0:0:0:0:
389,168,110303,1,2,0:0:0:0:
253,269,110491,1,0,0:0:0:0:
253,269,110678,1,2,0:0:0:0:
409,363,110866,1,8,0:0:0:0:
409,363,111053,1,0,0:0:0:0:
256,192,111241,12,6,113491,0:0:0:0:
