osu file format v14

[General]
AudioFilename: audio.mp3
AudioLeadIn: 0
PreviewTime: 36249
Countdown: 0
SampleSet: Soft
StackLeniency: 0.7
Mode: 0
LetterboxInBreaks: 0
WidescreenStoryboard: 1

[Editor]
Bookmarks: 24249,36249,37749,49749,61749,73749,75249,87249,99249
DistanceSpacing: 1
BeatDivisor: 4
GridSize: 8
TimelineZoom: 1

[Metadata]
Title:Miraculous
TitleUnicode:Miraculous
Artist:Laura Marano
ArtistUnicode:Laura Marano
Creator:ezek
Version:Easy
Source:Miraculous: Tales of Ladybug & Cat Noir
Tags:disney channel nickelodeon les aventures de chat zagtoon toei animation squirrelpascals theme song
BeatmapID:1696237
BeatmapSetID:808310

[Difficulty]
HPDrainRate:3
CircleSize:2.5
OverallDifficulty:3
ApproachRate:3
SliderMultiplier:1
SliderTickRate:1

[Events]
//Background and Video events
Video,0,"Miraesosculos.mp4"
0,0,"Ladybug.png",0,0
//Break Periods
2,75249,82801
//Storyboard Layer 0 (Background)
//Storyboard Layer 1 (Fail)
//Storyboard Layer 2 (Pass)
//Storyboard Layer 3 (Foreground)
//Storyboard Sound Samples

[TimingPoints]
12241,375,4,2,1,80,1,0
37741,-100,4,2,1,80,0,1
49741,-100,4,2,1,80,0,0
87241,-100,4,2,1,80,0,1
99053,-100,4,2,1,80,0,0
99241,-100,4,2,1,80,0,1
113491,-100,4,2,1,80,0,0

[Colours]
Combo1 : 76,76,76
Combo2 : 255,55,55

[HitObjects]
168,331,12241,6,0,P|103:366|30:357,2,150,6|2|8,0:0|0:0|0:0,0:0:0:0:
247,272,13741,2,0,P|311:307|384:298,2,150,2|2|8,0:0|0:0|0:0,0:0:0:0:
221,175,15241,6,0,L|320:184,1,100,2|8,0:0|0:0,0:0:0:0:
377,101,15991,2,0,L|277:91,1,100,0|8,0:0|0:0,0:0:0:0:
191,39,16741,2,0,B|150:39|129:77|131:80|133:83|119:116|73:120,2,150,2|2|8,0:0|0:0|0:0,0:0:0:0:
277,91,18241,6,0,B|335:118|335:118|360:120|360:120|418:147,2,150,6|2|8,0:0|0:0|0:0,0:0:0:0:
197,151,19741,2,0,B|138:123|138:123|113:121|113:121|55:94,2,150,2|2|8,0:0|0:0|0:0,0:0:0:0:
149,238,21241,6,0,P|100:225|52:237,1,100,2|8,0:0|0:0,0:0:0:0:
54,337,21991,2,0,P|102:349|150:337,1,100,0|8,0:0|0:0,0:0:0:0:
243,300,22741,2,0,B|265:265|244:227|241:227|237:227|217:197|239:156,2,150,2|2|8,0:0|0:0|0:0,0:0:0:0:
335,337,24241,6,0,L|434:343,1,100,6|8,0:0|0:0,0:0:0:0:
506,273,24991,2,0,L|512:173,1,100,0|8,0:0|0:0,0:0:0:0:
478,77,25741,2,0,P|393:30|298:51,1,200,2|0,0:0|0:0,0:0:0:0:
211,102,26866,1,8,0:0:0:0:
287,165,27241,6,0,L|386:170,1,100,2|8,0:0|0:0,0:0:0:0:
388,270,27991,2,0,L|288:264,1,100,0|8,0:0|0:0,0:0:0:0:
212,330,28741,2,0,P|116:351|31:303,1,200,2|0,0:0|0:0,0:0:0:0:
0,208,29866,1,8,0:0:0:0:
81,149,30241,6,0,B|101:104|101:104|95:53,1,100,6|8,0:0|0:0,0:0:0:0:
194,41,30991,2,0,B|199:91|199:91|227:131,1,100,0|8,0:0|0:0,0:0:0:0:
319,172,31741,2,0,P|413:150|494:204,1,200,2|0,0:0|0:0,0:0:0:0:
511,303,32866,1,8,0:0:0:0:
420,345,33241,6,0,B|354:350|354:350|332:361|332:361|268:366,1,150,2|2,0:0|0:0,0:0:0:0:
184,319,34178,1,2,0:0:0:0:
194,219,34553,2,0,P|100:120|101:257,1,350,2|8,0:0|0:0,0:0:0:0:
418,357,37741,6,0,P|402:310|412:262,1,100,6|8,0:0|0:0,0:0:0:0:
440,165,38491,2,0,P|450:116|434:70,1,100,0|8,0:0|0:0,0:0:0:0:
339,39,39241,2,0,L|233:47,1,100,2|8,0:0|0:0,0:0:0:0:
161,109,39991,2,0,L|55:101,1,100,0|8,0:0|0:0,0:0:0:0:
9,186,40741,6,0,P|4:259|48:317,1,150,2|2,0:0|0:0,0:0:0:0:
145,344,41678,1,2,0:0:0:0:
226,285,42053,2,0,B|290:284|290:284|310:289|310:289|379:289,1,150,2|8,0:0|0:0,0:0:0:0:
447,219,42991,2,0,B|441:170|441:170|467:124,1,100,0|8,0:0|0:0,0:0:0:0:
425,33,43741,6,0,B|385:22|355:53|356:57|357:60|335:88|290:80,1,150,6|2,0:0|0:0,0:0:0:0:
193,56,44678,1,2,0:0:0:0:
124,129,45053,2,0,L|129:278,1,150,0|8,0:0|0:0,0:0:0:0:
38,321,45991,2,0,L|32:171,1,150,0|2,0:0|0:0,0:0:0:0:
62,75,46928,6,0,P|104:50|153:53,1,100,2|2,0:0|0:0,0:0:0:0:
190,148,47678,1,2,0:0:0:0:
230,239,48053,2,0,P|278:244|321:219,1,100,2|2,0:0|0:0,0:0:0:0:
491,33,49366,1,8,0:0:0:0:
449,124,49741,6,0,P|463:190|527:171,2,150,6|2|8,0:0|0:0|0:0,0:0:0:0:
354,89,51241,2,0,P|339:23|275:42,2,150,2|2|8,0:0|0:0|0:0,0:0:0:0:
264,135,52741,6,0,L|164:132,1,100,2|8,0:0|0:0,0:0:0:0:
114,219,53491,2,0,L|213:221,1,100,0|8,0:0|0:0,0:0:0:0:
272,302,54241,2,0,B|313:302|334:264|332:261|330:258|344:225|390:221,2,150,2|2|8,0:0|0:0|0:0,0:0:0:0:
173,321,55741,6,0,B|104:343|104:343|35:306,2,150,6|2|8,0:0|0:0|0:0,0:0:0:0:
229,238,57241,2,0,B|298:216|298:216|366:252,2,150,2|2|8,0:0|0:0|0:0,0:0:0:0:
138,195,58741,6,0,P|120:149|129:101,1,100,2|8,0:0|0:0,0:0:0:0:
203,33,59491,2,0,P|249:15|297:23,1,100,0|8,0:0|0:0,0:0:0:0:
368,94,60241,2,0,B|464:78|464:78|515:98,2,150,2|2|8,0:0|0:0|0:0,0:0:0:0:
307,173,61741,6,0,P|353:192|402:186,1,100,6|8,0:0|0:0,0:0:0:0:
481,248,62491,2,0,P|462:293|468:342,1,100,0|8,0:0|0:0,0:0:0:0:
368,343,63241,2,0,B|319:316|270:347|270:352|270:356|232:386|176:361,1,200,2|0,0:0|0:0,0:0:0:0:
80,339,64366,1,8,0:0:0:0:
124,249,64741,6,0,B|138:201|138:201|125:152,1,100,2|8,0:0|0:0,0:0:0:0:
36,107,65491,2,0,B|22:59|22:59|34:10,1,100,2|8,0:0|0:0,0:0:0:0:
132,32,66241,2,0,B|229:60|229:60|327:40,1,200,2|0,0:0|0:0,0:0:0:0:
423,19,67366,1,8,0:0:0:0:
501,80,67741,6,0,P|515:128|502:176,1,100,6|8,0:0|0:0,0:0:0:0:
413,221,68491,2,0,P|399:268|412:316,1,100,0|8,0:0|0:0,0:0:0:0:
493,375,69241,2,0,L|293:360,1,200,2|0,0:0|0:0,0:0:0:0:
193,353,70366,1,8,0:0:0:0:
144,265,70741,6,0,B|103:264|103:264|90:259|90:259|45:258,2,100,2|8|0,0:0|0:0|0:0,0:0:0:0:
208,188,71866,1,8,0:0:0:0:
238,91,72241,2,0,P|360:75|309:187,1,300,2|8,0:0|0:0,0:0:0:0:
208,188,73741,5,4,3:0:0:0:
407,223,84241,6,0,L|397:123,2,100,2|2|2,0:0|0:0|0:0,0:0:0:0:
423,322,85366,1,2,0:0:0:0:
329,288,85741,2,0,B|250:238|255:166|259:162|267:157|264:70|193:35,1,300,2|8,0:0|0:0,0:0:0:0:
94,27,87241,6,0,P|110:74|100:122,1,100,6|8,0:0|0:0,0:0:0:0:
72,219,87991,2,0,P|62:268|78:314,1,100,0|8,0:0|0:0,0:0:0:0:
173,345,88741,2,0,L|279:337,1,100,2|8,0:0|0:0,0:0:0:0:
351,275,89491,2,0,L|457:283,1,100,0|8,0:0|0:0,0:0:0:0:
503,198,90241,6,0,P|508:125|464:67,1,150,2|2,0:0|0:0,0:0:0:0:
367,40,91178,1,2,0:0:0:0:
286,99,91553,2,0,B|222:100|222:100|202:95|202:95|133:95,1,150,2|8,0:0|0:0,0:0:0:0:
65,165,92491,2,0,B|71:214|71:214|45:260,1,100,0|8,0:0|0:0,0:0:0:0:
87,351,93241,6,0,B|127:362|157:331|156:327|155:324|177:296|222:304,1,150,6|2,0:0|0:0,0:0:0:0:
319,328,94178,1,2,0:0:0:0:
388,255,94553,2,0,L|383:106,1,150,0|8,0:0|0:0,0:0:0:0:
474,63,95491,2,0,L|480:213,1,150,0|2,0:0|0:0,0:0:0:0:
450,308,96428,6,0,P|407:333|358:328,1,100,2|2,0:0|0:0,0:0:0:0:
322,236,97178,1,2,0:0:0:0:
282,145,97553,2,0,P|234:140|191:165,1,100,2|2,0:0|0:0,0:0:0:0:
21,351,98866,1,8,0:0:0:0:
119,331,99241,6,0,B|130:285|130:285|118:233,1,100,6|8,0:0|0:0,0:0:0:0:
52,157,99991,2,0,B|41:111|41:111|52:59,1,100,0|8,0:0|0:0,0:0:0:0:
148,33,100741,2,0,L|247:45,1,100,2|8,0:0|0:0,0:0:0:0:
326,106,101491,2,0,L|425:93,1,100,0|8,0:0|0:0,0:0:0:0:
495,164,102241,6,0,P|512:219|482:304,1,150,2|2,0:0|0:0,0:0:0:0:
400,360,103178,1,2,0:0:0:0:
314,308,103553,2,0,B|261:304|261:304|169:334,1,150,2|8,0:0|0:0,0:0:0:0:
70,356,104491,2,0,P|86:308|80:259,1,100,0|8,0:0|0:0,0:0:0:0:
116,166,105241,6,0,P|188:183|253:149,1,150,6|2,0:0|0:0,0:0:0:0:
330,85,106178,1,2,0:0:0:0:
243,35,106553,2,0,P|171:18|106:52,1,150,2|8,0:0|0:0,0:0:0:0:
31,118,107491,2,0,L|26:267,1,150,0|2,0:0|0:0,0:0:0:0:
88,346,108428,6,0,B|135:339|135:339|176:307,1,100,2|2,0:0|0:0,0:0:0:0:
250,240,109178,1,2,0:0:0:0:
323,172,109553,2,0,B|363:140|363:140|460:125,1,150,2|8,0:0|0:0,0:0:0:0:
506,214,110491,2,0,L|407:228,1,100,2|8,0:0|0:0,0:0:0:0:
256,192,111241,12,6,113491,0:0:0:0:
