osu file format v14

[General]
AudioFilename: audio.mp3
AudioLeadIn: 0
PreviewTime: 10867
Countdown: 0
SampleSet: Soft
StackLeniency: 0.4
Mode: 0
LetterboxInBreaks: 0
WidescreenStoryboard: 1

[Editor]
Bookmarks: 5643,11310,22644,33978,45312,56646,67980,79314,90648,101983
DistanceSpacing: 1
BeatDivisor: 1
GridSize: 32
TimelineZoom: 2

[Metadata]
Title:Haunted
TitleUnicode:Haunted
Artist:laura les
ArtistUnicode:laura les
Creator:A3THER_XX
Version:axelixiya's Normal
Source:
Tags:100 gecs a2b2 night of fire 幽霊 euphoria electronic 殭屍 hyperpop 瘋 hyper pop english electronic pop aether xx a3ther_xx asap_bakery laplus axelixiya ggraterson sytho mix M_I_X
BeatmapID:3464153
BeatmapSetID:1682143

[Difficulty]
HPDrainRate:4.5
CircleSize:3.2
OverallDifficulty:4
ApproachRate:5
SliderMultiplier:1.1
SliderTickRate:1

[Events]
//Background and Video events
0,0,"axelbg.jpg",0,0
//Break Periods
2,58063,61113
//Storyboard Layer 0 (Background)
//Storyboard Layer 1 (Fail)
//Storyboard Layer 2 (Pass)
//Storyboard Layer 3 (Foreground)
//Storyboard Layer 4 (Overlay)
//Storyboard Sound Samples

[TimingPoints]
5643,354.191263282172,4,2,1,50,1,0
11310,-100,4,2,2,90,0,0
11487,-100,4,2,2,90,0,0
11664,-100,4,2,2,90,0,0
12018,-100,4,2,2,90,0,0
12372,-100,4,2,2,90,0,0
13258,-100,4,2,2,90,0,0
13789,-100,4,2,2,90,0,0
14851,-100,4,2,2,90,0,0
15029,-100,4,2,2,90,0,0
15383,-100,4,2,2,90,0,0
15560,-100,4,2,2,90,0,0
16268,-100,4,2,2,90,0,0
16622,-100,4,2,2,90,0,0
17685,-100,4,2,2,90,0,0
18039,-100,4,2,2,90,0,0
18216,-100,4,2,2,90,0,0
18393,-100,4,2,2,90,0,0
19102,-100,4,2,2,90,0,0
19456,-100,4,2,2,90,0,0
20518,-100,4,2,2,90,0,0
20696,-100,4,2,2,90,0,0
21050,-100,4,2,2,90,0,0
21227,-100,4,2,2,90,0,0
21935,-100,4,2,2,90,0,0
22289,-100,4,2,2,90,0,0
22821,-100,4,2,2,90,0,0
22998,-100,4,2,2,90,0,0
23352,-100,4,2,2,90,0,0
23706,-100,4,2,2,90,0,0
24592,-100,4,2,2,90,0,0
25123,-100,4,2,2,90,0,0
26185,-100,4,2,2,90,0,0
26363,-100,4,2,2,90,0,0
26717,-100,4,2,2,90,0,0
26894,-100,4,2,2,90,0,0
27602,-100,4,2,2,90,0,0
27956,-100,4,2,2,90,0,0
29019,-100,4,2,2,90,0,0
29373,-100,4,2,2,90,0,0
29550,-100,4,2,2,90,0,0
29727,-100,4,2,2,90,0,0
30436,-100,4,2,2,90,0,0
30790,-100,4,2,2,90,0,0
31852,-100,4,2,2,90,0,0
32030,-100,4,2,2,90,0,0
32384,-100,4,2,2,90,0,0
32561,-100,4,2,2,90,0,0
33269,-100,4,2,2,90,0,0
33623,-100,4,2,2,90,0,0
33978,-100,4,2,1,50,0,0
45312,-100,4,2,1,65,0,0
67980,-100,4,2,2,90,0,0
68157,-100,4,2,2,90,0,0
68334,-100,4,2,2,90,0,0
68511,-100,4,2,2,90,0,0
68688,-100,4,2,2,90,0,0
69928,-100,4,2,2,90,0,0
70105,-100,4,2,2,90,0,0
72053,-100,4,2,2,90,0,0
72230,-100,4,2,2,90,0,0
73293,-100,4,2,2,90,0,0
73470,-100,4,2,2,90,0,0
74886,-100,4,2,2,90,0,0
75063,-100,4,2,2,90,0,0
77720,-100,4,2,2,90,0,0
77897,-100,4,2,2,90,0,0
78959,-100,4,2,2,90,0,0
79314,-100,4,2,2,90,0,0
79491,-100,4,2,2,90,0,0
79668,-100,4,2,2,90,0,0
81262,-100,4,2,2,90,0,0
81439,-100,4,2,2,90,0,0
83387,-100,4,2,2,90,0,0
83565,-100,4,2,2,90,0,0
84627,-100,4,2,2,90,0,0
84804,-100,4,2,2,90,0,0
86221,-100,4,2,2,90,0,0
86397,-100,4,2,2,90,0,0
89054,-100,4,2,2,90,0,0
89231,-100,4,2,2,90,0,0
90293,-100,4,2,2,90,0,0
90471,-100,4,2,2,90,0,0
90648,-100,4,2,1,90,0,0
101805,-100,4,2,3,90,0,0

[Colours]
Combo1 : 217,0,255
Combo2 : 128,255,0
Combo3 : 0,128,255
Combo4 : 255,0,0

[HitObjects]
96,169,11310,38,0,L|85:102,1,55,4|0,3:3|0:0,0:0:0:0:
116,55,11664,1,8,0:1:0:0:
227,125,12018,2,0,P|278:139|342:116,1,110,0|8,0:0|0:1,0:0:0:0:
448,62,12726,2,0,B|473:105|473:105|465:174,1,110,0|8,3:0|0:1,0:0:0:0:
493,225,13258,1,0,0:0:0:0:
493,225,13435,2,0,P|459:218|367:243,1,110,0|8,0:0|0:1,0:0:0:0:
257,261,14143,6,0,B|281:314|281:314|272:369,2,110,0|8|0,3:0|0:1|0:0,0:0:0:0:
224,203,15029,1,0,3:0:0:0:
224,203,15206,2,0,L|227:142,1,55,8|0,0:1|0:0,0:0:0:0:
258,90,15560,2,0,P|313:117|368:110,1,110,0|8,3:0|0:1,0:0:0:0:
444,214,16268,2,0,P|389:211|341:236,1,110,0|8,0:0|0:1,0:0:0:0:
309,294,16800,1,2,0:1:0:0:
309,294,16977,38,0,B|246:311|262:260|195:279,1,110,0|8,3:0|0:1,0:0:0:0:
106,365,17685,2,0,P|55:350|33:293,1,110,0|8,0:0|0:1,0:0:0:0:
64,243,18216,1,0,0:0:0:0:
64,243,18393,2,0,B|84:207|84:207|67:139,1,110,0|8,3:0|0:1,0:0:0:0:
96,11,19102,2,0,L|211:23,1,110,0|8,0:0|0:1,0:0:0:0:
325,77,19810,6,0,B|385:73|433:45,2,110,0|8|0,3:0|0:1|0:0,0:0:0:0:
274,118,20696,1,0,3:0:0:0:
274,118,20873,2,0,P|280:149|283:183,1,55,8|0,0:1|0:0,0:0:0:0:
326,221,21227,2,0,B|310:274|310:274|326:327,1,110,0|8,3:0|0:1,0:0:0:0:
447,276,21935,2,0,B|463:223|463:223|447:170,1,110,0|8,0:0|0:1,0:0:0:0:
357,73,22644,38,0,B|328:70|328:70|301:78,1,55,4|0,3:3|0:0,0:0:0:0:
246,44,22998,1,8,0:1:0:0:
140,122,23352,2,0,B|165:148|165:148|154:226,1,110,0|8,0:0|0:1,0:0:0:0:
164,352,24060,2,0,P|225:341|279:339,1,110,0|8,3:0|0:1,0:0:0:0:
343,347,24592,1,0,0:0:0:0:
343,347,24769,2,0,B|359:275|359:275|343:242,1,110,0|8,0:0|0:1,0:0:0:0:
235,165,25477,6,0,L|125:176,2,110,0|8|0,3:0|0:1|0:0,0:0:0:0:
290,127,26363,1,0,3:0:0:0:
290,127,26540,2,0,P|303:96|299:67,1,55,8|0,0:1|0:0,0:0:0:0:
363,52,26894,2,0,P|418:79|473:72,1,110,0|8,3:0|0:1,0:0:0:0:
502,201,27602,2,0,B|485:228|485:228|494:313,1,110,0|8,0:0|0:1,0:0:0:0:
446,352,28134,1,2,0:1:0:0:
446,352,28311,38,0,B|384:363|405:323|332:337,1,110,0|8,3:0|0:1,0:0:0:0:
211,364,29019,2,0,P|160:349|92:348,1,110,0|8,0:0|0:1,0:0:0:0:
43,366,29550,1,0,0:0:0:0:
43,366,29727,2,0,B|26:339|26:339|21:253,1,110,0|8,3:0|0:1,0:0:0:0:
81,142,30436,2,0,P|135:158|183:130,1,110,0|8,0:0|0:1,0:0:0:0:
280,48,31144,6,0,B|286:104|306:161,2,110,0|8|0,3:0|0:1|0:0,0:0:0:0:
342,20,32030,1,0,3:0:0:0:
342,20,32207,2,0,P|373:14|407:11,1,55,8|0,0:1|0:0,0:0:0:0:
447,53,32561,2,0,B|431:106|431:106|447:159,1,110,0|8,3:0|0:1,0:0:0:0:
376,270,33269,2,0,B|323:254|323:254|270:270,1,110,0|8,0:0|0:1,0:0:0:0:
210,297,33801,1,2,0:1:0:0:
210,297,33978,6,0,B|149:289|166:260|105:256,1,110,4|8,3:1|0:3,0:0:0:0:
26,185,34686,2,0,L|16:75,1,110,0|8,0:0|0:3,0:0:0:0:
118,35,35395,2,0,B|167:62|167:62|220:50,1,110,0|8,3:0|0:3,0:0:0:0:
318,2,36103,1,0,0:0:0:0:
365,101,36457,1,8,0:3:0:0:
286,178,36811,6,0,P|287:212|283:298,1,110,0|8,3:0|0:3,0:0:0:0:
248,330,37343,1,0,0:0:0:0:
248,330,37520,2,0,B|216:302|166:315|148:345,1,110,0|8,0:0|0:3,0:0:0:0:
66,270,38228,2,0,P|73:219|79:155,1,110,0|8,3:0|0:3,0:0:0:0:
67,51,38936,2,0,B|103:37|103:37|176:65,1,110,0|8,0:0|0:3,0:0:0:0:
215,93,39468,1,0,0:0:0:0:
215,93,39645,38,0,P|254:86|281:83,1,55,2|0,3:2|0:0,0:0:0:0:
320,103,39999,1,8,0:3:0:0:
411,164,40353,2,0,P|450:157|477:154,1,55,2|0,0:2|3:0,0:0:0:0:
511,191,40707,1,8,0:3:0:0:
457,287,41062,2,0,P|417:333|408:385,1,110,2|8,3:2|0:3,0:0:0:0:
303,344,41770,2,0,P|290:291|253:251,1,110,0|8,0:0|0:3,0:0:0:0:
154,202,42478,6,0,P|151:172|145:142,1,55,2|0,3:2|0:0,0:0:0:0:
182,108,42833,1,8,0:3:0:0:
280,157,43187,2,0,P|334:167|398:152,1,110,2|8,0:2|0:3,0:0:0:0:
481,99,43895,2,0,B|489:62|489:62|464:28|464:28|473:-6,2,110,2|8|0,3:2|0:3|0:0,0:0:0:0:
510,157,44781,1,0,0:0:0:0:
510,157,44958,1,0,0:0:0:0:
510,157,45135,1,0,0:0:0:0:
510,157,45312,38,0,B|449:182|490:216|426:238,1,110,4|8,3:2|0:2,0:0:0:0:
402,276,45843,1,0,0:0:0:0:
402,276,46020,2,0,P|373:275|338:272,1,55,0|0,0:0|3:0,0:0:0:0:
301,303,46374,2,0,P|272:304|237:307,1,55,8|0,0:2|0:0,0:0:0:0:
198,333,46729,1,0,3:0:0:0:
146,235,47083,1,8,0:2:0:0:
210,146,47437,2,0,L|213:85,1,55,0|0,0:0|3:0,0:0:0:0:
256,58,47791,2,0,L|317:61,1,55,8|0,0:2|0:0,0:0:0:0:
358,87,48145,6,0,L|473:81,1,110,0|8,3:0|0:2,0:0:0:0:
508,119,48677,1,0,0:0:0:0:
508,119,48854,2,0,P|495:149|497:178,1,55,0|0,0:0|3:0,0:0:0:0:
507,224,49208,1,8,0:2:0:0:
450,318,49562,2,0,B|400:328|396:279|338:293,1,110,0|8,3:0|0:2,0:0:0:0:
259,355,50271,1,0,0:0:0:0:
259,355,50448,1,0,3:0:0:0:
259,355,50625,2,0,P|225:352|198:339,1,55,8|2,0:2|0:1,0:0:0:0:
163,308,50979,38,0,B|182:260|183:191,1,110,0|8,3:0|0:2,0:0:0:0:
155,152,51510,1,0,3:0:0:0:
155,152,51687,2,0,B|164:128|165:93,1,55,0|0,0:0|3:0,0:0:0:0:
148,45,52042,1,8,0:2:0:0:
253,13,52396,6,0,B|313:30|299:-6|362:18,1,110,0|8,3:0|0:2,0:0:0:0:
468,36,53104,2,0,P|445:78|449:146,1,110,0|8,0:0|0:2,0:0:0:0:
476,184,53635,1,0,0:0:0:0:
476,184,53813,38,0,L|461:303,1,110,0|8,3:0|0:2,0:0:0:0:
424,332,54344,1,0,3:0:0:0:
424,332,54521,2,0,P|393:325|367:324,1,55,0|0,0:0|3:0,0:0:0:0:
324,293,54875,2,0,P|265:279|215:277,1,110,8|0,0:2|3:0,0:0:0:0:
116,324,55583,1,8,0:2:0:0:
51,234,55938,1,0,0:0:0:0:
107,139,56292,1,8,0:2:0:0:
256,192,62313,12,2,67272,0:2:0:0:
323,321,67980,22,0,L|258:312,1,55,4|0,3:2|0:0,0:0:0:0:
234,270,68334,2,0,L|169:261,1,55,10|0,0:1|0:0,0:0:0:0:
148,216,68688,2,0,P|162:165|139:101,1,110,2|8,0:2|0:1,0:0:0:0:
227,36,69396,2,0,B|283:50|283:50|341:37,1,110,0|10,3:0|0:1,0:0:0:0:
387,66,69928,1,0,0:0:0:0:
387,66,70105,2,0,L|390:120,1,55,2|0,0:0|3:0,0:0:0:0:
417,169,70460,1,8,0:1:0:0:
407,278,70813,6,0,B|460:302|460:302|515:293,2,110,0|10|2,3:0|0:1|0:0,0:0:0:0:
358,264,71699,1,0,3:0:0:0:
358,264,71876,2,0,L|297:271,1,55,8|0,0:1|0:0,0:0:0:0:
268,312,72230,2,0,B|224:341|224:341|165:322,1,110,0|10,3:0|0:1,0:0:0:0:
65,286,72939,2,0,P|78:258|75:231,1,55,2|8,0:0|0:1,0:0:0:0:
124,209,73293,2,0,P|137:181|134:154,1,55,0|8,0:0|0:1,0:0:0:0:
182,129,73647,38,0,P|209:74|202:19,1,110,0|10,3:0|0:1,0:0:0:0:
315,31,74356,2,0,P|370:58|425:51,1,110,2|8,0:0|0:1,0:0:0:0:
471,80,74886,1,0,0:0:0:0:
471,80,75063,2,0,B|451:116|451:116|468:184,1,110,0|10,3:0|0:1,0:0:0:0:
496,230,75595,1,0,3:0:0:0:
496,230,75772,2,0,L|381:242,1,110,2|8,0:0|0:1,0:0:0:0:
299,173,76480,6,0,B|284:103|306:62,2,110,0|10|2,3:0|0:1|0:0,0:0:0:0:
258,209,77366,1,0,3:0:0:0:
258,209,77543,2,0,P|227:215|193:218,1,55,8|0,0:1|0:0,0:0:0:0:
148,218,77897,2,0,B|164:271|164:271|148:324,1,110,0|10,3:0|0:1,0:0:0:0:
42,292,78605,2,0,B|26:239|26:239|42:186,1,110,2|0,0:0|0:0,0:0:0:0:
103,95,79314,38,0,P|140:84|164:91,1,55,4|0,3:2|0:0,0:0:0:0:
205,109,79668,1,10,0:1:0:0:
300,163,80022,2,0,P|348:179|410:160,1,110,2|8,0:0|0:1,0:0:0:0:
499,218,80730,2,0,L|512:333,1,110,0|10,3:0|0:1,0:0:0:0:
467,358,81262,1,0,0:0:0:0:
467,358,81439,2,0,B|421:333|421:333|368:357,1,110,2|8,0:0|0:1,0:0:0:0:
274,299,82147,6,0,L|164:310,2,110,0|10|2,3:0|0:1|0:0,0:0:0:0:
297,251,83033,1,0,3:0:0:0:
297,251,83210,2,0,P|290:222|293:186,1,55,8|0,0:1|0:0,0:0:0:0:
289,141,83565,2,0,P|276:88|281:23,1,110,0|10,3:0|0:1,0:0:0:0:
389,35,84273,2,0,P|401:87|396:152,1,110,2|0,0:0|0:0,0:0:0:0:
395,201,84804,1,8,0:1:0:0:
395,201,84981,38,0,B|381:260|381:260|391:320,1,110,0|10,3:0|0:1,0:0:0:0:
293,364,85690,2,0,B|234:350|234:350|174:360,1,110,2|8,0:0|0:1,0:0:0:0:
133,376,86221,1,0,0:0:0:0:
133,376,86397,2,0,P|127:325|138:267,1,110,0|10,3:0|0:1,0:0:0:0:
169,223,86929,1,0,3:0:0:0:
169,223,87106,2,0,B|220:218|220:218|259:270,1,110,2|8,0:0|0:1,0:0:0:0:
328,182,87814,6,0,B|336:70,2,110,0|10|2,3:0|0:1|0:0,0:0:0:0:
358,234,88700,1,0,3:0:0:0:
358,234,88877,2,0,P|389:228|423:225,1,55,8|0,0:1|0:0,0:0:0:0:
458,255,89231,2,0,B|442:308|442:308|458:361,1,110,0|10,3:0|0:1,0:0:0:0:
348,347,89939,2,0,B|295:331|295:331|242:347,1,110,2|0,0:0|0:0,0:0:0:0:
194,318,90471,1,10,0:1:0:0:
256,192,90648,12,0,93482,0:0:0:0:
