osu file format v14

[General]
AudioFilename: audio.mp3
AudioLeadIn: 0
PreviewTime: 0
Countdown: 0
SampleSet: Soft
StackLeniency: 0.2
Mode: 3
LetterboxInBreaks: 0
SpecialStyle: 0
WidescreenStoryboard: 0

[Editor]
DistanceSpacing: 0.7
BeatDivisor: 4
GridSize: 8
TimelineZoom: 2

[Metadata]
Title:Lonely Girl
TitleUnicode:Lonely Girl
Artist:Laur_10
ArtistUnicode:Laur_10
Creator:Lieselotte
Version:Speed change
Source:
Tags:
BeatmapID:1623238
BeatmapSetID:771418

[Difficulty]
HPDrainRate:9
CircleSize:7
OverallDifficulty:0
ApproachRate:5
SliderMultiplier:1.4
SliderTickRate:1

[Events]
//Background and Video events
0,0,"BG.jpg",0,0
//Break Periods
//Storyboard Layer 0 (Background)
//Storyboard Layer 1 (Fail)
//Storyboard Layer 2 (Pass)
//Storyboard Layer 3 (Foreground)
//Storyboard Layer 4 (Overlay)
//Storyboard Sound Samples

[TimingPoints]
0,352.941176470588,4,2,0,20,1,0
0,-200,4,2,0,20,0,0
23999,-303.030303030303,4,2,0,20,0,0
24970,-133.333333333333,4,2,0,20,0,0
25058,-100,4,2,0,20,0,0
25235,-80,4,2,0,20,0,0
25411,-88.8888888888889,4,2,0,20,0,0
25764,-114.285714285714,4,2,0,20,0,0
26117,-88.8888888888889,4,2,0,20,0,0
26470,-114.285714285714,4,2,0,20,0,0
26823,-88.8888888888889,4,2,0,20,0,0
27176,-114.285714285714,4,2,0,20,0,0
27529,-88.8888888888889,4,2,0,20,0,0
27882,-114.285714285714,4,2,0,20,0,0
28235,-100,4,2,0,20,0,0
31058,-88.8888888888889,4,2,0,20,0,0
31411,-133.333333333333,4,2,0,20,0,0
31588,-100,4,2,0,20,0,0
31764,-88.8888888888889,4,2,0,20,0,0
32029,-133.333333333333,4,2,0,20,0,0
32294,-100,4,2,0,20,0,0
32470,-88.8888888888889,4,2,0,20,0,0
32823,-133.333333333333,4,2,0,20,0,0
32999,-100,4,2,0,20,0,0
33176,-88.8888888888889,4,2,0,20,0,0
33529,-133.333333333333,4,2,0,20,0,0
33705,-100,4,2,0,20,0,0
46588,-114.285714285714,4,2,0,20,0,0
46941,-100,4,2,0,20,0,0
47647,-88.8888888888889,4,2,0,20,0,0
47999,-100,4,2,0,20,0,0
48352,-133.333333333333,4,2,0,20,0,0
48485,-88.8888888888889,4,2,0,20,0,0
48705,-100,4,2,0,20,0,0
49058,-133.333333333333,4,2,0,20,0,0
49191,-88.8888888888889,4,2,0,20,0,0
49411,-100,4,2,0,20,0,0
49764,-133.333333333333,4,2,0,20,0,0
49897,-88.8888888888889,4,2,0,20,0,0
50117,-100,4,2,0,20,0,0
50470,-133.333333333333,4,2,0,20,0,0
50602,-88.8888888888889,4,2,0,20,0,0
50823,-100,4,2,0,20,0,0
51176,-133.333333333333,4,2,0,20,0,0
51308,-88.8888888888889,4,2,0,20,0,0
51529,-100,4,2,0,20,0,0
51882,-133.333333333333,4,2,0,20,0,0
52014,-88.8888888888889,4,2,0,20,0,0
52235,-100,4,2,0,20,0,0
52588,-133.333333333333,4,2,0,20,0,0
52720,-88.8888888888889,4,2,0,20,0,0
52941,-100,4,2,0,20,0,0
53382,-151.515151515152,4,2,0,20,0,0
53470,-75.187969924812,4,2,0,20,0,0
53647,-100,4,2,0,20,0,0
53999,-133.333333333333,4,2,0,20,0,0
54132,-88.8888888888889,4,2,0,20,0,0
54352,-100,4,2,0,20,0,0
54705,-133.333333333333,4,2,0,20,0,0
54838,-88.8888888888889,4,2,0,20,0,0
55058,-100,4,2,0,20,0,0
55411,-133.333333333333,4,2,0,20,0,0
55544,-88.8888888888889,4,2,0,20,0,0
55764,-100,4,2,0,20,0,0
56117,-133.333333333333,4,2,0,20,0,0
56249,-88.8888888888889,4,2,0,20,0,0
56470,-100,4,2,0,20,0,0
56823,-133.333333333333,4,2,0,20,0,0
56955,-88.8888888888889,4,2,0,20,0,0
57176,-100,4,2,0,20,0,0
57529,-133.333333333333,4,2,0,20,0,0
57661,-88.8888888888889,4,2,0,20,0,0
57882,-100,4,2,0,20,0,0
58235,-133.333333333333,4,2,0,20,0,0
58367,-88.8888888888889,4,2,0,20,0,0
58588,-120.481927710843,4,2,0,20,0,0
58647,-85.4700854700855,4,2,0,20,0,0
58705,-120.481927710843,4,2,0,20,0,0
58764,-85.4700854700855,4,2,0,20,0,0
58823,-120.481927710843,4,2,0,20,0,0
58882,-85.4700854700855,4,2,0,20,0,0
58941,-133.333333333333,4,2,0,20,0,0
59176,-66.6666666666667,4,2,0,20,0,0
59294,-100,4,2,0,20,0,0
59647,-133.333333333333,4,2,0,20,0,0
59779,-80,4,2,0,20,0,0
59999,-100,4,2,0,20,0,0
60352,-133.333333333333,4,2,0,20,0,0
60485,-80,4,2,0,20,0,0
60705,-100,4,2,0,20,0,0
61058,-133.333333333333,4,2,0,20,0,0
61191,-80,4,2,0,20,0,0
61411,-100,4,2,0,20,0,0
61764,-133.333333333333,4,2,0,20,0,0
61897,-80,4,2,0,20,0,0
62117,-100,4,2,0,20,0,0
62470,-133.333333333333,4,2,0,20,0,0
62602,-80,4,2,0,20,0,0
62823,-100,4,2,0,20,0,0
63176,-133.333333333333,4,2,0,20,0,0
63308,-80,4,2,0,20,0,0
63529,-100,4,2,0,20,0,0
63882,-133.333333333333,4,2,0,20,0,0
64014,-80,4,2,0,20,0,0
64235,-120.481927710843,4,2,0,20,0,0
64294,-85.4700854700855,4,2,0,20,0,0
64352,-120.481927710843,4,2,0,20,0,0
64411,-85.4700854700855,4,2,0,20,0,0
64470,-120.481927710843,4,2,0,20,0,0
64529,-85.4700854700855,4,2,0,20,0,0
64588,-133.333333333333,4,2,0,20,0,0
64823,-66.6666666666667,4,2,0,20,0,0
64941,-100,4,2,0,20,0,0
67764,-80,4,2,0,20,0,0
68117,-133.333333333333,4,2,0,20,0,0
68470,-114.285714285714,4,2,0,20,0,0
68647,-100,4,2,0,20,0,0
68999,-88.8888888888889,4,2,0,20,0,0
69176,-133.333333333333,4,2,0,20,0,0
69529,-114.285714285714,4,2,0,20,0,0
69882,-88.8888888888889,4,2,0,20,0,0
70235,-80,4,2,0,20,0,0
70588,-100,4,2,0,20,0,0
93176,-120.481927710843,4,2,0,20,0,0
93705,-66.6666666666667,4,2,0,20,0,0
93882,-120.481927710843,4,2,0,20,0,0
94411,-66.6666666666667,4,2,0,20,0,0
94588,-120.481927710843,4,2,0,20,0,0
95117,-66.6666666666667,4,2,0,20,0,0
95294,-120.481927710843,4,2,0,20,0,0
95823,-66.6666666666667,4,2,0,20,0,0
95999,-120.481927710843,4,2,0,20,0,0
96529,-66.6666666666667,4,2,0,20,0,0
96705,-114.285714285714,4,2,0,20,0,0
97058,-100,4,2,0,20,0,0
97235,-80,4,2,0,20,0,0
97411,-133.333333333333,4,2,0,20,0,0
97544,-80,4,2,0,20,0,0
97764,-133.333333333333,4,2,0,20,0,0
97897,-80,4,2,0,20,0,0
98117,-133.333333333333,4,2,0,20,0,0
98294,-80,4,2,0,20,0,0
98470,-200,4,2,0,20,0,0
98558,-149.253731343284,4,2,0,20,0,0
98647,-59.8802395209581,4,2,0,20,0,0
98823,-120.481927710843,4,2,0,20,0,0
99352,-66.6666666666667,4,2,0,20,0,0
99529,-120.481927710843,4,2,0,20,0,0
100058,-66.6666666666667,4,2,0,20,0,0
100235,-120.481927710843,4,2,0,20,0,0
100764,-66.6666666666667,4,2,0,20,0,0
100941,-120.481927710843,4,2,0,20,0,0
101470,-66.6666666666667,4,2,0,20,0,0
101647,-120.481927710843,4,2,0,20,0,0
102176,-66.6666666666667,4,2,0,20,0,0
102352,-120.481927710843,4,2,0,20,0,0
102705,-100,4,2,0,20,0,0
102882,-80,4,2,0,20,0,0
103411,-100,4,2,0,20,0,0
103588,-133.333333333333,4,2,0,20,0,0
103941,-114.285714285714,4,2,0,20,0,0
104117,-100,4,2,0,20,0,0
104294,-88.8888888888889,4,2,0,20,0,0
104470,-133.333333333333,4,2,0,20,0,0
104823,-114.285714285714,4,2,0,20,0,0
105176,-88.8888888888889,4,2,0,20,0,0
105529,-80,4,2,0,20,0,0
105882,-66.6666666666667,4,2,0,20,0,0
106058,-80,4,2,0,20,0,0
106235,-100,4,2,0,20,0,0
106588,-114.285714285714,4,2,0,20,0,0
106941,-133.333333333333,4,2,0,20,0,0
107294,-100,4,2,0,20,0,0
107647,-88.8888888888889,4,2,0,20,0,0
107999,-100,4,2,0,20,0,0
108352,-133.333333333333,4,2,0,20,0,0
108588,-88.8888888888889,4,2,0,20,0,0
108705,-66.6666666666667,4,2,0,20,0,0
108882,-80,4,2,0,20,0,0
109058,-100,4,2,0,20,0,0
109411,-114.285714285714,4,2,0,20,0,0
109764,-133.333333333333,4,2,0,20,0,0
110117,-100,4,2,0,20,0,0
110470,-88.8888888888889,4,2,0,20,0,0
110823,-100,4,2,0,20,0,0
111176,-133.333333333333,4,2,0,20,0,0
111411,-88.8888888888889,4,2,0,20,0,0
111529,-80,4,2,0,20,0,0
111882,-100,4,2,0,20,0,0
112235,-114.285714285714,4,2,0,20,0,0
112941,-100,4,2,0,20,0,0
113999,-106.382978723404,4,2,0,20,0,0
114235,-88.8888888888889,4,2,0,20,0,0
114352,-66.6666666666667,4,2,0,20,0,0
114529,-80,4,2,0,20,0,0
114705,-100,4,2,0,20,0,0
115058,-114.285714285714,4,2,0,20,0,0
115411,-133.333333333333,4,2,0,20,0,0
115941,-114.285714285714,4,2,0,20,0,0
116117,-100,4,2,0,20,0,0
116294,-88.8888888888889,4,2,0,20,0,0
116647,-80,4,2,0,20,0,0
116823,-100,4,2,0,20,0,0
116999,-114.285714285714,4,2,0,20,0,0
117176,-100,4,2,0,20,0,0
127058,-114.285714285714,4,2,0,20,0,0
127058,-114.285714285714,4,2,0,20,0,0
127411,-100,4,2,0,20,0,0
127764,-88.8888888888889,4,2,0,20,0,0
127941,-80,4,2,0,20,0,0
128117,-100,4,2,0,20,0,0
128294,-114.285714285714,4,2,0,20,0,0
128470,-100,4,2,0,20,0,0
161999,-133.333333333333,4,2,0,20,0,0
162029,-80,4,2,0,20,0,0
162117,-133.333333333333,4,2,0,20,0,0
162147,-80,4,2,0,20,0,0
162235,-133.333333333333,4,2,0,20,0,0
162264,-80,4,2,0,20,0,0
162352,-100,4,2,0,20,0,0
176470,-120.481927710843,4,2,0,20,0,0
176999,-66.6666666666667,4,2,0,20,0,0
177176,-120.481927710843,4,2,0,20,0,0
177705,-66.6666666666667,4,2,0,20,0,0
177882,-120.481927710843,4,2,0,20,0,0
178411,-66.6666666666667,4,2,0,20,0,0
178588,-120.481927710843,4,2,0,20,0,0
179117,-66.6666666666667,4,2,0,20,0,0
179294,-120.481927710843,4,2,0,20,0,0
179823,-66.6666666666667,4,2,0,20,0,0
179999,-114.285714285714,4,2,0,20,0,0
180352,-100,4,2,0,20,0,0
180529,-80,4,2,0,20,0,0
180705,-133.333333333333,4,2,0,20,0,0
180838,-80,4,2,0,20,0,0
181058,-133.333333333333,4,2,0,20,0,0
181191,-80,4,2,0,20,0,0
181411,-133.333333333333,4,2,0,20,0,0
181588,-80,4,2,0,20,0,0
181764,-200,4,2,0,20,0,0
181852,-149.253731343284,4,2,0,20,0,0
181941,-59.8802395209581,4,2,0,20,0,0
182117,-120.481927710843,4,2,0,20,0,0
182647,-66.6666666666667,4,2,0,20,0,0
182823,-120.481927710843,4,2,0,20,0,0
183352,-66.6666666666667,4,2,0,20,0,0
183529,-120.481927710843,4,2,0,20,0,0
184058,-66.6666666666667,4,2,0,20,0,0
184235,-120.481927710843,4,2,0,20,0,0
184764,-66.6666666666667,4,2,0,20,0,0
184941,-120.481927710843,4,2,0,20,0,0
185470,-66.6666666666667,4,2,0,20,0,0
185647,-113.636363636364,4,2,0,20,0,0
185999,-100,4,2,0,20,0,0
186176,-80,4,2,0,20,0,0
186705,-133.333333333333,4,2,0,20,0,0
187058,-113.636363636364,4,2,0,20,0,0
187235,-100,4,2,0,20,0,0
187588,-88.8888888888889,4,2,0,20,0,0
187764,-113.636363636364,4,2,0,20,0,0
188117,-100,4,2,0,20,0,0
188823,-88.8888888888889,4,2,0,20,0,0
189176,-100,4,2,0,20,0,0
189198,-10,4,2,0,20,0,0
189264,-303.030303030303,4,2,0,20,0,0
189352,-33.3333333333333,4,2,0,20,0,0
189529,-120.481927710843,4,2,0,20,0,0
189705,-149.253731343284,4,2,0,20,0,0
189882,-120.481927710843,4,2,0,20,0,0

[Colours]
Combo1 : 5,5,240
Combo2 : 5,240,5

[HitObjects]
36,192,0,5,0,0:0:0:0:
329,192,176,1,0,0:0:0:0:
182,192,352,1,0,0:0:0:0:
329,192,529,1,0,0:0:0:0:
36,192,705,1,0,0:0:0:0:
329,192,882,1,0,0:0:0:0:
182,192,1058,1,0,0:0:0:0:
329,192,1235,1,0,0:0:0:0:
109,192,1411,1,0,0:0:0:0:
402,192,1588,1,0,0:0:0:0:
182,192,1764,1,0,0:0:0:0:
402,192,1941,1,0,0:0:0:0:
109,192,2117,1,0,0:0:0:0:
402,192,2294,1,0,0:0:0:0:
182,192,2470,1,0,0:0:0:0:
402,192,2647,1,0,0:0:0:0:
36,192,2823,1,0,0:0:0:0:
475,192,2999,1,0,0:0:0:0:
109,192,3176,1,0,0:0:0:0:
329,192,3176,1,0,0:0:0:0:
475,192,3352,1,0,0:0:0:0:
182,192,3529,1,0,0:0:0:0:
475,192,3705,1,0,0:0:0:0:
329,192,3882,1,0,0:0:0:0:
36,192,3882,1,0,0:0:0:0:
475,192,4058,1,0,0:0:0:0:
109,192,4235,1,0,0:0:0:0:
402,192,4411,1,0,0:0:0:0:
256,192,4588,1,0,0:0:0:0:
402,192,4764,1,0,0:0:0:0:
109,192,4941,1,0,0:0:0:0:
402,192,5117,1,0,0:0:0:0:
256,192,5294,1,0,0:0:0:0:
402,192,5470,1,0,0:0:0:0:
182,192,5647,1,0,0:0:0:0:
36,192,5647,1,0,0:0:0:0:
256,192,5823,1,0,0:0:0:0:
329,192,5999,1,0,0:0:0:0:
475,192,5999,1,0,0:0:0:0:
256,192,6176,1,0,0:0:0:0:
182,192,6352,1,0,0:0:0:0:
36,192,6352,1,0,0:0:0:0:
256,192,6529,1,0,0:0:0:0:
329,192,6705,1,0,0:0:0:0:
475,192,6705,1,0,0:0:0:0:
256,192,6882,1,0,0:0:0:0:
182,192,7058,1,0,0:0:0:0:
109,192,7058,1,0,0:0:0:0:
256,192,7235,1,0,0:0:0:0:
329,192,7411,1,0,0:0:0:0:
402,192,7411,1,0,0:0:0:0:
256,192,7588,1,0,0:0:0:0:
182,192,7764,1,0,0:0:0:0:
109,192,7764,1,0,0:0:0:0:
256,192,7941,1,0,0:0:0:0:
329,192,8117,1,0,0:0:0:0:
402,192,8117,1,0,0:0:0:0:
256,192,8294,1,0,0:0:0:0:
182,192,8470,1,0,0:0:0:0:
36,192,8470,1,0,0:0:0:0:
329,192,8647,1,0,0:0:0:0:
109,192,8823,1,0,0:0:0:0:
329,192,8999,1,0,0:0:0:0:
182,192,9176,1,0,0:0:0:0:
36,192,9176,128,0,9264:0:0:0:0:
256,192,9352,1,0,0:0:0:0:
109,192,9529,1,0,0:0:0:0:
475,192,9529,128,0,9617:0:0:0:0:
182,192,9705,1,0,0:0:0:0:
256,192,9882,128,0,10235:0:0:0:0:
402,192,9882,1,0,0:0:0:0:
475,192,10058,1,0,0:0:0:0:
182,192,10235,128,0,10588:0:0:0:0:
329,192,10235,1,0,0:0:0:0:
402,192,10411,1,0,0:0:0:0:
256,192,10588,1,0,0:0:0:0:
109,192,10588,128,0,10941:0:0:0:0:
329,192,10764,1,0,0:0:0:0:
182,192,10941,1,0,0:0:0:0:
36,192,10941,128,0,11294:0:0:0:0:
256,192,11117,1,0,0:0:0:0:
109,192,11294,1,0,0:0:0:0:
475,192,11294,128,0,12352:0:0:0:0:
329,192,11470,1,0,0:0:0:0:
182,192,11647,1,0,0:0:0:0:
329,192,11823,1,0,0:0:0:0:
109,192,11999,1,0,0:0:0:0:
329,192,12176,1,0,0:0:0:0:
182,192,12352,1,0,0:0:0:0:
329,192,12529,1,0,0:0:0:0:
182,192,12705,1,0,0:0:0:0:
36,192,12705,128,0,13764:0:0:0:0:
402,192,12882,1,0,0:0:0:0:
256,192,13058,1,0,0:0:0:0:
402,192,13235,1,0,0:0:0:0:
182,192,13411,1,0,0:0:0:0:
402,192,13588,1,0,0:0:0:0:
256,192,13764,1,0,0:0:0:0:
402,192,13941,1,0,0:0:0:0:
36,192,14117,1,0,0:0:0:0:
182,192,14117,128,0,14823:0:0:0:0:
475,192,14294,1,0,0:0:0:0:
329,192,14470,1,0,0:0:0:0:
475,192,14647,1,0,0:0:0:0:
329,192,14823,128,0,15529:0:0:0:0:
36,192,14823,1,0,0:0:0:0:
475,192,14999,1,0,0:0:0:0:
109,192,15176,1,0,0:0:0:0:
475,192,15352,1,0,0:0:0:0:
182,192,15529,1,0,0:0:0:0:
36,192,15529,128,0,16588:0:0:0:0:
402,192,15705,1,0,0:0:0:0:
256,192,15882,1,0,0:0:0:0:
475,192,16058,1,0,0:0:0:0:
109,192,16235,1,0,0:0:0:0:
329,192,16411,1,0,0:0:0:0:
182,192,16588,1,0,0:0:0:0:
402,192,16764,1,0,0:0:0:0:
256,192,16941,1,0,0:0:0:0:
36,192,16941,128,0,17294:0:0:0:0:
402,192,17117,1,0,0:0:0:0:
329,192,17294,1,0,0:0:0:0:
182,192,17294,128,0,17647:0:0:0:0:
402,192,17470,1,0,0:0:0:0:
36,192,17647,1,0,0:0:0:0:
475,192,17647,128,0,18352:0:0:0:0:
329,192,17823,1,0,0:0:0:0:
256,192,17999,1,0,0:0:0:0:
329,192,18176,1,0,0:0:0:0:
402,192,18352,128,0,19058:0:0:0:0:
109,192,18352,1,0,0:0:0:0:
256,192,18529,1,0,0:0:0:0:
182,192,18705,1,0,0:0:0:0:
256,192,18882,1,0,0:0:0:0:
36,192,19058,1,0,0:0:0:0:
329,192,19058,128,0,19411:0:0:0:0:
182,192,19235,1,0,0:0:0:0:
109,192,19411,1,0,0:0:0:0:
402,192,19411,128,0,19764:0:0:0:0:
182,192,19588,1,0,0:0:0:0:
36,192,19764,1,0,0:0:0:0:
475,192,19764,128,0,20470:0:0:0:0:
329,192,19941,1,0,0:0:0:0:
182,192,20117,1,0,0:0:0:0:
329,192,20294,1,0,0:0:0:0:
109,192,20470,1,0,0:0:0:0:
402,192,20647,1,0,0:0:0:0:
182,192,20823,1,0,0:0:0:0:
329,192,20823,1,0,0:0:0:0:
402,192,20999,1,0,0:0:0:0:
109,192,20999,1,0,0:0:0:0:
256,192,21176,1,0,0:0:0:0:
475,192,21176,1,0,0:0:0:0:
36,192,21176,128,0,23823:0:0:0:0:
329,192,21352,1,0,0:0:0:0:
182,192,21529,1,0,0:0:0:0:
329,192,21705,1,0,0:0:0:0:
256,192,21882,1,0,0:0:0:0:
109,192,21882,1,0,0:0:0:0:
182,192,22058,128,0,22235:0:0:0:0:
256,192,22235,128,0,22411:0:0:0:0:
329,192,22411,128,0,22588:0:0:0:0:
402,192,22588,1,0,0:0:0:0:
109,192,22588,128,0,23823:0:0:0:0:
475,192,22764,128,0,22941:0:0:0:0:
329,192,22941,1,0,0:0:0:0:
402,192,23117,128,0,23294:0:0:0:0:
256,192,23294,1,0,0:0:0:0:
329,192,23470,128,0,23647:0:0:0:0:
182,192,23647,1,0,0:0:0:0:
256,192,23823,128,0,23999:0:0:0:0:
109,192,23999,128,0,24970:0:0:0:0:
402,192,23999,128,0,24970:0:0:0:0:
256,192,24970,1,0,0:0:0:0:
36,192,25411,1,0,0:0:0:0:
402,192,25411,128,0,25764:0:0:0:0:
475,192,25411,128,0,25764:0:0:0:0:
109,192,25499,1,0,0:0:0:0:
182,192,25588,1,0,0:0:0:0:
256,192,25676,1,0,0:0:0:0:
329,192,25764,1,0,0:0:0:0:
256,192,25852,1,0,0:0:0:0:
182,192,25941,1,0,0:0:0:0:
36,192,26117,128,0,26470:0:0:0:0:
109,192,26117,128,0,26470:0:0:0:0:
475,192,26117,1,0,0:0:0:0:
402,192,26205,1,0,0:0:0:0:
329,192,26294,1,0,0:0:0:0:
256,192,26382,1,0,0:0:0:0:
182,192,26470,1,0,0:0:0:0:
256,192,26558,1,0,0:0:0:0:
329,192,26647,1,0,0:0:0:0:
329,192,26823,128,0,27176:0:0:0:0:
402,192,26823,128,0,27176:0:0:0:0:
36,192,26823,1,0,0:0:0:0:
109,192,26911,1,0,0:0:0:0:
182,192,26999,1,0,0:0:0:0:
256,192,27088,1,0,0:0:0:0:
182,192,27176,1,0,0:0:0:0:
109,192,27264,1,0,0:0:0:0:
36,192,27352,1,0,0:0:0:0:
109,192,27529,128,0,27882:0:0:0:0:
182,192,27529,128,0,27882:0:0:0:0:
475,192,27529,1,0,0:0:0:0:
402,192,27617,1,0,0:0:0:0:
329,192,27705,1,0,0:0:0:0:
256,192,27794,1,0,0:0:0:0:
329,192,27882,1,0,0:0:0:0:
402,192,27970,1,0,0:0:0:0:
475,192,28058,1,0,0:0:0:0:
182,192,28235,1,0,0:0:0:0:
256,192,28411,1,0,0:0:0:0:
402,192,28411,1,0,0:0:0:0:
475,192,28588,1,0,0:0:0:0:
182,192,28588,1,0,0:0:0:0:
36,192,28588,1,0,0:0:0:0:
256,192,28764,1,0,0:0:0:0:
329,192,28941,1,0,0:0:0:0:
256,192,29117,1,0,0:0:0:0:
109,192,29117,1,0,0:0:0:0:
36,192,29294,1,0,0:0:0:0:
329,192,29294,1,0,0:0:0:0:
475,192,29294,1,0,0:0:0:0:
256,192,29470,1,0,0:0:0:0:
182,192,29647,1,0,0:0:0:0:
256,192,29823,1,0,0:0:0:0:
402,192,29823,1,0,0:0:0:0:
182,192,29999,1,0,0:0:0:0:
36,192,29999,1,0,0:0:0:0:
475,192,29999,1,0,0:0:0:0:
329,192,30176,1,0,0:0:0:0:
256,192,30352,1,0,0:0:0:0:
182,192,30529,1,0,0:0:0:0:
402,192,30529,1,0,0:0:0:0:
256,192,30705,1,0,0:0:0:0:
109,192,30705,1,0,0:0:0:0:
475,192,30705,1,0,0:0:0:0:
109,192,30882,1,0,0:0:0:0:
256,192,30882,1,0,0:0:0:0:
36,192,31058,1,0,0:0:0:0:
402,192,31058,128,0,31411:0:0:0:0:
475,192,31058,128,0,31411:0:0:0:0:
109,192,31147,1,0,0:0:0:0:
182,192,31235,1,0,0:0:0:0:
256,192,31323,1,0,0:0:0:0:
329,192,31411,1,0,0:0:0:0:
256,192,31499,1,0,0:0:0:0:
182,192,31588,1,0,0:0:0:0:
329,192,31764,128,0,32117:0:0:0:0:
402,192,31764,128,0,32117:0:0:0:0:
36,192,31764,1,0,0:0:0:0:
109,192,31852,1,0,0:0:0:0:
182,192,31941,1,0,0:0:0:0:
256,192,32029,1,0,0:0:0:0:
182,192,32117,1,0,0:0:0:0:
109,192,32205,1,0,0:0:0:0:
36,192,32294,1,0,0:0:0:0:
109,192,32470,128,0,32823:0:0:0:0:
182,192,32470,128,0,32823:0:0:0:0:
475,192,32470,1,0,0:0:0:0:
402,192,32558,1,0,0:0:0:0:
329,192,32647,1,0,0:0:0:0:
256,192,32735,1,0,0:0:0:0:
329,192,32823,1,0,0:0:0:0:
402,192,32911,1,0,0:0:0:0:
475,192,32999,1,0,0:0:0:0:
36,192,33176,128,0,33529:0:0:0:0:
109,192,33176,128,0,33529:0:0:0:0:
475,192,33176,1,0,0:0:0:0:
402,192,33264,1,0,0:0:0:0:
329,192,33352,1,0,0:0:0:0:
256,192,33441,1,0,0:0:0:0:
182,192,33529,1,0,0:0:0:0:
256,192,33617,1,0,0:0:0:0:
329,192,33705,1,0,0:0:0:0:
109,192,33882,1,0,0:0:0:0:
182,192,33970,1,0,0:0:0:0:
256,192,34058,1,0,0:0:0:0:
402,192,34058,1,0,0:0:0:0:
182,192,34235,1,0,0:0:0:0:
475,192,34235,1,0,0:0:0:0:
36,192,34235,128,0,34588:0:0:0:0:
256,192,34411,1,0,0:0:0:0:
402,192,34411,1,0,0:0:0:0:
182,192,34588,1,0,0:0:0:0:
256,192,34676,1,0,0:0:0:0:
329,192,34764,1,0,0:0:0:0:
109,192,34764,1,0,0:0:0:0:
36,192,34941,1,0,0:0:0:0:
402,192,34941,1,0,0:0:0:0:
475,192,34941,128,0,35294:0:0:0:0:
109,192,35117,1,0,0:0:0:0:
256,192,35117,1,0,0:0:0:0:
182,192,35294,1,0,0:0:0:0:
36,192,35294,1,0,0:0:0:0:
329,192,35294,1,0,0:0:0:0:
402,192,35382,1,0,0:0:0:0:
475,192,35470,1,0,0:0:0:0:
182,192,35470,1,0,0:0:0:0:
109,192,35647,1,0,0:0:0:0:
256,192,35647,1,0,0:0:0:0:
402,192,35647,1,0,0:0:0:0:
256,192,35823,1,0,0:0:0:0:
402,192,35823,1,0,0:0:0:0:
36,192,35999,1,0,0:0:0:0:
475,192,35999,1,0,0:0:0:0:
402,192,36088,1,0,0:0:0:0:
109,192,36088,1,0,0:0:0:0:
329,192,36176,1,0,0:0:0:0:
182,192,36176,1,0,0:0:0:0:
36,192,36352,1,0,0:0:0:0:
475,192,36352,1,0,0:0:0:0:
402,192,36382,1,0,0:0:0:0:
329,192,36411,1,0,0:0:0:0:
256,192,36441,1,0,0:0:0:0:
182,192,36470,1,0,0:0:0:0:
109,192,36499,1,0,0:0:0:0:
36,192,36529,1,0,0:0:0:0:
475,192,36558,1,0,0:0:0:0:
402,192,36588,1,0,0:0:0:0:
329,192,36617,1,0,0:0:0:0:
256,192,36647,1,0,0:0:0:0:
182,192,36676,1,0,0:0:0:0:
109,192,36705,1,0,0:0:0:0:
36,192,36705,1,0,0:0:0:0:
182,192,36794,1,0,0:0:0:0:
256,192,36882,1,0,0:0:0:0:
329,192,36970,1,0,0:0:0:0:
182,192,37058,1,0,0:0:0:0:
36,192,37058,1,0,0:0:0:0:
256,192,37147,1,0,0:0:0:0:
329,192,37235,1,0,0:0:0:0:
402,192,37323,1,0,0:0:0:0:
475,192,37411,1,0,0:0:0:0:
36,192,37411,1,0,0:0:0:0:
329,192,37455,1,0,0:0:0:0:
182,192,37499,1,0,0:0:0:0:
402,192,37544,1,0,0:0:0:0:
256,192,37588,1,0,0:0:0:0:
109,192,37632,1,0,0:0:0:0:
329,192,37676,1,0,0:0:0:0:
402,192,37764,1,0,0:0:0:0:
475,192,37764,1,0,0:0:0:0:
329,192,37852,1,0,0:0:0:0:
256,192,37941,1,0,0:0:0:0:
182,192,38029,1,0,0:0:0:0:
109,192,38117,1,0,0:0:0:0:
36,192,38117,1,0,0:0:0:0:
182,192,38205,1,0,0:0:0:0:
256,192,38294,1,0,0:0:0:0:
329,192,38382,1,0,0:0:0:0:
182,192,38470,1,0,0:0:0:0:
36,192,38470,1,0,0:0:0:0:
256,192,38558,1,0,0:0:0:0:
329,192,38647,1,0,0:0:0:0:
402,192,38735,1,0,0:0:0:0:
475,192,38823,1,0,0:0:0:0:
36,192,38823,1,0,0:0:0:0:
402,192,38882,1,0,0:0:0:0:
329,192,38941,1,0,0:0:0:0:
256,192,38999,1,0,0:0:0:0:
182,192,39058,1,0,0:0:0:0:
109,192,39117,1,0,0:0:0:0:
36,192,39176,1,0,0:0:0:0:
475,192,39176,1,0,0:0:0:0:
329,192,39220,1,0,0:0:0:0:
182,192,39264,1,0,0:0:0:0:
256,192,39352,1,0,0:0:0:0:
329,192,39441,1,0,0:0:0:0:
475,192,39529,1,0,0:0:0:0:
182,192,39529,1,0,0:0:0:0:
402,192,39617,1,0,0:0:0:0:
256,192,39705,1,0,0:0:0:0:
329,192,39794,1,0,0:0:0:0:
402,192,39882,1,0,0:0:0:0:
475,192,39882,1,0,0:0:0:0:
182,192,39882,1,0,0:0:0:0:
36,192,39970,1,0,0:0:0:0:
109,192,40058,1,0,0:0:0:0:
182,192,40147,1,0,0:0:0:0:
109,192,40235,1,0,0:0:0:0:
475,192,40235,1,0,0:0:0:0:
256,192,40279,1,0,0:0:0:0:
402,192,40323,1,0,0:0:0:0:
109,192,40411,1,0,0:0:0:0:
256,192,40455,1,0,0:0:0:0:
402,192,40499,1,0,0:0:0:0:
182,192,40588,1,0,0:0:0:0:
36,192,40588,1,0,0:0:0:0:
256,192,40676,1,0,0:0:0:0:
329,192,40764,1,0,0:0:0:0:
402,192,40852,1,0,0:0:0:0:
475,192,40941,1,0,0:0:0:0:
109,192,40941,1,0,0:0:0:0:
402,192,41029,1,0,0:0:0:0:
329,192,41117,1,0,0:0:0:0:
256,192,41205,1,0,0:0:0:0:
182,192,41294,1,0,0:0:0:0:
36,192,41294,1,0,0:0:0:0:
402,192,41294,1,0,0:0:0:0:
329,192,41382,1,0,0:0:0:0:
256,192,41470,1,0,0:0:0:0:
182,192,41558,1,0,0:0:0:0:
36,192,41647,1,0,0:0:0:0:
475,192,41647,1,0,0:0:0:0:
402,192,41691,1,0,0:0:0:0:
256,192,41735,1,0,0:0:0:0:
182,192,41779,1,0,0:0:0:0:
402,192,41823,1,0,0:0:0:0:
329,192,41867,1,0,0:0:0:0:
182,192,41911,1,0,0:0:0:0:
109,192,41955,1,0,0:0:0:0:
36,192,41999,1,0,0:0:0:0:
256,192,41999,1,0,0:0:0:0:
475,192,41999,1,0,0:0:0:0:
402,192,42058,1,0,0:0:0:0:
329,192,42117,1,0,0:0:0:0:
256,192,42176,1,0,0:0:0:0:
182,192,42235,1,0,0:0:0:0:
109,192,42294,1,0,0:0:0:0:
36,192,42352,1,0,0:0:0:0:
402,192,42352,1,0,0:0:0:0:
109,192,42441,1,0,0:0:0:0:
182,192,42529,1,0,0:0:0:0:
256,192,42617,1,0,0:0:0:0:
329,192,42705,1,0,0:0:0:0:
475,192,42705,1,0,0:0:0:0:
109,192,42705,1,0,0:0:0:0:
182,192,42794,1,0,0:0:0:0:
256,192,42882,1,0,0:0:0:0:
329,192,42970,1,0,0:0:0:0:
475,192,43058,1,0,0:0:0:0:
36,192,43058,1,0,0:0:0:0:
329,192,43102,1,0,0:0:0:0:
182,192,43147,1,0,0:0:0:0:
402,192,43191,1,0,0:0:0:0:
256,192,43235,1,0,0:0:0:0:
109,192,43279,1,0,0:0:0:0:
329,192,43323,1,0,0:0:0:0:
475,192,43411,1,0,0:0:0:0:
36,192,43411,1,0,0:0:0:0:
182,192,43411,1,0,0:0:0:0:
402,192,43470,1,0,0:0:0:0:
329,192,43529,1,0,0:0:0:0:
256,192,43588,1,0,0:0:0:0:
182,192,43647,1,0,0:0:0:0:
109,192,43705,1,0,0:0:0:0:
36,192,43764,1,0,0:0:0:0:
475,192,43764,1,0,0:0:0:0:
109,192,43823,1,0,0:0:0:0:
182,192,43882,1,0,0:0:0:0:
109,192,43941,1,0,0:0:0:0:
182,192,43999,1,0,0:0:0:0:
256,192,44058,1,0,0:0:0:0:
182,192,44117,1,0,0:0:0:0:
36,192,44117,1,0,0:0:0:0:
475,192,44117,1,0,0:0:0:0:
256,192,44176,1,0,0:0:0:0:
329,192,44235,1,0,0:0:0:0:
256,192,44294,1,0,0:0:0:0:
329,192,44352,1,0,0:0:0:0:
402,192,44411,1,0,0:0:0:0:
475,192,44470,1,0,0:0:0:0:
36,192,44470,1,0,0:0:0:0:
329,192,44499,1,0,0:0:0:0:
256,192,44529,1,0,0:0:0:0:
182,192,44558,1,0,0:0:0:0:
402,192,44588,1,0,0:0:0:0:
329,192,44617,1,0,0:0:0:0:
256,192,44647,1,0,0:0:0:0:
182,192,44676,1,0,0:0:0:0:
109,192,44705,1,0,0:0:0:0:
36,192,44823,1,0,0:0:0:0:
329,192,44823,1,0,0:0:0:0:
475,192,44823,1,0,0:0:0:0:
256,192,44999,1,0,0:0:0:0:
402,192,44999,1,0,0:0:0:0:
182,192,45176,1,0,0:0:0:0:
36,192,45176,1,0,0:0:0:0:
475,192,45176,1,0,0:0:0:0:
182,192,45352,1,0,0:0:0:0:
36,192,45529,1,0,0:0:0:0:
109,192,45529,1,0,0:0:0:0:
256,192,45529,1,0,0:0:0:0:
402,192,45529,1,0,0:0:0:0:
256,192,45705,1,0,0:0:0:0:
329,192,45882,1,0,0:0:0:0:
182,192,45882,1,0,0:0:0:0:
36,192,45882,1,0,0:0:0:0:
36,192,46058,1,0,0:0:0:0:
182,192,46058,1,0,0:0:0:0:
329,192,46058,1,0,0:0:0:0:
109,192,46235,1,0,0:0:0:0:
256,192,46235,1,0,0:0:0:0:
402,192,46235,1,0,0:0:0:0:
475,192,46235,1,0,0:0:0:0:
402,192,46411,1,0,0:0:0:0:
256,192,46411,1,0,0:0:0:0:
109,192,46411,1,0,0:0:0:0:
36,192,46588,1,0,0:0:0:0:
329,192,46588,1,0,0:0:0:0:
475,192,46588,1,0,0:0:0:0:
182,192,46676,1,0,0:0:0:0:
36,192,46764,1,0,0:0:0:0:
329,192,46764,1,0,0:0:0:0:
475,192,46764,1,0,0:0:0:0:
182,192,46852,1,0,0:0:0:0:
36,192,46941,1,0,0:0:0:0:
329,192,46941,1,0,0:0:0:0:
475,192,46941,1,0,0:0:0:0:
182,192,47029,1,0,0:0:0:0:
36,192,47117,1,0,0:0:0:0:
329,192,47117,1,0,0:0:0:0:
475,192,47117,1,0,0:0:0:0:
182,192,47205,1,0,0:0:0:0:
36,192,47294,1,0,0:0:0:0:
329,192,47294,1,0,0:0:0:0:
475,192,47294,1,0,0:0:0:0:
182,192,47382,1,0,0:0:0:0:
36,192,47470,1,0,0:0:0:0:
329,192,47470,1,0,0:0:0:0:
475,192,47470,1,0,0:0:0:0:
182,192,47558,1,0,0:0:0:0:
475,192,47647,1,0,0:0:0:0:
36,192,47647,1,0,0:0:0:0:
109,192,47691,1,0,0:0:0:0:
402,192,47691,1,0,0:0:0:0:
182,192,47735,1,0,0:0:0:0:
329,192,47735,1,0,0:0:0:0:
256,192,47779,1,0,0:0:0:0:
36,192,47823,1,0,0:0:0:0:
475,192,47823,1,0,0:0:0:0:
109,192,47867,1,0,0:0:0:0:
402,192,47867,1,0,0:0:0:0:
182,192,47911,1,0,0:0:0:0:
329,192,47911,1,0,0:0:0:0:
256,192,47955,1,0,0:0:0:0:
36,192,47999,1,0,0:0:0:0:
475,192,47999,1,0,0:0:0:0:
182,192,48088,1,0,0:0:0:0:
402,192,48088,1,0,0:0:0:0:
256,192,48176,1,0,0:0:0:0:
329,192,48264,1,0,0:0:0:0:
109,192,48264,1,0,0:0:0:0:
36,192,48352,1,0,0:0:0:0:
475,192,48352,1,0,0:0:0:0:
36,192,48705,1,0,0:0:0:0:
475,192,48705,1,0,0:0:0:0:
329,192,48794,1,0,0:0:0:0:
109,192,48794,1,0,0:0:0:0:
256,192,48882,1,0,0:0:0:0:
182,192,48970,1,0,0:0:0:0:
402,192,48970,1,0,0:0:0:0:
475,192,49058,1,0,0:0:0:0:
36,192,49058,1,0,0:0:0:0:
36,192,49411,1,0,0:0:0:0:
329,192,49411,1,0,0:0:0:0:
109,192,49499,1,0,0:0:0:0:
256,192,49499,1,0,0:0:0:0:
182,192,49588,1,0,0:0:0:0:
109,192,49676,1,0,0:0:0:0:
256,192,49676,1,0,0:0:0:0:
329,192,49764,1,0,0:0:0:0:
36,192,49764,1,0,0:0:0:0:
182,192,50117,1,0,0:0:0:0:
475,192,50117,1,0,0:0:0:0:
256,192,50205,1,0,0:0:0:0:
402,192,50205,1,0,0:0:0:0:
329,192,50294,1,0,0:0:0:0:
402,192,50382,1,0,0:0:0:0:
256,192,50382,1,0,0:0:0:0:
475,192,50470,1,0,0:0:0:0:
182,192,50470,1,0,0:0:0:0:
36,192,50823,1,0,0:0:0:0:
475,192,50823,1,0,0:0:0:0:
109,192,50911,1,0,0:0:0:0:
329,192,50911,1,0,0:0:0:0:
256,192,50999,1,0,0:0:0:0:
109,192,51088,1,0,0:0:0:0:
329,192,51088,1,0,0:0:0:0:
36,192,51176,1,0,0:0:0:0:
475,192,51176,1,0,0:0:0:0:
36,192,51529,1,0,0:0:0:0:
475,192,51529,1,0,0:0:0:0:
182,192,51617,1,0,0:0:0:0:
402,192,51617,1,0,0:0:0:0:
256,192,51705,1,0,0:0:0:0:
182,192,51794,1,0,0:0:0:0:
402,192,51794,1,0,0:0:0:0:
36,192,51882,1,0,0:0:0:0:
475,192,51882,1,0,0:0:0:0:
402,192,52235,1,0,0:0:0:0:
182,192,52235,1,0,0:0:0:0:
329,192,52323,1,0,0:0:0:0:
109,192,52323,1,0,0:0:0:0:
256,192,52411,1,0,0:0:0:0:
36,192,52411,1,0,0:0:0:0:
329,192,52499,1,0,0:0:0:0:
109,192,52499,1,0,0:0:0:0:
402,192,52588,1,0,0:0:0:0:
182,192,52588,1,0,0:0:0:0:
109,192,52941,1,0,0:0:0:0:
402,192,52941,1,0,0:0:0:0:
182,192,53029,1,0,0:0:0:0:
329,192,53029,1,0,0:0:0:0:
109,192,53117,1,0,0:0:0:0:
402,192,53117,1,0,0:0:0:0:
36,192,53205,1,0,0:0:0:0:
475,192,53205,1,0,0:0:0:0:
109,192,53294,1,0,0:0:0:0:
402,192,53294,1,0,0:0:0:0:
182,192,53382,1,0,0:0:0:0:
329,192,53382,1,0,0:0:0:0:
182,192,53470,1,0,0:0:0:0:
329,192,53470,1,0,0:0:0:0:
36,192,53647,1,0,0:0:0:0:
256,192,53647,1,0,0:0:0:0:
475,192,53647,128,0,53999:0:0:0:0:
109,192,53735,1,0,0:0:0:0:
329,192,53735,1,0,0:0:0:0:
182,192,53823,1,0,0:0:0:0:
402,192,53823,1,0,0:0:0:0:
109,192,53911,1,0,0:0:0:0:
329,192,53911,1,0,0:0:0:0:
182,192,53999,1,0,0:0:0:0:
402,192,53999,1,0,0:0:0:0:
109,192,54352,1,0,0:0:0:0:
329,192,54352,1,0,0:0:0:0:
182,192,54441,1,0,0:0:0:0:
402,192,54441,1,0,0:0:0:0:
256,192,54529,1,0,0:0:0:0:
475,192,54529,1,0,0:0:0:0:
182,192,54617,1,0,0:0:0:0:
402,192,54617,1,0,0:0:0:0:
256,192,54705,1,0,0:0:0:0:
475,192,54705,1,0,0:0:0:0:
36,192,55058,128,0,55411:0:0:0:0:
109,192,55058,1,0,0:0:0:0:
329,192,55058,1,0,0:0:0:0:
182,192,55147,1,0,0:0:0:0:
402,192,55147,1,0,0:0:0:0:
256,192,55235,1,0,0:0:0:0:
475,192,55235,1,0,0:0:0:0:
182,192,55323,1,0,0:0:0:0:
402,192,55323,1,0,0:0:0:0:
256,192,55411,1,0,0:0:0:0:
475,192,55411,1,0,0:0:0:0:
36,192,55764,1,0,0:0:0:0:
256,192,55764,1,0,0:0:0:0:
109,192,55852,1,0,0:0:0:0:
329,192,55852,1,0,0:0:0:0:
182,192,55941,1,0,0:0:0:0:
402,192,55941,1,0,0:0:0:0:
109,192,56029,1,0,0:0:0:0:
329,192,56029,1,0,0:0:0:0:
182,192,56117,1,0,0:0:0:0:
402,192,56117,1,0,0:0:0:0:
402,192,56470,1,0,0:0:0:0:
182,192,56470,1,0,0:0:0:0:
475,192,56470,128,0,56823:0:0:0:0:
109,192,56558,1,0,0:0:0:0:
329,192,56558,1,0,0:0:0:0:
36,192,56647,1,0,0:0:0:0:
256,192,56647,1,0,0:0:0:0:
109,192,56735,1,0,0:0:0:0:
329,192,56735,1,0,0:0:0:0:
182,192,56823,1,0,0:0:0:0:
402,192,56823,1,0,0:0:0:0:
36,192,57176,1,0,0:0:0:0:
256,192,57176,1,0,0:0:0:0:
109,192,57264,1,0,0:0:0:0:
329,192,57264,1,0,0:0:0:0:
182,192,57352,1,0,0:0:0:0:
402,192,57352,1,0,0:0:0:0:
109,192,57441,1,0,0:0:0:0:
329,192,57441,1,0,0:0:0:0:
182,192,57529,1,0,0:0:0:0:
402,192,57529,1,0,0:0:0:0:
109,192,57882,1,0,0:0:0:0:
329,192,57882,1,0,0:0:0:0:
475,192,57882,128,0,58235:0:0:0:0:
256,192,57970,1,0,0:0:0:0:
36,192,57970,1,0,0:0:0:0:
109,192,58058,1,0,0:0:0:0:
329,192,58058,1,0,0:0:0:0:
402,192,58147,1,0,0:0:0:0:
182,192,58147,1,0,0:0:0:0:
109,192,58235,1,0,0:0:0:0:
329,192,58235,1,0,0:0:0:0:
475,192,58588,128,0,58941:0:0:0:0:
109,192,58588,1,0,0:0:0:0:
256,192,58588,1,0,0:0:0:0:
109,192,58705,1,0,0:0:0:0:
256,192,58705,1,0,0:0:0:0:
109,192,58823,1,0,0:0:0:0:
256,192,58823,1,0,0:0:0:0:
182,192,58941,1,0,0:0:0:0:
36,192,58941,1,0,0:0:0:0:
329,192,58941,1,0,0:0:0:0:
329,192,59058,1,0,0:0:0:0:
329,192,59176,1,0,0:0:0:0:
256,192,59294,1,0,0:0:0:0:
109,192,59294,1,0,0:0:0:0:
475,192,59294,1,0,0:0:0:0:
36,192,59382,1,0,0:0:0:0:
329,192,59382,1,0,0:0:0:0:
109,192,59470,1,0,0:0:0:0:
402,192,59470,1,0,0:0:0:0:
182,192,59558,1,0,0:0:0:0:
475,192,59558,1,0,0:0:0:0:
256,192,59647,1,0,0:0:0:0:
402,192,59647,1,0,0:0:0:0:
36,192,59647,1,0,0:0:0:0:
182,192,59999,1,0,0:0:0:0:
329,192,59999,1,0,0:0:0:0:
109,192,60088,1,0,0:0:0:0:
402,192,60088,1,0,0:0:0:0:
182,192,60176,1,0,0:0:0:0:
475,192,60176,1,0,0:0:0:0:
402,192,60264,1,0,0:0:0:0:
256,192,60264,1,0,0:0:0:0:
182,192,60352,1,0,0:0:0:0:
36,192,60352,1,0,0:0:0:0:
475,192,60352,1,0,0:0:0:0:
36,192,60705,1,0,0:0:0:0:
256,192,60705,1,0,0:0:0:0:
402,192,60705,1,0,0:0:0:0:
475,192,60794,1,0,0:0:0:0:
182,192,60794,1,0,0:0:0:0:
109,192,60882,1,0,0:0:0:0:
402,192,60882,1,0,0:0:0:0:
329,192,60970,1,0,0:0:0:0:
36,192,60970,1,0,0:0:0:0:
109,192,61058,1,0,0:0:0:0:
256,192,61058,1,0,0:0:0:0:
475,192,61058,1,0,0:0:0:0:
182,192,61411,1,0,0:0:0:0:
402,192,61411,1,0,0:0:0:0:
475,192,61499,1,0,0:0:0:0:
109,192,61499,1,0,0:0:0:0:
36,192,61588,1,0,0:0:0:0:
402,192,61588,1,0,0:0:0:0:
109,192,61676,1,0,0:0:0:0:
329,192,61676,1,0,0:0:0:0:
36,192,61764,1,0,0:0:0:0:
256,192,61764,1,0,0:0:0:0:
475,192,61764,1,0,0:0:0:0:
36,192,62117,128,0,62470:0:0:0:0:
182,192,62117,1,0,0:0:0:0:
402,192,62117,1,0,0:0:0:0:
109,192,62205,1,0,0:0:0:0:
329,192,62205,1,0,0:0:0:0:
182,192,62294,1,0,0:0:0:0:
402,192,62294,1,0,0:0:0:0:
256,192,62382,1,0,0:0:0:0:
475,192,62382,1,0,0:0:0:0:
182,192,62470,1,0,0:0:0:0:
329,192,62470,1,0,0:0:0:0:
475,192,62470,1,0,0:0:0:0:
36,192,62823,1,0,0:0:0:0:
329,192,62823,1,0,0:0:0:0:
109,192,62911,1,0,0:0:0:0:
256,192,62911,1,0,0:0:0:0:
182,192,62999,1,0,0:0:0:0:
402,192,62999,1,0,0:0:0:0:
475,192,63088,1,0,0:0:0:0:
329,192,63088,1,0,0:0:0:0:
475,192,63176,1,0,0:0:0:0:
329,192,63176,1,0,0:0:0:0:
36,192,63176,1,0,0:0:0:0:
36,192,63529,128,0,63882:0:0:0:0:
182,192,63529,1,0,0:0:0:0:
402,192,63529,1,0,0:0:0:0:
329,192,63617,1,0,0:0:0:0:
256,192,63617,1,0,0:0:0:0:
182,192,63705,1,0,0:0:0:0:
402,192,63705,1,0,0:0:0:0:
475,192,63794,1,0,0:0:0:0:
109,192,63794,1,0,0:0:0:0:
402,192,63882,1,0,0:0:0:0:
256,192,63882,1,0,0:0:0:0:
182,192,63882,1,0,0:0:0:0:
329,192,64235,1,0,0:0:0:0:
182,192,64235,1,0,0:0:0:0:
36,192,64235,1,0,0:0:0:0:
475,192,64235,128,0,64470:0:0:0:0:
182,192,64352,1,0,0:0:0:0:
36,192,64352,1,0,0:0:0:0:
36,192,64470,1,0,0:0:0:0:
182,192,64470,1,0,0:0:0:0:
36,192,64588,1,0,0:0:0:0:
182,192,64588,1,0,0:0:0:0:
329,192,64588,1,0,0:0:0:0:
475,192,64588,1,0,0:0:0:0:
329,192,64705,1,0,0:0:0:0:
329,192,64823,1,0,0:0:0:0:
475,192,64941,1,0,0:0:0:0:
36,192,64941,1,0,0:0:0:0:
109,192,64999,1,0,0:0:0:0:
182,192,65058,1,0,0:0:0:0:
256,192,65117,1,0,0:0:0:0:
329,192,65176,1,0,0:0:0:0:
402,192,65235,1,0,0:0:0:0:
475,192,65294,1,0,0:0:0:0:
36,192,65294,1,0,0:0:0:0:
109,192,65352,1,0,0:0:0:0:
182,192,65411,1,0,0:0:0:0:
256,192,65470,1,0,0:0:0:0:
329,192,65529,1,0,0:0:0:0:
402,192,65588,1,0,0:0:0:0:
475,192,65647,1,0,0:0:0:0:
402,192,65676,1,0,0:0:0:0:
329,192,65705,1,0,0:0:0:0:
256,192,65735,1,0,0:0:0:0:
182,192,65764,1,0,0:0:0:0:
109,192,65794,1,0,0:0:0:0:
36,192,65823,1,0,0:0:0:0:
475,192,65823,1,0,0:0:0:0:
402,192,65852,1,0,0:0:0:0:
329,192,65882,1,0,0:0:0:0:
256,192,65911,1,0,0:0:0:0:
182,192,65941,1,0,0:0:0:0:
109,192,65970,1,0,0:0:0:0:
36,192,65999,1,0,0:0:0:0:
475,192,65999,1,0,0:0:0:0:
402,192,66058,1,0,0:0:0:0:
329,192,66117,1,0,0:0:0:0:
256,192,66176,1,0,0:0:0:0:
182,192,66235,1,0,0:0:0:0:
109,192,66294,1,0,0:0:0:0:
36,192,66352,1,0,0:0:0:0:
475,192,66352,1,0,0:0:0:0:
109,192,66411,1,0,0:0:0:0:
182,192,66470,1,0,0:0:0:0:
256,192,66529,1,0,0:0:0:0:
329,192,66588,1,0,0:0:0:0:
402,192,66647,1,0,0:0:0:0:
475,192,66705,1,0,0:0:0:0:
36,192,66705,1,0,0:0:0:0:
109,192,66764,1,0,0:0:0:0:
182,192,66823,1,0,0:0:0:0:
256,192,66882,1,0,0:0:0:0:
329,192,66941,1,0,0:0:0:0:
402,192,66999,1,0,0:0:0:0:
475,192,67058,1,0,0:0:0:0:
36,192,67058,1,0,0:0:0:0:
109,192,67117,1,0,0:0:0:0:
182,192,67176,1,0,0:0:0:0:
256,192,67235,1,0,0:0:0:0:
329,192,67294,1,0,0:0:0:0:
402,192,67352,1,0,0:0:0:0:
475,192,67411,128,0,67764:0:0:0:0:
36,192,67411,1,0,0:0:0:0:
109,192,67411,1,0,0:0:0:0:
182,192,67411,1,0,0:0:0:0:
402,192,67764,1,0,0:0:0:0:
256,192,67764,1,0,0:0:0:0:
109,192,67764,1,0,0:0:0:0:
36,192,67764,128,0,68117:0:0:0:0:
109,192,68117,1,0,0:0:0:0:
329,192,68117,1,0,0:0:0:0:
182,192,68139,1,0,0:0:0:0:
402,192,68139,1,0,0:0:0:0:
256,192,68161,1,0,0:0:0:0:
475,192,68161,1,0,0:0:0:0:
36,192,68470,1,0,0:0:0:0:
182,192,68470,1,0,0:0:0:0:
329,192,68470,1,0,0:0:0:0:
329,192,68647,1,0,0:0:0:0:
182,192,68647,1,0,0:0:0:0:
36,192,68647,1,0,0:0:0:0:
36,192,68823,1,0,0:0:0:0:
182,192,68823,1,0,0:0:0:0:
329,192,68823,1,0,0:0:0:0:
36,192,68999,1,0,0:0:0:0:
182,192,68999,1,0,0:0:0:0:
329,192,68999,1,0,0:0:0:0:
329,192,69176,1,0,0:0:0:0:
256,192,69176,1,0,0:0:0:0:
109,192,69176,1,0,0:0:0:0:
402,192,69264,1,0,0:0:0:0:
256,192,69264,1,0,0:0:0:0:
109,192,69264,1,0,0:0:0:0:
109,192,69352,1,0,0:0:0:0:
256,192,69352,1,0,0:0:0:0:
402,192,69352,1,0,0:0:0:0:
109,192,69441,1,0,0:0:0:0:
256,192,69441,1,0,0:0:0:0:
402,192,69441,1,0,0:0:0:0:
109,192,69529,1,0,0:0:0:0:
256,192,69529,1,0,0:0:0:0:
402,192,69529,1,0,0:0:0:0:
109,192,69617,1,0,0:0:0:0:
256,192,69617,1,0,0:0:0:0:
402,192,69617,1,0,0:0:0:0:
402,192,69705,1,0,0:0:0:0:
256,192,69705,1,0,0:0:0:0:
109,192,69705,1,0,0:0:0:0:
109,192,69794,1,0,0:0:0:0:
256,192,69794,1,0,0:0:0:0:
402,192,69794,1,0,0:0:0:0:
402,192,69882,1,0,0:0:0:0:
256,192,69882,1,0,0:0:0:0:
109,192,69882,1,0,0:0:0:0:
109,192,69970,1,0,0:0:0:0:
256,192,69970,1,0,0:0:0:0:
402,192,69970,1,0,0:0:0:0:
402,192,70058,1,0,0:0:0:0:
256,192,70058,1,0,0:0:0:0:
109,192,70058,1,0,0:0:0:0:
109,192,70147,1,0,0:0:0:0:
256,192,70147,1,0,0:0:0:0:
402,192,70147,1,0,0:0:0:0:
475,192,70235,1,0,0:0:0:0:
402,192,70264,1,0,0:0:0:0:
329,192,70294,1,0,0:0:0:0:
256,192,70323,1,0,0:0:0:0:
182,192,70352,1,0,0:0:0:0:
109,192,70382,1,0,0:0:0:0:
36,192,70411,1,0,0:0:0:0:
475,192,70411,1,0,0:0:0:0:
402,192,70441,1,0,0:0:0:0:
329,192,70470,1,0,0:0:0:0:
256,192,70499,1,0,0:0:0:0:
182,192,70529,1,0,0:0:0:0:
109,192,70558,1,0,0:0:0:0:
36,192,70588,1,0,0:0:0:0:
475,192,70588,1,0,0:0:0:0:
329,192,70588,128,0,71999:0:0:0:0:
182,192,70764,1,0,0:0:0:0:
36,192,70941,1,0,0:0:0:0:
256,192,70941,1,0,0:0:0:0:
475,192,70941,1,0,0:0:0:0:
109,192,71117,1,0,0:0:0:0:
182,192,71294,1,0,0:0:0:0:
182,192,71470,1,0,0:0:0:0:
256,192,71647,1,0,0:0:0:0:
475,192,71647,1,0,0:0:0:0:
36,192,71647,1,0,0:0:0:0:
182,192,71823,1,0,0:0:0:0:
109,192,71999,1,0,0:0:0:0:
475,192,71999,128,0,72705:0:0:0:0:
109,192,72176,1,0,0:0:0:0:
36,192,72352,1,0,0:0:0:0:
182,192,72352,1,0,0:0:0:0:
329,192,72352,1,0,0:0:0:0:
256,192,72529,1,0,0:0:0:0:
329,192,72705,1,0,0:0:0:0:
182,192,72705,128,0,73058:0:0:0:0:
329,192,72882,1,0,0:0:0:0:
256,192,73058,1,0,0:0:0:0:
402,192,73058,1,0,0:0:0:0:
475,192,73058,1,0,0:0:0:0:
36,192,73058,128,0,73411:0:0:0:0:
256,192,73235,1,0,0:0:0:0:
182,192,73411,1,0,0:0:0:0:
329,192,73411,128,0,74029:0:0:0:0:
475,192,73411,1,0,0:0:0:0:
182,192,73588,1,0,0:0:0:0:
256,192,73764,1,0,0:0:0:0:
109,192,73764,1,0,0:0:0:0:
36,192,73764,1,0,0:0:0:0:
475,192,73764,1,0,0:0:0:0:
329,192,74117,1,0,0:0:0:0:
182,192,74117,1,0,0:0:0:0:
36,192,74117,128,0,74823:0:0:0:0:
329,192,74294,1,0,0:0:0:0:
256,192,74470,1,0,0:0:0:0:
109,192,74470,1,0,0:0:0:0:
402,192,74470,1,0,0:0:0:0:
475,192,74470,1,0,0:0:0:0:
329,192,74823,1,0,0:0:0:0:
182,192,74823,128,0,76147:0:0:0:0:
402,192,74911,1,0,0:0:0:0:
475,192,74999,1,0,0:0:0:0:
402,192,75176,1,0,0:0:0:0:
256,192,75176,1,0,0:0:0:0:
36,192,75176,1,0,0:0:0:0:
36,192,75352,1,0,0:0:0:0:
475,192,75529,1,0,0:0:0:0:
402,192,75617,1,0,0:0:0:0:
329,192,75705,1,0,0:0:0:0:
475,192,75882,1,0,0:0:0:0:
256,192,75882,1,0,0:0:0:0:
36,192,75882,1,0,0:0:0:0:
475,192,76058,1,0,0:0:0:0:
329,192,76235,1,0,0:0:0:0:
182,192,76235,128,0,77558:0:0:0:0:
402,192,76323,1,0,0:0:0:0:
329,192,76411,1,0,0:0:0:0:
256,192,76588,1,0,0:0:0:0:
475,192,76588,1,0,0:0:0:0:
36,192,76588,1,0,0:0:0:0:
36,192,76764,1,0,0:0:0:0:
402,192,76941,1,0,0:0:0:0:
329,192,77029,1,0,0:0:0:0:
402,192,77117,1,0,0:0:0:0:
475,192,77294,1,0,0:0:0:0:
256,192,77294,1,0,0:0:0:0:
36,192,77294,1,0,0:0:0:0:
475,192,77470,1,0,0:0:0:0:
182,192,77647,1,0,0:0:0:0:
329,192,77647,128,0,78352:0:0:0:0:
182,192,77735,1,0,0:0:0:0:
109,192,77823,1,0,0:0:0:0:
256,192,77999,1,0,0:0:0:0:
36,192,77999,1,0,0:0:0:0:
475,192,77999,1,0,0:0:0:0:
182,192,78176,1,0,0:0:0:0:
109,192,78352,1,0,0:0:0:0:
475,192,78352,128,0,78705:0:0:0:0:
109,192,78441,1,0,0:0:0:0:
182,192,78529,1,0,0:0:0:0:
329,192,78705,128,0,78970:0:0:0:0:
36,192,78705,1,0,0:0:0:0:
256,192,78705,1,0,0:0:0:0:
402,192,78705,1,0,0:0:0:0:
109,192,78882,1,0,0:0:0:0:
329,192,79058,1,0,0:0:0:0:
36,192,79058,1,0,0:0:0:0:
182,192,79058,128,0,79676:0:0:0:0:
329,192,79147,1,0,0:0:0:0:
402,192,79235,1,0,0:0:0:0:
329,192,79411,1,0,0:0:0:0:
475,192,79411,1,0,0:0:0:0:
109,192,79411,1,0,0:0:0:0:
329,192,79588,1,0,0:0:0:0:
182,192,79764,1,0,0:0:0:0:
402,192,79764,1,0,0:0:0:0:
36,192,79764,128,0,80117:0:0:0:0:
182,192,79852,1,0,0:0:0:0:
256,192,79941,1,0,0:0:0:0:
475,192,80117,1,0,0:0:0:0:
402,192,80147,1,0,0:0:0:0:
329,192,80176,1,0,0:0:0:0:
256,192,80205,1,0,0:0:0:0:
182,192,80235,1,0,0:0:0:0:
109,192,80264,1,0,0:0:0:0:
36,192,80294,1,0,0:0:0:0:
36,192,80470,1,0,0:0:0:0:
182,192,80514,1,0,0:0:0:0:
329,192,80558,1,0,0:0:0:0:
109,192,80602,1,0,0:0:0:0:
256,192,80647,1,0,0:0:0:0:
402,192,80691,1,0,0:0:0:0:
182,192,80735,1,0,0:0:0:0:
329,192,80779,1,0,0:0:0:0:
475,192,80823,1,0,0:0:0:0:
109,192,80823,1,0,0:0:0:0:
256,192,80867,1,0,0:0:0:0:
402,192,80911,1,0,0:0:0:0:
36,192,80941,1,0,0:0:0:0:
182,192,80970,1,0,0:0:0:0:
329,192,80999,1,0,0:0:0:0:
475,192,81029,1,0,0:0:0:0:
36,192,81058,1,0,0:0:0:0:
182,192,81088,1,0,0:0:0:0:
329,192,81117,1,0,0:0:0:0:
475,192,81147,1,0,0:0:0:0:
402,192,81176,1,0,0:0:0:0:
256,192,81205,1,0,0:0:0:0:
109,192,81235,1,0,0:0:0:0:
402,192,81264,1,0,0:0:0:0:
256,192,81294,1,0,0:0:0:0:
109,192,81323,1,0,0:0:0:0:
402,192,81352,1,0,0:0:0:0:
256,192,81382,1,0,0:0:0:0:
109,192,81411,1,0,0:0:0:0:
402,192,81441,1,0,0:0:0:0:
256,192,81470,1,0,0:0:0:0:
109,192,81499,1,0,0:0:0:0:
475,192,81529,1,0,0:0:0:0:
402,192,81558,1,0,0:0:0:0:
329,192,81588,1,0,0:0:0:0:
256,192,81617,1,0,0:0:0:0:
182,192,81647,1,0,0:0:0:0:
109,192,81676,1,0,0:0:0:0:
36,192,81705,1,0,0:0:0:0:
475,192,81882,128,0,83294:0:0:0:0:
36,192,81882,1,0,0:0:0:0:
329,192,81882,1,0,0:0:0:0:
109,192,81970,1,0,0:0:0:0:
182,192,82058,1,0,0:0:0:0:
109,192,82147,1,0,0:0:0:0:
182,192,82235,1,0,0:0:0:0:
329,192,82235,1,0,0:0:0:0:
256,192,82323,1,0,0:0:0:0:
182,192,82411,1,0,0:0:0:0:
256,192,82499,1,0,0:0:0:0:
329,192,82588,1,0,0:0:0:0:
36,192,82588,1,0,0:0:0:0:
256,192,82676,1,0,0:0:0:0:
329,192,82764,1,0,0:0:0:0:
402,192,82852,1,0,0:0:0:0:
182,192,82941,1,0,0:0:0:0:
36,192,82941,1,0,0:0:0:0:
256,192,83029,1,0,0:0:0:0:
329,192,83117,1,0,0:0:0:0:
402,192,83205,1,0,0:0:0:0:
256,192,83294,1,0,0:0:0:0:
109,192,83294,1,0,0:0:0:0:
36,192,83294,128,0,83999:0:0:0:0:
329,192,83382,1,0,0:0:0:0:
109,192,83470,1,0,0:0:0:0:
402,192,83470,1,0,0:0:0:0:
182,192,83558,1,0,0:0:0:0:
256,192,83647,1,0,0:0:0:0:
475,192,83647,1,0,0:0:0:0:
329,192,83735,1,0,0:0:0:0:
402,192,83823,1,0,0:0:0:0:
475,192,83911,1,0,0:0:0:0:
402,192,83999,1,0,0:0:0:0:
109,192,83999,1,0,0:0:0:0:
256,192,83999,128,0,84352:0:0:0:0:
329,192,84088,1,0,0:0:0:0:
109,192,84176,1,0,0:0:0:0:
475,192,84176,1,0,0:0:0:0:
402,192,84264,1,0,0:0:0:0:
36,192,84352,1,0,0:0:0:0:
475,192,84352,1,0,0:0:0:0:
182,192,84352,128,0,84705:0:0:0:0:
329,192,84441,1,0,0:0:0:0:
402,192,84529,1,0,0:0:0:0:
329,192,84617,1,0,0:0:0:0:
256,192,84705,1,0,0:0:0:0:
109,192,84705,128,0,85411:0:0:0:0:
329,192,84794,1,0,0:0:0:0:
402,192,84882,1,0,0:0:0:0:
475,192,84970,1,0,0:0:0:0:
402,192,85058,1,0,0:0:0:0:
182,192,85058,1,0,0:0:0:0:
36,192,85058,1,0,0:0:0:0:
256,192,85147,1,0,0:0:0:0:
329,192,85235,1,0,0:0:0:0:
402,192,85323,1,0,0:0:0:0:
475,192,85411,1,0,0:0:0:0:
256,192,85411,1,0,0:0:0:0:
36,192,85411,128,0,86029:0:0:0:0:
329,192,85588,1,0,0:0:0:0:
475,192,85764,1,0,0:0:0:0:
402,192,85764,1,0,0:0:0:0:
182,192,85764,1,0,0:0:0:0:
256,192,85941,1,0,0:0:0:0:
36,192,86117,1,0,0:0:0:0:
475,192,86117,1,0,0:0:0:0:
329,192,86117,128,0,87441:0:0:0:0:
109,192,86205,1,0,0:0:0:0:
182,192,86294,1,0,0:0:0:0:
256,192,86382,1,0,0:0:0:0:
475,192,86470,1,0,0:0:0:0:
36,192,86470,1,0,0:0:0:0:
109,192,86558,1,0,0:0:0:0:
182,192,86647,1,0,0:0:0:0:
256,192,86735,1,0,0:0:0:0:
109,192,86823,1,0,0:0:0:0:
36,192,86823,1,0,0:0:0:0:
182,192,86911,1,0,0:0:0:0:
402,192,86999,1,0,0:0:0:0:
475,192,87088,1,0,0:0:0:0:
182,192,87176,1,0,0:0:0:0:
36,192,87176,1,0,0:0:0:0:
256,192,87264,1,0,0:0:0:0:
36,192,87352,1,0,0:0:0:0:
402,192,87352,1,0,0:0:0:0:
475,192,87441,1,0,0:0:0:0:
109,192,87529,1,0,0:0:0:0:
329,192,87529,128,0,88941:0:0:0:0:
182,192,87617,1,0,0:0:0:0:
256,192,87705,1,0,0:0:0:0:
36,192,87794,1,0,0:0:0:0:
109,192,87882,1,0,0:0:0:0:
475,192,87882,1,0,0:0:0:0:
182,192,87970,1,0,0:0:0:0:
256,192,88058,1,0,0:0:0:0:
402,192,88147,1,0,0:0:0:0:
109,192,88235,1,0,0:0:0:0:
182,192,88323,1,0,0:0:0:0:
256,192,88411,1,0,0:0:0:0:
36,192,88499,1,0,0:0:0:0:
109,192,88588,1,0,0:0:0:0:
475,192,88588,1,0,0:0:0:0:
182,192,88676,1,0,0:0:0:0:
256,192,88764,1,0,0:0:0:0:
402,192,88852,1,0,0:0:0:0:
475,192,88941,1,0,0:0:0:0:
109,192,88941,1,0,0:0:0:0:
36,192,88941,128,0,89647:0:0:0:0:
256,192,89029,1,0,0:0:0:0:
402,192,89117,1,0,0:0:0:0:
182,192,89205,1,0,0:0:0:0:
329,192,89294,1,0,0:0:0:0:
475,192,89294,1,0,0:0:0:0:
256,192,89382,1,0,0:0:0:0:
402,192,89470,1,0,0:0:0:0:
182,192,89558,1,0,0:0:0:0:
329,192,89647,1,0,0:0:0:0:
109,192,89647,1,0,0:0:0:0:
475,192,89647,128,0,89999:0:0:0:0:
256,192,89735,1,0,0:0:0:0:
182,192,89823,1,0,0:0:0:0:
256,192,89911,1,0,0:0:0:0:
329,192,89999,1,0,0:0:0:0:
109,192,89999,1,0,0:0:0:0:
36,192,89999,128,0,90264:0:0:0:0:
182,192,90088,1,0,0:0:0:0:
256,192,90176,1,0,0:0:0:0:
182,192,90264,1,0,0:0:0:0:
36,192,90352,1,0,0:0:0:0:
475,192,90352,1,0,0:0:0:0:
329,192,90352,128,0,91058:0:0:0:0:
109,192,90441,1,0,0:0:0:0:
182,192,90529,1,0,0:0:0:0:
256,192,90617,1,0,0:0:0:0:
475,192,90705,1,0,0:0:0:0:
36,192,90705,1,0,0:0:0:0:
109,192,90794,1,0,0:0:0:0:
182,192,90882,1,0,0:0:0:0:
402,192,90882,1,0,0:0:0:0:
475,192,90970,1,0,0:0:0:0:
256,192,91058,1,0,0:0:0:0:
109,192,91058,1,0,0:0:0:0:
36,192,91058,128,0,91411:0:0:0:0:
256,192,91235,1,0,0:0:0:0:
475,192,91411,1,0,0:0:0:0:
402,192,91441,1,0,0:0:0:0:
329,192,91470,1,0,0:0:0:0:
256,192,91499,1,0,0:0:0:0:
182,192,91529,1,0,0:0:0:0:
109,192,91558,1,0,0:0:0:0:
36,192,91588,1,0,0:0:0:0:
475,192,91764,1,0,0:0:0:0:
109,192,91764,1,0,0:0:0:0:
182,192,91808,1,0,0:0:0:0:
256,192,91852,1,0,0:0:0:0:
329,192,91897,1,0,0:0:0:0:
475,192,91941,1,0,0:0:0:0:
109,192,91941,1,0,0:0:0:0:
182,192,91985,1,0,0:0:0:0:
256,192,92029,1,0,0:0:0:0:
329,192,92073,1,0,0:0:0:0:
475,192,92117,1,0,0:0:0:0:
109,192,92117,1,0,0:0:0:0:
182,192,92147,1,0,0:0:0:0:
256,192,92176,1,0,0:0:0:0:
329,192,92205,1,0,0:0:0:0:
402,192,92249,1,0,0:0:0:0:
475,192,92294,1,0,0:0:0:0:
36,192,92294,1,0,0:0:0:0:
109,192,92323,1,0,0:0:0:0:
182,192,92352,1,0,0:0:0:0:
256,192,92382,1,0,0:0:0:0:
329,192,92411,1,0,0:0:0:0:
402,192,92441,1,0,0:0:0:0:
475,192,92470,1,0,0:0:0:0:
256,192,92499,1,0,0:0:0:0:
109,192,92529,1,0,0:0:0:0:
402,192,92558,1,0,0:0:0:0:
256,192,92588,1,0,0:0:0:0:
109,192,92617,1,0,0:0:0:0:
402,192,92647,1,0,0:0:0:0:
256,192,92676,1,0,0:0:0:0:
109,192,92705,1,0,0:0:0:0:
402,192,92735,1,0,0:0:0:0:
256,192,92764,1,0,0:0:0:0:
109,192,92794,1,0,0:0:0:0:
475,192,92823,1,0,0:0:0:0:
402,192,92852,1,0,0:0:0:0:
329,192,92882,1,0,0:0:0:0:
256,192,92911,1,0,0:0:0:0:
182,192,92941,1,0,0:0:0:0:
109,192,92970,1,0,0:0:0:0:
36,192,92999,1,0,0:0:0:0:
475,192,92999,1,0,0:0:0:0:
182,192,93176,1,0,0:0:0:0:
109,192,93176,1,0,0:0:0:0:
475,192,93176,1,0,0:0:0:0:
329,192,93176,128,0,93882:0:0:0:0:
36,192,93352,1,0,0:0:0:0:
109,192,93529,1,0,0:0:0:0:
182,192,93705,1,0,0:0:0:0:
402,192,93882,1,0,0:0:0:0:
256,192,93882,1,0,0:0:0:0:
475,192,93882,128,0,94588:0:0:0:0:
109,192,94058,1,0,0:0:0:0:
182,192,94235,1,0,0:0:0:0:
256,192,94411,1,0,0:0:0:0:
329,192,94588,1,0,0:0:0:0:
109,192,94588,1,0,0:0:0:0:
36,192,94588,128,0,95294:0:0:0:0:
182,192,94764,1,0,0:0:0:0:
256,192,94941,1,0,0:0:0:0:
329,192,95117,1,0,0:0:0:0:
329,192,95294,1,0,0:0:0:0:
475,192,95294,1,0,0:0:0:0:
182,192,95294,128,0,95999:0:0:0:0:
256,192,95470,1,0,0:0:0:0:
329,192,95647,1,0,0:0:0:0:
402,192,95823,1,0,0:0:0:0:
36,192,95999,128,0,96352:0:0:0:0:
475,192,95999,128,0,96705:0:0:0:0:
329,192,95999,1,0,0:0:0:0:
182,192,96176,1,0,0:0:0:0:
256,192,96352,1,0,0:0:0:0:
329,192,96529,1,0,0:0:0:0:
256,192,96705,1,0,0:0:0:0:
402,192,96705,1,0,0:0:0:0:
36,192,96705,128,0,97323:0:0:0:0:
256,192,96882,1,0,0:0:0:0:
402,192,96882,1,0,0:0:0:0:
182,192,97058,1,0,0:0:0:0:
329,192,97058,1,0,0:0:0:0:
475,192,97058,1,0,0:0:0:0:
256,192,97235,1,0,0:0:0:0:
256,192,97323,1,0,0:0:0:0:
182,192,97411,1,0,0:0:0:0:
475,192,97411,1,0,0:0:0:0:
36,192,97411,128,0,97676:0:0:0:0:
329,192,97411,128,0,97676:0:0:0:0:
402,192,97764,128,0,98029:0:0:0:0:
109,192,97764,128,0,98029:0:0:0:0:
36,192,97764,1,0,0:0:0:0:
256,192,97764,1,0,0:0:0:0:
329,192,97764,1,0,0:0:0:0:
475,192,97764,1,0,0:0:0:0:
109,192,98117,1,0,0:0:0:0:
36,192,98117,1,0,0:0:0:0:
256,192,98117,1,0,0:0:0:0:
402,192,98117,1,0,0:0:0:0:
182,192,98117,128,0,98382:0:0:0:0:
475,192,98117,128,0,98382:0:0:0:0:
329,192,98294,1,0,0:0:0:0:
256,192,98382,1,0,0:0:0:0:
329,192,98470,1,0,0:0:0:0:
182,192,98470,1,0,0:0:0:0:
36,192,98470,1,0,0:0:0:0:
475,192,98470,1,0,0:0:0:0:
109,192,98823,128,0,99176:0:0:0:0:
256,192,98823,1,0,0:0:0:0:
475,192,98823,1,0,0:0:0:0:
329,192,98823,128,0,99529:0:0:0:0:
402,192,98999,1,0,0:0:0:0:
36,192,99176,1,0,0:0:0:0:
182,192,99176,1,0,0:0:0:0:
256,192,99352,1,0,0:0:0:0:
402,192,99529,1,0,0:0:0:0:
182,192,99529,1,0,0:0:0:0:
36,192,99529,128,0,99882:0:0:0:0:
475,192,99529,128,0,100235:0:0:0:0:
109,192,99705,1,0,0:0:0:0:
182,192,99882,1,0,0:0:0:0:
329,192,99882,1,0,0:0:0:0:
256,192,100058,1,0,0:0:0:0:
256,192,100235,1,0,0:0:0:0:
402,192,100235,1,0,0:0:0:0:
109,192,100235,128,0,100588:0:0:0:0:
36,192,100235,128,0,100941:0:0:0:0:
182,192,100411,1,0,0:0:0:0:
329,192,100588,1,0,0:0:0:0:
475,192,100588,1,0,0:0:0:0:
256,192,100764,1,0,0:0:0:0:
182,192,100941,128,0,101647:0:0:0:0:
329,192,100941,128,0,101294:0:0:0:0:
109,192,100941,1,0,0:0:0:0:
402,192,100941,1,0,0:0:0:0:
36,192,101117,1,0,0:0:0:0:
109,192,101294,1,0,0:0:0:0:
475,192,101294,1,0,0:0:0:0:
256,192,101470,1,0,0:0:0:0:
329,192,101647,1,0,0:0:0:0:
402,192,101647,1,0,0:0:0:0:
36,192,101647,128,0,101999:0:0:0:0:
475,192,101647,128,0,102264:0:0:0:0:
182,192,101823,1,0,0:0:0:0:
109,192,101999,1,0,0:0:0:0:
256,192,101999,1,0,0:0:0:0:
329,192,102176,1,0,0:0:0:0:
329,192,102352,1,0,0:0:0:0:
182,192,102352,1,0,0:0:0:0:
475,192,102352,128,0,102970:0:0:0:0:
36,192,102352,128,0,102970:0:0:0:0:
182,192,102529,1,0,0:0:0:0:
329,192,102529,1,0,0:0:0:0:
109,192,102705,1,0,0:0:0:0:
256,192,102705,1,0,0:0:0:0:
402,192,102705,1,0,0:0:0:0:
256,192,102882,1,0,0:0:0:0:
256,192,102970,1,0,0:0:0:0:
36,192,103058,1,0,0:0:0:0:
182,192,103058,1,0,0:0:0:0:
329,192,103058,1,0,0:0:0:0:
475,192,103058,1,0,0:0:0:0:
182,192,103411,1,0,0:0:0:0:
109,192,103411,1,0,0:0:0:0:
329,192,103411,1,0,0:0:0:0:
402,192,103411,1,0,0:0:0:0:
256,192,103588,1,0,0:0:0:0:
109,192,103588,1,0,0:0:0:0:
36,192,103764,1,0,0:0:0:0:
182,192,103764,1,0,0:0:0:0:
329,192,103764,1,0,0:0:0:0:
475,192,103764,1,0,0:0:0:0:
182,192,103941,1,0,0:0:0:0:
36,192,103941,1,0,0:0:0:0:
329,192,103941,1,0,0:0:0:0:
475,192,103941,1,0,0:0:0:0:
475,192,104117,1,0,0:0:0:0:
329,192,104117,1,0,0:0:0:0:
182,192,104117,1,0,0:0:0:0:
36,192,104117,1,0,0:0:0:0:
36,192,104294,1,0,0:0:0:0:
182,192,104294,1,0,0:0:0:0:
329,192,104294,1,0,0:0:0:0:
475,192,104294,1,0,0:0:0:0:
109,192,104470,1,0,0:0:0:0:
256,192,104470,1,0,0:0:0:0:
402,192,104470,1,0,0:0:0:0:
182,192,104558,1,0,0:0:0:0:
329,192,104558,1,0,0:0:0:0:
109,192,104647,1,0,0:0:0:0:
256,192,104647,1,0,0:0:0:0:
402,192,104647,1,0,0:0:0:0:
182,192,104735,1,0,0:0:0:0:
329,192,104735,1,0,0:0:0:0:
402,192,104823,1,0,0:0:0:0:
256,192,104823,1,0,0:0:0:0:
109,192,104823,1,0,0:0:0:0:
182,192,104911,1,0,0:0:0:0:
329,192,104911,1,0,0:0:0:0:
402,192,104999,1,0,0:0:0:0:
256,192,104999,1,0,0:0:0:0:
109,192,104999,1,0,0:0:0:0:
182,192,105088,1,0,0:0:0:0:
329,192,105088,1,0,0:0:0:0:
402,192,105176,1,0,0:0:0:0:
256,192,105176,1,0,0:0:0:0:
109,192,105176,1,0,0:0:0:0:
182,192,105264,1,0,0:0:0:0:
329,192,105264,1,0,0:0:0:0:
109,192,105352,1,0,0:0:0:0:
256,192,105352,1,0,0:0:0:0:
402,192,105352,1,0,0:0:0:0:
329,192,105441,1,0,0:0:0:0:
182,192,105441,1,0,0:0:0:0:
402,192,105529,1,0,0:0:0:0:
475,192,105529,1,0,0:0:0:0:
36,192,105529,128,0,105647:0:0:0:0:
109,192,105558,128,0,105676:0:0:0:0:
182,192,105588,128,0,105705:0:0:0:0:
256,192,105617,128,0,105735:0:0:0:0:
329,192,105647,128,0,105764:0:0:0:0:
402,192,105676,128,0,105794:0:0:0:0:
36,192,105705,1,0,0:0:0:0:
475,192,105705,128,0,105823:0:0:0:0:
109,192,105735,1,0,0:0:0:0:
182,192,105764,1,0,0:0:0:0:
256,192,105794,1,0,0:0:0:0:
329,192,105823,1,0,0:0:0:0:
402,192,105852,1,0,0:0:0:0:
475,192,105882,1,0,0:0:0:0:
256,192,105882,1,0,0:0:0:0:
182,192,105882,1,0,0:0:0:0:
36,192,105882,1,0,0:0:0:0:
109,192,105882,1,0,0:0:0:0:
402,192,106235,1,0,0:0:0:0:
329,192,106352,1,0,0:0:0:0:
256,192,106470,1,0,0:0:0:0:
329,192,106588,1,0,0:0:0:0:
256,192,106705,1,0,0:0:0:0:
182,192,106823,1,0,0:0:0:0:
256,192,106941,1,0,0:0:0:0:
182,192,107058,1,0,0:0:0:0:
109,192,107176,1,0,0:0:0:0:
36,192,107294,1,0,0:0:0:0:
109,192,107382,1,0,0:0:0:0:
182,192,107470,1,0,0:0:0:0:
36,192,107558,1,0,0:0:0:0:
109,192,107647,1,0,0:0:0:0:
182,192,107735,1,0,0:0:0:0:
256,192,107823,1,0,0:0:0:0:
109,192,107911,1,0,0:0:0:0:
182,192,107999,1,0,0:0:0:0:
256,192,108088,1,0,0:0:0:0:
329,192,108176,1,0,0:0:0:0:
182,192,108264,1,0,0:0:0:0:
256,192,108352,1,0,0:0:0:0:
329,192,108470,1,0,0:0:0:0:
402,192,108588,1,0,0:0:0:0:
329,192,108705,1,0,0:0:0:0:
475,192,108705,1,0,0:0:0:0:
256,192,108705,1,0,0:0:0:0:
182,192,108705,1,0,0:0:0:0:
36,192,108705,1,0,0:0:0:0:
475,192,109058,1,0,0:0:0:0:
402,192,109176,1,0,0:0:0:0:
329,192,109294,1,0,0:0:0:0:
402,192,109411,1,0,0:0:0:0:
329,192,109529,1,0,0:0:0:0:
256,192,109647,1,0,0:0:0:0:
329,192,109764,1,0,0:0:0:0:
256,192,109882,1,0,0:0:0:0:
182,192,109999,1,0,0:0:0:0:
36,192,110117,1,0,0:0:0:0:
109,192,110205,1,0,0:0:0:0:
256,192,110294,1,0,0:0:0:0:
36,192,110382,1,0,0:0:0:0:
109,192,110470,1,0,0:0:0:0:
256,192,110558,1,0,0:0:0:0:
329,192,110647,1,0,0:0:0:0:
109,192,110735,1,0,0:0:0:0:
182,192,110823,1,0,0:0:0:0:
329,192,110911,1,0,0:0:0:0:
109,192,110999,1,0,0:0:0:0:
182,192,111088,1,0,0:0:0:0:
329,192,111176,1,0,0:0:0:0:
402,192,111294,1,0,0:0:0:0:
475,192,111411,1,0,0:0:0:0:
329,192,111529,1,0,0:0:0:0:
256,192,111529,1,0,0:0:0:0:
182,192,111529,1,0,0:0:0:0:
109,192,111529,1,0,0:0:0:0:
36,192,111529,1,0,0:0:0:0:
36,192,111882,1,0,0:0:0:0:
109,192,111999,1,0,0:0:0:0:
256,192,112117,1,0,0:0:0:0:
182,192,112235,1,0,0:0:0:0:
329,192,112352,1,0,0:0:0:0:
402,192,112470,1,0,0:0:0:0:
109,192,112588,1,0,0:0:0:0:
329,192,112705,1,0,0:0:0:0:
109,192,112823,1,0,0:0:0:0:
475,192,112941,1,0,0:0:0:0:
182,192,113058,1,0,0:0:0:0:
402,192,113176,1,0,0:0:0:0:
109,192,113294,1,0,0:0:0:0:
329,192,113411,1,0,0:0:0:0:
182,192,113529,1,0,0:0:0:0:
402,192,113647,1,0,0:0:0:0:
109,192,113764,1,0,0:0:0:0:
329,192,113882,1,0,0:0:0:0:
256,192,113999,1,0,0:0:0:0:
182,192,114117,1,0,0:0:0:0:
109,192,114235,1,0,0:0:0:0:
36,192,114352,1,0,0:0:0:0:
182,192,114352,1,0,0:0:0:0:
256,192,114352,1,0,0:0:0:0:
329,192,114352,1,0,0:0:0:0:
475,192,114352,1,0,0:0:0:0:
475,192,114705,1,0,0:0:0:0:
402,192,114823,1,0,0:0:0:0:
329,192,114941,1,0,0:0:0:0:
402,192,115058,1,0,0:0:0:0:
329,192,115176,1,0,0:0:0:0:
256,192,115294,1,0,0:0:0:0:
329,192,115411,1,0,0:0:0:0:
256,192,115529,1,0,0:0:0:0:
182,192,115647,1,0,0:0:0:0:
36,192,115764,1,0,0:0:0:0:
109,192,115823,1,0,0:0:0:0:
182,192,115882,1,0,0:0:0:0:
109,192,115941,1,0,0:0:0:0:
182,192,115999,1,0,0:0:0:0:
256,192,116058,1,0,0:0:0:0:
182,192,116117,1,0,0:0:0:0:
256,192,116176,1,0,0:0:0:0:
329,192,116235,1,0,0:0:0:0:
256,192,116294,1,0,0:0:0:0:
329,192,116352,1,0,0:0:0:0:
402,192,116411,1,0,0:0:0:0:
36,192,116470,1,0,0:0:0:0:
109,192,116529,1,0,0:0:0:0:
182,192,116588,1,0,0:0:0:0:
256,192,116647,1,0,0:0:0:0:
329,192,116705,1,0,0:0:0:0:
402,192,116764,1,0,0:0:0:0:
475,192,116823,1,0,0:0:0:0:
402,192,116867,1,0,0:0:0:0:
329,192,116911,1,0,0:0:0:0:
256,192,116955,1,0,0:0:0:0:
182,192,116999,1,0,0:0:0:0:
109,192,117044,1,0,0:0:0:0:
36,192,117088,1,0,0:0:0:0:
256,192,117176,1,0,0:0:0:0:
182,192,117176,1,0,0:0:0:0:
329,192,117176,1,0,0:0:0:0:
402,192,117176,1,0,0:0:0:0:
36,192,117529,128,0,117882:0:0:0:0:
475,192,117529,1,0,0:0:0:0:
402,192,117647,1,0,0:0:0:0:
329,192,117764,1,0,0:0:0:0:
402,192,117882,1,0,0:0:0:0:
329,192,117999,1,0,0:0:0:0:
256,192,118117,1,0,0:0:0:0:
36,192,118235,128,0,118588:0:0:0:0:
329,192,118235,1,0,0:0:0:0:
256,192,118352,1,0,0:0:0:0:
182,192,118470,1,0,0:0:0:0:
109,192,118588,1,0,0:0:0:0:
182,192,118676,1,0,0:0:0:0:
256,192,118764,1,0,0:0:0:0:
182,192,118852,1,0,0:0:0:0:
256,192,118941,1,0,0:0:0:0:
36,192,118941,128,0,119294:0:0:0:0:
329,192,119029,1,0,0:0:0:0:
182,192,119117,1,0,0:0:0:0:
256,192,119205,1,0,0:0:0:0:
329,192,119294,1,0,0:0:0:0:
256,192,119382,1,0,0:0:0:0:
329,192,119470,1,0,0:0:0:0:
402,192,119558,1,0,0:0:0:0:
36,192,119647,128,0,119999:0:0:0:0:
329,192,119647,1,0,0:0:0:0:
402,192,119764,1,0,0:0:0:0:
475,192,119882,1,0,0:0:0:0:
182,192,119999,1,0,0:0:0:0:
256,192,119999,1,0,0:0:0:0:
329,192,119999,1,0,0:0:0:0:
402,192,119999,1,0,0:0:0:0:
329,192,120352,1,0,0:0:0:0:
475,192,120352,128,0,120705:0:0:0:0:
256,192,120470,1,0,0:0:0:0:
182,192,120588,1,0,0:0:0:0:
329,192,120705,1,0,0:0:0:0:
256,192,120823,1,0,0:0:0:0:
182,192,120941,1,0,0:0:0:0:
475,192,121058,128,0,121411:0:0:0:0:
256,192,121058,1,0,0:0:0:0:
182,192,121176,1,0,0:0:0:0:
109,192,121294,1,0,0:0:0:0:
36,192,121411,1,0,0:0:0:0:
109,192,121499,1,0,0:0:0:0:
182,192,121588,1,0,0:0:0:0:
109,192,121676,1,0,0:0:0:0:
475,192,121764,128,0,122117:0:0:0:0:
182,192,121764,1,0,0:0:0:0:
256,192,121852,1,0,0:0:0:0:
109,192,121941,1,0,0:0:0:0:
182,192,122029,1,0,0:0:0:0:
256,192,122117,1,0,0:0:0:0:
182,192,122205,1,0,0:0:0:0:
256,192,122294,1,0,0:0:0:0:
329,192,122382,1,0,0:0:0:0:
475,192,122470,128,0,122823:0:0:0:0:
256,192,122470,1,0,0:0:0:0:
329,192,122588,1,0,0:0:0:0:
402,192,122705,1,0,0:0:0:0:
329,192,122823,1,0,0:0:0:0:
256,192,122823,1,0,0:0:0:0:
182,192,122823,1,0,0:0:0:0:
36,192,122823,1,0,0:0:0:0:
36,192,122999,1,0,0:0:0:0:
109,192,123176,1,0,0:0:0:0:
329,192,123176,1,0,0:0:0:0:
475,192,123176,1,0,0:0:0:0:
182,192,123294,1,0,0:0:0:0:
475,192,123352,1,0,0:0:0:0:
256,192,123411,1,0,0:0:0:0:
182,192,123529,1,0,0:0:0:0:
36,192,123529,1,0,0:0:0:0:
402,192,123529,1,0,0:0:0:0:
329,192,123647,1,0,0:0:0:0:
36,192,123705,1,0,0:0:0:0:
256,192,123764,1,0,0:0:0:0:
329,192,123882,1,0,0:0:0:0:
475,192,123882,1,0,0:0:0:0:
109,192,123882,1,0,0:0:0:0:
182,192,123999,1,0,0:0:0:0:
475,192,124058,1,0,0:0:0:0:
256,192,124117,1,0,0:0:0:0:
402,192,124235,1,0,0:0:0:0:
109,192,124235,1,0,0:0:0:0:
36,192,124235,1,0,0:0:0:0:
256,192,124352,1,0,0:0:0:0:
36,192,124411,1,0,0:0:0:0:
329,192,124470,1,0,0:0:0:0:
402,192,124588,1,0,0:0:0:0:
475,192,124588,1,0,0:0:0:0:
109,192,124588,1,0,0:0:0:0:
256,192,124705,1,0,0:0:0:0:
475,192,124764,1,0,0:0:0:0:
182,192,124823,1,0,0:0:0:0:
402,192,124941,1,0,0:0:0:0:
36,192,124941,1,0,0:0:0:0:
109,192,124941,1,0,0:0:0:0:
256,192,125058,1,0,0:0:0:0:
36,192,125117,1,0,0:0:0:0:
329,192,125176,1,0,0:0:0:0:
256,192,125294,1,0,0:0:0:0:
402,192,125294,1,0,0:0:0:0:
475,192,125294,1,0,0:0:0:0:
182,192,125411,1,0,0:0:0:0:
475,192,125470,1,0,0:0:0:0:
109,192,125529,1,0,0:0:0:0:
256,192,125647,1,0,0:0:0:0:
329,192,125647,1,0,0:0:0:0:
402,192,125647,1,0,0:0:0:0:
36,192,125647,1,0,0:0:0:0:
402,192,125823,1,0,0:0:0:0:
256,192,125823,1,0,0:0:0:0:
475,192,125999,1,0,0:0:0:0:
182,192,125999,1,0,0:0:0:0:
36,192,125999,1,0,0:0:0:0:
402,192,126117,1,0,0:0:0:0:
182,192,126176,1,0,0:0:0:0:
36,192,126176,1,0,0:0:0:0:
329,192,126235,1,0,0:0:0:0:
109,192,126352,1,0,0:0:0:0:
36,192,126352,1,0,0:0:0:0:
402,192,126352,1,0,0:0:0:0:
329,192,126470,1,0,0:0:0:0:
109,192,126529,1,0,0:0:0:0:
36,192,126529,1,0,0:0:0:0:
256,192,126588,1,0,0:0:0:0:
329,192,126705,1,0,0:0:0:0:
475,192,126705,1,0,0:0:0:0:
36,192,126705,1,0,0:0:0:0:
256,192,126823,1,0,0:0:0:0:
36,192,126882,1,0,0:0:0:0:
475,192,126882,1,0,0:0:0:0:
182,192,126941,1,0,0:0:0:0:
36,192,127058,1,0,0:0:0:0:
329,192,127058,1,0,0:0:0:0:
109,192,127117,1,0,0:0:0:0:
402,192,127147,1,0,0:0:0:0:
182,192,127176,1,0,0:0:0:0:
256,192,127235,1,0,0:0:0:0:
475,192,127235,1,0,0:0:0:0:
109,192,127294,1,0,0:0:0:0:
402,192,127323,1,0,0:0:0:0:
182,192,127352,1,0,0:0:0:0:
256,192,127411,1,0,0:0:0:0:
36,192,127411,1,0,0:0:0:0:
475,192,127411,1,0,0:0:0:0:
329,192,127470,1,0,0:0:0:0:
182,192,127499,1,0,0:0:0:0:
402,192,127529,1,0,0:0:0:0:
256,192,127588,1,0,0:0:0:0:
109,192,127588,1,0,0:0:0:0:
329,192,127647,1,0,0:0:0:0:
182,192,127676,1,0,0:0:0:0:
402,192,127705,1,0,0:0:0:0:
475,192,127764,1,0,0:0:0:0:
256,192,127764,1,0,0:0:0:0:
36,192,127764,1,0,0:0:0:0:
109,192,127823,1,0,0:0:0:0:
329,192,127823,1,0,0:0:0:0:
182,192,127882,1,0,0:0:0:0:
402,192,127882,1,0,0:0:0:0:
256,192,127941,1,0,0:0:0:0:
475,192,127941,1,0,0:0:0:0:
402,192,127985,1,0,0:0:0:0:
182,192,127999,1,0,0:0:0:0:
329,192,128029,1,0,0:0:0:0:
109,192,128058,1,0,0:0:0:0:
402,192,128073,1,0,0:0:0:0:
256,192,128117,1,0,0:0:0:0:
36,192,128117,1,0,0:0:0:0:
475,192,128117,1,0,0:0:0:0:
182,192,128161,1,0,0:0:0:0:
329,192,128161,1,0,0:0:0:0:
109,192,128205,1,0,0:0:0:0:
402,192,128205,1,0,0:0:0:0:
36,192,128249,1,0,0:0:0:0:
475,192,128249,1,0,0:0:0:0:
109,192,128294,1,0,0:0:0:0:
402,192,128294,1,0,0:0:0:0:
182,192,128338,1,0,0:0:0:0:
329,192,128338,1,0,0:0:0:0:
256,192,128382,1,0,0:0:0:0:
109,192,128470,1,0,0:0:0:0:
402,192,128470,1,0,0:0:0:0:
475,192,128470,1,0,0:0:0:0:
36,192,128470,128,0,128941:0:0:0:0:
329,192,128705,1,0,0:0:0:0:
402,192,128823,1,0,0:0:0:0:
475,192,128823,1,0,0:0:0:0:
182,192,128823,1,0,0:0:0:0:
109,192,128941,1,0,0:0:0:0:
182,192,129058,1,0,0:0:0:0:
475,192,129058,1,0,0:0:0:0:
109,192,129176,1,0,0:0:0:0:
329,192,129176,1,0,0:0:0:0:
402,192,129176,1,0,0:0:0:0:
329,192,129411,1,0,0:0:0:0:
475,192,129529,1,0,0:0:0:0:
402,192,129529,1,0,0:0:0:0:
182,192,129529,1,0,0:0:0:0:
109,192,129647,1,0,0:0:0:0:
182,192,129764,1,0,0:0:0:0:
475,192,129764,1,0,0:0:0:0:
109,192,129882,1,0,0:0:0:0:
402,192,129882,1,0,0:0:0:0:
329,192,129882,1,0,0:0:0:0:
329,192,130117,1,0,0:0:0:0:
402,192,130235,1,0,0:0:0:0:
475,192,130235,1,0,0:0:0:0:
36,192,130235,1,0,0:0:0:0:
109,192,130352,1,0,0:0:0:0:
36,192,130470,1,0,0:0:0:0:
475,192,130470,1,0,0:0:0:0:
109,192,130588,1,0,0:0:0:0:
402,192,130588,1,0,0:0:0:0:
329,192,130588,1,0,0:0:0:0:
329,192,130823,1,0,0:0:0:0:
36,192,130941,1,0,0:0:0:0:
402,192,130941,1,0,0:0:0:0:
475,192,130941,1,0,0:0:0:0:
109,192,131058,1,0,0:0:0:0:
475,192,131058,1,0,0:0:0:0:
36,192,131176,1,0,0:0:0:0:
475,192,131176,1,0,0:0:0:0:
109,192,131294,1,0,0:0:0:0:
402,192,131294,1,0,0:0:0:0:
329,192,131294,1,0,0:0:0:0:
329,192,131529,1,0,0:0:0:0:
402,192,131647,1,0,0:0:0:0:
475,192,131647,1,0,0:0:0:0:
36,192,131647,1,0,0:0:0:0:
109,192,131764,1,0,0:0:0:0:
36,192,131882,1,0,0:0:0:0:
475,192,131882,1,0,0:0:0:0:
109,192,131999,1,0,0:0:0:0:
402,192,131999,1,0,0:0:0:0:
329,192,131999,1,0,0:0:0:0:
329,192,132235,1,0,0:0:0:0:
402,192,132352,1,0,0:0:0:0:
475,192,132352,1,0,0:0:0:0:
36,192,132352,1,0,0:0:0:0:
109,192,132470,1,0,0:0:0:0:
36,192,132588,1,0,0:0:0:0:
475,192,132588,1,0,0:0:0:0:
109,192,132705,1,0,0:0:0:0:
402,192,132705,1,0,0:0:0:0:
329,192,132705,1,0,0:0:0:0:
329,192,132941,1,0,0:0:0:0:
402,192,133058,1,0,0:0:0:0:
475,192,133058,1,0,0:0:0:0:
36,192,133058,1,0,0:0:0:0:
109,192,133176,1,0,0:0:0:0:
36,192,133294,1,0,0:0:0:0:
475,192,133411,1,0,0:0:0:0:
329,192,133411,1,0,0:0:0:0:
475,192,133529,1,0,0:0:0:0:
475,192,133647,1,0,0:0:0:0:
36,192,133676,1,0,0:0:0:0:
109,192,133705,1,0,0:0:0:0:
182,192,133735,1,0,0:0:0:0:
256,192,133764,1,0,0:0:0:0:
402,192,133764,1,0,0:0:0:0:
256,192,133882,1,0,0:0:0:0:
402,192,133882,1,0,0:0:0:0:
402,192,133999,1,0,0:0:0:0:
256,192,133999,1,0,0:0:0:0:
182,192,134117,1,0,0:0:0:0:
36,192,134117,1,0,0:0:0:0:
475,192,134117,1,0,0:0:0:0:
402,192,134352,1,0,0:0:0:0:
329,192,134470,1,0,0:0:0:0:
475,192,134470,1,0,0:0:0:0:
256,192,134470,1,0,0:0:0:0:
36,192,134470,1,0,0:0:0:0:
109,192,134588,1,0,0:0:0:0:
36,192,134705,1,0,0:0:0:0:
329,192,134705,1,0,0:0:0:0:
109,192,134823,1,0,0:0:0:0:
182,192,134823,1,0,0:0:0:0:
402,192,134823,1,0,0:0:0:0:
402,192,135058,1,0,0:0:0:0:
475,192,135176,1,0,0:0:0:0:
329,192,135176,1,0,0:0:0:0:
256,192,135176,1,0,0:0:0:0:
36,192,135176,1,0,0:0:0:0:
109,192,135294,1,0,0:0:0:0:
36,192,135411,1,0,0:0:0:0:
109,192,135529,1,0,0:0:0:0:
182,192,135529,1,0,0:0:0:0:
402,192,135529,1,0,0:0:0:0:
402,192,135764,1,0,0:0:0:0:
475,192,135882,1,0,0:0:0:0:
329,192,135882,1,0,0:0:0:0:
256,192,135882,1,0,0:0:0:0:
36,192,135882,1,0,0:0:0:0:
109,192,135999,1,0,0:0:0:0:
36,192,136117,1,0,0:0:0:0:
329,192,136117,1,0,0:0:0:0:
109,192,136235,1,0,0:0:0:0:
182,192,136235,1,0,0:0:0:0:
402,192,136235,1,0,0:0:0:0:
402,192,136470,1,0,0:0:0:0:
329,192,136588,1,0,0:0:0:0:
475,192,136588,1,0,0:0:0:0:
36,192,136588,1,0,0:0:0:0:
256,192,136588,1,0,0:0:0:0:
475,192,136705,1,0,0:0:0:0:
109,192,136705,1,0,0:0:0:0:
475,192,136823,1,0,0:0:0:0:
36,192,136823,1,0,0:0:0:0:
329,192,136941,1,0,0:0:0:0:
182,192,136941,1,0,0:0:0:0:
109,192,136941,1,0,0:0:0:0:
329,192,137176,1,0,0:0:0:0:
402,192,137294,1,0,0:0:0:0:
475,192,137294,1,0,0:0:0:0:
256,192,137294,1,0,0:0:0:0:
36,192,137294,1,0,0:0:0:0:
109,192,137411,1,0,0:0:0:0:
36,192,137529,1,0,0:0:0:0:
475,192,137529,1,0,0:0:0:0:
109,192,137647,1,0,0:0:0:0:
182,192,137647,1,0,0:0:0:0:
329,192,137647,1,0,0:0:0:0:
329,192,137882,1,0,0:0:0:0:
402,192,137999,1,0,0:0:0:0:
475,192,137999,1,0,0:0:0:0:
256,192,137999,1,0,0:0:0:0:
36,192,137999,1,0,0:0:0:0:
109,192,138117,1,0,0:0:0:0:
36,192,138235,1,0,0:0:0:0:
475,192,138235,1,0,0:0:0:0:
109,192,138352,1,0,0:0:0:0:
182,192,138352,1,0,0:0:0:0:
329,192,138352,1,0,0:0:0:0:
329,192,138588,1,0,0:0:0:0:
402,192,138705,1,0,0:0:0:0:
475,192,138705,1,0,0:0:0:0:
256,192,138705,1,0,0:0:0:0:
36,192,138705,1,0,0:0:0:0:
182,192,138823,1,0,0:0:0:0:
36,192,138941,1,0,0:0:0:0:
475,192,138941,1,0,0:0:0:0:
182,192,139058,1,0,0:0:0:0:
329,192,139058,1,0,0:0:0:0:
402,192,139058,1,0,0:0:0:0:
475,192,139176,1,0,0:0:0:0:
329,192,139294,1,0,0:0:0:0:
256,192,139323,1,0,0:0:0:0:
182,192,139352,1,0,0:0:0:0:
109,192,139382,1,0,0:0:0:0:
36,192,139411,1,0,0:0:0:0:
475,192,139411,128,0,139499:0:0:0:0:
402,192,139441,128,0,139529:0:0:0:0:
329,192,139470,128,0,139558:0:0:0:0:
256,192,139499,128,0,139588:0:0:0:0:
182,192,139529,128,0,139617:0:0:0:0:
109,192,139558,128,0,139647:0:0:0:0:
475,192,139588,1,0,0:0:0:0:
36,192,139588,128,0,139676:0:0:0:0:
402,192,139617,1,0,0:0:0:0:
329,192,139647,1,0,0:0:0:0:
256,192,139676,1,0,0:0:0:0:
182,192,139705,1,0,0:0:0:0:
109,192,139735,1,0,0:0:0:0:
36,192,139764,1,0,0:0:0:0:
475,192,139764,1,0,0:0:0:0:
109,192,139882,1,0,0:0:0:0:
182,192,139999,1,0,0:0:0:0:
256,192,140117,1,0,0:0:0:0:
329,192,140117,1,0,0:0:0:0:
475,192,140117,1,0,0:0:0:0:
402,192,140235,1,0,0:0:0:0:
329,192,140352,1,0,0:0:0:0:
256,192,140470,1,0,0:0:0:0:
36,192,140470,1,0,0:0:0:0:
109,192,140588,1,0,0:0:0:0:
182,192,140705,1,0,0:0:0:0:
256,192,140823,1,0,0:0:0:0:
329,192,140823,1,0,0:0:0:0:
475,192,140823,1,0,0:0:0:0:
402,192,140941,1,0,0:0:0:0:
329,192,141058,1,0,0:0:0:0:
182,192,141176,1,0,0:0:0:0:
36,192,141176,1,0,0:0:0:0:
256,192,141294,1,0,0:0:0:0:
329,192,141411,1,0,0:0:0:0:
402,192,141529,1,0,0:0:0:0:
182,192,141529,1,0,0:0:0:0:
36,192,141529,1,0,0:0:0:0:
256,192,141647,1,0,0:0:0:0:
329,192,141764,1,0,0:0:0:0:
256,192,141882,1,0,0:0:0:0:
36,192,141882,1,0,0:0:0:0:
329,192,141999,1,0,0:0:0:0:
402,192,142117,1,0,0:0:0:0:
475,192,142235,1,0,0:0:0:0:
256,192,142235,1,0,0:0:0:0:
36,192,142235,1,0,0:0:0:0:
475,192,142352,1,0,0:0:0:0:
182,192,142352,1,0,0:0:0:0:
475,192,142470,1,0,0:0:0:0:
109,192,142470,1,0,0:0:0:0:
36,192,142588,1,0,0:0:0:0:
256,192,142588,1,0,0:0:0:0:
109,192,142705,1,0,0:0:0:0:
182,192,142823,1,0,0:0:0:0:
256,192,142941,1,0,0:0:0:0:
329,192,142941,1,0,0:0:0:0:
475,192,142941,1,0,0:0:0:0:
402,192,143058,1,0,0:0:0:0:
329,192,143176,1,0,0:0:0:0:
256,192,143294,1,0,0:0:0:0:
36,192,143294,1,0,0:0:0:0:
109,192,143411,1,0,0:0:0:0:
182,192,143529,1,0,0:0:0:0:
256,192,143647,1,0,0:0:0:0:
329,192,143647,1,0,0:0:0:0:
475,192,143647,1,0,0:0:0:0:
402,192,143764,1,0,0:0:0:0:
329,192,143882,1,0,0:0:0:0:
182,192,143999,1,0,0:0:0:0:
36,192,143999,1,0,0:0:0:0:
256,192,144117,1,0,0:0:0:0:
329,192,144235,1,0,0:0:0:0:
475,192,144352,1,0,0:0:0:0:
182,192,144352,1,0,0:0:0:0:
36,192,144352,1,0,0:0:0:0:
256,192,144470,1,0,0:0:0:0:
329,192,144588,1,0,0:0:0:0:
402,192,144705,1,0,0:0:0:0:
36,192,144705,1,0,0:0:0:0:
256,192,144823,1,0,0:0:0:0:
402,192,144941,1,0,0:0:0:0:
329,192,144970,1,0,0:0:0:0:
256,192,144999,1,0,0:0:0:0:
182,192,145029,1,0,0:0:0:0:
475,192,145058,1,0,0:0:0:0:
109,192,145058,1,0,0:0:0:0:
475,192,145176,1,0,0:0:0:0:
256,192,145176,1,0,0:0:0:0:
475,192,145294,1,0,0:0:0:0:
109,192,145294,1,0,0:0:0:0:
402,192,145411,1,0,0:0:0:0:
182,192,145411,1,0,0:0:0:0:
36,192,145411,128,0,145764:0:0:0:0:
256,192,145529,1,0,0:0:0:0:
329,192,145647,1,0,0:0:0:0:
402,192,145764,1,0,0:0:0:0:
475,192,145764,1,0,0:0:0:0:
109,192,145764,1,0,0:0:0:0:
329,192,145882,1,0,0:0:0:0:
256,192,145999,1,0,0:0:0:0:
36,192,146117,1,0,0:0:0:0:
109,192,146117,1,0,0:0:0:0:
182,192,146235,1,0,0:0:0:0:
256,192,146352,1,0,0:0:0:0:
182,192,146470,1,0,0:0:0:0:
402,192,146470,1,0,0:0:0:0:
475,192,146470,1,0,0:0:0:0:
329,192,146588,1,0,0:0:0:0:
256,192,146705,1,0,0:0:0:0:
329,192,146823,1,0,0:0:0:0:
109,192,146823,1,0,0:0:0:0:
182,192,146941,1,0,0:0:0:0:
256,192,147058,1,0,0:0:0:0:
182,192,147176,1,0,0:0:0:0:
36,192,147176,1,0,0:0:0:0:
475,192,147176,1,0,0:0:0:0:
256,192,147294,1,0,0:0:0:0:
329,192,147411,1,0,0:0:0:0:
256,192,147529,1,0,0:0:0:0:
109,192,147529,1,0,0:0:0:0:
329,192,147647,1,0,0:0:0:0:
402,192,147764,1,0,0:0:0:0:
475,192,147882,1,0,0:0:0:0:
256,192,147882,1,0,0:0:0:0:
475,192,147999,1,0,0:0:0:0:
182,192,147999,1,0,0:0:0:0:
475,192,148117,1,0,0:0:0:0:
109,192,148117,1,0,0:0:0:0:
36,192,148235,1,0,0:0:0:0:
329,192,148235,1,0,0:0:0:0:
402,192,148235,1,0,0:0:0:0:
109,192,148352,1,0,0:0:0:0:
182,192,148470,1,0,0:0:0:0:
36,192,148588,1,0,0:0:0:0:
329,192,148588,1,0,0:0:0:0:
475,192,148588,1,0,0:0:0:0:
256,192,148705,1,0,0:0:0:0:
182,192,148823,1,0,0:0:0:0:
36,192,148941,1,0,0:0:0:0:
329,192,148941,1,0,0:0:0:0:
402,192,148941,1,0,0:0:0:0:
109,192,149058,1,0,0:0:0:0:
182,192,149176,1,0,0:0:0:0:
36,192,149294,1,0,0:0:0:0:
329,192,149294,1,0,0:0:0:0:
475,192,149294,1,0,0:0:0:0:
256,192,149411,1,0,0:0:0:0:
182,192,149529,1,0,0:0:0:0:
36,192,149647,1,0,0:0:0:0:
329,192,149647,1,0,0:0:0:0:
402,192,149647,1,0,0:0:0:0:
109,192,149764,1,0,0:0:0:0:
256,192,149882,1,0,0:0:0:0:
182,192,149999,1,0,0:0:0:0:
36,192,149999,1,0,0:0:0:0:
475,192,149999,1,0,0:0:0:0:
256,192,150117,1,0,0:0:0:0:
329,192,150235,1,0,0:0:0:0:
402,192,150352,1,0,0:0:0:0:
182,192,150352,1,0,0:0:0:0:
475,192,150352,128,0,150941:0:0:0:0:
256,192,150470,1,0,0:0:0:0:
36,192,150588,1,0,0:0:0:0:
402,192,150588,1,0,0:0:0:0:
329,192,150617,1,0,0:0:0:0:
256,192,150647,1,0,0:0:0:0:
182,192,150676,1,0,0:0:0:0:
109,192,150705,1,0,0:0:0:0:
36,192,150705,128,0,150941:0:0:0:0:
256,192,150823,1,0,0:0:0:0:
329,192,150823,1,0,0:0:0:0:
256,192,150941,1,0,0:0:0:0:
182,192,150941,1,0,0:0:0:0:
36,192,151058,1,0,0:0:0:0:
329,192,151058,1,0,0:0:0:0:
475,192,151058,1,0,0:0:0:0:
109,192,151176,1,0,0:0:0:0:
329,192,151176,1,0,0:0:0:0:
402,192,151294,1,0,0:0:0:0:
182,192,151294,1,0,0:0:0:0:
475,192,151411,1,0,0:0:0:0:
256,192,151411,1,0,0:0:0:0:
402,192,151529,1,0,0:0:0:0:
182,192,151529,1,0,0:0:0:0:
329,192,151647,1,0,0:0:0:0:
109,192,151647,1,0,0:0:0:0:
329,192,151764,1,0,0:0:0:0:
36,192,151764,1,0,0:0:0:0:
329,192,151882,1,0,0:0:0:0:
109,192,151882,1,0,0:0:0:0:
182,192,151999,1,0,0:0:0:0:
402,192,151999,1,0,0:0:0:0:
256,192,152117,1,0,0:0:0:0:
475,192,152117,1,0,0:0:0:0:
402,192,152235,1,0,0:0:0:0:
182,192,152235,1,0,0:0:0:0:
329,192,152352,1,0,0:0:0:0:
109,192,152352,1,0,0:0:0:0:
256,192,152470,1,0,0:0:0:0:
36,192,152470,1,0,0:0:0:0:
256,192,152588,1,0,0:0:0:0:
36,192,152588,1,0,0:0:0:0:
109,192,152705,1,0,0:0:0:0:
329,192,152705,1,0,0:0:0:0:
36,192,152823,1,0,0:0:0:0:
256,192,152823,1,0,0:0:0:0:
109,192,152941,1,0,0:0:0:0:
329,192,152941,1,0,0:0:0:0:
182,192,153058,1,0,0:0:0:0:
402,192,153058,1,0,0:0:0:0:
329,192,153176,1,0,0:0:0:0:
109,192,153176,1,0,0:0:0:0:
182,192,153294,1,0,0:0:0:0:
402,192,153294,1,0,0:0:0:0:
256,192,153411,1,0,0:0:0:0:
475,192,153411,1,0,0:0:0:0:
182,192,153529,1,0,0:0:0:0:
402,192,153529,1,0,0:0:0:0:
329,192,153647,1,0,0:0:0:0:
109,192,153647,1,0,0:0:0:0:
256,192,153764,1,0,0:0:0:0:
36,192,153764,1,0,0:0:0:0:
329,192,153882,1,0,0:0:0:0:
182,192,153882,1,0,0:0:0:0:
329,192,153999,1,0,0:0:0:0:
182,192,153999,1,0,0:0:0:0:
109,192,154117,1,0,0:0:0:0:
402,192,154117,1,0,0:0:0:0:
36,192,154235,1,0,0:0:0:0:
475,192,154235,1,0,0:0:0:0:
402,192,154352,1,0,0:0:0:0:
109,192,154352,1,0,0:0:0:0:
329,192,154470,1,0,0:0:0:0:
182,192,154470,1,0,0:0:0:0:
182,192,154588,1,0,0:0:0:0:
329,192,154588,1,0,0:0:0:0:
182,192,154705,1,0,0:0:0:0:
329,192,154705,1,0,0:0:0:0:
109,192,154823,1,0,0:0:0:0:
402,192,154823,1,0,0:0:0:0:
36,192,154941,1,0,0:0:0:0:
475,192,154941,1,0,0:0:0:0:
182,192,155058,1,0,0:0:0:0:
402,192,155058,1,0,0:0:0:0:
329,192,155176,1,0,0:0:0:0:
109,192,155176,1,0,0:0:0:0:
36,192,155294,1,0,0:0:0:0:
256,192,155294,1,0,0:0:0:0:
256,192,155411,1,0,0:0:0:0:
36,192,155411,1,0,0:0:0:0:
329,192,155529,1,0,0:0:0:0:
475,192,155529,1,0,0:0:0:0:
182,192,155647,1,0,0:0:0:0:
36,192,155647,1,0,0:0:0:0:
36,192,155764,1,0,0:0:0:0:
182,192,155764,1,0,0:0:0:0:
256,192,155882,1,0,0:0:0:0:
402,192,155882,1,0,0:0:0:0:
475,192,155999,1,0,0:0:0:0:
109,192,155999,1,0,0:0:0:0:
182,192,156117,1,0,0:0:0:0:
329,192,156117,1,0,0:0:0:0:
109,192,156235,1,0,0:0:0:0:
475,192,156235,1,0,0:0:0:0:
402,192,156352,1,0,0:0:0:0:
329,192,156352,1,0,0:0:0:0:
36,192,156352,1,0,0:0:0:0:
329,192,156470,1,0,0:0:0:0:
256,192,156470,1,0,0:0:0:0:
109,192,156470,1,0,0:0:0:0:
36,192,156588,1,0,0:0:0:0:
329,192,156588,1,0,0:0:0:0:
402,192,156588,1,0,0:0:0:0:
256,192,156705,1,0,0:0:0:0:
109,192,156705,1,0,0:0:0:0:
475,192,156705,1,0,0:0:0:0:
256,192,156823,1,0,0:0:0:0:
109,192,156823,1,0,0:0:0:0:
182,192,156941,1,0,0:0:0:0:
329,192,156941,1,0,0:0:0:0:
256,192,157058,1,0,0:0:0:0:
402,192,157058,1,0,0:0:0:0:
475,192,157058,1,0,0:0:0:0:
329,192,157176,1,0,0:0:0:0:
182,192,157176,1,0,0:0:0:0:
256,192,157294,1,0,0:0:0:0:
109,192,157294,1,0,0:0:0:0:
36,192,157411,1,0,0:0:0:0:
256,192,157411,1,0,0:0:0:0:
402,192,157411,1,0,0:0:0:0:
256,192,157529,1,0,0:0:0:0:
109,192,157529,1,0,0:0:0:0:
182,192,157647,1,0,0:0:0:0:
329,192,157647,1,0,0:0:0:0:
256,192,157764,1,0,0:0:0:0:
402,192,157764,1,0,0:0:0:0:
475,192,157764,1,0,0:0:0:0:
329,192,157882,1,0,0:0:0:0:
182,192,157882,1,0,0:0:0:0:
256,192,157999,1,0,0:0:0:0:
109,192,157999,1,0,0:0:0:0:
36,192,158117,1,0,0:0:0:0:
182,192,158117,1,0,0:0:0:0:
402,192,158117,1,0,0:0:0:0:
109,192,158235,1,0,0:0:0:0:
256,192,158235,1,0,0:0:0:0:
182,192,158352,1,0,0:0:0:0:
329,192,158352,1,0,0:0:0:0:
256,192,158470,1,0,0:0:0:0:
475,192,158470,1,0,0:0:0:0:
109,192,158470,1,0,0:0:0:0:
36,192,158470,1,0,0:0:0:0:
182,192,158588,1,0,0:0:0:0:
329,192,158588,1,0,0:0:0:0:
256,192,158705,1,0,0:0:0:0:
402,192,158705,1,0,0:0:0:0:
329,192,158823,1,0,0:0:0:0:
182,192,158823,1,0,0:0:0:0:
109,192,158823,1,0,0:0:0:0:
256,192,158941,1,0,0:0:0:0:
402,192,158941,1,0,0:0:0:0:
329,192,159058,1,0,0:0:0:0:
475,192,159058,1,0,0:0:0:0:
402,192,159176,1,0,0:0:0:0:
256,192,159176,1,0,0:0:0:0:
109,192,159176,1,0,0:0:0:0:
36,192,159176,1,0,0:0:0:0:
182,192,159294,1,0,0:0:0:0:
329,192,159294,1,0,0:0:0:0:
256,192,159411,1,0,0:0:0:0:
109,192,159411,1,0,0:0:0:0:
109,192,159529,1,0,0:0:0:0:
256,192,159529,1,0,0:0:0:0:
109,192,159647,1,0,0:0:0:0:
256,192,159647,1,0,0:0:0:0:
182,192,159764,1,0,0:0:0:0:
402,192,159764,1,0,0:0:0:0:
256,192,159882,1,0,0:0:0:0:
475,192,159882,1,0,0:0:0:0:
36,192,159882,1,0,0:0:0:0:
182,192,159999,1,0,0:0:0:0:
402,192,159999,1,0,0:0:0:0:
329,192,160117,1,0,0:0:0:0:
109,192,160117,1,0,0:0:0:0:
256,192,160235,1,0,0:0:0:0:
36,192,160235,1,0,0:0:0:0:
36,192,160352,1,0,0:0:0:0:
256,192,160352,1,0,0:0:0:0:
109,192,160470,1,0,0:0:0:0:
329,192,160470,1,0,0:0:0:0:
182,192,160588,1,0,0:0:0:0:
402,192,160588,1,0,0:0:0:0:
475,192,160588,1,0,0:0:0:0:
329,192,160705,1,0,0:0:0:0:
109,192,160705,1,0,0:0:0:0:
256,192,160823,1,0,0:0:0:0:
36,192,160823,1,0,0:0:0:0:
36,192,160941,1,0,0:0:0:0:
182,192,160941,1,0,0:0:0:0:
36,192,161058,1,0,0:0:0:0:
182,192,161058,1,0,0:0:0:0:
256,192,161176,1,0,0:0:0:0:
402,192,161176,1,0,0:0:0:0:
329,192,161294,1,0,0:0:0:0:
475,192,161294,1,0,0:0:0:0:
182,192,161294,1,0,0:0:0:0:
36,192,161294,1,0,0:0:0:0:
36,192,161411,1,0,0:0:0:0:
182,192,161411,1,0,0:0:0:0:
256,192,161529,1,0,0:0:0:0:
402,192,161529,1,0,0:0:0:0:
329,192,161647,1,0,0:0:0:0:
475,192,161647,1,0,0:0:0:0:
109,192,161764,1,0,0:0:0:0:
256,192,161764,1,0,0:0:0:0:
329,192,161882,1,0,0:0:0:0:
475,192,161882,1,0,0:0:0:0:
402,192,161999,1,0,0:0:0:0:
256,192,161999,1,0,0:0:0:0:
36,192,161999,1,0,0:0:0:0:
182,192,162117,1,0,0:0:0:0:
256,192,162117,1,0,0:0:0:0:
402,192,162117,1,0,0:0:0:0:
329,192,162235,1,0,0:0:0:0:
182,192,162235,1,0,0:0:0:0:
109,192,162235,1,0,0:0:0:0:
36,192,162352,1,0,0:0:0:0:
256,192,162352,1,0,0:0:0:0:
402,192,162352,1,0,0:0:0:0:
475,192,162352,1,0,0:0:0:0:
36,192,162470,1,0,0:0:0:0:
182,192,162470,1,0,0:0:0:0:
109,192,162588,1,0,0:0:0:0:
256,192,162588,1,0,0:0:0:0:
182,192,162705,1,0,0:0:0:0:
329,192,162705,1,0,0:0:0:0:
256,192,162823,1,0,0:0:0:0:
402,192,162823,1,0,0:0:0:0:
329,192,162941,1,0,0:0:0:0:
475,192,162941,1,0,0:0:0:0:
475,192,163058,1,0,0:0:0:0:
256,192,163058,1,0,0:0:0:0:
402,192,163176,1,0,0:0:0:0:
182,192,163176,1,0,0:0:0:0:
109,192,163294,1,0,0:0:0:0:
329,192,163294,1,0,0:0:0:0:
256,192,163411,1,0,0:0:0:0:
402,192,163411,1,0,0:0:0:0:
329,192,163529,1,0,0:0:0:0:
182,192,163529,1,0,0:0:0:0:
256,192,163647,1,0,0:0:0:0:
109,192,163647,1,0,0:0:0:0:
36,192,163764,1,0,0:0:0:0:
182,192,163764,1,0,0:0:0:0:
329,192,163764,1,0,0:0:0:0:
475,192,163764,1,0,0:0:0:0:
256,192,163882,1,0,0:0:0:0:
36,192,163882,1,0,0:0:0:0:
109,192,163999,1,0,0:0:0:0:
329,192,163999,1,0,0:0:0:0:
329,192,164117,1,0,0:0:0:0:
182,192,164117,1,0,0:0:0:0:
256,192,164235,1,0,0:0:0:0:
402,192,164235,1,0,0:0:0:0:
329,192,164352,1,0,0:0:0:0:
475,192,164352,1,0,0:0:0:0:
475,192,164470,1,0,0:0:0:0:
256,192,164470,1,0,0:0:0:0:
182,192,164588,1,0,0:0:0:0:
402,192,164588,1,0,0:0:0:0:
329,192,164705,1,0,0:0:0:0:
109,192,164705,1,0,0:0:0:0:
256,192,164823,1,0,0:0:0:0:
402,192,164823,1,0,0:0:0:0:
329,192,164941,1,0,0:0:0:0:
182,192,164941,1,0,0:0:0:0:
256,192,165058,1,0,0:0:0:0:
109,192,165058,1,0,0:0:0:0:
36,192,165176,1,0,0:0:0:0:
402,192,165176,1,0,0:0:0:0:
475,192,165176,128,0,165529:0:0:0:0:
329,192,165220,1,0,0:0:0:0:
256,192,165264,1,0,0:0:0:0:
182,192,165308,1,0,0:0:0:0:
329,192,165352,1,0,0:0:0:0:
256,192,165397,1,0,0:0:0:0:
182,192,165441,1,0,0:0:0:0:
109,192,165485,1,0,0:0:0:0:
36,192,165529,1,0,0:0:0:0:
256,192,165529,1,0,0:0:0:0:
36,192,165647,1,0,0:0:0:0:
256,192,165647,1,0,0:0:0:0:
109,192,165764,1,0,0:0:0:0:
329,192,165764,1,0,0:0:0:0:
256,192,165882,1,0,0:0:0:0:
36,192,165882,1,0,0:0:0:0:
109,192,165999,1,0,0:0:0:0:
329,192,165999,1,0,0:0:0:0:
182,192,166117,1,0,0:0:0:0:
402,192,166117,1,0,0:0:0:0:
256,192,166235,1,0,0:0:0:0:
475,192,166235,1,0,0:0:0:0:
109,192,166235,1,0,0:0:0:0:
182,192,166352,1,0,0:0:0:0:
329,192,166352,1,0,0:0:0:0:
256,192,166470,1,0,0:0:0:0:
402,192,166470,1,0,0:0:0:0:
329,192,166588,1,0,0:0:0:0:
475,192,166588,1,0,0:0:0:0:
36,192,166588,128,0,166941:0:0:0:0:
256,192,166705,1,0,0:0:0:0:
402,192,166705,1,0,0:0:0:0:
329,192,166823,1,0,0:0:0:0:
182,192,166823,1,0,0:0:0:0:
256,192,166941,1,0,0:0:0:0:
402,192,166941,1,0,0:0:0:0:
182,192,167058,1,0,0:0:0:0:
329,192,167058,1,0,0:0:0:0:
109,192,167176,1,0,0:0:0:0:
256,192,167176,1,0,0:0:0:0:
36,192,167294,1,0,0:0:0:0:
402,192,167294,1,0,0:0:0:0:
475,192,167294,1,0,0:0:0:0:
109,192,167338,1,0,0:0:0:0:
182,192,167382,1,0,0:0:0:0:
256,192,167426,1,0,0:0:0:0:
109,192,167470,1,0,0:0:0:0:
182,192,167514,1,0,0:0:0:0:
256,192,167558,1,0,0:0:0:0:
329,192,167602,1,0,0:0:0:0:
475,192,167647,1,0,0:0:0:0:
182,192,167647,1,0,0:0:0:0:
36,192,167647,1,0,0:0:0:0:
256,192,167691,1,0,0:0:0:0:
329,192,167735,1,0,0:0:0:0:
36,192,167764,1,0,0:0:0:0:
402,192,167779,1,0,0:0:0:0:
256,192,167823,1,0,0:0:0:0:
329,192,167867,1,0,0:0:0:0:
36,192,167882,1,0,0:0:0:0:
402,192,167911,1,0,0:0:0:0:
475,192,167955,1,0,0:0:0:0:
256,192,167999,1,0,0:0:0:0:
109,192,167999,1,0,0:0:0:0:
36,192,167999,128,0,168352:0:0:0:0:
182,192,168117,1,0,0:0:0:0:
329,192,168117,1,0,0:0:0:0:
182,192,168235,1,0,0:0:0:0:
329,192,168235,1,0,0:0:0:0:
256,192,168352,1,0,0:0:0:0:
402,192,168352,1,0,0:0:0:0:
329,192,168470,1,0,0:0:0:0:
475,192,168470,1,0,0:0:0:0:
329,192,168588,1,0,0:0:0:0:
475,192,168588,1,0,0:0:0:0:
475,192,168705,1,0,0:0:0:0:
256,192,168705,1,0,0:0:0:0:
402,192,168823,1,0,0:0:0:0:
182,192,168823,1,0,0:0:0:0:
329,192,168941,1,0,0:0:0:0:
182,192,168941,1,0,0:0:0:0:
109,192,169058,1,0,0:0:0:0:
329,192,169058,1,0,0:0:0:0:
475,192,169058,1,0,0:0:0:0:
475,192,169176,1,0,0:0:0:0:
256,192,169176,1,0,0:0:0:0:
36,192,169176,1,0,0:0:0:0:
36,192,169294,1,0,0:0:0:0:
182,192,169294,1,0,0:0:0:0:
402,192,169294,1,0,0:0:0:0:
36,192,169411,1,0,0:0:0:0:
182,192,169411,1,0,0:0:0:0:
329,192,169411,1,0,0:0:0:0:
475,192,169411,128,0,169764:0:0:0:0:
109,192,169529,1,0,0:0:0:0:
256,192,169529,1,0,0:0:0:0:
109,192,169647,1,0,0:0:0:0:
256,192,169647,1,0,0:0:0:0:
36,192,169764,1,0,0:0:0:0:
182,192,169764,1,0,0:0:0:0:
329,192,169764,1,0,0:0:0:0:
182,192,169882,1,0,0:0:0:0:
402,192,169882,1,0,0:0:0:0:
475,192,169999,1,0,0:0:0:0:
256,192,169999,1,0,0:0:0:0:
256,192,170117,1,0,0:0:0:0:
402,192,170117,1,0,0:0:0:0:
36,192,170117,1,0,0:0:0:0:
182,192,170235,1,0,0:0:0:0:
402,192,170235,1,0,0:0:0:0:
329,192,170352,1,0,0:0:0:0:
109,192,170352,1,0,0:0:0:0:
329,192,170470,1,0,0:0:0:0:
475,192,170470,1,0,0:0:0:0:
182,192,170470,1,0,0:0:0:0:
475,192,170588,1,0,0:0:0:0:
256,192,170588,1,0,0:0:0:0:
36,192,170588,1,0,0:0:0:0:
109,192,170705,1,0,0:0:0:0:
256,192,170705,1,0,0:0:0:0:
402,192,170705,1,0,0:0:0:0:
36,192,170823,1,0,0:0:0:0:
182,192,170823,1,0,0:0:0:0:
329,192,170823,1,0,0:0:0:0:
475,192,170823,1,0,0:0:0:0:
402,192,170941,1,0,0:0:0:0:
256,192,170941,1,0,0:0:0:0:
182,192,171058,1,0,0:0:0:0:
109,192,171058,1,0,0:0:0:0:
36,192,171176,1,0,0:0:0:0:
329,192,171176,1,0,0:0:0:0:
475,192,171176,1,0,0:0:0:0:
402,192,171294,1,0,0:0:0:0:
256,192,171294,1,0,0:0:0:0:
182,192,171411,1,0,0:0:0:0:
109,192,171411,1,0,0:0:0:0:
36,192,171529,1,0,0:0:0:0:
329,192,171529,1,0,0:0:0:0:
475,192,171529,1,0,0:0:0:0:
402,192,171647,1,0,0:0:0:0:
256,192,171647,1,0,0:0:0:0:
182,192,171764,1,0,0:0:0:0:
109,192,171764,1,0,0:0:0:0:
256,192,171882,1,0,0:0:0:0:
329,192,171882,1,0,0:0:0:0:
475,192,171882,1,0,0:0:0:0:
402,192,171999,1,0,0:0:0:0:
256,192,171999,1,0,0:0:0:0:
182,192,171999,1,0,0:0:0:0:
109,192,172117,1,0,0:0:0:0:
182,192,172117,1,0,0:0:0:0:
329,192,172117,1,0,0:0:0:0:
256,192,172235,1,0,0:0:0:0:
36,192,172235,1,0,0:0:0:0:
475,192,172235,1,0,0:0:0:0:
402,192,172352,1,0,0:0:0:0:
182,192,172352,1,0,0:0:0:0:
329,192,172470,1,0,0:0:0:0:
109,192,172470,1,0,0:0:0:0:
256,192,172588,1,0,0:0:0:0:
36,192,172588,1,0,0:0:0:0:
475,192,172588,1,0,0:0:0:0:
109,192,172705,1,0,0:0:0:0:
329,192,172705,1,0,0:0:0:0:
182,192,172823,1,0,0:0:0:0:
402,192,172823,1,0,0:0:0:0:
329,192,172941,1,0,0:0:0:0:
109,192,172941,1,0,0:0:0:0:
36,192,172941,1,0,0:0:0:0:
182,192,173058,1,0,0:0:0:0:
402,192,173058,1,0,0:0:0:0:
256,192,173176,1,0,0:0:0:0:
475,192,173176,1,0,0:0:0:0:
329,192,173294,1,0,0:0:0:0:
182,192,173294,1,0,0:0:0:0:
36,192,173294,1,0,0:0:0:0:
109,192,173411,1,0,0:0:0:0:
256,192,173411,1,0,0:0:0:0:
402,192,173411,1,0,0:0:0:0:
329,192,173529,1,0,0:0:0:0:
475,192,173529,1,0,0:0:0:0:
182,192,173529,1,0,0:0:0:0:
36,192,173647,1,0,0:0:0:0:
256,192,173647,1,0,0:0:0:0:
402,192,173647,1,0,0:0:0:0:
182,192,173764,1,0,0:0:0:0:
109,192,173882,1,0,0:0:0:0:
329,192,173882,1,0,0:0:0:0:
402,192,173882,1,0,0:0:0:0:
182,192,173999,1,0,0:0:0:0:
36,192,173999,1,0,0:0:0:0:
109,192,174117,1,0,0:0:0:0:
402,192,174117,1,0,0:0:0:0:
475,192,174117,1,0,0:0:0:0:
36,192,174235,1,0,0:0:0:0:
182,192,174235,1,0,0:0:0:0:
109,192,174352,1,0,0:0:0:0:
329,192,174352,1,0,0:0:0:0:
475,192,174352,1,0,0:0:0:0:
256,192,174470,1,0,0:0:0:0:
182,192,174588,1,0,0:0:0:0:
36,192,174588,1,0,0:0:0:0:
329,192,174588,1,0,0:0:0:0:
402,192,174588,1,0,0:0:0:0:
109,192,174705,1,0,0:0:0:0:
256,192,174764,1,0,0:0:0:0:
36,192,174823,1,0,0:0:0:0:
182,192,174823,1,0,0:0:0:0:
329,192,174882,1,0,0:0:0:0:
109,192,174941,1,0,0:0:0:0:
256,192,174941,1,0,0:0:0:0:
402,192,174999,1,0,0:0:0:0:
182,192,175058,1,0,0:0:0:0:
475,192,175058,1,0,0:0:0:0:
329,192,175088,1,0,0:0:0:0:
36,192,175176,1,0,0:0:0:0:
402,192,175176,1,0,0:0:0:0:
182,192,175205,1,0,0:0:0:0:
109,192,175294,1,0,0:0:0:0:
475,192,175294,1,0,0:0:0:0:
329,192,175323,1,0,0:0:0:0:
36,192,175411,1,0,0:0:0:0:
402,192,175411,1,0,0:0:0:0:
182,192,175441,1,0,0:0:0:0:
109,192,175529,1,0,0:0:0:0:
475,192,175529,1,0,0:0:0:0:
329,192,175558,1,0,0:0:0:0:
182,192,175647,1,0,0:0:0:0:
402,192,175647,1,0,0:0:0:0:
36,192,175764,128,0,176352:0:0:0:0:
475,192,175764,128,0,176352:0:0:0:0:
256,192,175764,1,0,0:0:0:0:
329,192,175764,1,0,0:0:0:0:
256,192,175882,1,0,0:0:0:0:
182,192,175882,1,0,0:0:0:0:
256,192,175999,1,0,0:0:0:0:
329,192,175999,1,0,0:0:0:0:
109,192,176117,1,0,0:0:0:0:
182,192,176147,1,0,0:0:0:0:
256,192,176176,1,0,0:0:0:0:
402,192,176205,1,0,0:0:0:0:
329,192,176235,1,0,0:0:0:0:
256,192,176264,1,0,0:0:0:0:
109,192,176294,1,0,0:0:0:0:
182,192,176323,1,0,0:0:0:0:
256,192,176352,1,0,0:0:0:0:
402,192,176382,1,0,0:0:0:0:
329,192,176411,1,0,0:0:0:0:
256,192,176441,1,0,0:0:0:0:
36,192,176470,1,0,0:0:0:0:
182,192,176470,1,0,0:0:0:0:
475,192,176470,128,0,177088:0:0:0:0:
109,192,176647,1,0,0:0:0:0:
182,192,176823,1,0,0:0:0:0:
36,192,176823,128,0,177088:0:0:0:0:
256,192,176999,1,0,0:0:0:0:
475,192,177176,1,0,0:0:0:0:
329,192,177176,1,0,0:0:0:0:
36,192,177176,128,0,177794:0:0:0:0:
402,192,177352,1,0,0:0:0:0:
475,192,177529,128,0,177794:0:0:0:0:
329,192,177529,1,0,0:0:0:0:
256,192,177705,1,0,0:0:0:0:
329,192,177882,1,0,0:0:0:0:
36,192,177882,1,0,0:0:0:0:
475,192,177882,128,0,178499:0:0:0:0:
109,192,178058,1,0,0:0:0:0:
36,192,178235,128,0,178499:0:0:0:0:
182,192,178235,1,0,0:0:0:0:
256,192,178411,1,0,0:0:0:0:
329,192,178588,1,0,0:0:0:0:
475,192,178588,1,0,0:0:0:0:
36,192,178588,128,0,179205:0:0:0:0:
182,192,178764,1,0,0:0:0:0:
475,192,178941,128,0,179205:0:0:0:0:
256,192,178941,1,0,0:0:0:0:
329,192,179117,1,0,0:0:0:0:
182,192,179294,1,0,0:0:0:0:
36,192,179294,1,0,0:0:0:0:
475,192,179294,128,0,179911:0:0:0:0:
329,192,179470,1,0,0:0:0:0:
36,192,179647,128,0,179911:0:0:0:0:
182,192,179647,1,0,0:0:0:0:
256,192,179823,1,0,0:0:0:0:
182,192,179999,1,0,0:0:0:0:
329,192,179999,1,0,0:0:0:0:
475,192,179999,1,0,0:0:0:0:
36,192,179999,128,0,180617:0:0:0:0:
256,192,180176,1,0,0:0:0:0:
402,192,180176,1,0,0:0:0:0:
329,192,180352,1,0,0:0:0:0:
475,192,180352,1,0,0:0:0:0:
182,192,180352,1,0,0:0:0:0:
256,192,180529,1,0,0:0:0:0:
256,192,180617,1,0,0:0:0:0:
36,192,180705,1,0,0:0:0:0:
475,192,180705,1,0,0:0:0:0:
182,192,180705,128,0,180970:0:0:0:0:
329,192,180705,128,0,180970:0:0:0:0:
329,192,181058,1,0,0:0:0:0:
182,192,181058,1,0,0:0:0:0:
109,192,181058,128,0,181323:0:0:0:0:
402,192,181058,128,0,181323:0:0:0:0:
329,192,181411,1,0,0:0:0:0:
402,192,181411,1,0,0:0:0:0:
182,192,181411,1,0,0:0:0:0:
109,192,181411,1,0,0:0:0:0:
36,192,181411,128,0,181676:0:0:0:0:
475,192,181411,128,0,181676:0:0:0:0:
256,192,181588,1,0,0:0:0:0:
256,192,181676,1,0,0:0:0:0:
475,192,181764,1,0,0:0:0:0:
329,192,181764,1,0,0:0:0:0:
182,192,181764,1,0,0:0:0:0:
36,192,181764,1,0,0:0:0:0:
36,192,182117,1,0,0:0:0:0:
182,192,182117,1,0,0:0:0:0:
329,192,182117,1,0,0:0:0:0:
475,192,182117,128,0,182735:0:0:0:0:
36,192,182294,1,0,0:0:0:0:
109,192,182470,1,0,0:0:0:0:
329,192,182470,128,0,182735:0:0:0:0:
182,192,182647,1,0,0:0:0:0:
329,192,182823,1,0,0:0:0:0:
475,192,182823,1,0,0:0:0:0:
36,192,182823,128,0,183441:0:0:0:0:
475,192,182999,1,0,0:0:0:0:
402,192,183176,1,0,0:0:0:0:
182,192,183176,128,0,183441:0:0:0:0:
329,192,183352,1,0,0:0:0:0:
182,192,183529,1,0,0:0:0:0:
36,192,183529,1,0,0:0:0:0:
329,192,183529,128,0,184147:0:0:0:0:
475,192,183529,128,0,184147:0:0:0:0:
109,192,183705,1,0,0:0:0:0:
36,192,183882,128,0,184147:0:0:0:0:
182,192,183882,1,0,0:0:0:0:
256,192,184058,1,0,0:0:0:0:
329,192,184235,1,0,0:0:0:0:
475,192,184235,1,0,0:0:0:0:
36,192,184235,128,0,184852:0:0:0:0:
182,192,184235,128,0,184852:0:0:0:0:
402,192,184411,1,0,0:0:0:0:
329,192,184588,1,0,0:0:0:0:
475,192,184588,128,0,184852:0:0:0:0:
256,192,184764,1,0,0:0:0:0:
182,192,184941,1,0,0:0:0:0:
402,192,184941,1,0,0:0:0:0:
475,192,184941,128,0,185558:0:0:0:0:
36,192,184941,128,0,185558:0:0:0:0:
329,192,185117,1,0,0:0:0:0:
256,192,185294,128,0,185558:0:0:0:0:
109,192,185294,1,0,0:0:0:0:
182,192,185470,1,0,0:0:0:0:
36,192,185647,128,0,186264:0:0:0:0:
475,192,185647,128,0,186264:0:0:0:0:
182,192,185647,1,0,0:0:0:0:
329,192,185647,1,0,0:0:0:0:
182,192,185823,1,0,0:0:0:0:
329,192,185823,1,0,0:0:0:0:
182,192,185999,1,0,0:0:0:0:
329,192,185999,1,0,0:0:0:0:
256,192,186176,1,0,0:0:0:0:
256,192,186264,1,0,0:0:0:0:
475,192,186352,1,0,0:0:0:0:
329,192,186352,1,0,0:0:0:0:
182,192,186352,1,0,0:0:0:0:
36,192,186352,128,0,186705:0:0:0:0:
182,192,186705,1,0,0:0:0:0:
256,192,186705,1,0,0:0:0:0:
329,192,186705,1,0,0:0:0:0:
109,192,187058,1,0,0:0:0:0:
256,192,187058,1,0,0:0:0:0:
402,192,187058,1,0,0:0:0:0:
402,192,187235,1,0,0:0:0:0:
256,192,187235,1,0,0:0:0:0:
109,192,187235,1,0,0:0:0:0:
109,192,187411,1,0,0:0:0:0:
256,192,187411,1,0,0:0:0:0:
402,192,187411,1,0,0:0:0:0:
402,192,187588,1,0,0:0:0:0:
256,192,187588,1,0,0:0:0:0:
109,192,187588,1,0,0:0:0:0:
36,192,187764,1,0,0:0:0:0:
182,192,187764,1,0,0:0:0:0:
329,192,187764,1,0,0:0:0:0:
475,192,187764,1,0,0:0:0:0:
256,192,187852,1,0,0:0:0:0:
109,192,187852,1,0,0:0:0:0:
36,192,187941,1,0,0:0:0:0:
182,192,187941,1,0,0:0:0:0:
329,192,187941,1,0,0:0:0:0:
475,192,187941,1,0,0:0:0:0:
256,192,188029,1,0,0:0:0:0:
402,192,188029,1,0,0:0:0:0:
329,192,188117,1,0,0:0:0:0:
475,192,188117,1,0,0:0:0:0:
182,192,188117,1,0,0:0:0:0:
36,192,188117,1,0,0:0:0:0:
256,192,188205,1,0,0:0:0:0:
109,192,188205,1,0,0:0:0:0:
36,192,188294,1,0,0:0:0:0:
182,192,188294,1,0,0:0:0:0:
329,192,188294,1,0,0:0:0:0:
475,192,188294,1,0,0:0:0:0:
256,192,188382,1,0,0:0:0:0:
402,192,188382,1,0,0:0:0:0:
182,192,188470,1,0,0:0:0:0:
36,192,188470,1,0,0:0:0:0:
329,192,188470,1,0,0:0:0:0:
475,192,188470,1,0,0:0:0:0:
256,192,188558,1,0,0:0:0:0:
109,192,188558,1,0,0:0:0:0:
182,192,188647,1,0,0:0:0:0:
36,192,188647,1,0,0:0:0:0:
329,192,188647,1,0,0:0:0:0:
475,192,188647,1,0,0:0:0:0:
256,192,188735,1,0,0:0:0:0:
36,192,188823,1,0,0:0:0:0:
475,192,188823,1,0,0:0:0:0:
182,192,188867,1,0,0:0:0:0:
329,192,188867,1,0,0:0:0:0:
36,192,188911,1,0,0:0:0:0:
475,192,188911,1,0,0:0:0:0:
182,192,188955,1,0,0:0:0:0:
329,192,188955,1,0,0:0:0:0:
36,192,188999,1,0,0:0:0:0:
475,192,188999,1,0,0:0:0:0:
182,192,189044,1,0,0:0:0:0:
329,192,189044,1,0,0:0:0:0:
36,192,189088,1,0,0:0:0:0:
475,192,189088,1,0,0:0:0:0:
182,192,189132,1,0,0:0:0:0:
329,192,189132,1,0,0:0:0:0:
475,192,189529,128,0,189882:0:0:0:0:
402,192,189529,128,0,189941:0:0:0:0:
329,192,189529,128,0,189999:0:0:0:0:
256,192,189529,128,0,190058:0:0:0:0:
182,192,189529,128,0,190117:0:0:0:0:
109,192,189529,128,0,190176:0:0:0:0:
36,192,189529,128,0,190235:0:0:0:0:
