osu file format v14

[General]
AudioFilename: audio.mp3
AudioLeadIn: 0
PreviewTime: 84682
Countdown: 0
SampleSet: Normal
StackLeniency: 0.7
Mode: 1
LetterboxInBreaks: 0
WidescreenStoryboard: 0

[Editor]
DistanceSpacing: 1
BeatDivisor: 4
GridSize: 32
TimelineZoom: 2.899999

[Metadata]
Title:Lost Civilization
TitleUnicode:Lost Civilization
Artist:Laur vs. CK
ArtistUnicode:Laur vs. CK
Creator:davidminh0111
Version:Muzukashii
Source:Arcaea
Tags:electronic rhythm video game instrumental Fynbi Player- DanceRail3 Rhythmsia piano hardcore
BeatmapID:3146631
BeatmapSetID:1538278

[Difficulty]
HPDrainRate:6
CircleSize:2
OverallDifficulty:5
ApproachRate:10
SliderMultiplier:1.4
SliderTickRate:1

[Events]
//Background and Video events
0,0,"BG.jpg",0,0
//Break Periods
//Storyboard Layer 0 (Background)
//Storyboard Layer 1 (Fail)
//Storyboard Layer 2 (Pass)
//Storyboard Layer 3 (Foreground)
//Storyboard Layer 4 (Overlay)
//Storyboard Sound Samples

[TimingPoints]
400,285.714285714286,4,1,0,10,1,0
542,-100,4,1,0,20,0,0
685,-100,4,1,0,30,0,0
828,-100,4,1,0,40,0,0
971,-100,4,1,0,50,0,0
1114,-100,4,1,0,60,0,0
1257,-100,4,1,0,70,0,0
1400,-100,4,1,0,80,0,0
1542,-100,4,1,0,90,0,0
2400,-100,4,1,0,70,0,0
3828,-100,4,1,0,90,0,0
4685,-100,4,1,0,70,0,0
6114,-100,4,1,0,90,0,0
6971,-100,4,1,0,70,0,0
8400,-100,4,1,0,90,0,0
8971,-100,4,1,0,70,0,0
10685,-100,4,1,0,80,0,0
36971,-100,4,1,0,80,0,0
38400,-100,4,1,0,70,0,0
38685,-100,4,1,0,60,0,0
38971,-100,4,1,0,50,0,0
39257,-100,4,1,0,40,0,0
39542,-100,4,1,0,30,0,0
39828,-100,4,1,0,20,0,0
40114,-100,4,1,0,10,0,0
40400,285.714285714286,3,1,0,70,1,0
40400,-100,3,1,0,70,0,0
54114,-100,3,1,0,75,0,0
67685,-100,3,1,0,75,0,0
67828,-100,3,1,0,70,0,0
78114,-100,3,1,0,80,0,0
81828,-100,3,1,0,70,0,0
84971,-100,3,1,0,90,0,1
110685,300,3,1,0,70,1,0
110685,-95.2380952380952,3,1,0,70,0,0
112485,315.789473684211,3,1,0,70,1,0
112485,-90.9090909090909,3,1,0,70,0,0
114379,324.324324324324,3,1,0,70,1,0
114379,-88.0952380952381,3,1,0,70,0,0
116324,342.857142857143,3,1,0,70,1,0
116324,-83.3333333333333,3,1,0,70,0,0
117352,428.571428571429,3,1,0,70,1,0
117352,-66.6666666666667,3,1,0,70,0,0
117994,571.428571428571,3,1,0,70,1,8
117994,-50,3,1,0,70,0,8
118279,705.882352941176,3,1,0,70,1,8
118279,-40.4761904761905,3,1,0,70,0,8
118616,800,3,1,0,70,1,8
118616,-35.7142857142857,3,1,0,70,0,8
119016,800,6,1,0,70,1,0
119016,-35.7142857142857,6,1,0,70,0,8
120216,-35.7142857142857,6,1,0,5,0,8
120416,-35.7142857142857,6,1,0,10,0,8
120616,-35.7142857142857,6,1,0,15,0,8
120816,-35.7142857142857,6,1,0,20,0,8
121016,-35.7142857142857,6,1,0,25,0,8
121216,-35.7142857142857,6,1,0,30,0,8
121416,-35.7142857142857,6,1,0,35,0,8
121616,-35.7142857142857,6,1,0,40,0,8
121816,-35.7142857142857,6,1,0,45,0,8
122016,-35.7142857142857,6,1,0,50,0,8
122216,-35.7142857142857,6,1,0,55,0,8
122416,-35.7142857142857,6,1,0,60,0,8
122616,-35.7142857142857,6,1,0,65,0,8
122816,-35.7142857142857,6,1,0,70,0,8
123016,-35.7142857142857,6,1,0,75,0,8

[HitObjects]
256,192,400,8,0,1400,0:0:0:0:
256,192,1542,5,4,0:0:0:0:
256,192,2400,1,8,0:0:0:0:
256,192,2542,1,8,0:0:0:0:
256,192,2685,1,8,0:0:0:0:
256,192,3257,1,0,0:0:0:0:
256,192,3400,1,0,0:0:0:0:
256,192,3542,1,8,0:0:0:0:
256,192,3828,1,4,0:0:0:0:
256,192,4685,1,8,0:0:0:0:
256,192,4828,1,8,0:0:0:0:
256,192,4971,1,8,0:0:0:0:
256,192,5542,1,8,0:0:0:0:
256,192,5828,1,8,0:0:0:0:
256,192,6114,1,4,0:0:0:0:
256,192,6971,1,8,0:0:0:0:
256,192,7114,1,8,0:0:0:0:
256,192,7257,1,8,0:0:0:0:
256,192,7828,1,8,0:0:0:0:
256,192,7971,1,8,0:0:0:0:
256,192,8114,1,8,0:0:0:0:
256,192,8400,1,4,0:0:0:0:
256,192,8971,1,0,0:0:0:0:
256,192,9161,1,0,0:0:0:0:
256,192,9257,1,0,0:0:0:0:
256,192,9447,1,0,0:0:0:0:
256,192,9542,1,8,0:0:0:0:
256,192,9828,1,0,0:0:0:0:
256,192,9923,1,0,0:0:0:0:
256,192,10019,1,0,0:0:0:0:
256,192,10114,1,8,0:0:0:0:
256,192,10400,1,0,0:0:0:0:
256,192,10542,1,8,0:0:0:0:
256,192,10685,1,4,0:0:0:0:
256,192,10971,1,8,0:0:0:0:
256,192,11400,1,0,0:0:0:0:
256,192,11542,1,8,0:0:0:0:
256,192,11685,1,0,0:0:0:0:
256,192,11828,1,8,0:0:0:0:
256,192,12114,1,0,0:0:0:0:
256,192,12400,1,0,0:0:0:0:
256,192,12542,1,0,0:0:0:0:
256,192,12685,1,8,0:0:0:0:
256,192,12828,1,8,0:0:0:0:
256,192,12971,1,4,0:0:0:0:
256,192,13257,1,8,0:0:0:0:
256,192,13685,1,0,0:0:0:0:
256,192,13828,1,8,0:0:0:0:
256,192,13971,1,8,0:0:0:0:
256,192,14114,1,8,0:0:0:0:
256,192,14400,1,0,0:0:0:0:
256,192,14685,1,8,0:0:0:0:
256,192,14828,1,0,0:0:0:0:
256,192,14971,1,8,0:0:0:0:
256,192,15257,1,4,0:0:0:0:
256,192,15542,1,8,0:0:0:0:
256,192,15828,1,0,0:0:0:0:
256,192,16114,1,8,0:0:0:0:
256,192,16400,1,0,0:0:0:0:
256,192,16542,1,0,0:0:0:0:
256,192,16685,1,0,0:0:0:0:
256,192,16971,1,8,0:0:0:0:
256,192,17114,1,8,0:0:0:0:
256,192,17257,1,8,0:0:0:0:
256,192,17400,1,8,0:0:0:0:
256,192,17542,1,4,0:0:0:0:
256,192,17685,8,0,19257,0:0:0:0:
256,192,19828,5,4,0:0:0:0:
256,192,20114,1,8,0:0:0:0:
256,192,20400,1,0,0:0:0:0:
256,192,20542,1,0,0:0:0:0:
256,192,20685,1,8,0:0:0:0:
256,192,20828,1,8,0:0:0:0:
256,192,20971,1,0,0:0:0:0:
256,192,21257,1,8,0:0:0:0:
256,192,21542,1,8,0:0:0:0:
256,192,21685,1,0,0:0:0:0:
256,192,21828,1,8,0:0:0:0:
256,192,22114,1,0,0:0:0:0:
256,192,22400,1,8,0:0:0:0:
256,192,22685,1,0,0:0:0:0:
256,192,22828,1,8,0:0:0:0:
256,192,22971,1,8,0:0:0:0:
256,192,23114,1,8,0:0:0:0:
256,192,23257,1,0,0:0:0:0:
256,192,23542,1,8,0:0:0:0:
256,192,23828,1,0,0:0:0:0:
256,192,24400,1,0,0:0:0:0:
256,192,24685,1,8,0:0:0:0:
256,192,24971,1,0,0:0:0:0:
256,192,25114,1,0,0:0:0:0:
256,192,25257,1,8,0:0:0:0:
256,192,25400,1,8,0:0:0:0:
256,192,25542,1,0,0:0:0:0:
256,192,25828,1,8,0:0:0:0:
256,192,26114,1,0,0:0:0:0:
256,192,26257,1,0,0:0:0:0:
256,192,26400,1,8,0:0:0:0:
256,192,26685,1,0,0:0:0:0:
256,192,26971,1,8,0:0:0:0:
256,192,27257,1,8,0:0:0:0:
256,192,27400,1,0,0:0:0:0:
256,192,27542,1,8,0:0:0:0:
256,192,27685,1,8,0:0:0:0:
256,192,27828,1,0,0:0:0:0:
256,192,28114,1,0,0:0:0:0:
256,192,28400,1,8,0:0:0:0:
256,192,28971,1,4,0:0:0:0:
256,192,29257,1,8,0:0:0:0:
256,192,29542,1,0,0:0:0:0:
256,192,29685,1,0,0:0:0:0:
256,192,29828,1,8,0:0:0:0:
256,192,29971,1,8,0:0:0:0:
256,192,30114,1,0,0:0:0:0:
256,192,30400,1,8,0:0:0:0:
256,192,30685,1,8,0:0:0:0:
256,192,30828,1,0,0:0:0:0:
256,192,30971,1,8,0:0:0:0:
256,192,31257,1,0,0:0:0:0:
256,192,31542,1,8,0:0:0:0:
256,192,31828,1,0,0:0:0:0:
256,192,31971,1,8,0:0:0:0:
256,192,32114,1,8,0:0:0:0:
256,192,32257,1,8,0:0:0:0:
256,192,32400,1,0,0:0:0:0:
256,192,32685,1,8,0:0:0:0:
256,192,32971,1,0,0:0:0:0:
256,192,33542,1,4,0:0:0:0:
256,192,33828,1,8,0:0:0:0:
256,192,34257,1,8,0:0:0:0:
256,192,34542,1,0,0:0:0:0:
256,192,34828,1,8,0:0:0:0:
256,192,35257,1,0,0:0:0:0:
256,192,35542,1,8,0:0:0:0:
256,192,35828,1,0,0:0:0:0:
256,192,35971,1,0,0:0:0:0:
256,192,36114,1,8,0:0:0:0:
256,192,36400,1,8,0:0:0:0:
256,192,36542,1,0,0:0:0:0:
256,192,36685,1,8,0:0:0:0:
256,192,36828,1,8,0:0:0:0:
256,192,36971,1,0,0:0:0:0:
256,192,37114,1,8,0:0:0:0:
256,192,37185,1,8,0:0:0:0:
256,192,37257,1,8,0:0:0:0:
256,192,37400,1,0,0:0:0:0:
256,192,37471,1,0,0:0:0:0:
256,192,37542,1,0,0:0:0:0:
256,192,37757,1,0,0:0:0:0:
256,192,37971,1,8,0:0:0:0:
256,192,38114,1,4,0:0:0:0:
256,192,38400,8,0,40114,0:0:0:0:
256,192,40400,5,4,0:0:0:0:
256,192,40685,1,0,0:0:0:0:
256,192,40971,1,8,0:0:0:0:
256,192,41114,1,8,0:0:0:0:
256,192,41257,1,0,0:0:0:0:
256,192,41542,1,0,0:0:0:0:
256,192,41828,1,8,0:0:0:0:
256,192,41971,1,8,0:0:0:0:
256,192,42114,1,8,0:0:0:0:
256,192,42400,1,0,0:0:0:0:
256,192,42685,1,8,0:0:0:0:
256,192,42828,1,0,0:0:0:0:
256,192,42971,1,8,0:0:0:0:
256,192,43828,1,8,0:0:0:0:
256,192,44114,1,0,0:0:0:0:
256,192,44400,1,8,0:0:0:0:
256,192,44542,1,8,0:0:0:0:
256,192,44685,1,0,0:0:0:0:
256,192,44971,1,0,0:0:0:0:
256,192,45257,1,0,0:0:0:0:
256,192,45400,1,0,0:0:0:0:
256,192,45542,1,8,0:0:0:0:
256,192,45828,1,8,0:0:0:0:
256,192,46114,1,0,0:0:0:0:
256,192,46257,1,8,0:0:0:0:
256,192,46400,1,8,0:0:0:0:
256,192,47257,1,0,0:0:0:0:
256,192,47542,1,0,0:0:0:0:
256,192,47828,1,8,0:0:0:0:
256,192,47971,1,8,0:0:0:0:
256,192,48114,1,0,0:0:0:0:
256,192,48400,1,0,0:0:0:0:
256,192,48685,1,8,0:0:0:0:
256,192,48828,1,0,0:0:0:0:
256,192,48971,1,8,0:0:0:0:
256,192,49257,1,0,0:0:0:0:
256,192,49542,1,8,0:0:0:0:
256,192,49685,1,8,0:0:0:0:
256,192,49828,1,0,0:0:0:0:
256,192,50685,1,8,0:0:0:0:
256,192,50971,1,8,0:0:0:0:
256,192,51114,1,8,0:0:0:0:
256,192,51257,1,0,0:0:0:0:
256,192,51542,1,8,0:0:0:0:
256,192,51828,1,0,0:0:0:0:
256,192,51971,1,8,0:0:0:0:
256,192,52114,1,0,0:0:0:0:
256,192,52400,1,0,0:0:0:0:
256,192,53257,1,8,0:0:0:0:
256,192,53400,1,8,0:0:0:0:
256,192,53542,1,0,0:0:0:0:
256,192,53685,1,0,0:0:0:0:
256,192,53828,1,8,0:0:0:0:
256,192,53971,1,8,0:0:0:0:
256,192,54114,1,4,0:0:0:0:
256,192,54400,1,0,0:0:0:0:
256,192,54685,1,8,0:0:0:0:
256,192,54828,1,8,0:0:0:0:
256,192,54971,1,0,0:0:0:0:
256,192,55257,1,0,0:0:0:0:
256,192,55542,1,8,0:0:0:0:
256,192,55685,1,8,0:0:0:0:
256,192,55828,1,8,0:0:0:0:
256,192,56114,1,0,0:0:0:0:
256,192,56400,1,8,0:0:0:0:
256,192,56542,1,0,0:0:0:0:
256,192,56685,1,8,0:0:0:0:
256,192,57542,1,8,0:0:0:0:
256,192,57828,1,0,0:0:0:0:
256,192,58114,1,8,0:0:0:0:
256,192,58257,1,8,0:0:0:0:
256,192,58400,1,0,0:0:0:0:
256,192,58685,1,0,0:0:0:0:
256,192,58971,1,0,0:0:0:0:
256,192,59114,1,0,0:0:0:0:
256,192,59257,1,8,0:0:0:0:
256,192,59542,1,8,0:0:0:0:
256,192,59828,1,0,0:0:0:0:
256,192,59971,1,8,0:0:0:0:
256,192,60114,1,8,0:0:0:0:
256,192,60971,1,0,0:0:0:0:
256,192,61257,1,0,0:0:0:0:
256,192,61542,1,8,0:0:0:0:
256,192,61685,1,8,0:0:0:0:
256,192,61828,1,0,0:0:0:0:
256,192,62114,1,0,0:0:0:0:
256,192,62400,1,8,0:0:0:0:
256,192,62542,1,0,0:0:0:0:
256,192,62685,1,8,0:0:0:0:
256,192,62971,1,0,0:0:0:0:
256,192,63257,1,8,0:0:0:0:
256,192,63400,1,8,0:0:0:0:
256,192,63542,1,0,0:0:0:0:
256,192,64400,1,8,0:0:0:0:
256,192,64685,1,8,0:0:0:0:
256,192,64828,1,8,0:0:0:0:
256,192,64971,1,0,0:0:0:0:
256,192,65257,1,8,0:0:0:0:
256,192,65542,1,0,0:0:0:0:
256,192,65685,1,8,0:0:0:0:
256,192,65828,1,0,0:0:0:0:
256,192,66114,1,0,0:0:0:0:
256,192,66971,1,8,0:0:0:0:
256,192,67114,1,8,0:0:0:0:
256,192,67257,1,0,0:0:0:0:
256,192,67400,1,0,0:0:0:0:
256,192,67542,1,8,0:0:0:0:
256,192,67685,1,8,0:0:0:0:
256,192,67828,1,4,0:0:0:0:
256,192,68114,1,8,0:0:0:0:
256,192,68400,1,8,0:0:0:0:
256,192,68685,1,0,0:0:0:0:
256,192,68971,1,8,0:0:0:0:
256,192,69257,1,8,0:0:0:0:
256,192,69542,1,8,0:0:0:0:
256,192,69828,1,0,0:0:0:0:
256,192,69971,1,8,0:0:0:0:
256,192,70114,1,8,0:0:0:0:
256,192,70400,1,0,0:0:0:0:
256,192,70685,1,0,0:0:0:0:
256,192,70828,1,0,0:0:0:0:
256,192,70971,1,8,0:0:0:0:
256,192,71257,1,8,0:0:0:0:
256,192,71542,1,8,0:0:0:0:
256,192,71685,1,0,0:0:0:0:
256,192,71828,1,8,0:0:0:0:
256,192,72114,1,0,0:0:0:0:
256,192,72400,1,0,0:0:0:0:
256,192,72542,1,0,0:0:0:0:
256,192,72685,1,0,0:0:0:0:
256,192,72971,1,8,0:0:0:0:
256,192,73257,1,0,0:0:0:0:
256,192,73400,1,0,0:0:0:0:
256,192,73542,1,8,0:0:0:0:
256,192,73828,1,8,0:0:0:0:
256,192,74685,1,0,0:0:0:0:
256,192,74971,1,8,0:0:0:0:
256,192,75257,1,8,0:0:0:0:
256,192,75542,1,0,0:0:0:0:
256,192,75828,1,8,0:0:0:0:
256,192,76114,1,8,0:0:0:0:
256,192,76400,1,0,0:0:0:0:
256,192,76685,1,8,0:0:0:0:
256,192,76828,1,0,0:0:0:0:
256,192,76971,1,8,0:0:0:0:
256,192,77114,1,8,0:0:0:0:
256,192,77257,2,0,P|192:96|128:256,1,350
256,192,78114,1,4,0:0:0:0:
256,192,78400,1,8,0:0:0:0:
256,192,78685,1,8,0:0:0:0:
256,192,78971,1,0,0:0:0:0:
256,192,79257,1,8,0:0:0:0:
256,192,79542,1,8,0:0:0:0:
256,192,79828,1,0,0:0:0:0:
256,192,79971,1,0,0:0:0:0:
256,192,80114,1,0,0:0:0:0:
256,192,80257,1,0,0:0:0:0:
256,192,80400,1,0,0:0:0:0:
256,192,80542,1,0,0:0:0:0:
256,192,80685,1,8,0:0:0:0:
256,192,80757,1,8,0:0:0:0:
256,192,80828,1,8,0:0:0:0:
256,192,80971,1,8,0:0:0:0:
256,192,81114,1,8,0:0:0:0:
256,192,81257,1,8,0:0:0:0:
256,192,81328,1,8,0:0:0:0:
256,192,81400,1,8,0:0:0:0:
256,192,81542,1,4,0:0:0:0:
256,192,81828,8,0,83257,0:0:0:0:
256,192,84114,5,8,0:0:0:0:
256,192,84685,1,8,0:0:0:0:
256,192,84828,1,8,0:0:0:0:
256,192,84971,1,4,0:0:0:0:
256,192,85257,1,0,0:0:0:0:
256,192,85400,1,0,0:0:0:0:
256,192,85542,1,8,0:0:0:0:
256,192,85614,1,8,0:0:0:0:
256,192,85685,1,8,0:0:0:0:
256,192,85828,1,0,0:0:0:0:
256,192,86114,1,0,0:0:0:0:
256,192,86257,1,0,0:0:0:0:
256,192,86400,1,8,0:0:0:0:
256,192,86471,1,8,0:0:0:0:
256,192,86542,1,8,0:0:0:0:
256,192,86685,1,8,0:0:0:0:
256,192,86971,1,0,0:0:0:0:
256,192,87114,1,8,0:0:0:0:
256,192,87257,1,0,0:0:0:0:
256,192,87328,1,0,0:0:0:0:
256,192,87400,1,0,0:0:0:0:
256,192,87542,1,8,0:0:0:0:
256,192,88114,1,0,0:0:0:0:
256,192,88400,1,8,0:0:0:0:
256,192,88685,1,0,0:0:0:0:
256,192,88828,1,8,0:0:0:0:
256,192,88971,1,8,0:0:0:0:
256,192,89042,1,8,0:0:0:0:
256,192,89114,1,8,0:0:0:0:
256,192,89257,1,0,0:0:0:0:
256,192,89542,1,0,0:0:0:0:
256,192,89685,1,0,0:0:0:0:
256,192,89828,1,0,0:0:0:0:
256,192,89900,1,0,0:0:0:0:
256,192,89971,1,0,0:0:0:0:
256,192,90114,1,8,0:0:0:0:
256,192,90400,1,0,0:0:0:0:
256,192,90542,1,0,0:0:0:0:
256,192,90685,1,8,0:0:0:0:
256,192,90828,1,0,0:0:0:0:
256,192,90971,1,8,0:0:0:0:
256,192,91257,1,0,0:0:0:0:
256,192,91400,1,0,0:0:0:0:
256,192,91542,1,8,0:0:0:0:
256,192,91614,1,8,0:0:0:0:
256,192,91685,1,8,0:0:0:0:
256,192,91828,1,4,0:0:0:0:
256,192,92257,1,0,0:0:0:0:
256,192,92400,1,8,0:0:0:0:
256,192,92471,1,8,0:0:0:0:
256,192,92542,1,8,0:0:0:0:
256,192,92685,1,0,0:0:0:0:
256,192,92971,1,0,0:0:0:0:
256,192,93114,1,8,0:0:0:0:
256,192,93257,1,8,0:0:0:0:
256,192,93328,1,8,0:0:0:0:
256,192,93400,1,8,0:0:0:0:
256,192,93542,1,8,0:0:0:0:
256,192,93828,1,0,0:0:0:0:
256,192,93900,1,0,0:0:0:0:
256,192,93971,1,0,0:0:0:0:
256,192,94114,1,8,0:0:0:0:
256,192,94185,1,8,0:0:0:0:
256,192,94257,1,8,0:0:0:0:
256,192,94400,1,0,0:0:0:0:
256,192,94971,1,0,0:0:0:0:
256,192,95257,1,8,0:0:0:0:
256,192,95400,1,8,0:0:0:0:
256,192,95542,1,0,0:0:0:0:
256,192,95828,1,8,0:0:0:0:
256,192,95971,1,0,0:0:0:0:
256,192,96114,1,8,0:0:0:0:
256,192,96257,1,8,0:0:0:0:
256,192,96328,1,8,0:0:0:0:
256,192,96400,1,8,0:0:0:0:
256,192,96542,1,0,0:0:0:0:
256,192,96685,1,0,0:0:0:0:
256,192,96757,1,0,0:0:0:0:
256,192,96828,1,0,0:0:0:0:
256,192,96971,1,4,0:0:0:0:
256,192,97400,1,0,0:0:0:0:
256,192,97542,1,8,0:0:0:0:
256,192,97614,1,8,0:0:0:0:
256,192,97685,1,8,0:0:0:0:
256,192,97828,1,0,0:0:0:0:
256,192,98114,1,0,0:0:0:0:
256,192,98257,1,0,0:0:0:0:
256,192,98400,1,8,0:0:0:0:
256,192,98471,1,8,0:0:0:0:
256,192,98542,1,8,0:0:0:0:
256,192,98685,1,8,0:0:0:0:
256,192,98971,1,8,0:0:0:0:
256,192,99114,1,8,0:0:0:0:
256,192,99257,1,0,0:0:0:0:
256,192,99328,1,0,0:0:0:0:
256,192,99400,1,0,0:0:0:0:
256,192,99542,1,8,0:0:0:0:
256,192,100114,1,0,0:0:0:0:
256,192,100400,1,8,0:0:0:0:
256,192,100685,1,0,0:0:0:0:
256,192,100828,1,8,0:0:0:0:
256,192,100971,1,8,0:0:0:0:
256,192,101042,1,8,0:0:0:0:
256,192,101114,1,8,0:0:0:0:
256,192,101257,1,0,0:0:0:0:
256,192,101542,1,0,0:0:0:0:
256,192,101685,1,0,0:0:0:0:
256,192,101828,1,0,0:0:0:0:
256,192,101900,1,0,0:0:0:0:
256,192,101971,1,0,0:0:0:0:
256,192,102114,1,8,0:0:0:0:
256,192,102400,1,8,0:0:0:0:
256,192,102542,1,0,0:0:0:0:
256,192,102685,1,8,0:0:0:0:
256,192,102828,1,8,0:0:0:0:
256,192,102971,1,0,0:0:0:0:
256,192,103257,1,8,0:0:0:0:
256,192,103400,1,0,0:0:0:0:
256,192,103542,1,8,0:0:0:0:
256,192,103614,1,8,0:0:0:0:
256,192,103685,1,8,0:0:0:0:
256,192,103828,1,4,0:0:0:0:
256,192,104257,1,0,0:0:0:0:
256,192,104400,1,8,0:0:0:0:
256,192,104471,1,8,0:0:0:0:
256,192,104542,1,8,0:0:0:0:
256,192,104685,1,0,0:0:0:0:
256,192,104971,1,0,0:0:0:0:
256,192,105114,1,8,0:0:0:0:
256,192,105257,1,8,0:0:0:0:
256,192,105328,1,8,0:0:0:0:
256,192,105400,1,8,0:0:0:0:
256,192,105542,1,8,0:0:0:0:
256,192,105828,1,0,0:0:0:0:
256,192,105971,1,8,0:0:0:0:
256,192,106114,1,0,0:0:0:0:
256,192,106185,1,0,0:0:0:0:
256,192,106257,1,0,0:0:0:0:
256,192,106400,1,12,0:0:0:0:
256,192,106685,1,12,0:0:0:0:
256,192,106971,1,4,0:0:0:0:
256,192,107257,1,8,0:0:0:0:
256,192,107542,1,0,0:0:0:0:
256,192,107685,1,0,0:0:0:0:
256,192,107828,1,8,0:0:0:0:
256,192,107971,1,0,0:0:0:0:
256,192,108114,1,8,0:0:0:0:
256,192,108400,1,8,0:0:0:0:
256,192,108471,1,8,0:0:0:0:
256,192,108542,1,8,0:0:0:0:
256,192,108685,1,0,0:0:0:0:
256,192,108828,1,8,0:0:0:0:
256,192,108971,1,4,0:0:0:0:
256,192,109542,1,8,0:0:0:0:
256,192,109685,1,8,0:0:0:0:
256,192,109828,1,0,0:0:0:0:
256,192,109971,1,0,0:0:0:0:
256,192,110114,1,8,0:0:0:0:
256,192,110185,1,8,0:0:0:0:
256,192,110257,1,8,0:0:0:0:
256,192,110400,1,8,0:0:0:0:
256,192,110471,1,8,0:0:0:0:
256,192,110542,1,8,0:0:0:0:
256,192,110685,1,4,0:0:0:0:
256,192,110985,1,8,0:0:0:0:
256,192,111285,1,8,0:0:0:0:
256,192,111585,1,0,0:0:0:0:
256,192,111885,1,8,0:0:0:0:
256,192,112185,1,8,0:0:0:0:
256,192,112485,1,0,0:0:0:0:
256,192,112800,1,8,0:0:0:0:
256,192,113116,1,8,0:0:0:0:
256,192,113432,1,0,0:0:0:0:
256,192,113748,1,8,0:0:0:0:
256,192,114063,1,8,0:0:0:0:
256,192,114379,1,4,0:0:0:0:
256,192,114703,1,8,0:0:0:0:
256,192,115027,1,8,0:0:0:0:
256,192,115351,1,0,0:0:0:0:
256,192,115676,1,8,0:0:0:0:
256,192,116000,1,8,0:0:0:0:
256,192,116324,1,0,0:0:0:0:
256,192,116666,1,8,0:0:0:0:
256,192,117009,1,8,0:0:0:0:
256,192,117352,1,0,0:0:0:0:
256,192,117780,1,8,0:0:0:0:
256,192,118279,1,8,0:0:0:0:
256,192,119016,1,4,0:0:0:0:
256,192,120216,8,0,123149,0:0:0:0:
