osu file format v14

[General]
AudioFilename: audio.mp3
AudioLeadIn: 0
PreviewTime: 187527
Countdown: 1
SampleSet: Normal
StackLeniency: 0.7
Mode: 0
LetterboxInBreaks: 0
WidescreenStoryboard: 0

[Editor]
Bookmarks: 38956,65242,67527,69813,70956,73242,74385,78956,82385,83527,88099,90385,91527,92670,94956,97242,100670,101813,106385,109813,110956,112099,130385,144099,146099,234383,260667,272096,280096
DistanceSpacing: 0.6
BeatDivisor: 4
GridSize: 4
TimelineZoom: 1.2

[Metadata]
Title:Cybernetic Chimera
TitleUnicode:Cybernetic Chimera
Artist:Laur vs Dustvoxx
ArtistUnicode:Laur vs Dustvoxx
Creator:Nyari
Version:Polydrum
Source:
Tags:Polydrum-Mechanics Artinard DJ Myosuke freakinworks breakstep dubstep bass future house deep military
BeatmapID:1127086
BeatmapSetID:531859

[Difficulty]
HPDrainRate:5
CircleSize:4.5
OverallDifficulty:9.5
ApproachRate:9.5
SliderMultiplier:2
SliderTickRate:2

[Events]
//Background and Video events
0,0,"c4946d9486a338a391cae24cbc4886bd.jpg",0,0
//Break Periods
//Storyboard Layer 0 (Background)
//Storyboard Layer 1 (Fail)
//Storyboard Layer 2 (Pass)
//Storyboard Layer 3 (Foreground)
//Storyboard Sound Samples

[TimingPoints]
2385,285.714285714286,4,1,0,100,1,0
149099,-200,4,1,0,100,0,0
150673,-100,4,1,0,100,0,0
154385,-200,4,1,0,100,0,0
154956,-100,4,1,0,100,0,0
187527,571.428571428571,4,1,0,100,1,0
187527,-200,4,1,0,100,0,0
189812,285.714285714286,4,1,0,100,1,0
189813,-66.6666666666667,4,1,0,100,0,1
226385,-100,4,1,0,100,0,0
233240,571.428571428571,4,1,0,100,1,0
233240,-200,4,1,0,100,0,0
234382,285.714285714286,4,1,0,100,1,0
234382,-100,4,1,0,100,0,0
308667,-100,4,1,0,100,0,1
317524,-200,4,1,0,100,0,0
317810,-100,4,1,0,100,0,0
330953,-100,4,1,0,5,0,0

[HitObjects]
20,52,2385,5,0,0:0:0:0:
48,328,2527,1,0,0:0:0:0:
88,132,2670,1,0,0:0:0:0:
112,224,2813,1,0,0:0:0:0:
160,76,2956,1,0,0:0:0:0:
164,304,3099,1,0,0:0:0:0:
244,64,3242,1,0,0:0:0:0:
264,300,3385,1,0,0:0:0:0:
376,76,3527,6,0,B|440:68|440:68|400:140|400:140,1,100
408,332,3813,1,0,0:0:0:0:
84,156,3956,1,0,0:0:0:0:
288,148,4099,1,0,0:0:0:0:
132,288,4242,1,0,0:0:0:0:
184,72,4385,1,0,0:0:0:0:
256,296,4527,1,0,0:0:0:0:
352,208,4670,2,0,B|408:156|408:156|360:136|360:136,1,100
52,304,4956,5,0,0:0:0:0:
124,156,5099,1,0,0:0:0:0:
168,312,5242,1,0,0:0:0:0:
44,208,5385,1,0,0:0:0:0:
200,216,5527,1,0,0:0:0:0:
360,140,5670,1,0,0:0:0:0:
176,48,5813,2,0,B|108:40|108:40|100:84,1,100
268,176,6099,5,0,0:0:0:0:
272,340,6242,1,0,0:0:0:0:
268,176,6385,1,0,0:0:0:0:
404,312,6527,1,0,0:0:0:0:
268,176,6670,1,0,0:0:0:0:
460,200,6813,1,0,0:0:0:0:
144,148,6956,2,0,B|112:96|112:96|172:64|172:64,1,100
104,292,7242,1,0,0:0:0:0:
200,136,7385,1,0,0:0:0:0:
400,56,7527,6,0,B|444:96|444:96|440:148|440:148|424:136,1,100
280,288,7813,1,0,0:0:0:0:
132,200,7956,1,0,0:0:0:0:
72,100,8099,2,0,B|116:32|116:32|160:68|160:68,1,100
360,92,8385,1,0,0:0:0:0:
224,268,8527,1,0,0:0:0:0:
244,84,8670,1,0,0:0:0:0:
368,252,8813,1,0,0:0:0:0:
108,220,8956,2,0,B|40:160|40:160|84:124,1,100
360,44,9242,6,0,B|336:104|336:104|292:80|292:80,1,100
96,120,9527,1,0,0:0:0:0:
36,288,9670,1,0,0:0:0:0:
188,192,9813,1,0,0:0:0:0:
168,336,9956,1,0,0:0:0:0:
332,324,10099,2,0,B|392:276|392:276|356:252|356:252,1,100
352,152,10385,2,0,B|292:92|292:92|396:20|396:20,1,200
212,68,10813,5,0,0:0:0:0:
236,304,10956,1,0,0:0:0:0:
128,100,11099,1,0,0:0:0:0:
88,320,11242,1,0,0:0:0:0:
328,252,11385,1,0,0:0:0:0:
428,64,11527,6,0,L|320:72,1,100
448,288,11813,1,0,0:0:0:0:
312,144,11956,1,0,0:0:0:0:
92,276,12099,1,0,0:0:0:0:
168,92,12242,1,0,0:0:0:0:
236,324,12385,1,0,0:0:0:0:
376,116,12527,1,0,0:0:0:0:
380,328,12670,6,0,L|420:220,1,100
452,92,12956,1,0,0:0:0:0:
340,260,13099,1,0,0:0:0:0:
64,328,13242,1,0,0:0:0:0:
84,128,13385,1,0,0:0:0:0:
180,344,13527,1,0,0:0:0:0:
224,112,13670,1,0,0:0:0:0:
404,288,13813,6,0,L|404:184,1,100
156,316,14099,1,0,0:0:0:0:
84,128,14242,1,0,0:0:0:0:
328,156,14385,1,0,0:0:0:0:
268,248,14527,1,0,0:0:0:0:
224,40,14670,1,0,0:0:0:0:
412,168,14813,1,0,0:0:0:0:
72,244,14956,6,0,L|68:140,1,100
268,304,15242,1,0,0:0:0:0:
208,136,15385,1,0,0:0:0:0:
396,156,15527,1,0,0:0:0:0:
288,332,15670,1,0,0:0:0:0:
248,112,15813,1,0,0:0:0:0:
440,256,15956,1,0,0:0:0:0:
112,336,16099,6,0,L|12:304,1,100
224,256,16385,1,0,0:0:0:0:
348,140,16527,1,0,0:0:0:0:
152,92,16670,1,0,0:0:0:0:
96,216,16813,1,0,0:0:0:0:
360,120,16956,1,0,0:0:0:0:
360,312,17099,1,0,0:0:0:0:
40,32,17242,6,0,L|36:136,1,100
132,308,17527,1,0,0:0:0:0:
392,256,17670,1,0,0:0:0:0:
312,92,17813,1,0,0:0:0:0:
208,220,17956,1,0,0:0:0:0:
240,68,18099,1,0,0:0:0:0:
372,196,18242,1,0,0:0:0:0:
124,312,18385,6,0,L|-12:344,1,100
340,312,18670,1,0,0:0:0:0:
376,88,18813,1,0,0:0:0:0:
120,248,18956,1,0,0:0:0:0:
136,64,19099,1,0,0:0:0:0:
216,320,19242,1,0,0:0:0:0:
152,144,19385,1,0,0:0:0:0:
308,60,19527,5,0,0:0:0:0:
340,98,19598,1,0,0:0:0:0:
372,136,19669,1,0,0:0:0:0:
392,176,19741,1,0,0:0:0:0:
385,224,19812,1,0,0:0:0:0:
367,268,19884,1,0,0:0:0:0:
323,290,19955,1,0,0:0:0:0:
283,289,20027,1,0,0:0:0:0:
240,272,20098,1,0,0:0:0:0:
202,245,20169,1,0,0:0:0:0:
172,216,20241,1,0,0:0:0:0:
152,172,20312,1,0,0:0:0:0:
148,128,20384,5,0,0:0:0:0:
132,80,20455,1,0,0:0:0:0:
92,44,20527,1,0,0:0:0:0:
44,68,20598,1,0,0:0:0:0:
20,104,20670,2,0,B|120:140|120:140|164:48|164:48,1,200
408,132,21099,5,0,0:0:0:0:
316,316,21242,1,0,0:0:0:0:
272,104,21384,1,0,0:0:0:0:
460,268,21527,1,0,0:0:0:0:
224,224,21670,1,0,0:0:0:0:
332,204,21813,6,0,B|408:64|408:64|332:60|332:60,1,200
40,152,22242,1,0,0:0:0:0:
116,336,22385,1,0,0:0:0:0:
208,144,22527,1,0,0:0:0:0:
256,324,22670,1,0,0:0:0:0:
380,144,22813,1,0,0:0:0:0:
264,228,22956,6,0,B|152:184|152:184|200:256|200:256,1,200
220,92,23385,1,0,0:0:0:0:
104,296,23527,1,0,0:0:0:0:
364,160,23670,1,0,0:0:0:0:
104,156,23813,1,0,0:0:0:0:
284,320,23956,1,0,0:0:0:0:
228,168,24099,6,0,B|376:240|376:240|344:180|344:180,1,200
52,284,24527,1,0,0:0:0:0:
196,88,24670,1,0,0:0:0:0:
176,308,24813,1,0,0:0:0:0:
64,136,24956,1,0,0:0:0:0:
296,212,25099,1,0,0:0:0:0:
464,104,25242,6,0,B|400:148|400:148|416:208|416:208,1,100
332,300,25527,1,0,0:0:0:0:
76,264,25670,1,0,0:0:0:0:
328,244,25813,1,0,0:0:0:0:
88,168,25956,1,0,0:0:0:0:
332,152,26099,1,0,0:0:0:0:
152,72,26242,1,0,0:0:0:0:
264,248,26385,6,0,B|244:332|244:332|184:328|184:328,1,100
88,288,26670,1,0,0:0:0:0:
16,108,26813,1,0,0:0:0:0:
200,244,26956,1,0,0:0:0:0:
124,92,27099,1,0,0:0:0:0:
16,212,27242,1,0,0:0:0:0:
264,136,27385,1,0,0:0:0:0:
456,312,27527,6,0,B|444:232|444:232|408:256|408:256,1,100
96,348,27813,1,0,0:0:0:0:
48,220,27956,1,0,0:0:0:0:
168,312,28099,1,0,0:0:0:0:
124,160,28242,1,0,0:0:0:0:
240,236,28385,1,0,0:0:0:0:
184,96,28527,1,0,0:0:0:0:
400,152,28670,6,0,B|476:152|476:152|456:200|452:200,1,100
356,344,28956,1,0,0:0:0:0:
88,236,29099,2,0,B|72:288|72:288|128:296|128:296,1,100
216,280,29385,2,0,B|236:208|236:208|208:200|208:200,1,100
416,88,29670,1,0,0:0:0:0:
144,168,29813,2,0,B|96:104|96:104|144:84|144:84,1,100
262,79,30099,5,0,1:0:0:0:
381,301,30242,1,0,1:0:0:0:
414,59,30385,1,0,1:0:0:0:
242,291,30527,1,0,1:0:0:0:
454,135,30670,1,0,1:0:0:0:
183,195,30813,1,0,1:0:0:0:
454,221,30956,1,0,1:0:0:0:
246,109,31099,1,0,1:0:0:0:
373,326,31242,5,0,0:0:0:0:
359,71,31385,1,0,0:0:0:0:
283,319,31527,1,0,0:0:0:0:
448,130,31670,1,0,0:0:0:0:
204,257,31813,1,0,0:0:0:0:
455,271,31956,1,0,0:0:0:0:
160,60,32099,2,0,B|88:40|88:40|100:76|100:76,1,100
97,333,32385,5,0,2:0:0:0:
158,124,32527,1,0,2:0:0:0:
245,316,32670,1,0,2:0:0:0:
57,212,32813,1,0,2:0:0:0:
289,171,32956,1,0,2:0:0:0:
97,333,33099,1,0,2:0:0:0:
158,124,33242,1,0,2:0:0:0:
245,316,33385,1,0,2:0:0:0:
363,299,33527,5,0,2:0:0:0:
282,121,33670,1,0,2:0:0:0:
87,309,33813,1,0,2:0:0:0:
151,74,33956,1,0,2:0:0:0:
303,313,34099,1,0,2:0:0:0:
343,94,34242,1,0,2:0:0:0:
416,288,34385,2,0,B|444:224|444:224|472:292|472:292,1,100
49,156,34670,5,0,0:0:0:0:
119,318,34813,1,0,0:0:0:0:
98,100,34956,1,0,0:0:0:0:
199,276,35099,1,0,0:0:0:0:
143,44,35242,1,0,0:0:0:0:
270,216,35385,1,0,0:0:0:0:
420,176,35527,2,0,B|392:228|392:228|404:268|404:268,1,100
128,320,35813,5,0,0:0:0:0:
120,120,35956,1,0,0:0:0:0:
264,72,36099,2,0,B|268:136|268:136|316:148|316:148,1,100
372,312,36385,1,0,0:0:0:0:
92,272,36527,1,0,0:0:0:0:
316,200,36670,2,0,B|368:168|368:168|348:104|348:104,1,100
256,192,36956,12,0,38813,0:0:0:0:
96,160,38956,6,0,B|48:104|48:104|88:56|88:56,1,100
192,152,39242,6,0,B|144:96|144:96|184:48|184:48,1,100
288,152,39527,6,0,B|240:96|240:96|280:48|280:48,1,100
388,144,39813,6,0,B|340:88|340:88|380:40|380:40,1,100
62,137,40099,5,0,0:0:0:0:
135,345,40242,1,0,0:0:0:0:
219,108,40385,1,0,0:0:0:0:
25,268,40527,1,0,0:0:0:0:
237,290,40670,1,0,0:0:0:0:
47,75,40813,1,0,0:0:0:0:
164,319,40956,1,0,0:0:0:0:
120,140,41099,1,0,0:0:0:0:
416,336,41242,6,0,B|456:280|456:280|420:244|420:248,1,100
336,332,41527,6,0,B|376:276|376:276|340:240|340:244,1,100
256,324,41813,6,0,B|296:268|296:268|260:232|260:236,1,100
172,320,42099,6,0,B|212:264|212:264|176:228|176:232,1,100
48,240,42385,5,0,0:0:0:0:
408,48,42527,5,0,0:0:0:0:
408,108,42599,1,0,0:0:0:0:
436,152,42670,1,0,0:0:0:0:
296,260,42813,5,0,0:0:0:0:
260,240,42885,1,0,0:0:0:0:
256,196,42956,1,0,0:0:0:0:
280,172,43027,1,0,0:0:0:0:
320,172,43098,1,0,0:0:0:0:
348,200,43170,1,0,0:0:0:0:
340,240,43242,1,0,0:0:0:0:
452,132,43385,5,0,0:0:0:0:
224,32,43527,2,0,B|132:40|132:40|144:80|144:80,1,100
216,331,43813,1,0,0:0:0:0:
88,224,43956,1,0,0:0:0:0:
277,52,44099,1,0,0:0:0:0:
316,281,44242,1,0,0:0:0:0:
134,102,44385,1,0,0:0:0:0:
373,174,44527,1,0,0:0:0:0:
60,296,44670,6,0,B|112:332|112:332|144:300|144:300,1,100
216,156,44956,6,0,B|272:104|272:104|288:136|288:136,1,100
256,296,45242,6,0,B|304:324|304:324|332:284|332:284,1,100
404,136,45527,6,0,B|368:88|368:88|340:144|340:144,1,100
168,104,45813,6,0,B|76:172|76:172|164:204|164:204,1,200
272,324,46242,5,0,0:0:0:0:
380,144,46385,1,0,0:0:0:0:
424,328,46527,1,0,0:0:0:0:
272,228,46670,1,0,0:0:0:0:
176,104,46813,1,0,0:0:0:0:
152,248,46956,5,0,0:0:0:0:
104,228,47027,1,0,0:0:0:0:
64,208,47099,1,0,0:0:0:0:
48,172,47170,1,0,0:0:0:0:
64,132,47242,1,0,0:0:0:0:
112,120,47313,1,0,0:0:0:0:
156,152,47385,1,0,0:0:0:0:
308,68,47527,1,0,0:0:0:0:
256,304,47670,5,0,0:0:0:0:
184,48,47813,1,0,0:0:0:0:
384,264,47956,1,0,0:0:0:0:
236,228,48099,2,0,B|168:232|168:232|112:192|112:192,1,100
464,120,48385,1,0,0:0:0:0:
328,368,48527,1,0,0:0:0:0:
312,120,48670,1,0,0:0:0:0:
460,312,48813,1,0,0:0:0:0:
248,208,48956,5,0,0:0:0:0:
440,184,49099,1,0,0:0:0:0:
212,348,49242,2,0,B|128:332|128:332|120:292|120:292,1,100
72,236,49527,1,0,0:0:0:0:
140,36,49670,1,0,0:0:0:0:
160,252,49813,1,0,0:0:0:0:
304,32,49956,1,0,0:0:0:0:
66,67,50099,1,0,1:0:0:0:
402,221,50242,1,0,1:0:0:0:
76,248,50385,6,0,B|40:292|40:292|88:336|88:336,1,100
380,320,50670,6,0,B|332:284|332:284|372:272|372:272,1,100
464,68,50956,6,0,B|412:44|412:44|448:20|448:20,1,100
416,344,51242,5,0,0:0:0:0:
156,292,51385,1,0,0:0:0:0:
48,152,51527,2,0,B|104:96|104:96|128:152|128:152|168:104|168:104,1,200
288,336,51956,1,0,0:0:0:0:
496,184,52099,1,0,0:0:0:0:
488,248,52170,1,0,0:0:0:0:
416,260,52242,1,0,0:0:0:0:
404,104,52385,1,0,0:0:0:0:
400,176,52456,1,0,0:0:0:0:
332,192,52527,1,0,0:0:0:0:
212,144,52670,6,0,P|80:128|80:128,1,100
24,336,52956,1,0,0:0:0:0:
16,160,53099,1,0,0:0:0:0:
116,352,53242,1,0,0:0:0:0:
168,188,53385,1,0,0:0:0:0:
228,352,53527,1,0,0:0:0:0:
320,204,53670,1,0,0:0:0:0:
436,308,53813,6,0,B|360:276|360:276|448:180|448:180,1,200
236,52,54242,1,0,0:0:0:0:
112,204,54385,1,0,0:0:0:0:
60,60,54527,1,0,0:0:0:0:
192,200,54670,1,0,0:0:0:0:
40,272,54813,1,0,0:0:0:0:
336,120,54956,6,0,B|384:168|384:168|336:192|336:192,1,100
212,296,55242,1,0,0:0:0:0:
160,148,55385,1,0,0:0:0:0:
284,256,55527,1,0,0:0:0:0:
128,252,55670,1,0,0:0:0:0:
264,152,55813,1,0,0:0:0:0:
220,312,55956,1,0,0:0:0:0:
428,324,56099,2,0,B|392:276|392:276|424:252|424:252,1,100
44,320,56385,5,0,0:0:0:0:
36,44,56527,1,0,0:0:0:0:
224,344,56670,1,0,0:0:0:0:
200,48,56813,1,0,0:0:0:0:
396,208,56956,1,0,0:0:0:0:
340,60,57099,1,0,0:0:0:0:
184,148,57242,2,0,B|124:140|124:140|128:180|128:180,1,100
124,328,57527,5,0,0:0:0:0:
128,144,57670,1,0,0:0:0:0:
240,260,57813,1,0,0:0:0:0:
24,160,57956,1,0,0:0:0:0:
192,320,58099,1,0,0:0:0:0:
272,124,58242,1,0,0:0:0:0:
444,352,58385,1,0,0:0:0:0:
384,112,58527,1,0,0:0:0:0:
304,336,58670,5,0,0:0:0:0:
480,200,58813,1,0,0:0:0:0:
384,348,58956,1,0,0:0:0:0:
360,44,59099,1,0,0:0:0:0:
464,308,59242,1,0,0:0:0:0:
244,216,59385,1,0,0:0:0:0:
144,136,59527,6,0,B|76:140|76:140|56:80|56:80,1,100
136,344,59813,1,0,0:0:0:0:
60,232,59956,1,0,0:0:0:0:
276,340,60099,1,0,0:0:0:0:
236,156,60242,1,0,0:0:0:0:
76,360,60385,1,0,0:0:0:0:
156,116,60527,1,0,0:0:0:0:
392,336,60670,2,0,B|448:268|448:268|404:248|404:248,1,100
464,44,60956,5,0,0:0:0:0:
340,168,61099,1,0,0:0:0:0:
308,20,61242,1,0,0:0:0:0:
484,336,61385,1,0,0:0:0:0:
228,168,61527,1,0,0:0:0:0:
420,40,61670,1,0,0:0:0:0:
192,232,61813,2,0,B|208:296|208:296|252:264|252:264,1,100
32,48,62099,5,0,0:0:0:0:
56,256,62242,1,0,0:0:0:0:
176,108,62385,1,0,0:0:0:0:
196,296,62527,1,0,0:0:0:0:
84,112,62670,1,0,0:0:0:0:
324,68,62813,1,0,0:0:0:0:
388,316,62956,2,0,B|360:256|360:256|320:276|320:276,1,100
36,344,63242,5,0,0:0:0:0:
88,224,63385,1,0,0:0:0:0:
36,344,63527,1,0,0:0:0:0:
172,264,63670,1,0,0:0:0:0:
36,344,63813,1,0,0:0:0:0:
224,336,63956,1,0,0:0:0:0:
356,172,64099,2,0,B|344:104|344:104|400:92|400:92,1,100
408,64,64385,6,0,L|392:100,24,25
104,116,65385,5,0,0:0:0:0:
120,292,65527,1,0,0:0:0:0:
180,320,65599,1,0,0:0:0:0:
244,312,65670,1,0,0:0:0:0:
392,216,65813,1,0,0:0:0:0:
324,72,65956,1,0,0:0:0:0:
128,224,66099,1,0,0:0:0:0:
64,64,66242,1,0,0:0:0:0:
348,324,66385,6,0,B|408:272|408:272|364:224|364:224,1,100
200,88,66670,1,0,0:0:0:0:
76,252,66813,1,0,0:0:0:0:
280,180,66956,1,0,0:0:0:0:
104,104,67099,1,0,0:0:0:0:
208,256,67242,1,0,0:0:0:0:
232,56,67385,1,0,0:0:0:0:
116,308,67527,1,0,0:0:0:0:
400,40,67670,1,0,0:0:0:0:
456,192,67813,5,0,0:0:0:0:
432,236,67885,1,0,0:0:0:0:
392,224,67956,1,0,0:0:0:0:
356,220,68027,1,0,0:0:0:0:
320,236,68099,1,0,0:0:0:0:
204,336,68242,1,0,0:0:0:0:
166,316,68313,1,0,0:0:0:0:
127,293,68385,1,0,0:0:0:0:
60,144,68527,1,0,0:0:0:0:
140,100,68599,1,0,0:0:0:0:
212,36,68670,1,0,0:0:0:0:
420,336,68813,5,0,0:0:0:0:
452,76,68956,1,0,0:0:0:0:
352,248,69099,1,0,0:0:0:0:
312,84,69242,1,0,0:0:0:0:
464,204,69385,1,0,0:0:0:0:
248,296,69527,1,0,0:0:0:0:
400,92,69670,1,0,0:0:0:0:
48,128,69813,2,0,B|108:64|108:64|112:140|112:140|136:108|136:108,1,200
72,324,70242,5,0,0:0:0:0:
164,200,70385,1,0,0:0:0:0:
184,180,70455,1,0,0:0:0:0:
196,204,70527,1,0,0:0:0:0:
348,236,70670,1,0,0:0:0:0:
372,180,70742,1,0,0:0:0:0:
352,124,70813,1,0,0:0:0:0:
52,52,70956,6,0,L|80:160,1,100
120,40,71242,6,0,L|160:144,1,100
216,28,71527,6,0,L|248:128,1,100
328,24,71813,6,0,L|360:140,1,100
248,180,72099,6,0,L|264:220,5,25
112,304,72385,5,0,0:0:0:0:
41,157,72527,1,0,0:0:0:0:
225,299,72670,1,0,0:0:0:0:
168,152,72813,1,0,0:0:0:0:
45,341,72956,1,0,0:0:0:0:
292,184,73099,2,0,B|252:104|252:104|276:88|276:88,1,100
408,96,73313,1,0,0:0:0:0:
424,144,73384,1,0,0:0:0:0:
432,192,73456,1,0,0:0:0:0:
192,68,73527,1,0,0:0:0:0:
104,256,73670,5,0,0:0:0:0:
320,84,73813,1,0,0:0:0:0:
256,216,73956,1,0,0:0:0:0:
48,112,74099,1,0,0:0:0:0:
192,312,74242,2,0,B|244:300|244:300|260:256|260:256,1,100
452,96,74527,1,0,0:0:0:0:
376,312,74670,1,0,0:0:0:0:
152,136,74813,1,0,0:0:0:0:
32,268,74956,6,0,B|24:212|24:212|48:200|60:176|60:176,1,100
160,292,75242,2,0,B|208:228|208:228|224:188|224:188|224:184|224:184,1,100
384,192,75527,2,0,B|368:108|368:108|316:108|316:108,1,100
52,284,75813,1,0,0:0:0:0:
80,132,75956,1,0,0:0:0:0:
140,300,76099,1,0,0:0:0:0:
32,148,76242,1,0,0:0:0:0:
192,184,76385,1,0,0:0:0:0:
60,300,76527,1,0,0:0:0:0:
304,108,76670,5,0,0:0:0:0:
120,360,76813,1,0,0:0:0:0:
388,344,76956,1,0,0:0:0:0:
484,244,77099,1,0,0:0:0:0:
200,296,77242,1,0,0:0:0:0:
264,280,77313,1,0,0:0:0:0:
312,236,77385,1,0,0:0:0:0:
364,104,77527,2,0,L|280:176,1,100
108,216,77813,6,0,L|48:124,1,100
244,44,78099,1,0,0:0:0:0:
68,336,78242,1,0,0:0:0:0:
308,344,78385,1,0,0:0:0:0:
152,88,78527,1,0,0:0:0:0:
104,328,78670,1,0,0:0:0:0:
320,128,78813,1,0,0:0:0:0:
280,240,78956,6,0,P|160:216|160:216,1,100
348,292,79242,1,0,0:0:0:0:
432,120,79385,1,0,0:0:0:0:
96,224,79527,1,0,0:0:0:0:
104,288,79599,1,0,0:0:0:0:
156,332,79670,1,0,0:0:0:0:
448,216,79813,1,0,0:0:0:0:
456,280,79885,1,0,0:0:0:0:
408,324,79956,1,0,0:0:0:0:
344,72,80099,6,0,B|344:132|344:132|288:156|288:156,1,100
187,161,80385,1,0,0:0:0:0:
126,321,80527,1,0,0:0:0:0:
262,178,80670,1,0,0:0:0:0:
99,294,80813,1,0,0:0:0:0:
273,280,80956,1,0,0:0:0:0:
99,168,81099,1,0,0:0:0:0:
464,340,81242,5,0,0:0:0:0:
177,253,81385,1,0,0:0:0:0:
426,140,81527,1,0,0:0:0:0:
276,79,81670,1,0,0:0:0:0:
423,226,81813,1,0,0:0:0:0:
341,89,81956,1,0,0:0:0:0:
334,253,82099,1,0,0:0:0:0:
426,72,82242,1,0,0:0:0:0:
139,290,82385,1,0,0:0:0:0:
248,144,82527,6,0,L|256:260,1,100
68,28,82813,1,0,0:0:0:0:
420,144,82956,2,0,L|436:256,1,100
32,336,83242,1,0,0:0:0:0:
104,188,83385,1,0,0:0:0:0:
128,352,83527,1,0,0:0:0:0:
276,320,83670,1,0,0:0:0:0:
188,64,83813,1,0,0:0:0:0:
392,112,83956,6,0,L|384:136,2,25
193,85,84099,5,0,0:0:0:0:
55,316,84242,1,0,0:0:0:0:
37,62,84385,1,0,0:0:0:0:
189,290,84527,1,0,0:0:0:0:
392,184,84670,6,0,B|336:144|336:144|276:184|276:184,1,100
104,304,84956,1,0,0:0:0:0:
8,136,85099,1,0,0:0:0:0:
88,296,85242,1,0,0:0:0:0:
168,124,85385,1,0,0:0:0:0:
80,312,85527,1,0,0:0:0:0:
256,176,85670,1,0,0:0:0:0:
152,360,85813,5,0,0:0:0:0:
288,144,85956,1,0,0:0:0:0:
440,344,86099,1,0,0:0:0:0:
472,172,86242,1,0,0:0:0:0:
436,320,86385,1,0,0:0:0:0:
388,152,86527,1,0,0:0:0:0:
404,320,86670,1,0,0:0:0:0:
320,220,86813,1,0,0:0:0:0:
144,164,86956,6,0,B|204:108|204:108|232:124|232:124,1,100
96,48,87242,1,0,0:0:0:0:
40,216,87385,1,0,0:0:0:0:
176,56,87527,1,0,0:0:0:0:
120,224,87670,1,0,0:0:0:0:
256,48,87813,1,0,0:0:0:0:
208,232,87956,1,0,0:0:0:0:
40,88,88099,1,0,0:0:0:0:
444,64,88242,6,0,L|468:80,4,25
284,156,88527,6,0,L|308:172,4,25
432,168,88813,5,0,0:0:0:0:
428,228,88885,1,0,0:0:0:0:
392,276,88956,1,0,0:0:0:0:
112,116,89099,1,0,0:0:0:0:
104,336,89242,2,0,B|56:296|56:296|68:248|68:248,1,100
376,128,89527,1,0,0:0:0:0:
376,328,89670,1,0,0:0:0:0:
252,192,89813,1,0,0:0:0:0:
364,308,89956,1,0,0:0:0:0:
460,148,90099,1,0,0:0:0:0:
460,336,90242,1,0,0:0:0:0:
32,180,90385,5,0,0:0:0:0:
92,68,90527,1,0,0:0:0:0:
128,236,90670,1,0,0:0:0:0:
189,205,90742,1,0,0:0:0:0:
250,169,90813,1,0,0:0:0:0:
396,40,90956,1,0,0:0:0:0:
364,172,91099,1,0,0:0:0:0:
344,239,91170,1,0,0:0:0:0:
320,307,91242,1,0,0:0:0:0:
128,344,91385,1,0,0:0:0:0:
68,156,91527,5,0,0:0:0:0:
368,296,91670,1,0,0:0:0:0:
220,140,91813,1,0,0:0:0:0:
272,124,91885,1,0,0:0:0:0:
324,100,91956,1,0,0:0:0:0:
380,100,92027,1,0,0:0:0:0:
424,132,92099,1,0,0:0:0:0:
420,192,92170,1,0,0:0:0:0:
376,224,92242,1,0,0:0:0:0:
328,252,92313,1,0,0:0:0:0:
292,292,92385,5,0,0:0:0:0:
236,316,92456,1,0,0:0:0:0:
188,288,92527,1,0,0:0:0:0:
188,232,92599,1,0,0:0:0:0:
256,192,92670,12,0,93670,0:0:0:0:
328,188,93813,6,0,B|272:144|272:144|296:120|296:120,1,100
264,332,94099,1,0,0:0:0:0:
144,204,94242,1,0,0:0:0:0:
216,328,94385,1,0,0:0:0:0:
252,180,94527,1,0,0:0:0:0:
164,332,94670,1,0,0:0:0:0:
316,200,94813,1,0,0:0:0:0:
140,196,94956,6,0,B|100:156|100:156|136:124|136:124,1,100
252,204,95242,2,0,B|212:160|212:160|248:128|248:128,1,100
364,204,95527,6,0,B|324:160|324:160|360:132|360:132,1,100
416,336,95813,2,0,B|364:300|364:300|420:260|420:260,1,100
80,112,96099,5,0,0:0:0:0:
392,92,96242,1,0,0:0:0:0:
280,312,96385,1,0,0:0:0:0:
144,184,96527,1,0,0:0:0:0:
164,332,96670,1,0,0:0:0:0:
256,188,96813,1,0,0:0:0:0:
136,312,96956,1,0,0:0:0:0:
396,292,97099,1,0,0:0:0:0:
80,76,97242,5,0,0:0:0:0:
47,255,97385,1,0,0:0:0:0:
190,82,97527,1,0,0:0:0:0:
230,265,97670,1,0,0:0:0:0:
480,204,97813,1,0,0:0:0:0:
444,256,97885,1,0,0:0:0:0:
404,300,97956,1,0,0:0:0:0:
116,184,98099,1,0,0:0:0:0:
296,112,98242,1,0,0:0:0:0:
207,273,98385,5,0,0:0:0:0:
237,128,98527,1,0,0:0:0:0:
87,282,98670,1,0,0:0:0:0:
174,83,98813,1,0,0:0:0:0:
272,324,98956,1,0,0:0:0:0:
12,112,99099,1,0,0:0:0:0:
336,136,99242,1,0,0:0:0:0:
88,272,99385,1,0,0:0:0:0:
168,192,99527,6,0,B|200:140|200:140|228:184|232:184,1,100
292,336,99813,1,0,0:0:0:0:
424,104,99956,1,0,0:0:0:0:
472,368,100099,1,0,0:0:0:0:
260,152,100242,1,0,0:0:0:0:
480,192,100385,1,0,0:0:0:0:
312,316,100527,1,0,0:0:0:0:
140,96,100670,5,0,0:0:0:0:
396,104,100813,2,0,B|428:64|428:64|448:124|448:124,1,100
256,348,101099,2,0,B|280:296|280:296|304:352|304:352,1,100
212,84,101385,1,0,0:0:0:0:
52,296,101527,2,0,B|100:232|100:232|136:288|136:288,1,100
464,228,101813,2,0,B|452:176|452:176|408:188|392:192|392:192,1,100
168,340,102099,5,0,0:0:0:0:
270,143,102242,1,0,0:0:0:0:
355,340,102385,1,0,0:0:0:0:
25,192,102527,5,0,0:0:0:0:
123,36,102670,1,0,0:0:0:0:
212,197,102813,1,0,0:0:0:0:
464,216,102956,6,0,B|440:260|440:260|396:232|396:232,1,100
60,324,103242,1,0,0:0:0:0:
168,84,103385,1,0,0:0:0:0:
220,328,103527,1,0,0:0:0:0:
60,144,103670,1,0,0:0:0:0:
244,156,103813,1,0,0:0:0:0:
36,296,103956,1,0,0:0:0:0:
159,64,104099,5,0,0:0:0:0:
249,252,104242,1,0,0:0:0:0:
436,115,104385,1,0,0:0:0:0:
349,278,104527,1,0,0:0:0:0:
279,78,104670,1,0,0:0:0:0:
449,245,104813,1,0,0:0:0:0:
272,245,104956,1,0,0:0:0:0:
419,121,105099,1,0,0:0:0:0:
188,64,105242,6,0,B|248:108|248:108|188:120|188:120,1,100
24,208,105527,1,0,0:0:0:0:
104,48,105670,1,0,0:0:0:0:
200,224,105813,1,0,0:0:0:0:
24,100,105956,1,0,0:0:0:0:
228,100,106099,1,0,0:0:0:0:
68,288,106242,1,0,0:0:0:0:
384,328,106385,1,0,0:0:0:0:
372,56,106527,6,0,L|388:84,4,25
304,200,106813,6,0,L|320:228,8,25
56,232,107242,5,0,0:0:0:0:
152,104,107385,1,0,0:0:0:0:
268,232,107527,1,0,0:0:0:0:
372,128,107670,1,0,0:0:0:0:
144,360,107813,1,0,0:0:0:0:
280,72,107956,1,0,0:0:0:0:
356,304,108099,1,0,0:0:0:0:
172,184,108242,1,0,0:0:0:0:
408,168,108385,5,0,0:0:0:0:
376,196,108456,1,0,0:0:0:0:
344,216,108527,1,0,0:0:0:0:
308,232,108599,1,0,0:0:0:0:
277,243,108670,1,0,0:0:0:0:
108,356,108813,1,0,0:0:0:0:
44,192,108956,1,0,0:0:0:0:
128,92,109099,1,0,0:0:0:0:
44,196,109242,1,0,0:0:0:0:
240,160,109385,1,0,0:0:0:0:
44,196,109527,1,0,0:0:0:0:
212,288,109670,1,0,0:0:0:0:
48,128,109813,5,0,0:0:0:0:
80,104,109885,1,0,0:0:0:0:
112,84,109956,1,0,0:0:0:0:
152,76,110027,1,0,0:0:0:0:
188,96,110099,1,0,0:0:0:0:
212,128,110170,1,0,0:0:0:0:
248,144,110242,1,0,0:0:0:0:
284,128,110313,1,0,0:0:0:0:
316,104,110385,1,0,0:0:0:0:
356,104,110456,1,0,0:0:0:0:
384,132,110527,1,0,0:0:0:0:
400,168,110599,1,0,0:0:0:0:
388,208,110670,1,0,0:0:0:0:
352,224,110742,1,0,0:0:0:0:
316,236,110813,1,0,0:0:0:0:
284,264,110885,5,0,0:0:0:0:
248,280,110956,1,0,0:0:0:0:
208,292,111027,1,0,0:0:0:0:
168,280,111099,1,0,0:0:0:0:
156,244,111170,1,0,0:0:0:0:
148,208,111242,1,0,0:0:0:0:
152,176,111313,1,0,0:0:0:0:
160,136,111385,1,0,0:0:0:0:
172,108,111456,1,0,0:0:0:0:
184,80,111527,1,0,0:0:0:0:
200,56,111599,1,0,0:0:0:0:
228,44,111670,1,0,0:0:0:0:
272,40,111742,1,0,0:0:0:0:
312,56,111813,1,0,0:0:0:0:
348,88,111885,1,0,0:0:0:0:
364,124,111956,6,0,B|376:212|376:212|340:204|340:204|344:216,1,100
163,287,112242,1,0,0:0:0:0:
102,110,112385,1,0,0:0:0:0:
256,279,112527,1,0,0:0:0:0:
247,110,112670,1,0,0:0:0:0:
102,276,112813,1,0,0:0:0:0:
177,96,112956,1,0,0:0:0:0:
354,258,113099,1,0,0:0:0:0:
120,336,113242,5,0,0:0:0:0:
24,180,113385,1,0,0:0:0:0:
120,336,113527,1,0,0:0:0:0:
112,172,113670,1,0,0:0:0:0:
120,336,113813,1,0,0:0:0:0:
208,168,113956,1,0,0:0:0:0:
120,344,114099,1,0,0:0:0:0:
324,184,114242,1,0,0:0:0:0:
63,294,114385,5,0,0:0:0:0:
324,82,114527,1,0,0:0:0:0:
70,58,114670,1,0,0:0:0:0:
64,232,114813,1,0,0:0:0:0:
104,72,114956,1,0,0:0:0:0:
12,216,115099,1,0,0:0:0:0:
168,84,115242,1,0,0:0:0:0:
12,140,115385,1,0,0:0:0:0:
244,320,115527,5,0,0:0:0:0:
212,96,115670,1,0,0:0:0:0:
472,36,115813,1,0,0:0:0:0:
324,192,115956,1,0,0:0:0:0:
484,120,116099,1,0,0:0:0:0:
284,120,116242,1,0,0:0:0:0:
456,204,116385,1,0,0:0:0:0:
408,44,116527,1,0,0:0:0:0:
164,276,116670,5,0,0:0:0:0:
108,76,116813,1,0,0:0:0:0:
320,296,116956,1,0,0:0:0:0:
56,344,117099,1,0,0:0:0:0:
112,160,117242,1,0,0:0:0:0:
204,328,117385,1,0,0:0:0:0:
20,256,117527,1,0,0:0:0:0:
168,192,117670,1,0,0:0:0:0:
88,336,117813,5,0,0:0:0:0:
80,160,117956,1,0,0:0:0:0:
148,288,118099,1,0,0:0:0:0:
156,152,118242,1,0,0:0:0:0:
80,264,118385,1,0,0:0:0:0:
64,68,118527,1,0,0:0:0:0:
32,284,118670,1,0,0:0:0:0:
160,88,118813,1,0,0:0:0:0:
180,300,118956,5,0,0:0:0:0:
160,88,119099,1,0,0:0:0:0:
180,300,119242,1,0,0:0:0:0:
32,200,119385,1,0,0:0:0:0:
328,112,119527,1,0,0:0:0:0:
320,344,119670,1,0,0:0:0:0:
212,184,119813,1,0,0:0:0:0:
320,344,119956,1,0,0:0:0:0:
212,184,120099,5,0,0:0:0:0:
104,60,120242,1,0,0:0:0:0:
56,272,120385,1,0,0:0:0:0:
104,60,120527,1,0,0:0:0:0:
56,272,120670,1,0,0:0:0:0:
368,300,120813,1,0,0:0:0:0:
332,76,120956,1,0,0:0:0:0:
368,300,121099,1,0,0:0:0:0:
328,72,121242,6,0,B|248:60|248:60|224:104|224:104|168:92|168:92|176:76|176:76,1,200
168,248,121670,2,0,B|100:196|100:196|128:148|128:148,1,100
252,296,121956,1,0,0:0:0:0:
392,136,122099,1,0,0:0:0:0:
252,296,122242,1,0,0:0:0:0:
392,136,122385,5,0,0:0:0:0:
108,64,122527,1,0,0:0:0:0:
64,268,122670,1,0,0:0:0:0:
108,64,122813,1,0,0:0:0:0:
64,268,122956,1,0,0:0:0:0:
328,76,123099,1,0,0:0:0:0:
292,296,123242,1,0,0:0:0:0:
328,76,123385,1,0,0:0:0:0:
292,296,123527,5,0,0:0:0:0:
64,220,123670,1,0,0:0:0:0:
312,172,123813,1,0,0:0:0:0:
64,220,123956,1,0,0:0:0:0:
312,172,124099,1,0,0:0:0:0:
240,328,124242,1,0,0:0:0:0:
288,64,124385,1,0,0:0:0:0:
156,144,124527,1,0,0:0:0:0:
224,168,124670,5,0,0:0:0:0:
124,312,124813,1,0,0:0:0:0:
312,296,124956,1,0,0:0:0:0:
124,320,125099,1,0,0:0:0:0:
96,80,125242,1,0,0:0:0:0:
124,320,125385,1,0,0:0:0:0:
256,128,125527,1,0,0:0:0:0:
120,316,125670,1,0,0:0:0:0:
368,240,125813,5,0,0:0:0:0:
124,320,125956,1,0,0:0:0:0:
104,72,126099,1,0,0:0:0:0:
20,240,126242,1,0,0:0:0:0:
104,72,126385,1,0,0:0:0:0:
20,240,126527,1,0,0:0:0:0:
428,88,126670,1,0,0:0:0:0:
412,308,126813,1,0,0:0:0:0:
256,96,126956,5,0,0:0:0:0:
180,328,127099,1,0,0:0:0:0:
116,132,127242,1,0,0:0:0:0:
180,328,127385,1,0,0:0:0:0:
116,132,127527,1,0,0:0:0:0:
396,96,127670,1,0,0:0:0:0:
348,296,127813,1,0,0:0:0:0:
276,112,127956,1,0,0:0:0:0:
36,112,128099,5,0,0:0:0:0:
192,264,128242,1,0,0:0:0:0:
124,56,128385,1,0,0:0:0:0:
40,264,128527,1,0,0:0:0:0:
208,136,128670,1,0,0:0:0:0:
360,348,128813,1,0,0:0:0:0:
424,112,128956,1,0,0:0:0:0:
236,312,129099,1,0,0:0:0:0:
128,128,129242,5,0,0:0:0:0:
80,308,129385,1,0,0:0:0:0:
224,176,129527,1,0,0:0:0:0:
60,204,129670,1,0,0:0:0:0:
216,308,129813,1,0,0:0:0:0:
376,164,129956,1,0,0:0:0:0:
340,320,130099,1,0,0:0:0:0:
272,88,130242,1,0,0:0:0:0:
72,72,130385,5,0,0:0:0:0:
88,204,130527,1,0,0:0:0:0:
88,204,130599,1,0,0:0:0:0:
88,204,130670,1,0,0:0:0:0:
228,180,130813,1,0,0:0:0:0:
312,40,130956,1,0,0:0:0:0:
428,264,131099,1,0,0:0:0:0:
80,252,131242,1,0,0:0:0:0:
288,352,131385,1,0,0:0:0:0:
232,16,131527,5,0,0:0:0:0:
80,124,131670,1,0,0:0:0:0:
80,124,131742,1,0,0:0:0:0:
80,124,131813,1,0,0:0:0:0:
280,76,131956,1,0,0:0:0:0:
168,240,132099,1,0,0:0:0:0:
280,76,132242,1,0,0:0:0:0:
168,240,132385,1,0,0:0:0:0:
416,304,132527,5,0,0:0:0:0:
88,196,132670,1,0,0:0:0:0:
88,196,132742,1,0,0:0:0:0:
88,196,132813,1,0,0:0:0:0:
392,176,132956,1,0,0:0:0:0:
296,56,133099,1,0,0:0:0:0:
392,176,133242,1,0,0:0:0:0:
296,56,133385,1,0,0:0:0:0:
100,220,133527,1,0,0:0:0:0:
68,76,133670,1,0,0:0:0:0:
256,312,133813,5,0,0:0:0:0:
432,232,133956,1,0,0:0:0:0:
432,232,134027,1,0,0:0:0:0:
432,232,134099,1,0,0:0:0:0:
296,80,134242,1,0,0:0:0:0:
180,200,134385,1,0,0:0:0:0:
200,60,134527,1,0,0:0:0:0:
288,184,134670,1,0,0:0:0:0:
64,132,134813,1,0,0:0:0:0:
288,184,134956,5,0,0:0:0:0:
64,132,135099,1,0,0:0:0:0:
112,336,135242,1,0,0:0:0:0:
268,312,135385,1,0,0:0:0:0:
184,144,135527,1,0,0:0:0:0:
392,72,135670,1,0,0:0:0:0:
443,241,135813,1,0,0:0:0:0:
294,93,135956,1,0,0:0:0:0:
200,328,136099,5,0,0:0:0:0:
68,240,136242,1,0,0:0:0:0:
68,240,136313,1,0,0:0:0:0:
68,240,136385,1,0,0:0:0:0:
156,204,136527,1,0,0:0:0:0:
344,260,136670,1,0,0:0:0:0:
324,64,136813,1,0,0:0:0:0:
156,204,136956,1,0,0:0:0:0:
344,260,137099,1,0,0:0:0:0:
324,64,137242,5,0,0:0:0:0:
64,80,137385,1,0,0:0:0:0:
64,80,137456,1,0,0:0:0:0:
64,80,137527,1,0,0:0:0:0:
104,280,137670,1,0,0:0:0:0:
248,244,137813,1,0,0:0:0:0:
372,332,137956,1,0,0:0:0:0:
292,64,138099,1,0,0:0:0:0:
104,280,138242,1,0,0:0:0:0:
120,72,138385,5,0,0:0:0:0:
104,280,138527,1,0,0:0:0:0:
120,72,138670,1,0,0:0:0:0:
304,264,138813,1,0,0:0:0:0:
160,196,138956,1,0,0:0:0:0:
176,336,139099,1,0,0:0:0:0:
304,120,139242,1,0,0:0:0:0:
160,196,139385,1,0,0:0:0:0:
304,264,139527,5,0,0:0:0:0:
200,96,139670,1,0,0:0:0:0:
200,96,139742,1,0,0:0:0:0:
200,96,139813,1,0,0:0:0:0:
260,204,139956,1,0,0:0:0:0:
160,312,140099,1,0,0:0:0:0:
80,152,140242,1,0,0:0:0:0:
352,332,140385,1,0,0:0:0:0:
48,280,140527,1,0,0:0:0:0:
248,64,140670,5,0,0:0:0:0:
284,76,140742,1,0,0:0:0:0:
316,100,140813,1,0,0:0:0:0:
332,136,140885,1,0,0:0:0:0:
340,176,140956,1,0,0:0:0:0:
328,212,141027,1,0,0:0:0:0:
296,240,141099,1,0,0:0:0:0:
272,272,141170,1,0,0:0:0:0:
232,284,141242,1,0,0:0:0:0:
196,276,141313,1,0,0:0:0:0:
176,244,141385,1,0,0:0:0:0:
188,208,141456,1,0,0:0:0:0:
200,168,141527,5,0,0:0:0:0:
192,132,141599,1,0,0:0:0:0:
156,112,141670,1,0,0:0:0:0:
116,120,141742,1,0,0:0:0:0:
88,152,141813,1,0,0:0:0:0:
80,180,141885,1,0,0:0:0:0:
80,208,141956,6,0,L|80:224,37,16.6666666666667
187,346,142956,5,0,0:0:0:0:
237,10,143099,1,0,0:0:0:0:
383,210,143242,1,0,0:0:0:0:
383,210,143313,1,0,0:0:0:0:
383,210,143385,1,0,0:0:0:0:
79,74,143527,5,0,0:0:0:0:
383,96,143670,1,0,0:0:0:0:
383,96,143741,1,0,0:0:0:0:
383,96,143813,1,0,0:0:0:0:
228,377,143956,1,0,0:0:0:0:
256,192,144099,12,0,145956,0:0:0:0:
64,96,146099,5,0,0:0:0:0:
304,40,146242,1,0,0:0:0:0:
128,300,146385,2,0,B|180:252|180:252|208:300|208:300|272:228,1,200
440,48,146813,1,0,0:0:0:0:
352,304,146956,1,0,0:0:0:0:
352,304,147027,1,0,0:0:0:0:
352,304,147099,1,0,0:0:0:0:
88,240,147242,5,0,0:0:0:0:
192,52,147385,1,0,0:0:0:0:
468,112,147527,2,0,B|432:68|432:68|400:120|364:72|364:68|364:64|364:64,1,100
256,244,147813,1,0,0:0:0:0:
256,244,147885,1,0,0:0:0:0:
256,244,147956,1,0,0:0:0:0:
84,272,148099,1,0,0:0:0:0:
184,68,148242,1,0,0:0:0:0:
380,100,148385,5,0,0:0:0:0:
380,100,148456,1,0,0:0:0:0:
380,100,148527,1,0,0:0:0:0:
468,264,148670,2,0,B|384:200|384:200|388:256|388:256|315:224|315:224|312:220|312:220,1,200
32,228,149099,6,0,B|104:156|104:156|96:228|96:228|176:164|176:164,1,250
416,84,149956,1,0,0:0:0:0:
416,84,150027,1,0,0:0:0:0:
416,84,150099,1,0,0:0:0:0:
112,72,150242,1,0,0:0:0:0:
112,72,150313,1,0,0:0:0:0:
112,72,150385,1,0,0:0:0:0:
256,324,150527,1,0,0:0:0:0:
256,324,150599,1,0,0:0:0:0:
256,324,150670,6,0,B|208:260|208:260|252:236|252:236|236:200|236:200,1,150
208,32,151242,1,0,0:0:0:0:
160,236,151385,1,0,0:0:0:0:
436,240,151527,2,0,B|380:204|380:204|348:260|348:260|288:176|288:176,1,200
120,156,151956,1,0,0:0:0:0:
312,352,152099,2,0,B|288:288|288:288|344:288|344:288|320:200|320:200,1,200
456,44,152527,1,0,0:0:0:0:
224,248,152670,6,0,B|128:176|128:176|228:140|228:140|152:84|152:84|112:48|112:48|60:56|60:56,1,400
412,76,153385,2,0,B|336:116|336:116|400:132|384:128|384:128,1,100
96,244,153670,2,0,B|40:160|44:168|44:168|48:152|48:152,1,100
452,296,153956,2,0,B|404:240|404:240|396:304|396:304|340:248|340:248,1,200
408,96,154385,6,0,P|256:96|256:96,1,150
176,208,154956,6,0,L|164:180,16,25
408,92,155670,1,0,0:0:0:0:
408,92,155742,1,0,0:0:0:0:
408,92,155813,1,0,0:0:0:0:
304,152,155956,6,0,B|212:144|188:144|188:144,1,100
64,200,156242,1,0,0:0:0:0:
264,336,156385,2,0,B|212:280|212:280|260:232|260:232,1,100
448,200,156670,2,0,B|344:200|344:200|324:200,2,100
44,48,157099,5,0,0:0:0:0:
132,312,157242,1,0,0:0:0:0:
264,116,157385,1,0,0:0:0:0:
420,280,157527,2,0,P|424:184|424:184,1,50
424,160,157670,6,0,B|424:128,4,25
76,68,157956,1,0,0:0:0:0:
76,288,158099,1,0,0:0:0:0:
256,216,158242,6,0,B|256:184,25,25
104,75,159242,5,0,0:0:0:0:
96,296,159384,1,0,0:0:0:0:
354,84,159527,1,0,0:0:0:0:
389,302,159670,1,0,0:0:0:0:
192,240,159813,6,0,B|132:148|132:148|244:112|244:112,1,200
336,72,160242,2,0,L|432:24,1,100
404,152,160527,1,0,0:0:0:0:
204,120,160670,2,0,B|148:160|148:160|208:208|208:208,1,100
84,40,160956,1,0,0:0:0:0:
28,280,161099,1,0,0:0:0:0:
260,316,161242,2,0,B|244:248|244:248|300:224|300:224|276:152|276:152,1,200
188,204,161670,2,0,B|124:176|124:176|180:108|180:108|136:76|136:76,1,200
312,44,162099,5,0,0:0:0:0:
448,128,162242,1,0,0:0:0:0:
448,128,162313,1,0,0:0:0:0:
448,128,162385,6,0,L|448:104,8,25
200,64,162813,1,0,0:0:0:0:
24,264,162956,1,0,0:0:0:0:
260,304,163099,1,0,0:0:0:0:
168,184,163242,6,0,B|84:136|84:136|104:96|104:96,1,100
440,96,163527,1,0,0:0:0:0:
424,344,163670,1,0,0:0:0:0:
136,296,163813,5,0,0:0:0:0:
116,256,163885,1,0,0:0:0:0:
112,212,163956,1,0,0:0:0:0:
116,160,164027,1,0,0:0:0:0:
160,136,164099,5,0,0:0:0:0:
208,136,164170,1,0,0:0:0:0:
228,180,164242,1,0,0:0:0:0:
244,228,164313,1,0,0:0:0:0:
260,272,164385,5,0,0:0:0:0:
280,308,164456,1,0,0:0:0:0:
316,320,164527,1,0,0:0:0:0:
364,288,164599,1,0,0:0:0:0:
376,232,164670,6,0,B|344:176|344:176|384:144|384:144|372:120|372:120|380:56|380:56,1,200
264,48,165099,1,0,0:0:0:0:
72,268,165242,1,0,0:0:0:0:
32,84,165385,1,0,0:0:0:0:
224,268,165527,1,0,0:0:0:0:
160,64,165670,1,0,0:0:0:0:
100,196,165813,2,0,B|132:148|132:148|184:192|184:192|232:124|232:124,1,200
424,104,166242,5,0,0:0:0:0:
424,104,166313,1,0,0:0:0:0:
424,104,166385,1,0,0:0:0:0:
340,280,166527,1,0,0:0:0:0:
212,88,166670,1,0,0:0:0:0:
72,312,166813,1,0,0:0:0:0:
104,224,166956,2,0,B|52:184|104:112|88:68|60:24,1,200
256,192,167385,12,0,169242,0:0:0:0:
72,176,169385,5,0,0:0:0:0:
336,112,169527,1,0,0:0:0:0:
240,320,169670,1,0,0:0:0:0:
168,136,169813,1,0,0:0:0:0:
240,320,169956,1,0,0:0:0:0:
168,136,170099,1,0,0:0:0:0:
384,200,170242,1,0,0:0:0:0:
156,288,170385,2,0,B|96:252|96:252|140:224|140:224|104:152|104:152,1,200
312,124,170813,5,0,0:0:0:0:
276,308,170956,1,0,0:0:0:0:
156,128,171099,1,0,0:0:0:0:
112,300,171242,1,0,0:0:0:0:
328,172,171385,1,0,0:0:0:0:
104,216,171527,2,0,B|64:144|64:144|116:96|116:96|88:44|88:44,1,200
464,184,171956,5,0,0:0:0:0:
464,184,172027,1,0,0:0:0:0:
464,184,172099,1,0,0:0:0:0:
264,92,172242,1,0,0:0:0:0:
328,336,172385,1,0,0:0:0:0:
160,320,172527,1,0,0:0:0:0:
116,240,172670,6,0,B|64:188|64:188|108:152|108:152|100:104|100:104|96:84|96:84,1,200
328,156,173099,1,0,0:0:0:0:
224,296,173242,1,0,0:0:0:0:
128,128,173385,1,0,0:0:0:0:
108,328,173527,1,0,0:0:0:0:
264,164,173670,1,0,0:0:0:0:
328,336,173813,6,0,B|356:264|312:252|312:252|372:212|372:212|376:180|376:180|348:184,1,200
76,68,174242,1,0,0:0:0:0:
52,268,174385,1,0,0:0:0:0:
76,68,174527,1,0,0:0:0:0:
52,268,174670,1,0,0:0:0:0:
444,328,174813,1,0,0:0:0:0:
244,152,174956,6,0,B|200:96|200:96|248:64|248:64,1,100
428,120,175242,1,0,0:0:0:0:
364,340,175385,1,0,0:0:0:0:
428,120,175527,1,0,0:0:0:0:
356,336,175670,1,0,0:0:0:0:
208,288,175813,2,0,B|136:268|136:268|136:204|136:204,1,100
248,132,176099,5,0,0:0:0:0:
248,132,176170,1,0,0:0:0:0:
248,132,176242,1,0,0:0:0:0:
476,136,176385,1,0,0:0:0:0:
444,312,176527,2,0,B|368:328|368:328|376:268|376:268,1,100
216,320,176813,1,0,0:0:0:0:
80,240,176956,1,0,0:0:0:0:
144,112,177099,1,0,0:0:0:0:
368,192,177242,6,0,B|320:132|320:132|368:100|368:100|352:32|352:32,1,200
264,216,177670,1,0,0:0:0:0:
104,232,177813,1,0,0:0:0:0:
144,76,177956,1,0,0:0:0:0:
328,108,178099,1,0,0:0:0:0:
388,284,178242,1,0,0:0:0:0:
180,336,178385,5,0,0:0:0:0:
180,336,178456,1,0,0:0:0:0:
180,336,178527,1,0,0:0:0:0:
164,236,178670,2,0,B|92:176|92:176|108:152|108:152|120:104|92:68|92:68,1,200
288,64,179099,1,0,0:0:0:0:
404,112,179242,1,0,0:0:0:0:
340,232,179385,5,0,0:0:0:0:
340,232,179456,1,0,0:0:0:0:
340,232,179527,1,0,0:0:0:0:
196,356,179670,1,0,0:0:0:0:
128,176,179813,2,0,B|52:120|52:120|84:80|84:80|64:32|64:32|56:16|56:16,1,200
268,77,180242,1,0,0:0:0:0:
187,254,180385,1,0,0:0:0:0:
268,77,180527,1,0,0:0:0:0:
392,296,180670,6,0,B|336:216|336:216|404:128|404:128,1,200
176,52,181099,1,0,0:0:0:0:
48,216,181242,1,0,0:0:0:0:
48,216,181313,1,0,0:0:0:0:
48,216,181384,1,0,0:0:0:0:
176,320,181527,1,0,0:0:0:0:
284,156,181670,1,0,0:0:0:0:
452,320,181813,6,0,B|416:280|416:280|448:236|448:236|440:184|440:184|436:144|436:144,1,200
304,68,182242,1,0,0:0:0:0:
116,256,182385,1,0,0:0:0:0:
100,88,182527,1,0,0:0:0:0:
232,244,182670,1,0,0:0:0:0:
208,108,182813,1,0,0:0:0:0:
476,292,182956,6,0,B|408:232|408:232|440:172|440:172|440:104|440:104,1,200
136,304,183385,1,0,0:0:0:0:
20,156,183527,1,0,0:0:0:0:
136,304,183670,1,0,0:0:0:0:
20,156,183813,1,0,0:0:0:0:
116,44,183956,1,0,0:0:0:0:
408,328,184099,6,0,B|304:264|304:264|392:200|392:200,1,200
136,332,184527,1,0,0:0:0:0:
136,332,184599,1,0,0:0:0:0:
136,332,184670,1,0,0:0:0:0:
498,245,184813,1,0,0:0:0:0:
260,39,184956,1,0,0:0:0:0:
46,192,185099,1,0,0:0:0:0:
256,192,185242,12,0,187385,0:0:0:0:
72,192,187527,6,0,L|456:192,1,375
28,328,189812,1,0,0:0:0:0:
104,96,189954,1,0,0:0:0:0:
144,308,190097,1,0,0:0:0:0:
24,152,190240,1,0,0:0:0:0:
204,188,190383,1,0,0:0:0:0:
44,336,190526,1,0,0:0:0:0:
120,144,190669,1,0,0:0:0:0:
192,340,190812,1,0,0:0:0:0:
264,160,190954,6,0,B|240:96|240:96|280:68|284:24|284:24,1,150.000005722046
128,228,191240,2,0,B|76:184|76:184|104:96|104:96,1,150.000005722046
380,304,191526,1,0,0:0:0:0:
336,136,191669,1,0,0:0:0:0:
268,328,191812,1,0,0:0:0:0:
232,176,191954,1,0,0:0:0:0:
120,248,192097,2,0,B|88:204|88:204|88:168|88:168|152:140|152:140,1,150.000005722046
248,88,192383,2,0,B|164:56|164:56|224:24|224:24,1,150.000005722046
288,316,192669,1,0,0:0:0:0:
128,172,192812,1,0,0:0:0:0:
116,336,192954,1,0,0:0:0:0:
264,192,193097,1,0,0:0:0:0:
400,160,193240,6,0,B|352:116|352:116|416:56|416:56,1,150.000005722046
40,24,193454,1,0,0:0:0:0:
72,84,193526,1,0,0:0:0:0:
104,140,193597,1,0,0:0:0:0:
132,196,193669,1,0,0:0:0:0:
160,252,193740,1,0,0:0:0:0:
188,304,193812,1,0,0:0:0:0:
224,356,193883,1,0,0:0:0:0:
256,320,193954,1,0,0:0:0:0:
288,280,194026,1,0,0:0:0:0:
320,236,194097,1,0,0:0:0:0:
220,48,194240,5,0,0:0:0:0:
76,176,194383,2,0,B|32:96|32:96|96:40|96:40,1,150.000005722046
288,180,194669,2,0,B|352:152|352:152|344:68|344:68,1,150.000005722046
132,304,194954,1,0,0:0:0:0:
328,296,195097,1,0,0:0:0:0:
328,296,195169,1,0,0:0:0:0:
328,296,195240,1,0,0:0:0:0:
436,132,195383,1,0,0:0:0:0:
184,168,195526,2,0,B|136:136|136:136|176:88|176:88|148:56,1,150.000005722046
76,324,195812,5,0,0:0:0:0:
340,64,195954,1,0,0:0:0:0:
432,328,196097,1,0,0:0:0:0:
188,76,196240,1,0,0:0:0:0:
168,328,196383,1,0,0:0:0:0:
376,120,196526,1,0,0:0:0:0:
344,336,196669,1,0,0:0:0:0:
204,188,196812,1,0,0:0:0:0:
468,224,196954,1,0,0:0:0:0:
68,320,197097,2,0,B|36:264|36:264|88:196|88:196,1,150.000005722046
116,152,197312,5,0,0:0:0:0:
152,104,197383,1,0,0:0:0:0:
208,80,197454,1,0,0:0:0:0:
264,104,197526,1,0,0:0:0:0:
464,216,197669,1,0,0:0:0:0:
176,344,197812,2,0,B|108:288|108:288|152:236|152:236|56:124|56:124,1,300.000011444092
408,72,198240,1,0,0:0:0:0:
408,352,198383,1,0,0:0:0:0:
216,40,198526,1,0,0:0:0:0:
216,40,198597,1,0,0:0:0:0:
432,192,198740,1,0,0:0:0:0:
432,192,198811,1,0,0:0:0:0:
24,256,198954,6,0,B|52:188|52:188|4:160|4:160|88:4|88:4,1,300.000011444092
464,80,199383,1,0,0:0:0:0:
416,308,199526,1,0,0:0:0:0:
312,40,199669,1,0,0:0:0:0:
276,312,199812,1,0,0:0:0:0:
152,112,199954,1,0,0:0:0:0:
132,336,200097,6,0,B|60:296|60:296|132:256|132:256,1,150.000005722046
404,308,200383,1,0,0:0:0:0:
336,48,200526,1,0,0:0:0:0:
256,320,200669,1,0,0:0:0:0:
440,136,200812,1,0,0:0:0:0:
200,128,200954,1,0,0:0:0:0:
424,320,201097,1,0,0:0:0:0:
140,28,201240,6,0,B|112:80|112:80|16:68|16:68,1,150.000005722046
40,340,201526,1,0,0:0:0:0:
256,20,201669,1,0,0:0:0:0:
256,324,201812,1,0,0:0:0:0:
96,80,201954,1,0,0:0:0:0:
348,168,202097,1,0,0:0:0:0:
128,320,202240,1,0,0:0:0:0:
392,312,202383,1,0,0:0:0:0:
260,44,202526,1,0,0:0:0:0:
180,352,202669,1,0,0:0:0:0:
372,148,202812,1,0,0:0:0:0:
124,172,202954,1,0,0:0:0:0:
364,344,203097,1,0,0:0:0:0:
172,284,203240,6,0,B|92:292|92:292|84:208|84:208,1,150.000005722046
432,68,203526,1,0,0:0:0:0:
364,276,203669,1,0,0:0:0:0:
292,84,203812,1,0,0:0:0:0:
156,240,203954,1,0,0:0:0:0:
120,88,204097,1,0,0:0:0:0:
308,252,204240,2,0,B|268:196|268:196|344:144|344:144,1,150.000005722046
108,296,204526,1,0,0:0:0:0:
328,36,204669,6,0,B|272:92|272:92|336:132|336:132,1,150.000005722046
116,96,204954,1,0,0:0:0:0:
48,324,205097,1,0,0:0:0:0:
232,132,205240,1,0,0:0:0:0:
408,312,205383,1,0,0:0:0:0:
432,176,205526,1,0,0:0:0:0:
228,320,205669,1,0,0:0:0:0:
60,124,205812,6,0,B|60:72|60:72|164:48|164:48,1,150.000005722046
232,132,206097,1,0,0:0:0:0:
460,220,206240,1,0,0:0:0:0:
360,360,206383,1,0,0:0:0:0:
92,304,206526,2,0,B|36:256|36:256|80:192|80:192,1,150.000005722046
324,256,206812,1,0,0:0:0:0:
80,208,206954,5,0,0:0:0:0:
80,208,207026,1,0,0:0:0:0:
440,356,207169,1,0,0:0:0:0:
440,356,207240,1,0,0:0:0:0:
284,32,207383,1,0,0:0:0:0:
188,232,207526,2,0,L|300:116,1,150.000005722046
72,140,207812,2,0,L|216:76,1,150.000005722046
484,52,208097,2,0,P|344:132|344:132,1,150.000005722046
200,336,208383,5,0,0:0:0:0:
104,72,208526,1,0,0:0:0:0:
48,308,208669,1,0,0:0:0:0:
208,108,208812,1,0,0:0:0:0:
8,164,208954,1,0,0:0:0:0:
260,336,209097,1,0,0:0:0:0:
480,316,209240,2,0,B|416:244|416:244|464:200,1,150.000005722046
128,320,209526,2,0,B|92:268|92:268|172:224|172:224|152:176|152:176,1,150.000005722046
204,44,209812,5,0,0:0:0:0:
280,288,209954,1,0,0:0:0:0:
92,128,210097,1,0,0:0:0:0:
312,208,210240,1,0,0:0:0:0:
448,64,210383,2,0,B|352:40|352:40|304:100|304:100,1,150.000005722046
56,268,210669,1,0,0:0:0:0:
204,76,210812,1,0,0:0:0:0:
348,304,210954,1,0,0:0:0:0:
60,132,211097,1,0,0:0:0:0:
328,172,211240,1,0,0:0:0:0:
136,308,211383,1,0,0:0:0:0:
236,44,211526,6,0,B|172:104|172:104|224:156|224:156,1,150.000005722046
420,328,211812,1,0,0:0:0:0:
420,96,211954,1,0,0:0:0:0:
296,344,212097,1,0,0:0:0:0:
268,136,212240,1,0,0:0:0:0:
124,292,212383,1,0,0:0:0:0:
412,244,212526,1,0,0:0:0:0:
292,120,212669,6,0,B|192:64|192:64|204:136|204:136,1,150.000005722046
48,60,212954,1,0,0:0:0:0:
84,300,213097,1,0,0:0:0:0:
48,60,213240,1,0,0:0:0:0:
84,300,213383,1,0,0:0:0:0:
384,136,213526,1,0,0:0:0:0:
264,312,213669,1,0,0:0:0:0:
216,192,213812,6,0,B|168:92|168:92|224:64|224:64,1,150.000005722046
408,320,214097,1,0,0:0:0:0:
448,104,214240,1,0,0:0:0:0:
240,304,214383,1,0,0:0:0:0:
296,72,214526,1,0,0:0:0:0:
144,220,214669,1,0,0:0:0:0:
184,52,214812,1,0,0:0:0:0:
356,320,214954,6,0,B|416:256|416:256|408:192|408:192,1,150.000005722046
232,324,215240,2,0,B|292:260|292:260|284:196|284:196,1,150.000005722046
88,328,215526,2,0,B|148:264|148:264|140:200|140:200,1,150.000005722046
280,176,215812,2,0,B|340:112|340:112|332:48|332:48,1,150.000005722046
92,176,216097,2,0,B|152:104|152:104|208:104|208:104,1,150.000005722046
476,68,216383,2,0,B|416:132|416:132|424:195|424:195,1,150.000005722046
56,220,216669,5,0,0:0:0:0:
104,260,216740,1,0,0:0:0:0:
160,288,216812,1,0,0:0:0:0:
220,304,216883,1,0,0:0:0:0:
284,308,216954,1,0,0:0:0:0:
348,296,217026,1,0,0:0:0:0:
404,260,217097,1,0,0:0:0:0:
448,212,217169,1,0,0:0:0:0:
480,152,217240,5,0,0:0:0:0:
268,76,217383,1,0,0:0:0:0:
232,328,217526,1,0,0:0:0:0:
156,104,217669,1,0,0:0:0:0:
172,324,217812,1,0,0:0:0:0:
40,144,217954,1,0,0:0:0:0:
68,304,218097,1,0,0:0:0:0:
316,140,218240,1,0,0:0:0:0:
404,316,218383,6,0,B|468:252|468:252|424:172|424:172|416:156,1,150.000005722046
280,332,218669,1,0,0:0:0:0:
120,276,218812,1,0,0:0:0:0:
164,96,218954,1,0,0:0:0:0:
212,300,219097,1,0,0:0:0:0:
96,116,219240,1,0,0:0:0:0:
320,280,219383,1,0,0:0:0:0:
88,288,219526,5,0,0:0:0:0:
248,120,219669,1,0,0:0:0:0:
156,204,219812,1,0,0:0:0:0:
184,96,219954,1,0,0:0:0:0:
456,328,220097,1,0,0:0:0:0:
420,64,220240,1,0,0:0:0:0:
348,328,220383,1,0,0:0:0:0:
328,56,220526,1,0,0:0:0:0:
288,212,220669,6,0,B|224:156|224:156|176:200|176:200,1,150.000005722046
100,56,220954,1,0,0:0:0:0:
152,192,221097,2,0,L|320:192,1,150.000005722046
96,324,221383,1,0,0:0:0:0:
396,300,221526,2,0,B|448:228|448:228|444:164|444:164,1,150.000005722046
304,64,221812,5,0,0:0:0:0:
208,304,221954,1,0,0:0:0:0:
128,88,222097,1,0,0:0:0:0:
424,296,222240,1,0,0:0:0:0:
120,248,222383,2,0,B|72:184|72:184|136:144|136:144,1,150.000005722046
448,68,222669,1,0,0:0:0:0:
424,244,222812,1,0,0:0:0:0:
284,84,222954,5,0,0:0:0:0:
328,312,223097,1,0,0:0:0:0:
468,92,223240,1,0,0:0:0:0:
464,308,223383,1,0,0:0:0:0:
384,120,223526,1,0,0:0:0:0:
384,348,223669,1,0,0:0:0:0:
300,128,223812,1,0,0:0:0:0:
292,344,223954,1,0,0:0:0:0:
96,272,224097,6,0,B|156:168|156:168|184:248|184:248,1,150.000005722046
36,60,224383,1,0,0:0:0:0:
260,236,224526,2,0,B|320:132|320:132|348:212|348:212,1,150.000005722046
424,328,224812,1,0,0:0:0:0:
404,116,224954,2,0,B|464:12|464:12|492:92|492:92,1,150.000005722046
168,356,225240,1,0,0:0:0:0:
160,176,225383,2,0,B|220:72|220:72|248:152|248:152,1,150.000005722046
416,72,225669,5,0,0:0:0:0:
424,136,225740,1,0,0:0:0:0:
400,192,225812,1,0,0:0:0:0:
368,240,225883,1,0,0:0:0:0:
316,276,225954,5,0,0:0:0:0:
256,304,226026,1,0,0:0:0:0:
196,304,226097,1,0,0:0:0:0:
136,288,226169,1,0,0:0:0:0:
92,240,226240,5,0,0:0:0:0:
60,184,226312,1,0,0:0:0:0:
40,124,226383,1,0,0:0:0:0:
256,192,226526,12,0,232526,0:0:0:0:
32,192,232669,6,0,L|8:192,18,16.6666666666667
64,192,233240,6,0,L|244:192,1,175
160,48,234382,5,0,0:0:0:0:
212,56,234452,1,0,0:0:0:0:
264,76,234524,1,0,0:0:0:0:
312,104,234595,1,0,0:0:0:0:
348,144,234667,1,0,0:0:0:0:
372,192,234738,1,0,0:0:0:0:
368,248,234810,1,0,0:0:0:0:
340,292,234881,1,0,0:0:0:0:
296,324,234952,1,0,0:0:0:0:
240,336,235024,1,0,0:0:0:0:
184,336,235095,1,0,0:0:0:0:
132,324,235167,1,0,0:0:0:0:
96,308,235239,5,0,0:0:0:0:
100,272,235311,1,0,0:0:0:0:
104,230,235382,1,0,0:0:0:0:
116,204,235453,1,0,0:0:0:0:
120,168,235523,1,0,0:0:0:0:
117,135,235595,1,0,0:0:0:0:
116,105,235666,1,0,0:0:0:0:
115,70,235739,1,0,0:0:0:0:
96,40,235809,1,0,0:0:0:0:
220,40,235953,5,0,0:0:0:0:
316,124,236096,1,0,0:0:0:0:
340,148,236167,1,0,0:0:0:0:
364,176,236239,1,0,0:0:0:0:
384,204,236311,1,0,0:0:0:0:
400,236,236382,1,0,0:0:0:0:
308,336,236524,5,0,0:0:0:0:
224,200,236667,1,0,0:0:0:0:
192,232,236739,1,0,0:0:0:0:
160,256,236810,1,0,0:0:0:0:
128,280,236882,1,0,0:0:0:0:
100,300,236953,1,0,0:0:0:0:
328,188,237096,5,0,0:0:0:0:
112,112,237239,1,0,0:0:0:0:
140,88,237310,1,0,0:0:0:0:
168,68,237382,1,0,0:0:0:0:
200,52,237453,1,0,0:0:0:0:
232,44,237524,1,0,0:0:0:0:
456,72,237667,5,0,0:0:0:0:
232,304,237810,1,0,0:0:0:0:
200,288,237882,1,0,0:0:0:0:
168,272,237953,1,0,0:0:0:0:
140,252,238024,1,0,0:0:0:0:
120,224,238096,1,0,0:0:0:0:
308,204,238239,5,0,0:0:0:0:
208,128,238382,1,0,0:0:0:0:
180,112,238453,1,0,0:0:0:0:
156,96,238524,1,0,0:0:0:0:
128,80,238596,1,0,0:0:0:0:
100,80,238667,1,0,0:0:0:0:
320,48,238810,5,0,0:0:0:0:
416,212,238953,1,0,0:0:0:0:
404,240,239024,1,0,0:0:0:0:
384,264,239096,1,0,0:0:0:0:
360,280,239167,1,0,0:0:0:0:
336,296,239239,5,0,0:0:0:0:
308,304,239310,1,0,0:0:0:0:
280,312,239382,1,0,0:0:0:0:
252,316,239453,1,0,0:0:0:0:
224,320,239524,1,0,0:0:0:0:
104,264,239667,5,0,0:0:0:0:
168,72,239810,1,0,0:0:0:0:
264,272,239953,1,0,0:0:0:0:
344,44,240096,1,0,0:0:0:0:
352,72,240167,1,0,0:0:0:0:
360,100,240239,1,0,0:0:0:0:
368,128,240310,1,0,0:0:0:0:
372,156,240382,1,0,0:0:0:0:
136,312,240524,5,0,0:0:0:0:
88,152,240667,1,0,0:0:0:0:
108,136,240739,1,0,0:0:0:0:
128,120,240810,1,0,0:0:0:0:
148,104,240882,1,0,0:0:0:0:
164,84,240953,1,0,0:0:0:0:
212,328,241096,5,0,0:0:0:0:
408,108,241239,1,0,0:0:0:0:
400,132,241310,1,0,0:0:0:0:
392,156,241382,1,0,0:0:0:0:
384,180,241453,1,0,0:0:0:0:
372,204,241524,1,0,0:0:0:0:
256,52,241667,5,0,0:0:0:0:
60,88,241810,1,0,0:0:0:0:
64,108,241882,1,0,0:0:0:0:
68,128,241953,1,0,0:0:0:0:
72,148,242024,1,0,0:0:0:0:
76,168,242096,1,0,0:0:0:0:
348,336,242239,5,0,0:0:0:0:
432,72,242382,1,0,0:0:0:0:
408,96,242453,1,0,0:0:0:0:
384,120,242524,1,0,0:0:0:0:
356,144,242596,1,0,0:0:0:0:
332,168,242667,1,0,0:0:0:0:
468,344,242810,5,0,0:0:0:0:
168,336,242953,1,0,0:0:0:0:
164,300,243024,1,0,0:0:0:0:
164,264,243096,1,0,0:0:0:0:
160,228,243167,1,0,0:0:0:0:
160,192,243239,1,0,0:0:0:0:
324,352,243382,5,0,0:0:0:0:
408,104,243524,1,0,0:0:0:0:
364,92,243596,1,0,0:0:0:0:
320,88,243667,1,0,0:0:0:0:
276,84,243739,1,0,0:0:0:0:
232,76,243810,1,0,0:0:0:0:
188,72,243882,1,0,0:0:0:0:
144,72,243953,1,0,0:0:0:0:
100,80,244024,1,0,0:0:0:0:
60,100,244096,1,0,0:0:0:0:
80,320,244239,6,0,B|132:264|132:264|200:372|200:372,1,200
376,136,244667,1,0,0:0:0:0:
344,120,244739,1,0,0:0:0:0:
312,108,244810,1,0,0:0:0:0:
280,96,244882,1,0,0:0:0:0:
248,84,244953,1,0,0:0:0:0:
216,72,245024,2,0,L|160:48,1,50
80,160,245239,5,0,0:0:0:0:
88,192,245310,1,0,0:0:0:0:
96,224,245382,1,0,0:0:0:0:
108,256,245453,1,0,0:0:0:0:
132,280,245524,1,0,0:0:0:0:
336,316,245667,1,0,0:0:0:0:
380,132,245810,5,0,0:0:0:0:
348,120,245882,1,0,0:0:0:0:
316,104,245953,1,0,0:0:0:0:
284,92,246024,1,0,0:0:0:0:
252,80,246096,1,0,0:0:0:0:
72,288,246239,5,0,0:0:0:0:
92,108,246382,1,0,0:0:0:0:
112,136,246453,1,0,0:0:0:0:
140,160,246524,1,0,0:0:0:0:
168,184,246596,1,0,0:0:0:0:
196,204,246667,1,0,0:0:0:0:
380,336,246810,5,0,0:0:0:0:
404,164,246953,1,0,0:0:0:0:
372,148,247024,1,0,0:0:0:0:
340,132,247096,1,0,0:0:0:0:
312,112,247167,1,0,0:0:0:0:
280,96,247239,1,0,0:0:0:0:
196,332,247382,5,0,0:0:0:0:
64,208,247524,1,0,0:0:0:0:
64,172,247596,1,0,0:0:0:0:
72,136,247667,1,0,0:0:0:0:
88,104,247739,1,0,0:0:0:0:
116,80,247810,1,0,0:0:0:0:
328,272,247953,5,0,0:0:0:0:
352,104,248096,1,0,0:0:0:0:
320,96,248167,1,0,0:0:0:0:
284,92,248239,1,0,0:0:0:0:
252,104,248310,1,0,0:0:0:0:
220,116,248382,1,0,0:0:0:0:
192,136,248453,1,0,0:0:0:0:
164,156,248524,1,0,0:0:0:0:
140,176,248596,1,0,0:0:0:0:
120,196,248667,1,0,0:0:0:0:
232,340,248810,5,0,0:0:0:0:
376,108,248953,1,0,0:0:0:0:
392,300,249096,1,0,0:0:0:0:
248,100,249239,1,0,0:0:0:0:
220,104,249310,1,0,0:0:0:0:
188,108,249382,1,0,0:0:0:0:
160,116,249453,1,0,0:0:0:0:
132,120,249524,1,0,0:0:0:0:
104,284,249667,5,0,0:0:0:0:
384,324,249810,1,0,0:0:0:0:
392,296,249882,1,0,0:0:0:0:
400,268,249953,1,0,0:0:0:0:
408,240,250024,1,0,0:0:0:0:
412,212,250096,1,0,0:0:0:0:
248,280,250239,5,0,0:0:0:0:
336,64,250382,1,0,0:0:0:0:
308,64,250453,1,0,0:0:0:0:
280,64,250524,1,0,0:0:0:0:
248,60,250596,1,0,0:0:0:0:
220,56,250667,1,0,0:0:0:0:
128,144,250810,2,0,B|88:216|88:216|116:236|116:236,1,100
132,244,251024,1,0,0:0:0:0:
160,256,251096,1,0,0:0:0:0:
312,340,251239,1,0,0:0:0:0:
444,172,251382,1,0,0:0:0:0:
360,80,251524,5,0,0:0:0:0:
328,80,251596,1,0,0:0:0:0:
300,76,251667,1,0,0:0:0:0:
268,76,251739,1,0,0:0:0:0:
232,72,251810,1,0,0:0:0:0:
196,80,251882,1,0,0:0:0:0:
160,84,251953,1,0,0:0:0:0:
124,92,252024,1,0,0:0:0:0:
88,96,252096,1,0,0:0:0:0:
156,308,252239,1,0,0:0:0:0:
292,112,252382,5,0,0:0:0:0:
392,308,252524,5,0,0:0:0:0:
512,100,252667,5,0,0:0:0:0:
256,192,252810,12,0,253667,0:0:0:0:
117,101,253810,5,0,0:0:0:0:
117,276,253953,1,0,0:0:0:0:
217,124,254096,1,0,0:0:0:0:
213,301,254239,1,0,0:0:0:0:
323,149,254382,1,0,0:0:0:0:
336,298,254524,1,0,0:0:0:0:
432,176,254667,1,0,0:0:0:0:
416,324,254810,1,0,0:0:0:0:
296,256,254953,6,0,L|216:144,1,100
92,112,255239,1,0,0:0:0:0:
176,304,255382,1,0,0:0:0:0:
84,280,255524,1,0,0:0:0:0:
212,96,255667,1,0,0:0:0:0:
244,272,255810,1,0,0:0:0:0:
212,96,255953,1,0,0:0:0:0:
368,232,256096,6,0,L|376:68,1,100
244,272,256382,1,0,0:0:0:0:
124,252,256524,1,0,0:0:0:0:
32,268,256667,1,0,0:0:0:0:
176,84,256810,1,0,0:0:0:0:
184,288,256953,1,0,0:0:0:0:
284,144,257096,1,0,0:0:0:0:
68,160,257239,6,0,L|24:48,1,100
424,336,257524,1,0,0:0:0:0:
384,176,257667,1,0,0:0:0:0:
304,348,257810,1,0,0:0:0:0:
80,324,257953,1,0,0:0:0:0:
196,200,258096,1,0,0:0:0:0:
188,368,258239,1,0,0:0:0:0:
368,264,258382,6,0,L|400:156,1,100
56,112,258667,1,0,0:0:0:0:
116,292,258810,1,0,0:0:0:0:
232,88,258953,1,0,0:0:0:0:
264,260,259096,1,0,0:0:0:0:
400,160,259239,1,0,0:0:0:0:
132,236,259382,1,0,0:0:0:0:
336,184,259524,6,0,L|284:88,1,100
436,216,259810,1,0,0:0:0:0:
324,352,259953,1,0,0:0:0:0:
200,252,260096,1,0,0:0:0:0:
88,332,260239,1,0,0:0:0:0:
60,120,260382,1,0,0:0:0:0:
256,296,260524,1,0,0:0:0:0:
392,68,260667,1,0,0:0:0:0:
392,68,260953,5,0,0:0:0:0:
392,68,261239,5,0,0:0:0:0:
392,68,261524,5,0,0:0:0:0:
420,176,261810,5,0,0:0:0:0:
400,216,261882,1,0,0:0:0:0:
368,248,261953,1,0,0:0:0:0:
336,276,262024,1,0,0:0:0:0:
300,304,262096,1,0,0:0:0:0:
256,320,262167,1,0,0:0:0:0:
212,328,262239,1,0,0:0:0:0:
168,328,262310,1,0,0:0:0:0:
128,312,262382,5,0,0:0:0:0:
96,280,262453,1,0,0:0:0:0:
72,244,262524,1,0,0:0:0:0:
52,204,262596,1,0,0:0:0:0:
44,160,262667,1,0,0:0:0:0:
80,132,262739,5,0,0:0:0:0:
140,100,262810,5,0,0:0:0:0:
204,68,262882,5,0,0:0:0:0:
268,44,262953,5,0,0:0:0:0:
372,80,263096,6,0,B|344:160|344:160|388:168|388:168,1,100
360,336,263382,2,0,B|312:312|312:312|256:332|256:332,1,100
200,252,263667,6,0,B|132:204|132:204|160:184|160:184,1,100
164,164,263882,1,0,0:0:0:0:
184,136,263953,1,0,0:0:0:0:
204,108,264024,1,0,0:0:0:0:
228,84,264096,1,0,0:0:0:0:
400,140,264239,1,0,0:0:0:0:
356,320,264382,1,0,0:0:0:0:
300,128,264524,1,0,0:0:0:0:
184,328,264667,2,0,B|112:304|112:304|172:256|160:264,1,100
124,160,264953,1,0,0:0:0:0:
464,64,265096,1,0,0:0:0:0:
296,300,265239,6,0,B|364:268|364:268|344:224|344:224,1,100
372,128,265524,1,0,0:0:0:0:
348,100,265596,1,0,0:0:0:0:
324,76,265667,1,0,0:0:0:0:
176,24,265810,1,0,0:0:0:0:
148,148,265952,1,0,0:0:0:0:
128,176,266024,1,0,0:0:0:0:
112,208,266095,1,0,0:0:0:0:
208,332,266239,1,0,0:0:0:0:
400,320,266382,6,0,B|344:272|344:272|388:220|388:220,1,100
376,220,266596,1,0,0:0:0:0:
376,184,266667,1,0,0:0:0:0:
372,148,266739,1,0,0:0:0:0:
360,116,266810,1,0,0:0:0:0:
340,84,266882,1,0,0:0:0:0:
316,56,266953,1,0,0:0:0:0:
284,48,267024,1,0,0:0:0:0:
248,40,267096,1,0,0:0:0:0:
212,40,267167,1,0,0:0:0:0:
180,52,267239,1,0,0:0:0:0:
152,72,267310,1,0,0:0:0:0:
124,92,267382,5,0,0:0:0:0:
96,124,267453,1,0,0:0:0:0:
80,148,267524,2,0,B|52:216|52:216|104:216|104:216,1,100
188,356,267810,1,0,0:0:0:0:
276,124,267953,1,0,0:0:0:0:
420,320,268096,1,0,0:0:0:0:
432,76,268239,1,0,0:0:0:0:
236,56,268382,1,0,0:0:0:0:
208,76,268453,1,0,0:0:0:0:
180,96,268524,1,0,0:0:0:0:
156,120,268596,1,0,0:0:0:0:
132,144,268667,6,0,B|104:208|104:208|140:240|140:240,1,100
360,84,268953,1,0,0:0:0:0:
200,288,269096,1,0,0:0:0:0:
52,80,269239,1,0,0:0:0:0:
468,228,269382,1,0,0:0:0:0:
328,308,269524,2,0,B|296:228|296:228|340:200|340:200,1,100
288,60,269810,6,0,B|200:104|200:104|156:76|156:76|124:128|124:128,1,200
60,260,270239,1,0,0:0:0:0:
344,320,270382,1,0,0:0:0:0:
216,100,270524,1,0,0:0:0:0:
168,352,270667,1,0,0:0:0:0:
424,144,270810,1,0,0:0:0:0:
24,56,270953,5,0,0:0:0:0:
60,52,271024,1,0,0:0:0:0:
96,48,271096,1,0,0:0:0:0:
128,56,271167,1,0,0:0:0:0:
160,72,271239,1,0,0:0:0:0:
192,88,271310,1,0,0:0:0:0:
220,108,271382,1,0,0:0:0:0:
244,132,271453,1,0,0:0:0:0:
264,160,271524,1,0,0:0:0:0:
444,312,271667,6,0,B|396:256|396:256|432:224|432:224,1,100
88,320,271953,1,0,0:0:0:0:
80,152,272096,1,0,0:0:0:0:
264,332,272239,1,0,0:0:0:0:
376,116,272382,1,0,0:0:0:0:
388,308,272524,1,0,0:0:0:0:
264,132,272667,1,0,0:0:0:0:
156,296,272810,1,0,0:0:0:0:
116,104,272953,1,0,0:0:0:0:
8,276,273096,1,0,0:0:0:0:
212,80,273239,5,0,0:0:0:0:
472,220,273382,1,0,0:0:0:0:
248,344,273524,1,0,0:0:0:0:
424,144,273667,1,0,0:0:0:0:
428,320,273810,1,0,0:0:0:0:
224,176,273953,1,0,0:0:0:0:
492,224,274096,1,0,0:0:0:0:
240,348,274239,1,0,0:0:0:0:
456,60,274382,6,0,B|404:96|404:96|440:136|440:136,1,100
192,32,274667,1,0,0:0:0:0:
88,228,274810,1,0,0:0:0:0:
200,56,274953,1,0,0:0:0:0:
100,240,275096,1,0,0:0:0:0:
112,64,275239,1,0,0:0:0:0:
224,252,275382,1,0,0:0:0:0:
488,60,275524,6,0,B|428:48|428:48|428:8|428:8,1,100
440,272,275810,1,0,0:0:0:0:
356,64,275953,1,0,0:0:0:0:
320,256,276096,1,0,0:0:0:0:
464,104,276239,1,0,0:0:0:0:
256,176,276382,1,0,0:0:0:0:
412,224,276524,1,0,0:0:0:0:
368,116,276667,6,0,B|320:68|320:68|288:92|288:92,1,100
48,340,276953,1,0,0:0:0:0:
152,84,277096,1,0,0:0:0:0:
224,320,277239,1,0,0:0:0:0:
40,164,277382,1,0,0:0:0:0:
296,196,277524,1,0,0:0:0:0:
40,296,277667,1,0,0:0:0:0:
416,84,277810,5,0,0:0:0:0:
420,120,277882,1,0,0:0:0:0:
412,156,277953,1,0,0:0:0:0:
396,188,278024,1,0,0:0:0:0:
364,208,278096,1,0,0:0:0:0:
340,236,278167,1,0,0:0:0:0:
312,256,278239,1,0,0:0:0:0:
280,272,278310,1,0,0:0:0:0:
248,288,278382,6,0,L|224:300,12,25
256,192,278953,12,0,279953,0:0:0:0:
68,76,280096,5,0,0:0:0:0:
88,128,280167,1,0,0:0:0:0:
108,180,280239,1,0,0:0:0:0:
124,232,280310,1,0,0:0:0:0:
164,272,280382,1,0,0:0:0:0:
216,288,280453,1,0,0:0:0:0:
272,288,280524,1,0,0:0:0:0:
320,264,280596,1,0,0:0:0:0:
360,228,280667,5,0,0:0:0:0:
396,184,280739,1,0,0:0:0:0:
420,136,280810,1,0,0:0:0:0:
436,84,280882,1,0,0:0:0:0:
444,44,280953,2,0,B|364:24|364:24|340:24|340:24|340:128|340:128,1,200
56,320,281382,5,0,0:0:0:0:
152,152,281524,1,0,0:0:0:0:
168,328,281667,1,0,0:0:0:0:
72,192,281810,1,0,0:0:0:0:
192,208,281953,1,0,0:0:0:0:
88,324,282096,1,0,0:0:0:0:
152,152,282239,1,0,0:0:0:0:
432,328,282382,6,0,B|376:268|376:268|416:224|416:224,1,100
464,56,282667,1,0,0:0:0:0:
352,200,282810,1,0,0:0:0:0:
464,56,282953,1,0,0:0:0:0:
352,200,283096,1,0,0:0:0:0:
72,96,283239,1,0,0:0:0:0:
88,268,283382,1,0,0:0:0:0:
352,332,283524,6,0,B|288:296|288:296|308:252|308:252,1,100
388,44,283810,1,0,0:0:0:0:
212,184,283953,1,0,0:0:0:0:
248,44,284096,1,0,0:0:0:0:
400,204,284239,1,0,0:0:0:0:
208,284,284382,1,0,0:0:0:0:
380,112,284524,1,0,0:0:0:0:
76,196,284667,6,0,B|40:132|40:132|84:104|84:104,1,100
332,312,284953,1,0,0:0:0:0:
200,152,285096,1,0,0:0:0:0:
372,192,285239,1,0,0:0:0:0:
188,288,285382,1,0,0:0:0:0:
344,108,285524,1,0,0:0:0:0:
328,320,285667,1,0,0:0:0:0:
448,36,285810,6,0,B|364:68|364:68|408:84|408:84,1,100
32,304,286096,1,0,0:0:0:0:
104,128,286239,1,0,0:0:0:0:
112,300,286382,1,0,0:0:0:0:
56,144,286524,1,0,0:0:0:0:
176,276,286667,1,0,0:0:0:0:
156,116,286810,1,0,0:0:0:0:
312,128,286953,6,0,B|264:56|264:56|248:88|248:88,1,100
352,332,287239,1,0,0:0:0:0:
448,196,287382,1,0,0:0:0:0:
348,312,287524,1,0,0:0:0:0:
400,144,287667,1,0,0:0:0:0:
288,312,287810,1,0,0:0:0:0:
348,88,287953,1,0,0:0:0:0:
80,208,288096,6,0,B|120:136|120:136|152:172|152:172,1,100
228,56,288382,1,0,0:0:0:0:
104,324,288524,1,0,0:0:0:0:
244,288,288667,6,0,B|284:216|284:216|316:252|316:252,1,100
472,340,288953,1,0,0:0:0:0:
128,144,289096,1,0,0:0:0:0:
368,128,289239,6,0,B|408:56|408:56|440:92|440:92,1,100
236,368,289524,5,0,0:0:0:0:
472,272,289667,1,0,0:0:0:0:
148,144,289810,6,0,B|108:72|108:72|76:108|76:108,1,100
276,192,290096,1,0,0:0:0:0:
284,304,290239,1,0,0:0:0:0:
308,80,290382,1,0,0:0:0:0:
448,256,290524,1,0,0:0:0:0:
56,248,290667,1,0,0:0:0:0:
112,96,290810,1,0,0:0:0:0:
152,224,290953,1,0,0:0:0:0:
64,128,291096,1,0,0:0:0:0:
216,136,291239,1,0,0:0:0:0:
64,212,291382,1,0,0:0:0:0:
232,32,291524,6,0,B|228:88|228:88|272:96|272:96,1,100
420,344,291810,1,0,0:0:0:0:
376,156,291953,1,0,0:0:0:0:
336,340,292096,1,0,0:0:0:0:
444,228,292239,1,0,0:0:0:0:
292,260,292382,1,0,0:0:0:0:
448,276,292524,1,0,0:0:0:0:
312,44,292667,6,0,B|256:64|256:64|280:96|280:96,1,100
72,272,292953,1,0,0:0:0:0:
80,128,293096,1,0,0:0:0:0:
172,264,293239,1,0,0:0:0:0:
32,184,293382,1,0,0:0:0:0:
180,156,293524,1,0,0:0:0:0:
56,272,293667,1,0,0:0:0:0:
416,332,293810,5,0,0:0:0:0:
132,96,293953,1,0,0:0:0:0:
416,56,294096,1,0,0:0:0:0:
336,200,294239,1,0,0:0:0:0:
308,68,294382,1,0,0:0:0:0:
408,176,294524,5,0,0:0:0:0:
408,196,294596,1,0,0:0:0:0:
404,216,294667,1,0,0:0:0:0:
396,236,294739,1,0,0:0:0:0:
388,252,294810,1,0,0:0:0:0:
376,268,294882,1,0,0:0:0:0:
364,284,294953,5,0,0:0:0:0:
480,232,295096,1,0,0:0:0:0:
224,52,295239,1,0,0:0:0:0:
108,216,295382,1,0,0:0:0:0:
224,52,295524,1,0,0:0:0:0:
108,216,295667,1,0,0:0:0:0:
224,52,295810,1,0,0:0:0:0:
108,216,295953,1,0,0:0:0:0:
448,108,296096,6,0,B|384:76|384:76|388:136|388:136,1,100
392,320,296382,1,0,0:0:0:0:
248,112,296524,1,0,0:0:0:0:
204,304,296667,1,0,0:0:0:0:
356,200,296810,1,0,0:0:0:0:
100,132,296953,1,0,0:0:0:0:
164,320,297096,1,0,0:0:0:0:
136,52,297239,6,0,B|184:112|184:112|220:80|220:80,1,100
412,324,297524,1,0,0:0:0:0:
404,136,297667,1,0,0:0:0:0:
272,324,297810,1,0,0:0:0:0:
176,96,297953,1,0,0:0:0:0:
148,320,298096,1,0,0:0:0:0:
320,116,298239,1,0,0:0:0:0:
64,224,298382,6,0,B|80:176|80:176|148:196|148:196|144:196,1,100
380,328,298667,1,0,0:0:0:0:
168,120,298810,1,0,0:0:0:0:
188,344,298953,1,0,0:0:0:0:
328,120,299096,1,0,0:0:0:0:
136,296,299239,1,0,0:0:0:0:
336,304,299382,1,0,0:0:0:0:
72,224,299524,5,0,0:0:0:0:
409,323,299667,1,0,0:0:0:0:
413,77,299810,1,0,0:0:0:0:
157,123,299953,1,0,0:0:0:0:
424,216,300096,1,0,0:0:0:0:
160,268,300239,1,0,0:0:0:0:
396,336,300382,1,0,0:0:0:0:
184,336,300524,1,0,0:0:0:0:
412,136,300667,6,0,B|348:88|348:88|324:140|324:140,1,100
80,52,300953,1,0,0:0:0:0:
60,276,301096,1,0,0:0:0:0:
176,112,301239,1,0,0:0:0:0:
168,288,301382,1,0,0:0:0:0:
300,116,301524,1,0,0:0:0:0:
296,296,301667,1,0,0:0:0:0:
68,168,301810,6,0,B|80:120|80:120|136:156|136:156,1,100
436,60,302096,1,0,0:0:0:0:
248,48,302239,1,0,0:0:0:0:
420,180,302382,1,0,0:0:0:0:
224,164,302524,1,0,0:0:0:0:
408,244,302667,1,0,0:0:0:0:
248,264,302810,1,0,0:0:0:0:
396,56,302953,6,0,B|332:40|332:40|348:104|348:104,1,100
72,72,303239,1,0,0:0:0:0:
44,244,303382,1,0,0:0:0:0:
152,104,303524,1,0,0:0:0:0:
124,280,303667,1,0,0:0:0:0:
268,124,303810,1,0,0:0:0:0:
248,296,303953,1,0,0:0:0:0:
60,108,304096,5,0,0:0:0:0:
104,340,304239,1,0,0:0:0:0:
428,180,304382,1,0,0:0:0:0:
280,56,304524,1,0,0:0:0:0:
264,292,304667,1,0,0:0:0:0:
416,84,304810,1,0,0:0:0:0:
212,228,304953,1,0,0:0:0:0:
388,252,305096,1,0,0:0:0:0:
252,128,305239,5,0,0:0:0:0:
276,372,305382,1,0,0:0:0:0:
444,160,305524,1,0,0:0:0:0:
144,68,305667,1,0,0:0:0:0:
84,256,305810,1,0,0:0:0:0:
112,268,305882,1,0,0:0:0:0:
136,288,305953,1,0,0:0:0:0:
152,312,306024,1,0,0:0:0:0:
168,336,306096,1,0,0:0:0:0:
200,300,306167,1,0,0:0:0:0:
244,276,306239,1,0,0:0:0:0:
440,236,306382,6,0,B|376:128|376:128|340:208|340:208,1,200
448,356,306810,1,0,0:0:0:0:
184,236,306953,2,0,B|120:128|120:128|84:208|84:208,1,200
464,344,307382,1,0,0:0:0:0:
216,144,307524,6,0,B|280:36|280:36|316:116|316:116,1,200
36,248,307953,1,0,0:0:0:0:
212,352,308096,2,0,B|276:244|276:244|312:324|312:324,1,200
100,160,308524,1,0,0:0:0:0:
452,48,308667,5,0,0:0:0:0:
372,344,308810,1,0,0:0:0:0:
64,36,308953,1,0,0:0:0:0:
124,344,309096,1,0,0:0:0:0:
348,64,309239,1,0,0:0:0:0:
20,192,309382,1,0,0:0:0:0:
388,336,309524,1,0,0:0:0:0:
208,32,309667,1,0,0:0:0:0:
112,344,309810,5,0,0:0:0:0:
24,36,309953,1,0,0:0:0:0:
468,52,310096,1,0,0:0:0:0:
368,328,310239,1,0,0:0:0:0:
236,56,310382,1,0,0:0:0:0:
488,260,310524,1,0,0:0:0:0:
256,248,310667,1,0,0:0:0:0:
472,72,310810,1,0,0:0:0:0:
360,352,310953,6,0,B|304:296|304:296|316:272|316:272,1,100
64,44,311239,1,0,0:0:0:0:
140,344,311382,1,0,0:0:0:0:
240,76,311524,1,0,0:0:0:0:
24,232,311667,1,0,0:0:0:0:
144,44,311810,1,0,0:0:0:0:
168,292,311953,1,0,0:0:0:0:
280,28,312096,6,0,B|240:68|240:68|260:116|260:116,1,100
400,344,312382,1,0,0:0:0:0:
420,92,312524,1,0,0:0:0:0:
264,252,312667,1,0,0:0:0:0:
488,264,312810,1,0,0:0:0:0:
280,96,312953,1,0,0:0:0:0:
484,352,313096,1,0,0:0:0:0:
436,76,313239,5,0,0:0:0:0:
240,336,313382,1,0,0:0:0:0:
100,64,313524,1,0,0:0:0:0:
64,272,313667,1,0,0:0:0:0:
280,156,313810,1,0,0:0:0:0:
36,124,313953,1,0,0:0:0:0:
200,280,314096,1,0,0:0:0:0:
192,48,314239,1,0,0:0:0:0:
452,312,314382,6,0,B|408:252|408:252|432:224|432:224,1,100
440,56,314667,1,0,0:0:0:0:
248,336,314810,1,0,0:0:0:0:
80,268,314953,5,0,0:0:0:0:
92,252,315024,1,0,0:0:0:0:
108,236,315096,1,0,0:0:0:0:
124,244,315167,1,0,0:0:0:0:
144,248,315239,6,0,L|168:260,4,25
144,116,315524,5,0,0:0:0:0:
192,108,315596,1,0,0:0:0:0:
240,96,315667,1,0,0:0:0:0:
292,100,315739,1,0,0:0:0:0:
336,124,315810,1,0,0:0:0:0:
356,324,315953,5,0,0:0:0:0:
168,320,316096,1,0,0:0:0:0:
144,276,316167,1,0,0:0:0:0:
120,232,316239,1,0,0:0:0:0:
100,188,316310,1,0,0:0:0:0:
88,140,316382,1,0,0:0:0:0:
244,60,316524,5,0,0:0:0:0:
428,188,316667,5,0,0:0:0:0:
400,232,316739,1,0,0:0:0:0:
364,268,316810,1,0,0:0:0:0:
320,272,316882,1,0,0:0:0:0:
276,276,316953,1,0,0:0:0:0:
232,280,317024,1,0,0:0:0:0:
192,280,317096,1,0,0:0:0:0:
152,272,317167,1,0,0:0:0:0:
120,248,317239,5,0,0:0:0:0:
92,220,317310,1,0,0:0:0:0:
72,184,317382,1,0,0:0:0:0:
60,148,317453,1,0,0:0:0:0:
68,96,317524,6,0,L|148:76,1,75
172,76,317810,5,0,0:0:0:0:
212,72,317882,1,0,0:0:0:0:
248,60,317953,1,0,0:0:0:0:
288,52,318024,1,0,0:0:0:0:
320,64,318096,1,0,0:0:0:0:
348,84,318167,1,0,0:0:0:0:
372,108,318239,1,0,0:0:0:0:
388,136,318310,1,0,0:0:0:0:
396,172,318382,1,0,0:0:0:0:
396,208,318453,1,0,0:0:0:0:
384,240,318524,1,0,0:0:0:0:
360,268,318596,1,0,0:0:0:0:
328,284,318667,1,0,0:0:0:0:
296,296,318739,1,0,0:0:0:0:
260,296,318810,1,0,0:0:0:0:
228,304,318882,1,0,0:0:0:0:
196,316,318953,5,0,0:0:0:0:
160,320,319024,1,0,0:0:0:0:
136,304,319096,1,0,0:0:0:0:
124,272,319167,1,0,0:0:0:0:
112,240,319239,1,0,0:0:0:0:
100,208,319310,1,0,0:0:0:0:
92,176,319382,1,0,0:0:0:0:
84,144,319453,1,0,0:0:0:0:
88,112,319524,1,0,0:0:0:0:
108,96,319596,1,0,0:0:0:0:
140,80,319667,1,0,0:0:0:0:
172,64,319739,1,0,0:0:0:0:
204,52,319810,1,0,0:0:0:0:
240,60,319882,1,0,0:0:0:0:
272,68,319953,1,0,0:0:0:0:
304,80,320024,1,0,0:0:0:0:
336,96,320096,5,0,0:0:0:0:
364,116,320167,1,0,0:0:0:0:
388,140,320239,1,0,0:0:0:0:
396,172,320310,1,0,0:0:0:0:
404,208,320382,1,0,0:0:0:0:
408,244,320453,1,0,0:0:0:0:
400,276,320524,1,0,0:0:0:0:
372,300,320596,1,0,0:0:0:0:
340,316,320667,1,0,0:0:0:0:
308,328,320739,1,0,0:0:0:0:
272,328,320810,1,0,0:0:0:0:
236,332,320882,1,0,0:0:0:0:
200,332,320953,1,0,0:0:0:0:
168,320,321024,1,0,0:0:0:0:
140,300,321096,1,0,0:0:0:0:
116,272,321167,1,0,0:0:0:0:
96,244,321239,5,0,0:0:0:0:
88,216,321310,1,0,0:0:0:0:
80,188,321382,1,0,0:0:0:0:
76,160,321453,1,0,0:0:0:0:
84,132,321524,1,0,0:0:0:0:
104,112,321596,1,0,0:0:0:0:
128,96,321667,1,0,0:0:0:0:
160,96,321739,1,0,0:0:0:0:
184,116,321810,1,0,0:0:0:0:
200,140,321882,1,0,0:0:0:0:
216,168,321953,1,0,0:0:0:0:
228,196,322024,1,0,0:0:0:0:
244,220,322096,1,0,0:0:0:0:
264,244,322167,1,0,0:0:0:0:
288,264,322239,1,0,0:0:0:0:
316,276,322310,1,0,0:0:0:0:
344,280,322382,5,0,0:0:0:0:
372,268,322453,1,0,0:0:0:0:
392,248,322524,1,0,0:0:0:0:
404,220,322596,1,0,0:0:0:0:
412,192,322667,1,0,0:0:0:0:
412,160,322739,1,0,0:0:0:0:
408,132,322810,1,0,0:0:0:0:
396,104,322882,1,0,0:0:0:0:
372,84,322953,1,0,0:0:0:0:
344,72,323024,1,0,0:0:0:0:
316,64,323096,1,0,0:0:0:0:
288,60,323167,1,0,0:0:0:0:
256,56,323239,1,0,0:0:0:0:
228,60,323310,1,0,0:0:0:0:
200,68,323382,1,0,0:0:0:0:
172,80,323453,1,0,0:0:0:0:
148,100,323524,5,0,0:0:0:0:
128,124,323596,1,0,0:0:0:0:
108,148,323667,1,0,0:0:0:0:
96,176,323739,1,0,0:0:0:0:
92,200,323810,1,0,0:0:0:0:
112,220,323882,1,0,0:0:0:0:
140,228,323953,1,0,0:0:0:0:
168,216,324024,1,0,0:0:0:0:
192,196,324096,1,0,0:0:0:0:
212,172,324167,1,0,0:0:0:0:
232,148,324239,1,0,0:0:0:0:
252,124,324310,1,0,0:0:0:0:
272,100,324382,1,0,0:0:0:0:
296,84,324453,1,0,0:0:0:0:
324,88,324524,1,0,0:0:0:0:
352,100,324596,1,0,0:0:0:0:
376,120,324667,5,0,0:0:0:0:
396,144,324739,1,0,0:0:0:0:
408,172,324810,1,0,0:0:0:0:
408,204,324882,1,0,0:0:0:0:
400,228,324953,1,0,0:0:0:0:
392,252,325024,1,0,0:0:0:0:
376,272,325096,1,0,0:0:0:0:
356,288,325167,1,0,0:0:0:0:
332,292,325239,1,0,0:0:0:0:
308,292,325310,1,0,0:0:0:0:
284,292,325382,1,0,0:0:0:0:
260,288,325453,1,0,0:0:0:0:
244,280,325524,1,0,0:0:0:0:
228,272,325596,1,0,0:0:0:0:
212,260,325667,1,0,0:0:0:0:
200,244,325739,1,0,0:0:0:0:
192,228,325810,5,0,0:0:0:0:
184,208,325882,1,0,0:0:0:0:
176,188,325953,1,0,0:0:0:0:
164,172,326024,1,0,0:0:0:0:
172,152,326096,1,0,0:0:0:0:
180,132,326167,1,0,0:0:0:0:
188,116,326239,1,0,0:0:0:0:
200,100,326310,1,0,0:0:0:0:
220,92,326382,1,0,0:0:0:0:
240,84,326453,1,0,0:0:0:0:
260,76,326524,1,0,0:0:0:0:
280,72,326596,1,0,0:0:0:0:
300,72,326667,1,0,0:0:0:0:
320,76,326739,1,0,0:0:0:0:
340,84,326810,1,0,0:0:0:0:
360,92,326882,1,0,0:0:0:0:
256,192,326953,12,0,330953,0:0:0:0:
